osu file format v14

[General]
AudioFilename: BLUE DRAGON.mp3
AudioLeadIn: 0
PreviewTime: 32218
Countdown: 0
SampleSet: Soft
StackLeniency: 0.7
Mode: 0
LetterboxInBreaks: 0
WidescreenStoryboard: 0

[Editor]
DistanceSpacing: 1.1
BeatDivisor: 8
GridSize: 4
TimelineZoom: 1.5

[Metadata]
Title:BLUE DRAGON
TitleUnicode:BLUE DRAGON
Artist:Seiryu
ArtistUnicode:青龍
Creator:Blue Dragon
Version:Doyak's Normal
Source:
Tags:ryu jubeat plus android reflec beat ポップンリズミン grumd kyshiro doyak tarrasky mkguh leader fieryrage snownino_ silverboxer
BeatmapID:980812
BeatmapSetID:326920

[Difficulty]
HPDrainRate:4
CircleSize:3
OverallDifficulty:4
ApproachRate:5
SliderMultiplier:1.1
SliderTickRate:1

[Events]
//Background and Video events
0,0,"wallpaper-1881159.jpg",0,0
//Break Periods
2,83623,103898
//Storyboard Layer 0 (Background)
//Storyboard Layer 1 (Fail)
//Storyboard Layer 2 (Pass)
//Storyboard Layer 3 (Foreground)
//Storyboard Sound Samples

[TimingPoints]
23109,314.13612565445,4,2,0,60,1,0
28763,-100,4,2,0,65,0,0
29391,-100,4,2,0,70,0,0
30648,-100,4,2,0,75,0,0
32218,-100,4,2,0,80,0,0
33161,-100,4,2,0,90,0,0
41957,-100,4,2,0,70,0,0
53266,-100,4,2,0,90,0,0
62061,-100,4,2,0,70,0,0
63318,-100,4,2,0,80,0,0
73370,-100,4,2,0,60,0,0
105098,-111.111111111111,4,2,0,60,0,0
121747,-111.111111111111,4,2,0,65,0,0
122376,-111.111111111111,4,2,0,70,0,0
126145,-100,4,2,0,30,0,0
126773,-100,4,2,0,38,0,0
127402,-100,4,2,0,46,0,0
128030,-100,4,2,0,54,0,0
128658,-100,4,2,0,62,0,0
129287,-100,4,2,0,70,0,0
129876,-100,4,2,0,10,0,0
131485,-100,4,2,0,80,0,0
132428,-100,4,2,0,90,0,1
141224,-100,4,2,0,70,0,1
142480,-100,4,2,0,70,0,0
152533,-100,4,2,0,90,0,0
160072,-100,4,2,0,70,0,0
162585,-100,4,2,0,80,0,0
170124,-100,4,2,0,70,0,0
170752,-100,4,2,0,77,0,0
171381,-100,4,2,0,84,0,0
172009,-100,4,2,0,91,0,0
172637,-100,4,2,0,40,0,0

[Colours]
Combo1 : 47,173,249
Combo2 : 128,255,255
Combo3 : 1,96,254
Combo4 : 104,72,253

[HitObjects]
259,172,22166,6,0,L|234:289,2,110,2|2|2,0:0|0:0|0:0,0:0:0:0:
366,116,23108,6,0,L|361:55,2,55,2|0|0,0:0|0:0|0:0,0:0:0:0:
361,237,23737,2,0,L|416:263,2,55,2|0|0,0:0|0:0|0:0,0:0:0:0:
259,172,24365,2,0,P|206:156|153:165,1,110,2|0,0:0|0:0,0:0:0:0:
147,286,24993,2,0,P|199:301|252:292,1,110,2|0,0:0|0:0,0:0:0:0:
361,237,25622,6,0,L|374:297,2,55,2|0|0,0:0|0:0|0:0,0:0:0:0:
366,116,26250,2,0,L|379:56,2,55,2|0|0,0:0|0:0|0:0,0:0:0:0:
259,172,26878,2,0,P|205:181|153:165,1,110,2|0,0:0|0:0,0:0:0:0:
103,131,27349,1,0,0:0:0:0:
56,92,27506,2,0,L|28:214,1,110,2|0,0:0|0:0,0:0:0:0:
82,309,28135,6,0,L|94:366,2,55,2|0|0,0:0|0:0|0:0,0:0:0:0:
151,210,28763,2,0,L|163:153,2,55,2|0|0,0:0|0:0|0:0,0:0:0:0:
244,286,29391,2,0,P|296:301|349:292,1,110,2|0,0:0|0:0,0:0:0:0:
398,256,29862,1,0,0:0:0:0:
449,223,30019,2,0,L|508:229,2,55,2|0|0,0:0|0:0|0:0,0:0:0:0:
406,109,30648,6,0,L|412:50,2,55,2|0|0,0:0|0:0|0:0,0:0:0:0:
292,152,31276,2,0,L|233:146,1,55,2|0,0:0|0:0,0:0:0:0:
190,185,31590,2,0,L|184:244,1,55
350,311,32218,5,2,0:0:0:0:
363,190,32533,1,2,0:0:0:0:
376,69,32847,1,2,0:0:0:0:
267,15,33161,6,0,L|205:15,2,55,6|0|8,0:0|0:0|0:0,0:0:0:0:
221,126,33789,2,0,L|159:126,2,55,2|0|8,0:0|0:0|0:0,0:0:0:0:
303,215,34417,2,0,L|303:345,1,110,2|8,0:0|0:0,0:0:0:0:
256,363,34889,1,0,0:0:0:0:
209,325,35046,2,0,L|209:215,1,110,2|8,0:0|0:0,0:0:0:0:
134,119,35674,6,0,L|66:126,2,55,2|0|8,0:0|0:0|0:0,0:0:0:0:
253,102,36302,2,0,L|280:39,2,55,2|0|8,0:0|0:0|0:0,0:0:0:0:
209,215,36930,2,0,P|262:222|313:206,1,110,2|8,0:0|0:0,0:0:0:0:
364,170,37402,2,0,L|387:292,1,110,2|2,0:0|0:0,0:0:0:0:
398,336,37873,1,8,0:0:0:0:
283,374,38187,6,0,L|218:374,2,55,6|0|8,0:0|0:0|0:0,0:0:0:0:
255,257,38815,2,0,L|190:257,2,55,2|0|8,0:0|0:0|0:0,0:0:0:0:
327,160,39444,2,0,P|329:106|308:57,1,110,2|8,0:0|0:0,0:0:0:0:
256,23,39915,1,0,0:0:0:0:
204,55,40072,2,0,P|182:105|184:159,1,110,2|8,0:0|0:0,0:0:0:0:
255,257,40700,6,0,L|316:265,2,55,2|0|8,0:0|0:0|0:0,0:0:0:0:
138,290,41328,2,0,L|130:229,2,55,2|0|8,0:0|0:0|0:0,0:0:0:0:
242,351,41957,2,0,L|362:363,1,110,2|0,0:0|0:0,0:0:0:0:
405,335,42428,2,0,P|425:285|423:232,1,110,2|2,0:0|0:0,0:0:0:0:
390,113,43056,1,2,0:0:0:0:
342,150,43213,6,0,L|210:154,1,110,6|0,0:0|0:0,0:0:0:0:
128,215,43841,2,0,P|126:252|147:308,2,82.5,2|0|0,0:0|0:0|0:0,0:0:0:0:
144,155,44470,2,0,P|112:134|53:124,2,82.5,2|0|0,0:0|0:0|0:0,0:0:0:0:
187,198,45098,2,0,P|220:180|258:134,2,82.5,2|0|0,0:0|0:0|0:0,0:0:0:0:
172,256,45726,6,0,P|212:293|263:310,1,110,2|0,0:0|0:0,0:0:0:0:
384,295,46355,2,0,L|368:384,2,82.5,2|0|0,0:0|0:0|0:0,0:0:0:0:
432,259,46983,2,0,L|485:195,2,82.5,2|0|0,0:0|0:0|0:0,0:0:0:0:
376,235,47611,2,0,P|322:222|270:233,1,110,2|0,0:0|0:0,0:0:0:0:
217,265,48082,1,0,0:0:0:0:
180,313,48239,6,0,L|161:201,1,110,6|0,0:0|0:0,0:0:0:0:
184,85,48868,2,0,P|147:83|91:104,2,82.5,2|0|0,0:0|0:0|0:0,0:0:0:0:
244,101,49497,2,0,P|265:68|275:9,2,82.5,2|0|0,0:0|0:0|0:0,0:0:0:0:
201,144,50125,2,0,P|219:177|264:215,2,82.5,2|0|0,0:0|0:0|0:0,0:0:0:0:
184,85,50752,6,0,L|68:97,1,110,2|0,0:0|0:0,0:0:0:0:
100,214,51381,2,0,L|15:205,2,82.5,2|0|0,0:0|0:0|0:0,0:0:0:0:
158,197,52009,2,0,L|208:127,2,82.5,2|0|0,0:0|0:0|0:0,0:0:0:0:
144,255,52637,2,0,B|168:307|168:307|293:307,1,165,2|2,0:0|0:0,0:0:0:0:
336,307,53266,6,0,L|336:370,2,55,6|0|8,0:0|0:0|0:0,0:0:0:0:
308,189,53894,2,0,L|308:85,2,82.5,2|2|2,0:0|0:0|0:0,0:0:0:0:
255,218,54522,2,0,L|192:218,2,55,2|0|8,0:0|0:0|0:0,0:0:0:0:
237,337,55150,2,0,L|154:337,2,82.5,2|2|2,0:0|0:0|0:0,0:0:0:0:
284,298,55779,6,0,P|337:286|390:299,1,110,2|8,0:0|0:0,0:0:0:0:
446,276,56250,1,0,0:0:0:0:
476,223,56407,2,0,L|481:104,1,110,2|8,0:0|0:0,0:0:0:0:
362,87,57035,2,0,L|390:27,2,55,2|0|8,0:0|0:0|0:0,0:0:0:0:
283,179,57663,2,0,L|320:233,2,55,2|0|8,0:0|0:0|0:0,0:0:0:0:
242,64,58292,6,0,L|176:69,2,55,6|0|8,0:0|0:0|0:0,0:0:0:0:
362,87,58920,2,0,L|456:95,2,82.5,2|2|2,0:0|0:0|0:0,0:0:0:0:
332,139,59548,2,0,L|337:204,2,55,2|0|8,0:0|0:0|0:0,0:0:0:0:
214,168,60177,2,0,L|223:267,2,82.5,2|2|2,0:0|0:0|0:0,0:0:0:0:
170,126,60805,6,0,P|115:122|65:143,1,110,2|8,0:0|0:0,0:0:0:0:
29,192,61276,1,0,0:0:0:0:
54,246,61433,2,0,L|54:356,1,110,2|8,0:0|0:0,0:0:0:0:
174,356,62061,2,0,L|240:356,1,55,2|0,0:0|0:0,0:0:0:0:
276,317,62376,2,0,L|342:317,1,55,2|0,0:0|0:0,0:0:0:0:
376,356,62690,1,2,0:0:0:0:
494,144,63318,6,0,P|501:89|483:38,1,110,6|8,0:0|0:0,0:0:0:0:
381,102,63946,2,0,L|320:107,2,55,2|0|8,0:0|0:0|0:0,0:0:0:0:
400,221,64574,2,0,L|405:282,1,55,2|0,0:0|0:0,0:0:0:0:
372,327,64889,2,0,P|320:344|266:337,1,110,8|2,0:0|0:0,0:0:0:0:
217,301,65360,1,0,0:0:0:0:
188,247,65517,2,0,L|128:250,2,55,8|0|2,0:0|0:0|0:0,0:0:0:0:
287,178,66145,5,8,0:0:0:0:
234,69,66459,2,0,L|111:76,1,110,2|8,0:0|0:0,0:0:0:0:
92,126,66930,1,0,0:0:0:0:
61,178,67088,2,0,L|1:181,2,55,2|0|8,0:0|0:0|0:0,0:0:0:0:
174,220,67716,2,0,P|191:272|184:326,1,110,2|8,0:0|0:0,0:0:0:0:
231,362,68187,1,0,0:0:0:0:
291,359,68344,6,0,L|406:352,1,110,6|8,0:0|0:0,0:0:0:0:
473,255,68972,2,0,L|468:188,2,55,2|0|8,0:0|0:0|0:0,0:0:0:0:
352,241,69601,2,0,L|285:246,1,55,2|0,0:0|0:0,0:0:0:0:
242,218,69915,2,0,P|225:166|231:112,1,110,8|2,0:0|0:0,0:0:0:0:
261,59,70386,1,0,0:0:0:0:
311,25,70543,2,0,L|365:20,2,55,8|0|2,0:0|0:0|0:0,0:0:0:0:
191,9,71171,5,8,0:0:0:0:
85,68,71485,2,0,L|76:177,1,110,2|8,0:0|0:0,0:0:0:0:
107,229,71957,1,0,0:0:0:0:
139,281,72114,2,0,L|134:343,2,55,2|0|2,0:0|0:0|0:0,0:0:0:0:
252,240,72742,1,2,0:0:0:0:
321,338,73056,1,2,0:0:0:0:
428,281,73370,6,0,P|445:229|439:175,1,110,6|8,0:0|0:0,0:0:0:0:
413,56,73999,2,0,L|468:58,2,55,2|0|8,0:0|0:0|0:0,0:0:0:0:
307,114,74627,2,0,P|255:131|201:125,1,110,2|8,0:0|0:0,0:0:0:0:
90,76,75255,2,0,L|99:7,2,55,2|0|8,0:0|0:0|0:0,0:0:0:0:
71,195,75883,5,2,0:0:0:0:
109,309,76198,2,0,L|52:316,2,55,8|0|2,0:0|0:0|0:0,0:0:0:0:
220,261,76826,2,0,L|277:268,1,55,8|0,0:0|0:0,0:0:0:0:
320,306,77140,2,0,L|348:184,1,110,2|8,0:0|0:0,0:0:0:0:
358,140,77611,1,0,0:0:0:0:
374,81,77768,2,0,L|432:95,2,55,2|0|8,0:0|0:0|0:0,0:0:0:0:
266,26,78396,6,0,P|211:19|159:36,1,110,6|8,0:0|0:0,0:0:0:0:
63,110,79025,2,0,L|3:121,2,55,2|0|8,0:0|0:0|0:0,0:0:0:0:
174,156,79653,2,0,P|180:210|163:262,1,110,2|8,0:0|0:0,0:0:0:0:
63,330,80281,2,0,L|3:319,2,55,2|0|8,0:0|0:0|0:0,0:0:0:0:
180,361,80910,6,0,L|293:351,1,110,2|2,0:0|0:0,0:0:0:0:
304,292,81381,1,0,0:0:0:0:
315,232,81538,2,0,L|428:242,1,110,2|2,0:0|0:0,0:0:0:0:
256,192,82166,12,4,83423,0:0:0:0:
331,216,105098,6,0,L|317:106,2,98.9999969787599,2|2|2,0:0|0:0|0:0,0:0:0:0:
345,322,106040,6,0,L|398:328,2,49.4999984893799,2|0|0,0:0|0:0|0:0,0:0:0:0:
246,369,106669,2,0,L|192:375,2,49.4999984893799,2|0|0,0:0|0:0|0:0,0:0:0:0:
255,260,107297,2,0,L|148:273,1,98.9999969787599,2|0,0:0|0:0,0:0:0:0:
141,164,107925,2,0,L|238:151,1,98.9999969787599,2|0,0:0|0:0,0:0:0:0:
340,111,108554,6,0,L|348:57,2,49.4999984893799,2|0|0,0:0|0:0|0:0,0:0:0:0:
411,193,109182,2,0,L|418:241,2,49.4999984893799,2|0|0,0:0|0:0|0:0,0:0:0:0:
304,213,109810,2,0,P|255:218|208:203,1,98.9999969787599,2|0,0:0|0:0,0:0:0:0:
131,127,110438,2,0,L|116:234,1,98.9999969787599,2|0,0:0|0:0,0:0:0:0:
103,333,111067,6,0,L|35:323,2,49.4999984893799,2|0|0,0:0|0:0|0:0,0:0:0:0:
203,291,111695,2,0,L|227:353,2,49.4999984893799,2|0|0,0:0|0:0|0:0,0:0:0:0:
118,225,112323,2,0,L|131:127,1,98.9999969787599,2|0,0:0|0:0,0:0:0:0:
236,98,112951,2,0,P|281:115|330:112,1,98.9999969787599,2|0,0:0|0:0,0:0:0:0:
422,171,113580,6,0,L|461:208,2,49.4999984893799,2|0|0,0:0|0:0|0:0,0:0:0:0:
326,221,114208,2,0,L|273:236,2,49.4999984893799,2|0|0,0:0|0:0|0:0,0:0:0:0:
330,112,114836,1,2,0:0:0:0:
226,81,115150,2,0,L|238:27,2,49.4999984893799,0|0|2,0:0|0:0|0:0,0:0:0:0:
198,186,115779,1,0,0:0:0:0:
103,131,116093,6,0,L|47:131,2,49.4999984893799,2|0|0,0:0|0:0|0:0,0:0:0:0:
103,239,116721,2,0,L|47:239,2,49.4999984893799,2|0|0,0:0|0:0|0:0,0:0:0:0:
198,186,117349,2,0,P|211:233|204:282,1,98.9999969787599,2|0,0:0|0:0,0:0:0:0:
303,328,117978,2,0,L|358:328,2,49.4999984893799,2|0|0,0:0|0:0|0:0,0:0:0:0:
303,219,118606,6,0,L|303:163,2,49.4999984893799,2|0|0,0:0|0:0|0:0,0:0:0:0:
411,219,119234,2,0,L|411:163,2,49.4999984893799,2|0|0,0:0|0:0|0:0,0:0:0:0:
358,313,119862,2,0,P|310:326|261:319,1,98.9999969787599,2|0,0:0|0:0,0:0:0:0:
238,271,120334,2,0,P|188:262|99:313,1,148.49999546814,2|2,0:0|0:0,0:0:0:0:
65,204,121119,6,0,L|11:204,2,49.4999984893799,2|0|0,0:0|0:0|0:0,0:0:0:0:
100,101,121747,2,0,L|46:101,2,49.4999984893799,2|0|0,0:0|0:0|0:0,0:0:0:0:
209,101,122376,2,0,L|209:51,2,49.4999984893799,2|0|0,0:0|0:0|0:0,0:0:0:0:
224,153,122847,1,0,0:0:0:0:
244,204,123004,2,0,L|244:253,2,49.4999984893799,2|0|0,0:0|0:0|0:0,0:0:0:0:
317,124,123632,5,2,0:0:0:0:
345,170,123789,2,0,L|345:284,1,98.9999969787599
308,308,124260,1,2,0:0:0:0:
269,346,124417,2,0,L|170:346,1,98.9999969787599
129,308,124889,2,0,P|115:260|122:212,1,98.9999969787599,2|0,0:0|0:0,0:0:0:0:
144,162,125360,1,2,0:0:0:0:
256,192,126145,12,0,129876,0:0:0:0:
317,226,131485,5,2,0:0:0:0:
196,226,131799,1,2,0:0:0:0:
256,122,132114,1,2,0:0:0:0:
145,72,132428,6,0,L|138:8,2,55,6|0|8,0:0|0:0|0:0,0:0:0:0:
119,126,132899,1,0,0:0:0:0:
93,180,133056,2,0,L|86:244,2,55,2|0|8,0:0|0:0|0:0,0:0:0:0:
213,169,133684,2,0,P|264:186|319:180,1,110,2|8,0:0|0:0,0:0:0:0:
372,151,134156,1,0,0:0:0:0:
402,98,134313,2,0,L|395:34,2,55,2|0|8,0:0|0:0|0:0,0:0:0:0:
426,216,134941,6,0,L|490:223,2,55,2|0|8,0:0|0:0|0:0,0:0:0:0:
372,242,135412,1,0,0:0:0:0:
318,268,135569,2,0,L|254:275,2,55,2|0|8,0:0|0:0|0:0,0:0:0:0:
329,147,136198,2,0,L|214:161,1,110,2|8,0:0|0:0,0:0:0:0:
159,168,136669,1,2,0:0:0:0:
61,239,136983,2,0,L|66:293,1,55,2|8,0:0|0:0,0:0:0:0:
186,309,137454,6,0,L|193:373,2,55,6|0|8,0:0|0:0|0:0,0:0:0:0:
212,255,137925,1,0,0:0:0:0:
238,201,138082,2,0,L|245:137,2,55,2|0|8,0:0|0:0|0:0,0:0:0:0:
303,303,138711,2,0,P|356:294|402:264,1,110,2|8,0:0|0:0,0:0:0:0:
434,213,139182,1,0,0:0:0:0:
445,153,139339,2,0,L|506:159,2,55,2|0|8,0:0|0:0|0:0,0:0:0:0:
429,33,139967,6,0,L|483:38,2,55,2|0|8,0:0|0:0|0:0,0:0:0:0:
376,59,140438,1,0,0:0:0:0:
322,85,140595,2,0,L|267:90,2,55,2|0|8,0:0|0:0|0:0,0:0:0:0:
336,205,141224,2,0,L|347:317,1,110,2|0,0:0|0:0,0:0:0:0:
300,353,141695,2,0,P|249:372|194:369,1,110,2|2,0:0|0:0,0:0:0:0:
107,286,142323,1,2,0:0:0:0:
115,226,142480,6,0,L|125:116,1,110,6|0,0:0|0:0,0:0:0:0:
246,111,143108,2,0,P|247:74|227:18,2,82.5,2|0|0,0:0|0:0|0:0,0:0:0:0:
230,171,143737,2,0,P|262:192|321:201,2,82.5,2|0|0,0:0|0:0|0:0,0:0:0:0:
187,128,144365,2,0,P|154:146|115:192,2,82.5,2|0|0,0:0|0:0|0:0,0:0:0:0:
246,111,144993,6,0,L|367:116,1,110,2|0,0:0|0:0,0:0:0:0:
437,205,145622,2,0,L|475:278,2,82.5,2|0|0,0:0|0:0|0:0,0:0:0:0:
451,146,146250,2,0,L|495:75,2,82.5,2|0|0,0:0|0:0|0:0,0:0:0:0:
393,163,146878,2,0,L|283:158,1,110,2|0,0:0|0:0,0:0:0:0:
237,118,147349,1,0,0:0:0:0:
177,128,147506,6,0,P|159:179|166:234,1,110,6|0,0:0|0:0,0:0:0:0:
276,283,148135,2,0,P|278:320|257:375,2,82.5,2|0|0,0:0|0:0|0:0,0:0:0:0:
260,223,148763,2,0,P|294:200|334:191,2,82.5,2|0|0,0:0|0:0|0:0,0:0:0:0:
217,266,149392,2,0,P|181:245|153:215,2,82.5,2|0|0,0:0|0:0|0:0,0:0:0:0:
276,283,150019,6,0,L|402:273,1,110,2|0,0:0|0:0,0:0:0:0:
420,158,150648,2,0,L|505:153,2,82.5,2|0|0,0:0|0:0|0:0,0:0:0:0:
362,137,151276,2,0,L|315:64,2,82.5,2|0|0,0:0|0:0|0:0,0:0:0:0:
373,196,151904,2,0,L|298:343,1,165,2|2,0:0|0:0,0:0:0:0:
237,343,152533,6,0,L|172:343,2,55,6|0|8,0:0|0:0|0:0,0:0:0:0:
237,222,153161,2,0,L|140:222,2,82.5,2|2|2,0:0|0:0|0:0,0:0:0:0:
297,222,153789,2,0,L|297:287,2,55,2|0|8,0:0|0:0|0:0,0:0:0:0:
297,101,154417,2,0,L|394:101,2,82.5,2|2|2,0:0|0:0|0:0,0:0:0:0:
248,64,155046,6,0,P|194:51|141:64,1,110,2|8,0:0|0:0,0:0:0:0:
89,92,155517,1,0,0:0:0:0:
50,138,155674,2,0,L|54:251,1,110,2|8,0:0|0:0,0:0:0:0:
160,307,156302,2,0,L|158:373,2,55,2|0|8,0:0|0:0|0:0,0:0:0:0:
260,239,156930,2,0,L|258:173,2,55,2|0|8,0:0|0:0|0:0,0:0:0:0:
368,293,157559,6,0,L|434:291,2,55,6|0|8,0:0|0:0|0:0,0:0:0:0:
361,172,158187,2,0,L|459:169,2,82.5,2|2|2,0:0|0:0|0:0,0:0:0:0:
307,143,158815,2,0,L|305:77,2,55,2|0|8,0:0|0:0|0:0,0:0:0:0:
239,243,159444,2,0,L|241:325,2,82.5,2|2|2,0:0|0:0|0:0,0:0:0:0:
205,192,160072,6,0,P|151:179|98:192,1,110,2|2,0:0|0:0,0:0:0:0:
49,225,160543,1,0,0:0:0:0:
19,277,160700,2,0,L|9:165,1,110,2|2,0:0|0:0,0:0:0:0:
45,51,161328,1,2,0:0:0:0:
271,137,161957,2,0,L|388:120,1,110,2|2,0:0|0:0,0:0:0:0:
435,145,162428,1,2,0:0:0:0:
467,196,162585,6,0,P|479:250|467:303,1,110,6|8,0:0|0:0,0:0:0:0:
355,346,163213,2,0,L|292:342,2,55,2|0|8,0:0|0:0|0:0,0:0:0:0:
365,225,163841,2,0,L|302:221,1,55,2|0,0:0|0:0,0:0:0:0:
258,254,164156,2,0,P|204:266|151:254,1,110,8|2,0:0|0:0,0:0:0:0:
108,212,164627,1,0,0:0:0:0:
94,153,164784,2,0,L|31:157,2,55,8|0|2,0:0|0:0|0:0,0:0:0:0:
182,70,165412,5,8,0:0:0:0:
291,17,165726,2,0,P|303:71|291:124,1,110,2|8,0:0|0:0,0:0:0:0:
253,170,166198,1,0,0:0:0:0:
244,229,166355,2,0,L|254:290,2,55,2|0|8,0:0|0:0|0:0,0:0:0:0:
128,193,166983,2,0,L|148:320,1,110,2|8,0:0|0:0,0:0:0:0:
180,351,167454,1,0,0:0:0:0:
237,369,167611,6,0,P|291:357|333:323,1,110,6|8,0:0|0:0,0:0:0:0:
436,262,168239,2,0,L|500:267,2,55,2|0|8,0:0|0:0|0:0,0:0:0:0:
373,157,168868,2,0,L|378:93,1,55,2|0,0:0|0:0,0:0:0:0:
341,53,169182,2,0,P|288:35|234:43,1,110,8|2,0:0|0:0,0:0:0:0:
190,84,169653,1,0,0:0:0:0:
160,136,169810,2,0,L|96:131,2,55,8|0|2,0:0|0:0|0:0,0:0:0:0:
323,314,170752,6,0,L|213:303,1,110,2|2,0:0|0:0,0:0:0:0:
159,274,171224,1,0,0:0:0:0:
125,223,171381,2,0,L|61:218,2,55,2|0|2,0:0|0:0|0:0,0:0:0:0:
229,161,172009,2,0,L|283:156,1,55,2|0,0:0|0:0,0:0:0:0:
328,196,172323,2,0,L|339:86,1,110,2|2,0:0|0:0,0:0:0:0:
