osu file format v14

[General]
AudioFilename: audio.mp3
AudioLeadIn: 0
PreviewTime: 169882
Countdown: 0
SampleSet: Soft
StackLeniency: 0.7
Mode: 3
LetterboxInBreaks: 0
SpecialStyle: 0
WidescreenStoryboard: 0

[Editor]
Bookmarks: 55065,65118,79804,100301,118350,155589,190772
DistanceSpacing: 1.3
BeatDivisor: 8
GridSize: 8
TimelineZoom: 2.799999

[Metadata]
Title:AO-Infinity
TitleUnicode:AO-∞
Artist:Seiryu
ArtistUnicode:青龍
Creator:Arzenvald
Version:White Another
Source:
Tags:qwce-90007 beatmania iidx 24 sinobuz BEMANI jubeat reflec beat plus Ryu* Ryu☆ KONAMI Nakahara Ryutaro 中原龍太郎 Sei-ryu track 20 twenty Electronic English video game EXIT TUNES DANCE PRODUCTION EDP 2017
BeatmapID:3499108
BeatmapSetID:1712457

[Difficulty]
HPDrainRate:8
CircleSize:7
OverallDifficulty:8
ApproachRate:5
SliderMultiplier:1.4
SliderTickRate:1

[Events]
//Background and Video events
0,0,"ye1080.jpg",0,0
//Break Periods
//Storyboard Layer 0 (Background)
//Storyboard Layer 1 (Fail)
//Storyboard Layer 2 (Pass)
//Storyboard Layer 3 (Foreground)
//Storyboard Layer 4 (Overlay)
//Storyboard Sound Samples

[TimingPoints]
235,314.13612565445,4,2,1,50,1,0
60549,-100,4,2,1,50,0,1
79397,-100,4,2,1,50,0,0
151020,-100,4,2,1,50,0,1
169868,-100,4,2,1,50,0,0
171125,-100,4,2,1,50,0,1
189973,-100,4,2,1,50,0,0

[HitObjects]
256,192,235,5,0,0:0:0:0:
36,192,1177,1,0,0:0:0:0:
475,192,1491,1,0,0:0:0:0:
109,192,2119,1,0,0:0:0:0:
329,192,2748,1,0,0:0:0:0:
182,192,3690,1,0,0:0:0:0:
109,192,4004,1,0,0:0:0:0:
109,192,4632,1,0,0:0:0:0:
182,192,4789,1,0,0:0:0:0:
256,192,4947,1,0,0:0:0:0:
402,192,5104,1,0,0:0:0:0:
329,192,5261,1,0,0:0:0:0:
36,192,6203,1,0,0:0:0:0:
109,192,6517,1,0,0:0:0:0:
475,192,7145,1,0,0:0:0:0:
329,192,7774,1,0,0:0:0:0:
182,192,8088,1,0,0:0:0:0:
329,192,8402,1,0,0:0:0:0:
109,192,8716,1,0,0:0:0:0:
402,192,9030,1,0,0:0:0:0:
182,192,9659,1,0,0:0:0:0:
475,192,10287,1,0,0:0:0:0:
36,192,11229,1,0,0:0:0:0:
475,192,11543,1,0,0:0:0:0:
36,192,12172,1,0,0:0:0:0:
402,192,12800,1,0,0:0:0:0:
109,192,13742,1,0,0:0:0:0:
36,192,14056,1,0,0:0:0:0:
402,192,14371,1,0,0:0:0:0:
475,192,14685,1,0,0:0:0:0:
402,192,14842,1,0,0:0:0:0:
182,192,14999,1,0,0:0:0:0:
36,192,15156,1,0,0:0:0:0:
256,192,15313,1,0,0:0:0:0:
109,192,16255,1,0,0:0:0:0:
329,192,16570,1,0,0:0:0:0:
475,192,17198,1,0,0:0:0:0:
109,192,17826,1,0,0:0:0:0:
256,192,20339,1,0,0:0:0:0:
475,192,20339,128,0,21596:0:0:0:0:
36,192,21282,1,0,0:0:0:0:
402,192,21596,1,0,0:0:0:0:
256,192,21596,128,0,22852:0:0:0:0:
109,192,22224,1,0,0:0:0:0:
329,192,22852,1,0,0:0:0:0:
36,192,22852,128,0,24109:0:0:0:0:
182,192,23795,1,0,0:0:0:0:
109,192,24109,1,0,0:0:0:0:
475,192,24109,128,0,25365:0:0:0:0:
109,192,24737,1,0,0:0:0:0:
182,192,24894,1,0,0:0:0:0:
256,192,25051,1,0,0:0:0:0:
402,192,25208,1,0,0:0:0:0:
329,192,25365,1,0,0:0:0:0:
182,192,25365,128,0,26622:0:0:0:0:
36,192,26308,1,0,0:0:0:0:
109,192,26622,1,0,0:0:0:0:
256,192,26622,128,0,27878:0:0:0:0:
475,192,27250,1,0,0:0:0:0:
329,192,27878,1,0,0:0:0:0:
475,192,27878,128,0,29135:0:0:0:0:
182,192,28193,1,0,0:0:0:0:
329,192,28507,1,0,0:0:0:0:
109,192,28821,1,0,0:0:0:0:
402,192,29135,1,0,0:0:0:0:
329,192,29135,128,0,30392:0:0:0:0:
182,192,29763,1,0,0:0:0:0:
109,192,29763,128,0,30392:0:0:0:0:
475,192,30392,1,0,0:0:0:0:
402,192,30392,128,0,31648:0:0:0:0:
36,192,31334,1,0,0:0:0:0:
475,192,31648,1,0,0:0:0:0:
256,192,31648,128,0,32905:0:0:0:0:
36,192,32276,1,0,0:0:0:0:
402,192,32905,1,0,0:0:0:0:
329,192,32905,128,0,34161:0:0:0:0:
109,192,33847,1,0,0:0:0:0:
36,192,34161,1,0,0:0:0:0:
109,192,34161,128,0,35418:0:0:0:0:
402,192,34475,1,0,0:0:0:0:
475,192,34789,1,0,0:0:0:0:
402,192,34947,1,0,0:0:0:0:
182,192,35104,1,0,0:0:0:0:
36,192,35261,1,0,0:0:0:0:
256,192,35418,1,0,0:0:0:0:
402,192,35418,128,0,36674:0:0:0:0:
36,192,36360,1,0,0:0:0:0:
182,192,36674,1,0,0:0:0:0:
256,192,36674,128,0,37931:0:0:0:0:
475,192,37303,1,0,0:0:0:0:
109,192,37931,1,0,0:0:0:0:
402,192,37931,128,0,40444:0:0:0:0:
36,192,39187,1,0,0:0:0:0:
109,192,39423,1,0,0:0:0:0:
182,192,39659,1,0,0:0:0:0:
256,192,39816,1,0,0:0:0:0:
329,192,40051,1,0,0:0:0:0:
329,192,40287,1,0,0:0:0:0:
182,192,40444,1,0,0:0:0:0:
36,192,40444,1,0,0:0:0:0:
475,192,40522,1,0,0:0:0:0:
329,192,40601,1,0,0:0:0:0:
402,192,40680,1,0,0:0:0:0:
256,192,40758,1,0,0:0:0:0:
36,192,40915,1,0,0:0:0:0:
182,192,41072,1,0,0:0:0:0:
329,192,41229,1,0,0:0:0:0:
182,192,41386,1,0,0:0:0:0:
329,192,41543,1,0,0:0:0:0:
402,192,41622,1,0,0:0:0:0:
182,192,41700,1,0,0:0:0:0:
36,192,41700,1,0,0:0:0:0:
475,192,41779,1,0,0:0:0:0:
329,192,41858,1,0,0:0:0:0:
402,192,41936,1,0,0:0:0:0:
256,192,42015,1,0,0:0:0:0:
36,192,42172,1,0,0:0:0:0:
182,192,42329,1,0,0:0:0:0:
329,192,42486,1,0,0:0:0:0:
256,192,42643,1,0,0:0:0:0:
109,192,42800,1,0,0:0:0:0:
36,192,42957,1,0,0:0:0:0:
329,192,42957,1,0,0:0:0:0:
109,192,43193,1,0,0:0:0:0:
182,192,43428,1,0,0:0:0:0:
256,192,43585,1,0,0:0:0:0:
329,192,43821,1,0,0:0:0:0:
329,192,44056,1,0,0:0:0:0:
36,192,44214,1,0,0:0:0:0:
256,192,44214,1,0,0:0:0:0:
109,192,44449,1,0,0:0:0:0:
182,192,44685,1,0,0:0:0:0:
256,192,44842,1,0,0:0:0:0:
329,192,45077,1,0,0:0:0:0:
329,192,45313,1,0,0:0:0:0:
109,192,45470,1,0,0:0:0:0:
182,192,45470,1,0,0:0:0:0:
475,192,45549,1,0,0:0:0:0:
329,192,45627,1,0,0:0:0:0:
402,192,45706,1,0,0:0:0:0:
256,192,45784,1,0,0:0:0:0:
36,192,45941,1,0,0:0:0:0:
182,192,46098,1,0,0:0:0:0:
329,192,46255,1,0,0:0:0:0:
182,192,46413,1,0,0:0:0:0:
256,192,46570,1,0,0:0:0:0:
329,192,46648,1,0,0:0:0:0:
109,192,46727,1,0,0:0:0:0:
402,192,46727,1,0,0:0:0:0:
475,192,46805,1,0,0:0:0:0:
329,192,46884,1,0,0:0:0:0:
402,192,46962,1,0,0:0:0:0:
256,192,47041,1,0,0:0:0:0:
36,192,47198,1,0,0:0:0:0:
182,192,47355,1,0,0:0:0:0:
329,192,47512,1,0,0:0:0:0:
256,192,47669,1,0,0:0:0:0:
109,192,47826,1,0,0:0:0:0:
36,192,47983,1,0,0:0:0:0:
329,192,47983,1,0,0:0:0:0:
402,192,48219,1,0,0:0:0:0:
109,192,48297,1,0,0:0:0:0:
475,192,48454,1,0,0:0:0:0:
182,192,48611,1,0,0:0:0:0:
256,192,48847,1,0,0:0:0:0:
256,192,49083,1,0,0:0:0:0:
36,192,49240,1,0,0:0:0:0:
329,192,49240,1,0,0:0:0:0:
109,192,49475,1,0,0:0:0:0:
182,192,49711,1,0,0:0:0:0:
256,192,49868,1,0,0:0:0:0:
36,192,49868,1,0,0:0:0:0:
329,192,50025,1,0,0:0:0:0:
182,192,50104,1,0,0:0:0:0:
329,192,50182,1,0,0:0:0:0:
182,192,50261,1,0,0:0:0:0:
329,192,50339,1,0,0:0:0:0:
182,192,50418,1,0,0:0:0:0:
256,192,50496,1,0,0:0:0:0:
36,192,50496,1,0,0:0:0:0:
475,192,50575,1,0,0:0:0:0:
329,192,50653,1,0,0:0:0:0:
475,192,50732,1,0,0:0:0:0:
256,192,50810,1,0,0:0:0:0:
109,192,50810,1,0,0:0:0:0:
36,192,50967,1,0,0:0:0:0:
256,192,51125,1,0,0:0:0:0:
109,192,51125,1,0,0:0:0:0:
402,192,51282,1,0,0:0:0:0:
256,192,51439,1,0,0:0:0:0:
109,192,51439,1,0,0:0:0:0:
36,192,51596,1,0,0:0:0:0:
182,192,51674,1,0,0:0:0:0:
109,192,51753,1,0,0:0:0:0:
256,192,51753,1,0,0:0:0:0:
475,192,51831,1,0,0:0:0:0:
329,192,51910,1,0,0:0:0:0:
475,192,51988,1,0,0:0:0:0:
109,192,52067,1,0,0:0:0:0:
256,192,52067,1,0,0:0:0:0:
36,192,52224,1,0,0:0:0:0:
109,192,52381,1,0,0:0:0:0:
256,192,52381,1,0,0:0:0:0:
475,192,52538,1,0,0:0:0:0:
256,192,52695,1,0,0:0:0:0:
402,192,52695,1,0,0:0:0:0:
182,192,52852,1,0,0:0:0:0:
256,192,53009,1,0,0:0:0:0:
36,192,53009,1,0,0:0:0:0:
475,192,53009,1,0,0:0:0:0:
402,192,53245,1,0,0:0:0:0:
109,192,53324,1,0,0:0:0:0:
256,192,53324,1,0,0:0:0:0:
182,192,53481,1,0,0:0:0:0:
109,192,53638,1,0,0:0:0:0:
402,192,53638,1,0,0:0:0:0:
109,192,53873,1,0,0:0:0:0:
256,192,53952,1,0,0:0:0:0:
402,192,53952,1,0,0:0:0:0:
402,192,54109,1,0,0:0:0:0:
36,192,54266,1,0,0:0:0:0:
182,192,54266,1,0,0:0:0:0:
402,192,54502,1,0,0:0:0:0:
256,192,54580,1,0,0:0:0:0:
109,192,54580,1,0,0:0:0:0:
182,192,54737,1,0,0:0:0:0:
256,192,54894,1,0,0:0:0:0:
402,192,54894,1,0,0:0:0:0:
329,192,54973,1,0,0:0:0:0:
475,192,55051,1,0,0:0:0:0:
256,192,55091,1,0,0:0:0:0:
402,192,55130,1,0,0:0:0:0:
182,192,55169,1,0,0:0:0:0:
329,192,55208,1,0,0:0:0:0:
109,192,55208,1,0,0:0:0:0:
256,192,55287,1,0,0:0:0:0:
182,192,55365,1,0,0:0:0:0:
329,192,55365,1,0,0:0:0:0:
256,192,55444,1,0,0:0:0:0:
109,192,55444,1,0,0:0:0:0:
36,192,55522,1,0,0:0:0:0:
182,192,55522,1,0,0:0:0:0:
475,192,55522,1,0,0:0:0:0:
329,192,55601,1,0,0:0:0:0:
182,192,55680,1,0,0:0:0:0:
329,192,55758,1,0,0:0:0:0:
182,192,55837,1,0,0:0:0:0:
329,192,55915,1,0,0:0:0:0:
182,192,55994,1,0,0:0:0:0:
329,192,56072,1,0,0:0:0:0:
182,192,56151,1,0,0:0:0:0:
329,192,56229,1,0,0:0:0:0:
182,192,56308,1,0,0:0:0:0:
329,192,56386,1,0,0:0:0:0:
182,192,56465,1,0,0:0:0:0:
329,192,56543,1,0,0:0:0:0:
182,192,56622,1,0,0:0:0:0:
329,192,56700,1,0,0:0:0:0:
36,192,56779,1,0,0:0:0:0:
475,192,56779,1,0,0:0:0:0:
109,192,56779,1,0,0:0:0:0:
402,192,56858,1,0,0:0:0:0:
109,192,56936,1,0,0:0:0:0:
402,192,57015,1,0,0:0:0:0:
109,192,57093,1,0,0:0:0:0:
402,192,57172,1,0,0:0:0:0:
109,192,57250,1,0,0:0:0:0:
402,192,57329,1,0,0:0:0:0:
109,192,57407,1,0,0:0:0:0:
402,192,57486,1,0,0:0:0:0:
109,192,57564,1,0,0:0:0:0:
402,192,57643,1,0,0:0:0:0:
109,192,57721,1,0,0:0:0:0:
402,192,57800,1,0,0:0:0:0:
109,192,57878,1,0,0:0:0:0:
402,192,57957,1,0,0:0:0:0:
36,192,58036,1,0,0:0:0:0:
475,192,58036,1,0,0:0:0:0:
109,192,58075,1,0,0:0:0:0:
182,192,58114,1,0,0:0:0:0:
256,192,58153,1,0,0:0:0:0:
329,192,58193,1,0,0:0:0:0:
402,192,58232,1,0,0:0:0:0:
475,192,58271,1,0,0:0:0:0:
36,192,58310,1,0,0:0:0:0:
109,192,58350,1,0,0:0:0:0:
182,192,58389,1,0,0:0:0:0:
256,192,58428,1,0,0:0:0:0:
329,192,58467,1,0,0:0:0:0:
402,192,58507,1,0,0:0:0:0:
475,192,58546,1,0,0:0:0:0:
182,192,58585,1,0,0:0:0:0:
256,192,58625,1,0,0:0:0:0:
402,192,58664,1,0,0:0:0:0:
475,192,58703,1,0,0:0:0:0:
109,192,58742,1,0,0:0:0:0:
182,192,58782,1,0,0:0:0:0:
329,192,58821,1,0,0:0:0:0:
402,192,58860,1,0,0:0:0:0:
36,192,58899,1,0,0:0:0:0:
109,192,58939,1,0,0:0:0:0:
256,192,58978,1,0,0:0:0:0:
329,192,59017,1,0,0:0:0:0:
36,192,59056,1,0,0:0:0:0:
109,192,59096,1,0,0:0:0:0:
182,192,59135,1,0,0:0:0:0:
256,192,59174,1,0,0:0:0:0:
329,192,59214,1,0,0:0:0:0:
402,192,59253,1,0,0:0:0:0:
475,192,59292,1,0,0:0:0:0:
36,192,59292,1,0,0:0:0:0:
182,192,59292,1,0,0:0:0:0:
36,192,59606,1,0,0:0:0:0:
329,192,59606,1,0,0:0:0:0:
475,192,59606,1,0,0:0:0:0:
182,192,59920,1,0,0:0:0:0:
329,192,59920,1,0,0:0:0:0:
475,192,59920,1,0,0:0:0:0:
109,192,60077,1,0,0:0:0:0:
256,192,60077,1,0,0:0:0:0:
402,192,60077,1,0,0:0:0:0:
109,192,60234,1,0,0:0:0:0:
182,192,60234,1,0,0:0:0:0:
256,192,60234,1,0,0:0:0:0:
36,192,60234,128,0,60549:0:0:0:0:
329,192,60234,1,0,0:0:0:0:
109,192,60549,1,0,0:0:0:0:
182,192,60549,1,0,0:0:0:0:
475,192,60549,1,0,0:0:0:0:
256,192,60627,1,0,0:0:0:0:
402,192,60627,1,0,0:0:0:0:
109,192,60706,1,0,0:0:0:0:
329,192,60706,1,0,0:0:0:0:
256,192,60784,1,0,0:0:0:0:
109,192,60863,1,0,0:0:0:0:
182,192,60863,1,0,0:0:0:0:
475,192,60863,1,0,0:0:0:0:
36,192,61020,1,0,0:0:0:0:
256,192,61020,1,0,0:0:0:0:
109,192,61177,1,0,0:0:0:0:
182,192,61177,1,0,0:0:0:0:
475,192,61177,1,0,0:0:0:0:
402,192,61334,1,0,0:0:0:0:
329,192,61334,1,0,0:0:0:0:
109,192,61491,1,0,0:0:0:0:
475,192,61491,1,0,0:0:0:0:
182,192,61491,1,0,0:0:0:0:
36,192,61648,1,0,0:0:0:0:
329,192,61648,1,0,0:0:0:0:
402,192,61727,1,0,0:0:0:0:
475,192,61805,1,0,0:0:0:0:
182,192,61805,1,0,0:0:0:0:
109,192,61805,1,0,0:0:0:0:
256,192,61884,1,0,0:0:0:0:
402,192,61884,1,0,0:0:0:0:
329,192,61962,1,0,0:0:0:0:
109,192,61962,1,0,0:0:0:0:
256,192,62041,1,0,0:0:0:0:
475,192,62119,1,0,0:0:0:0:
109,192,62119,1,0,0:0:0:0:
182,192,62119,1,0,0:0:0:0:
36,192,62276,1,0,0:0:0:0:
256,192,62276,1,0,0:0:0:0:
109,192,62433,1,0,0:0:0:0:
182,192,62433,1,0,0:0:0:0:
475,192,62433,1,0,0:0:0:0:
402,192,62591,1,0,0:0:0:0:
256,192,62591,1,0,0:0:0:0:
182,192,62748,1,0,0:0:0:0:
475,192,62748,1,0,0:0:0:0:
329,192,62748,1,0,0:0:0:0:
109,192,62905,1,0,0:0:0:0:
256,192,62905,1,0,0:0:0:0:
36,192,63062,1,0,0:0:0:0:
182,192,63062,1,0,0:0:0:0:
475,192,63062,1,0,0:0:0:0:
402,192,63219,1,0,0:0:0:0:
109,192,63297,1,0,0:0:0:0:
256,192,63297,1,0,0:0:0:0:
475,192,63376,1,0,0:0:0:0:
329,192,63376,1,0,0:0:0:0:
402,192,63533,1,0,0:0:0:0:
182,192,63533,1,0,0:0:0:0:
329,192,63533,1,0,0:0:0:0:
475,192,63690,1,0,0:0:0:0:
109,192,63690,1,0,0:0:0:0:
182,192,63690,1,0,0:0:0:0:
402,192,63847,1,0,0:0:0:0:
182,192,63926,1,0,0:0:0:0:
256,192,63926,1,0,0:0:0:0:
329,192,64004,1,0,0:0:0:0:
475,192,64004,1,0,0:0:0:0:
402,192,64161,1,0,0:0:0:0:
256,192,64161,1,0,0:0:0:0:
182,192,64161,1,0,0:0:0:0:
36,192,64318,1,0,0:0:0:0:
109,192,64318,1,0,0:0:0:0:
475,192,64318,1,0,0:0:0:0:
402,192,64475,1,0,0:0:0:0:
36,192,64554,1,0,0:0:0:0:
182,192,64554,1,0,0:0:0:0:
329,192,64632,1,0,0:0:0:0:
475,192,64632,1,0,0:0:0:0:
109,192,64789,1,0,0:0:0:0:
182,192,64789,1,0,0:0:0:0:
402,192,64789,1,0,0:0:0:0:
402,192,64947,1,0,0:0:0:0:
475,192,64947,1,0,0:0:0:0:
36,192,64947,1,0,0:0:0:0:
329,192,65025,1,0,0:0:0:0:
475,192,65104,1,0,0:0:0:0:
256,192,65143,1,0,0:0:0:0:
402,192,65182,1,0,0:0:0:0:
36,192,65182,1,0,0:0:0:0:
182,192,65221,1,0,0:0:0:0:
329,192,65261,1,0,0:0:0:0:
109,192,65261,1,0,0:0:0:0:
256,192,65339,1,0,0:0:0:0:
402,192,65418,1,0,0:0:0:0:
36,192,65418,1,0,0:0:0:0:
182,192,65418,1,0,0:0:0:0:
329,192,65496,1,0,0:0:0:0:
109,192,65575,1,0,0:0:0:0:
475,192,65575,1,0,0:0:0:0:
182,192,65575,1,0,0:0:0:0:
402,192,65653,1,0,0:0:0:0:
256,192,65653,1,0,0:0:0:0:
329,192,65732,1,0,0:0:0:0:
109,192,65732,1,0,0:0:0:0:
256,192,65810,1,0,0:0:0:0:
475,192,65889,1,0,0:0:0:0:
182,192,65889,1,0,0:0:0:0:
109,192,65889,1,0,0:0:0:0:
256,192,66046,1,0,0:0:0:0:
36,192,66046,1,0,0:0:0:0:
475,192,66203,1,0,0:0:0:0:
182,192,66203,1,0,0:0:0:0:
109,192,66203,1,0,0:0:0:0:
329,192,66360,1,0,0:0:0:0:
402,192,66360,1,0,0:0:0:0:
182,192,66517,1,0,0:0:0:0:
475,192,66517,1,0,0:0:0:0:
109,192,66517,1,0,0:0:0:0:
329,192,66674,1,0,0:0:0:0:
36,192,66674,1,0,0:0:0:0:
402,192,66753,1,0,0:0:0:0:
109,192,66831,1,0,0:0:0:0:
182,192,66831,1,0,0:0:0:0:
475,192,66831,1,0,0:0:0:0:
402,192,66910,1,0,0:0:0:0:
256,192,66910,1,0,0:0:0:0:
109,192,66988,1,0,0:0:0:0:
329,192,66988,1,0,0:0:0:0:
256,192,67067,1,0,0:0:0:0:
182,192,67145,1,0,0:0:0:0:
109,192,67145,1,0,0:0:0:0:
475,192,67145,1,0,0:0:0:0:
256,192,67303,1,0,0:0:0:0:
36,192,67303,1,0,0:0:0:0:
475,192,67460,1,0,0:0:0:0:
182,192,67460,1,0,0:0:0:0:
109,192,67460,1,0,0:0:0:0:
256,192,67617,1,0,0:0:0:0:
402,192,67617,1,0,0:0:0:0:
329,192,67774,1,0,0:0:0:0:
475,192,67774,1,0,0:0:0:0:
182,192,67774,1,0,0:0:0:0:
256,192,67931,1,0,0:0:0:0:
109,192,67931,1,0,0:0:0:0:
475,192,68088,1,0,0:0:0:0:
182,192,68088,1,0,0:0:0:0:
36,192,68088,1,0,0:0:0:0:
402,192,68245,1,0,0:0:0:0:
256,192,68324,1,0,0:0:0:0:
109,192,68324,1,0,0:0:0:0:
329,192,68402,1,0,0:0:0:0:
475,192,68402,1,0,0:0:0:0:
329,192,68559,1,0,0:0:0:0:
182,192,68559,1,0,0:0:0:0:
402,192,68559,1,0,0:0:0:0:
182,192,68716,1,0,0:0:0:0:
109,192,68716,1,0,0:0:0:0:
475,192,68716,1,0,0:0:0:0:
402,192,68873,1,0,0:0:0:0:
256,192,68952,1,0,0:0:0:0:
182,192,68952,1,0,0:0:0:0:
475,192,69030,1,0,0:0:0:0:
329,192,69030,1,0,0:0:0:0:
182,192,69187,1,0,0:0:0:0:
256,192,69187,1,0,0:0:0:0:
402,192,69187,1,0,0:0:0:0:
475,192,69344,1,0,0:0:0:0:
109,192,69344,1,0,0:0:0:0:
36,192,69344,1,0,0:0:0:0:
256,192,69344,1,0,0:0:0:0:
402,192,69502,1,0,0:0:0:0:
182,192,69580,1,0,0:0:0:0:
36,192,69580,1,0,0:0:0:0:
475,192,69659,1,0,0:0:0:0:
329,192,69659,1,0,0:0:0:0:
402,192,69816,1,0,0:0:0:0:
182,192,69816,1,0,0:0:0:0:
109,192,69816,1,0,0:0:0:0:
36,192,69973,1,0,0:0:0:0:
475,192,69973,1,0,0:0:0:0:
256,192,69973,1,0,0:0:0:0:
182,192,69973,1,0,0:0:0:0:
109,192,70287,1,0,0:0:0:0:
182,192,70287,1,0,0:0:0:0:
475,192,70287,1,0,0:0:0:0:
402,192,70287,1,0,0:0:0:0:
329,192,70365,1,0,0:0:0:0:
36,192,70444,1,0,0:0:0:0:
329,192,70522,1,0,0:0:0:0:
109,192,70601,1,0,0:0:0:0:
182,192,70601,1,0,0:0:0:0:
475,192,70601,1,0,0:0:0:0:
36,192,70601,1,0,0:0:0:0:
256,192,70680,1,0,0:0:0:0:
402,192,70680,1,0,0:0:0:0:
109,192,70758,1,0,0:0:0:0:
329,192,70758,1,0,0:0:0:0:
256,192,70837,1,0,0:0:0:0:
109,192,70915,1,0,0:0:0:0:
182,192,70915,1,0,0:0:0:0:
475,192,70915,1,0,0:0:0:0:
36,192,71072,1,0,0:0:0:0:
256,192,71072,1,0,0:0:0:0:
109,192,71229,1,0,0:0:0:0:
182,192,71229,1,0,0:0:0:0:
475,192,71229,1,0,0:0:0:0:
402,192,71386,1,0,0:0:0:0:
329,192,71386,1,0,0:0:0:0:
109,192,71543,1,0,0:0:0:0:
475,192,71543,1,0,0:0:0:0:
182,192,71543,1,0,0:0:0:0:
36,192,71700,1,0,0:0:0:0:
329,192,71700,1,0,0:0:0:0:
402,192,71779,1,0,0:0:0:0:
475,192,71858,1,0,0:0:0:0:
182,192,71858,1,0,0:0:0:0:
109,192,71858,1,0,0:0:0:0:
256,192,71936,1,0,0:0:0:0:
402,192,71936,1,0,0:0:0:0:
329,192,72015,1,0,0:0:0:0:
109,192,72015,1,0,0:0:0:0:
256,192,72093,1,0,0:0:0:0:
475,192,72172,1,0,0:0:0:0:
109,192,72172,1,0,0:0:0:0:
182,192,72172,1,0,0:0:0:0:
36,192,72329,1,0,0:0:0:0:
256,192,72329,1,0,0:0:0:0:
109,192,72486,1,0,0:0:0:0:
182,192,72486,1,0,0:0:0:0:
475,192,72486,1,0,0:0:0:0:
402,192,72643,1,0,0:0:0:0:
256,192,72643,1,0,0:0:0:0:
182,192,72800,1,0,0:0:0:0:
475,192,72800,1,0,0:0:0:0:
329,192,72800,1,0,0:0:0:0:
109,192,72957,1,0,0:0:0:0:
256,192,72957,1,0,0:0:0:0:
182,192,73114,1,0,0:0:0:0:
329,192,73114,1,0,0:0:0:0:
36,192,73114,1,0,0:0:0:0:
109,192,73271,1,0,0:0:0:0:
256,192,73350,1,0,0:0:0:0:
402,192,73350,1,0,0:0:0:0:
36,192,73428,1,0,0:0:0:0:
182,192,73428,1,0,0:0:0:0:
109,192,73585,1,0,0:0:0:0:
329,192,73585,1,0,0:0:0:0:
475,192,73585,1,0,0:0:0:0:
36,192,73742,1,0,0:0:0:0:
256,192,73742,1,0,0:0:0:0:
329,192,73742,1,0,0:0:0:0:
109,192,73899,1,0,0:0:0:0:
329,192,73978,1,0,0:0:0:0:
402,192,73978,1,0,0:0:0:0:
182,192,74056,1,0,0:0:0:0:
36,192,74056,1,0,0:0:0:0:
109,192,74214,1,0,0:0:0:0:
475,192,74214,1,0,0:0:0:0:
402,192,74214,1,0,0:0:0:0:
182,192,74371,1,0,0:0:0:0:
256,192,74371,1,0,0:0:0:0:
36,192,74371,1,0,0:0:0:0:
109,192,74528,1,0,0:0:0:0:
256,192,74606,1,0,0:0:0:0:
402,192,74606,1,0,0:0:0:0:
182,192,74685,1,0,0:0:0:0:
36,192,74685,1,0,0:0:0:0:
256,192,74842,1,0,0:0:0:0:
329,192,74842,1,0,0:0:0:0:
109,192,74842,1,0,0:0:0:0:
329,192,74999,1,0,0:0:0:0:
36,192,74999,1,0,0:0:0:0:
402,192,74999,1,0,0:0:0:0:
109,192,75156,1,0,0:0:0:0:
256,192,75156,1,0,0:0:0:0:
329,192,75234,1,0,0:0:0:0:
475,192,75234,1,0,0:0:0:0:
36,192,75313,1,0,0:0:0:0:
182,192,75313,1,0,0:0:0:0:
329,192,75470,1,0,0:0:0:0:
475,192,75470,1,0,0:0:0:0:
109,192,75470,1,0,0:0:0:0:
109,192,75627,1,0,0:0:0:0:
182,192,75627,1,0,0:0:0:0:
475,192,75627,1,0,0:0:0:0:
256,192,75706,1,0,0:0:0:0:
402,192,75706,1,0,0:0:0:0:
109,192,75784,1,0,0:0:0:0:
329,192,75784,1,0,0:0:0:0:
256,192,75863,1,0,0:0:0:0:
109,192,75941,1,0,0:0:0:0:
182,192,75941,1,0,0:0:0:0:
475,192,75941,1,0,0:0:0:0:
36,192,76098,1,0,0:0:0:0:
256,192,76098,1,0,0:0:0:0:
109,192,76255,1,0,0:0:0:0:
182,192,76255,1,0,0:0:0:0:
475,192,76255,1,0,0:0:0:0:
402,192,76413,1,0,0:0:0:0:
329,192,76413,1,0,0:0:0:0:
109,192,76570,1,0,0:0:0:0:
475,192,76570,1,0,0:0:0:0:
182,192,76570,1,0,0:0:0:0:
36,192,76727,1,0,0:0:0:0:
329,192,76727,1,0,0:0:0:0:
402,192,76805,1,0,0:0:0:0:
475,192,76884,1,0,0:0:0:0:
182,192,76884,1,0,0:0:0:0:
109,192,76884,1,0,0:0:0:0:
256,192,76962,1,0,0:0:0:0:
402,192,76962,1,0,0:0:0:0:
329,192,77041,1,0,0:0:0:0:
109,192,77041,1,0,0:0:0:0:
256,192,77119,1,0,0:0:0:0:
475,192,77198,1,0,0:0:0:0:
109,192,77198,1,0,0:0:0:0:
182,192,77198,1,0,0:0:0:0:
36,192,77355,1,0,0:0:0:0:
256,192,77355,1,0,0:0:0:0:
109,192,77512,1,0,0:0:0:0:
182,192,77512,1,0,0:0:0:0:
475,192,77512,1,0,0:0:0:0:
402,192,77669,1,0,0:0:0:0:
256,192,77669,1,0,0:0:0:0:
182,192,77826,1,0,0:0:0:0:
475,192,77826,1,0,0:0:0:0:
329,192,77826,1,0,0:0:0:0:
109,192,77983,1,0,0:0:0:0:
256,192,77983,1,0,0:0:0:0:
182,192,78140,1,0,0:0:0:0:
329,192,78140,1,0,0:0:0:0:
36,192,78140,1,0,0:0:0:0:
109,192,78297,1,0,0:0:0:0:
256,192,78376,1,0,0:0:0:0:
402,192,78376,1,0,0:0:0:0:
36,192,78454,1,0,0:0:0:0:
182,192,78454,1,0,0:0:0:0:
109,192,78611,1,0,0:0:0:0:
329,192,78611,1,0,0:0:0:0:
475,192,78611,1,0,0:0:0:0:
36,192,78769,1,0,0:0:0:0:
256,192,78769,1,0,0:0:0:0:
329,192,78769,1,0,0:0:0:0:
109,192,78926,1,0,0:0:0:0:
329,192,79004,1,0,0:0:0:0:
402,192,79004,1,0,0:0:0:0:
182,192,79083,1,0,0:0:0:0:
36,192,79083,1,0,0:0:0:0:
109,192,79240,1,0,0:0:0:0:
475,192,79240,1,0,0:0:0:0:
402,192,79240,1,0,0:0:0:0:
36,192,79397,1,0,0:0:0:0:
256,192,79397,1,0,0:0:0:0:
402,192,79397,1,0,0:0:0:0:
475,192,79397,1,0,0:0:0:0:
109,192,79554,1,0,0:0:0:0:
109,192,79868,1,0,0:0:0:0:
475,192,80025,1,0,0:0:0:0:
109,192,80182,1,0,0:0:0:0:
402,192,80182,1,0,0:0:0:0:
256,192,80339,1,0,0:0:0:0:
329,192,80418,1,0,0:0:0:0:
109,192,80496,1,0,0:0:0:0:
256,192,80496,1,0,0:0:0:0:
182,192,80575,1,0,0:0:0:0:
475,192,80653,1,0,0:0:0:0:
109,192,80653,1,0,0:0:0:0:
329,192,80653,1,0,0:0:0:0:
36,192,80653,1,0,0:0:0:0:
182,192,80732,1,0,0:0:0:0:
256,192,80810,1,0,0:0:0:0:
402,192,80889,1,0,0:0:0:0:
36,192,80967,1,0,0:0:0:0:
109,192,80967,1,0,0:0:0:0:
182,192,81046,1,0,0:0:0:0:
256,192,81125,1,0,0:0:0:0:
402,192,81203,1,0,0:0:0:0:
36,192,81282,1,0,0:0:0:0:
109,192,81282,1,0,0:0:0:0:
182,192,81360,1,0,0:0:0:0:
256,192,81439,1,0,0:0:0:0:
402,192,81517,1,0,0:0:0:0:
36,192,81596,1,0,0:0:0:0:
109,192,81596,1,0,0:0:0:0:
182,192,81674,1,0,0:0:0:0:
256,192,81753,1,0,0:0:0:0:
402,192,81831,1,0,0:0:0:0:
109,192,81910,1,0,0:0:0:0:
182,192,81910,1,0,0:0:0:0:
329,192,81988,1,0,0:0:0:0:
256,192,82067,1,0,0:0:0:0:
402,192,82145,1,0,0:0:0:0:
109,192,82224,1,0,0:0:0:0:
182,192,82224,1,0,0:0:0:0:
329,192,82303,1,0,0:0:0:0:
256,192,82381,1,0,0:0:0:0:
402,192,82460,1,0,0:0:0:0:
109,192,82538,1,0,0:0:0:0:
182,192,82538,1,0,0:0:0:0:
329,192,82617,1,0,0:0:0:0:
256,192,82695,1,0,0:0:0:0:
402,192,82774,1,0,0:0:0:0:
109,192,82852,1,0,0:0:0:0:
182,192,82852,1,0,0:0:0:0:
329,192,82931,1,0,0:0:0:0:
256,192,83009,1,0,0:0:0:0:
402,192,83088,1,0,0:0:0:0:
36,192,83166,1,0,0:0:0:0:
475,192,83166,1,0,0:0:0:0:
329,192,83245,1,0,0:0:0:0:
182,192,83324,1,0,0:0:0:0:
109,192,83402,1,0,0:0:0:0:
475,192,83481,1,0,0:0:0:0:
36,192,83481,1,0,0:0:0:0:
329,192,83559,1,0,0:0:0:0:
182,192,83638,1,0,0:0:0:0:
109,192,83716,1,0,0:0:0:0:
475,192,83795,1,0,0:0:0:0:
36,192,83795,1,0,0:0:0:0:
329,192,83873,1,0,0:0:0:0:
182,192,83952,1,0,0:0:0:0:
109,192,84030,1,0,0:0:0:0:
475,192,84109,1,0,0:0:0:0:
36,192,84109,1,0,0:0:0:0:
329,192,84187,1,0,0:0:0:0:
182,192,84266,1,0,0:0:0:0:
109,192,84344,1,0,0:0:0:0:
36,192,84423,1,0,0:0:0:0:
256,192,84423,1,0,0:0:0:0:
475,192,84502,1,0,0:0:0:0:
402,192,84580,1,0,0:0:0:0:
329,192,84659,1,0,0:0:0:0:
36,192,84737,1,0,0:0:0:0:
256,192,84737,1,0,0:0:0:0:
475,192,84816,1,0,0:0:0:0:
402,192,84894,1,0,0:0:0:0:
329,192,84973,1,0,0:0:0:0:
256,192,85051,1,0,0:0:0:0:
36,192,85051,1,0,0:0:0:0:
329,192,85208,1,0,0:0:0:0:
109,192,85208,1,0,0:0:0:0:
402,192,85365,1,0,0:0:0:0:
256,192,85365,1,0,0:0:0:0:
182,192,85365,1,0,0:0:0:0:
475,192,85522,1,0,0:0:0:0:
329,192,85522,1,0,0:0:0:0:
36,192,85680,1,0,0:0:0:0:
475,192,85680,1,0,0:0:0:0:
256,192,85680,1,0,0:0:0:0:
109,192,85758,1,0,0:0:0:0:
329,192,85837,1,0,0:0:0:0:
402,192,85915,1,0,0:0:0:0:
36,192,85994,1,0,0:0:0:0:
475,192,85994,1,0,0:0:0:0:
109,192,86072,1,0,0:0:0:0:
329,192,86151,1,0,0:0:0:0:
402,192,86229,1,0,0:0:0:0:
36,192,86308,1,0,0:0:0:0:
475,192,86308,1,0,0:0:0:0:
109,192,86386,1,0,0:0:0:0:
329,192,86465,1,0,0:0:0:0:
402,192,86543,1,0,0:0:0:0:
36,192,86622,1,0,0:0:0:0:
475,192,86622,1,0,0:0:0:0:
109,192,86700,1,0,0:0:0:0:
329,192,86779,1,0,0:0:0:0:
402,192,86858,1,0,0:0:0:0:
109,192,86936,1,0,0:0:0:0:
475,192,86936,1,0,0:0:0:0:
36,192,86936,1,0,0:0:0:0:
182,192,87015,1,0,0:0:0:0:
256,192,87093,1,0,0:0:0:0:
402,192,87172,1,0,0:0:0:0:
109,192,87250,1,0,0:0:0:0:
329,192,87250,1,0,0:0:0:0:
182,192,87329,1,0,0:0:0:0:
256,192,87407,1,0,0:0:0:0:
402,192,87486,1,0,0:0:0:0:
109,192,87564,1,0,0:0:0:0:
329,192,87564,1,0,0:0:0:0:
475,192,87564,1,0,0:0:0:0:
182,192,87643,1,0,0:0:0:0:
256,192,87721,1,0,0:0:0:0:
402,192,87800,1,0,0:0:0:0:
109,192,87878,1,0,0:0:0:0:
329,192,87878,1,0,0:0:0:0:
182,192,87957,1,0,0:0:0:0:
256,192,88036,1,0,0:0:0:0:
402,192,88114,1,0,0:0:0:0:
475,192,88193,1,0,0:0:0:0:
182,192,88193,1,0,0:0:0:0:
36,192,88193,1,0,0:0:0:0:
256,192,88271,1,0,0:0:0:0:
329,192,88350,1,0,0:0:0:0:
402,192,88428,1,0,0:0:0:0:
109,192,88507,1,0,0:0:0:0:
475,192,88507,1,0,0:0:0:0:
36,192,88507,1,0,0:0:0:0:
402,192,88585,1,0,0:0:0:0:
329,192,88664,1,0,0:0:0:0:
256,192,88742,1,0,0:0:0:0:
182,192,88821,1,0,0:0:0:0:
475,192,88821,1,0,0:0:0:0:
36,192,88821,1,0,0:0:0:0:
256,192,88899,1,0,0:0:0:0:
329,192,88978,1,0,0:0:0:0:
402,192,89056,1,0,0:0:0:0:
182,192,89135,1,0,0:0:0:0:
36,192,89135,1,0,0:0:0:0:
475,192,89135,1,0,0:0:0:0:
402,192,89214,1,0,0:0:0:0:
329,192,89292,1,0,0:0:0:0:
256,192,89371,1,0,0:0:0:0:
182,192,89449,1,0,0:0:0:0:
36,192,89449,1,0,0:0:0:0:
329,192,89528,1,0,0:0:0:0:
402,192,89606,1,0,0:0:0:0:
475,192,89685,1,0,0:0:0:0:
182,192,89763,1,0,0:0:0:0:
36,192,89763,1,0,0:0:0:0:
329,192,89842,1,0,0:0:0:0:
402,192,89920,1,0,0:0:0:0:
475,192,89999,1,0,0:0:0:0:
182,192,90077,1,0,0:0:0:0:
36,192,90077,1,0,0:0:0:0:
256,192,90234,1,0,0:0:0:0:
109,192,90313,1,0,0:0:0:0:
329,192,90392,1,0,0:0:0:0:
182,192,90470,1,0,0:0:0:0:
402,192,90549,1,0,0:0:0:0:
256,192,90627,1,0,0:0:0:0:
475,192,90706,1,0,0:0:0:0:
329,192,90706,1,0,0:0:0:0:
36,192,90706,1,0,0:0:0:0:
109,192,90784,1,0,0:0:0:0:
182,192,90863,1,0,0:0:0:0:
402,192,90863,1,0,0:0:0:0:
256,192,90941,1,0,0:0:0:0:
475,192,91020,1,0,0:0:0:0:
329,192,91020,1,0,0:0:0:0:
256,192,91098,1,0,0:0:0:0:
402,192,91177,1,0,0:0:0:0:
182,192,91177,1,0,0:0:0:0:
109,192,91255,1,0,0:0:0:0:
36,192,91334,1,0,0:0:0:0:
475,192,91334,1,0,0:0:0:0:
109,192,91413,1,0,0:0:0:0:
182,192,91491,1,0,0:0:0:0:
402,192,91491,1,0,0:0:0:0:
256,192,91570,1,0,0:0:0:0:
475,192,91648,1,0,0:0:0:0:
329,192,91648,1,0,0:0:0:0:
256,192,91727,1,0,0:0:0:0:
402,192,91805,1,0,0:0:0:0:
182,192,91805,1,0,0:0:0:0:
109,192,91884,1,0,0:0:0:0:
36,192,91962,1,0,0:0:0:0:
182,192,91962,1,0,0:0:0:0:
475,192,91962,1,0,0:0:0:0:
256,192,92041,1,0,0:0:0:0:
329,192,92119,1,0,0:0:0:0:
109,192,92119,1,0,0:0:0:0:
402,192,92198,1,0,0:0:0:0:
36,192,92276,1,0,0:0:0:0:
475,192,92276,1,0,0:0:0:0:
402,192,92355,1,0,0:0:0:0:
109,192,92433,1,0,0:0:0:0:
329,192,92433,1,0,0:0:0:0:
256,192,92512,1,0,0:0:0:0:
182,192,92591,1,0,0:0:0:0:
36,192,92591,1,0,0:0:0:0:
256,192,92669,1,0,0:0:0:0:
329,192,92748,1,0,0:0:0:0:
109,192,92748,1,0,0:0:0:0:
402,192,92826,1,0,0:0:0:0:
36,192,92905,1,0,0:0:0:0:
475,192,92905,1,0,0:0:0:0:
402,192,92983,1,0,0:0:0:0:
109,192,93062,1,0,0:0:0:0:
329,192,93062,1,0,0:0:0:0:
256,192,93140,1,0,0:0:0:0:
475,192,93219,1,0,0:0:0:0:
182,192,93219,1,0,0:0:0:0:
36,192,93219,1,0,0:0:0:0:
109,192,93297,1,0,0:0:0:0:
182,192,93376,1,0,0:0:0:0:
402,192,93376,1,0,0:0:0:0:
256,192,93454,1,0,0:0:0:0:
329,192,93533,1,0,0:0:0:0:
36,192,93533,1,0,0:0:0:0:
402,192,93611,1,0,0:0:0:0:
329,192,93690,1,0,0:0:0:0:
109,192,93690,1,0,0:0:0:0:
256,192,93769,1,0,0:0:0:0:
182,192,93847,1,0,0:0:0:0:
475,192,93847,1,0,0:0:0:0:
109,192,93926,1,0,0:0:0:0:
182,192,94004,1,0,0:0:0:0:
402,192,94004,1,0,0:0:0:0:
256,192,94083,1,0,0:0:0:0:
329,192,94161,1,0,0:0:0:0:
36,192,94161,1,0,0:0:0:0:
402,192,94240,1,0,0:0:0:0:
329,192,94318,1,0,0:0:0:0:
109,192,94318,1,0,0:0:0:0:
256,192,94397,1,0,0:0:0:0:
182,192,94475,1,0,0:0:0:0:
36,192,94475,1,0,0:0:0:0:
475,192,94475,1,0,0:0:0:0:
109,192,94554,1,0,0:0:0:0:
182,192,94632,1,0,0:0:0:0:
402,192,94632,1,0,0:0:0:0:
256,192,94711,1,0,0:0:0:0:
475,192,94789,1,0,0:0:0:0:
329,192,94789,1,0,0:0:0:0:
256,192,94868,1,0,0:0:0:0:
402,192,94947,1,0,0:0:0:0:
182,192,94947,1,0,0:0:0:0:
109,192,95025,1,0,0:0:0:0:
36,192,95104,1,0,0:0:0:0:
475,192,95104,1,0,0:0:0:0:
256,192,95104,1,0,0:0:0:0:
109,192,95182,1,0,0:0:0:0:
182,192,95261,1,0,0:0:0:0:
402,192,95261,1,0,0:0:0:0:
256,192,95339,1,0,0:0:0:0:
475,192,95418,1,0,0:0:0:0:
329,192,95418,1,0,0:0:0:0:
109,192,95418,1,0,0:0:0:0:
256,192,95496,1,0,0:0:0:0:
182,192,95575,1,0,0:0:0:0:
36,192,95575,1,0,0:0:0:0:
109,192,95653,1,0,0:0:0:0:
402,192,95732,1,0,0:0:0:0:
182,192,95732,1,0,0:0:0:0:
475,192,95732,1,0,0:0:0:0:
256,192,95810,1,0,0:0:0:0:
329,192,95889,1,0,0:0:0:0:
109,192,95889,1,0,0:0:0:0:
402,192,95967,1,0,0:0:0:0:
36,192,96046,1,0,0:0:0:0:
475,192,96046,1,0,0:0:0:0:
402,192,96125,1,0,0:0:0:0:
109,192,96203,1,0,0:0:0:0:
329,192,96203,1,0,0:0:0:0:
256,192,96282,1,0,0:0:0:0:
182,192,96360,1,0,0:0:0:0:
36,192,96360,1,0,0:0:0:0:
256,192,96439,1,0,0:0:0:0:
329,192,96517,1,0,0:0:0:0:
109,192,96517,1,0,0:0:0:0:
402,192,96596,1,0,0:0:0:0:
36,192,96674,1,0,0:0:0:0:
475,192,96674,1,0,0:0:0:0:
402,192,96753,1,0,0:0:0:0:
109,192,96831,1,0,0:0:0:0:
329,192,96831,1,0,0:0:0:0:
256,192,96910,1,0,0:0:0:0:
36,192,96988,1,0,0:0:0:0:
329,192,96988,1,0,0:0:0:0:
475,192,96988,1,0,0:0:0:0:
256,192,97067,1,0,0:0:0:0:
402,192,97145,1,0,0:0:0:0:
182,192,97145,1,0,0:0:0:0:
109,192,97224,1,0,0:0:0:0:
36,192,97303,1,0,0:0:0:0:
475,192,97303,1,0,0:0:0:0:
109,192,97381,1,0,0:0:0:0:
182,192,97460,1,0,0:0:0:0:
402,192,97460,1,0,0:0:0:0:
256,192,97538,1,0,0:0:0:0:
475,192,97617,1,0,0:0:0:0:
329,192,97617,1,0,0:0:0:0:
256,192,97695,1,0,0:0:0:0:
402,192,97774,1,0,0:0:0:0:
182,192,97774,1,0,0:0:0:0:
109,192,97852,1,0,0:0:0:0:
36,192,97931,1,0,0:0:0:0:
475,192,97931,1,0,0:0:0:0:
109,192,98009,1,0,0:0:0:0:
182,192,98088,1,0,0:0:0:0:
402,192,98088,1,0,0:0:0:0:
256,192,98166,1,0,0:0:0:0:
36,192,98245,1,0,0:0:0:0:
329,192,98245,1,0,0:0:0:0:
475,192,98245,1,0,0:0:0:0:
256,192,98324,1,0,0:0:0:0:
182,192,98402,1,0,0:0:0:0:
402,192,98402,1,0,0:0:0:0:
109,192,98481,1,0,0:0:0:0:
36,192,98559,1,0,0:0:0:0:
182,192,98559,1,0,0:0:0:0:
256,192,98638,1,0,0:0:0:0:
109,192,98716,1,0,0:0:0:0:
329,192,98716,1,0,0:0:0:0:
402,192,98795,1,0,0:0:0:0:
329,192,98873,1,0,0:0:0:0:
475,192,98873,1,0,0:0:0:0:
256,192,98952,1,0,0:0:0:0:
182,192,99030,1,0,0:0:0:0:
402,192,99030,1,0,0:0:0:0:
109,192,99109,1,0,0:0:0:0:
36,192,99187,1,0,0:0:0:0:
182,192,99187,1,0,0:0:0:0:
256,192,99266,1,0,0:0:0:0:
109,192,99344,1,0,0:0:0:0:
329,192,99344,1,0,0:0:0:0:
402,192,99423,1,0,0:0:0:0:
182,192,99502,1,0,0:0:0:0:
36,192,99502,1,0,0:0:0:0:
475,192,99502,1,0,0:0:0:0:
475,192,99659,1,0,0:0:0:0:
36,192,99659,1,0,0:0:0:0:
36,192,99973,1,0,0:0:0:0:
475,192,99973,1,0,0:0:0:0:
182,192,99973,1,0,0:0:0:0:
182,192,100130,1,0,0:0:0:0:
402,192,100130,1,0,0:0:0:0:
256,192,100208,1,0,0:0:0:0:
329,192,100287,1,0,0:0:0:0:
475,192,100287,1,0,0:0:0:0:
36,192,100287,1,0,0:0:0:0:
256,192,100326,1,0,0:0:0:0:
402,192,100365,1,0,0:0:0:0:
182,192,100405,1,0,0:0:0:0:
109,192,100444,1,0,0:0:0:0:
329,192,100444,1,0,0:0:0:0:
256,192,100522,1,0,0:0:0:0:
329,192,100601,1,0,0:0:0:0:
182,192,100601,1,0,0:0:0:0:
109,192,100680,1,0,0:0:0:0:
256,192,100680,1,0,0:0:0:0:
475,192,100758,1,0,0:0:0:0:
182,192,100758,1,0,0:0:0:0:
36,192,100758,128,0,101700:0:0:0:0:
402,192,100837,1,0,0:0:0:0:
329,192,100915,1,0,0:0:0:0:
256,192,100994,1,0,0:0:0:0:
182,192,101072,1,0,0:0:0:0:
475,192,101229,1,0,0:0:0:0:
329,192,101308,1,0,0:0:0:0:
475,192,101386,1,0,0:0:0:0:
402,192,101465,1,0,0:0:0:0:
329,192,101543,1,0,0:0:0:0:
256,192,101622,1,0,0:0:0:0:
182,192,101700,128,0,102015:0:0:0:0:
475,192,101858,1,0,0:0:0:0:
329,192,101936,1,0,0:0:0:0:
475,192,102015,128,0,102643:0:0:0:0:
36,192,102015,1,0,0:0:0:0:
109,192,102093,1,0,0:0:0:0:
182,192,102172,1,0,0:0:0:0:
256,192,102250,1,0,0:0:0:0:
329,192,102329,1,0,0:0:0:0:
36,192,102486,1,0,0:0:0:0:
182,192,102564,1,0,0:0:0:0:
36,192,102643,128,0,103271:0:0:0:0:
182,192,102721,1,0,0:0:0:0:
256,192,102800,1,0,0:0:0:0:
329,192,102878,1,0,0:0:0:0:
109,192,102957,1,0,0:0:0:0:
402,192,103114,1,0,0:0:0:0:
329,192,103193,1,0,0:0:0:0:
475,192,103271,128,0,104214:0:0:0:0:
182,192,103271,1,0,0:0:0:0:
402,192,103350,1,0,0:0:0:0:
329,192,103428,1,0,0:0:0:0:
256,192,103507,1,0,0:0:0:0:
182,192,103585,1,0,0:0:0:0:
329,192,103742,1,0,0:0:0:0:
256,192,103821,1,0,0:0:0:0:
182,192,103899,1,0,0:0:0:0:
109,192,103978,1,0,0:0:0:0:
36,192,104056,1,0,0:0:0:0:
256,192,104135,1,0,0:0:0:0:
109,192,104214,128,0,104528:0:0:0:0:
256,192,104371,1,0,0:0:0:0:
402,192,104449,1,0,0:0:0:0:
36,192,104528,128,0,105784:0:0:0:0:
182,192,104528,1,0,0:0:0:0:
256,192,104606,1,0,0:0:0:0:
329,192,104685,1,0,0:0:0:0:
402,192,104763,1,0,0:0:0:0:
475,192,104842,1,0,0:0:0:0:
256,192,104999,1,0,0:0:0:0:
402,192,105077,1,0,0:0:0:0:
182,192,105156,1,0,0:0:0:0:
256,192,105234,1,0,0:0:0:0:
329,192,105313,1,0,0:0:0:0:
402,192,105392,1,0,0:0:0:0:
475,192,105470,1,0,0:0:0:0:
329,192,105627,1,0,0:0:0:0:
182,192,105706,1,0,0:0:0:0:
475,192,105784,128,0,106727:0:0:0:0:
329,192,105784,1,0,0:0:0:0:
256,192,105863,1,0,0:0:0:0:
182,192,105941,1,0,0:0:0:0:
109,192,106020,1,0,0:0:0:0:
36,192,106098,1,0,0:0:0:0:
329,192,106255,1,0,0:0:0:0:
182,192,106334,1,0,0:0:0:0:
329,192,106413,1,0,0:0:0:0:
256,192,106491,1,0,0:0:0:0:
182,192,106570,1,0,0:0:0:0:
109,192,106648,1,0,0:0:0:0:
36,192,106727,128,0,107041:0:0:0:0:
182,192,106884,1,0,0:0:0:0:
329,192,106962,1,0,0:0:0:0:
109,192,107041,128,0,107669:0:0:0:0:
402,192,107041,1,0,0:0:0:0:
182,192,107119,1,0,0:0:0:0:
256,192,107198,1,0,0:0:0:0:
329,192,107276,1,0,0:0:0:0:
402,192,107355,1,0,0:0:0:0:
329,192,107512,1,0,0:0:0:0:
182,192,107591,1,0,0:0:0:0:
402,192,107669,128,0,108297:0:0:0:0:
329,192,107748,1,0,0:0:0:0:
256,192,107826,1,0,0:0:0:0:
182,192,107905,1,0,0:0:0:0:
109,192,107983,1,0,0:0:0:0:
182,192,108140,1,0,0:0:0:0:
329,192,108219,1,0,0:0:0:0:
36,192,108297,128,0,109554:0:0:0:0:
182,192,108297,1,0,0:0:0:0:
256,192,108376,1,0,0:0:0:0:
329,192,108454,1,0,0:0:0:0:
402,192,108533,1,0,0:0:0:0:
475,192,108611,1,0,0:0:0:0:
329,192,108769,1,0,0:0:0:0:
475,192,108847,1,0,0:0:0:0:
182,192,108926,1,0,0:0:0:0:
256,192,109004,1,0,0:0:0:0:
329,192,109083,1,0,0:0:0:0:
402,192,109161,1,0,0:0:0:0:
475,192,109240,1,0,0:0:0:0:
256,192,109397,1,0,0:0:0:0:
402,192,109475,1,0,0:0:0:0:
182,192,109554,1,0,0:0:0:0:
256,192,109632,1,0,0:0:0:0:
329,192,109711,1,0,0:0:0:0:
402,192,109789,1,0,0:0:0:0:
475,192,109868,1,0,0:0:0:0:
36,192,110025,1,0,0:0:0:0:
109,192,110104,1,0,0:0:0:0:
329,192,110182,1,0,0:0:0:0:
182,192,110261,1,0,0:0:0:0:
329,192,110339,1,0,0:0:0:0:
182,192,110418,1,0,0:0:0:0:
329,192,110496,1,0,0:0:0:0:
182,192,110575,1,0,0:0:0:0:
329,192,110653,1,0,0:0:0:0:
182,192,110732,1,0,0:0:0:0:
36,192,110810,1,0,0:0:0:0:
329,192,110810,1,0,0:0:0:0:
475,192,110810,1,0,0:0:0:0:
256,192,110810,1,0,0:0:0:0:
109,192,111125,1,0,0:0:0:0:
256,192,111125,1,0,0:0:0:0:
402,192,111125,1,0,0:0:0:0:
36,192,111439,1,0,0:0:0:0:
182,192,111439,1,0,0:0:0:0:
475,192,111439,1,0,0:0:0:0:
109,192,111753,1,0,0:0:0:0:
256,192,111753,1,0,0:0:0:0:
329,192,111753,1,0,0:0:0:0:
36,192,112067,1,0,0:0:0:0:
475,192,112067,1,0,0:0:0:0:
402,192,112067,1,0,0:0:0:0:
256,192,112067,1,0,0:0:0:0:
109,192,112381,1,0,0:0:0:0:
256,192,112381,1,0,0:0:0:0:
402,192,112381,1,0,0:0:0:0:
36,192,112695,1,0,0:0:0:0:
182,192,112695,1,0,0:0:0:0:
402,192,112695,1,0,0:0:0:0:
109,192,113009,1,0,0:0:0:0:
329,192,113009,1,0,0:0:0:0:
256,192,113009,1,0,0:0:0:0:
402,192,113324,1,0,0:0:0:0:
475,192,113324,1,0,0:0:0:0:
256,192,113324,1,0,0:0:0:0:
36,192,113324,1,0,0:0:0:0:
402,192,113638,1,0,0:0:0:0:
109,192,113638,1,0,0:0:0:0:
256,192,113638,1,0,0:0:0:0:
36,192,113952,1,0,0:0:0:0:
182,192,113952,1,0,0:0:0:0:
475,192,113952,1,0,0:0:0:0:
36,192,114266,1,0,0:0:0:0:
329,192,114266,1,0,0:0:0:0:
256,192,114266,1,0,0:0:0:0:
109,192,114580,1,0,0:0:0:0:
256,192,114580,1,0,0:0:0:0:
475,192,114580,1,0,0:0:0:0:
182,192,114580,1,0,0:0:0:0:
36,192,114894,1,0,0:0:0:0:
329,192,114894,1,0,0:0:0:0:
256,192,114894,1,0,0:0:0:0:
182,192,115208,1,0,0:0:0:0:
475,192,115208,1,0,0:0:0:0:
109,192,115208,1,0,0:0:0:0:
402,192,115522,1,0,0:0:0:0:
36,192,115522,1,0,0:0:0:0:
329,192,115522,1,0,0:0:0:0:
36,192,115680,1,0,0:0:0:0:
329,192,115680,1,0,0:0:0:0:
109,192,115758,1,0,0:0:0:0:
256,192,115758,1,0,0:0:0:0:
182,192,115837,1,0,0:0:0:0:
475,192,115837,1,0,0:0:0:0:
109,192,115915,1,0,0:0:0:0:
402,192,115915,1,0,0:0:0:0:
329,192,115994,1,0,0:0:0:0:
36,192,115994,1,0,0:0:0:0:
109,192,116072,1,0,0:0:0:0:
256,192,116072,1,0,0:0:0:0:
182,192,116151,1,0,0:0:0:0:
475,192,116151,1,0,0:0:0:0:
402,192,116229,1,0,0:0:0:0:
256,192,116229,1,0,0:0:0:0:
329,192,116308,1,0,0:0:0:0:
36,192,116308,1,0,0:0:0:0:
109,192,116386,1,0,0:0:0:0:
402,192,116386,1,0,0:0:0:0:
182,192,116465,1,0,0:0:0:0:
475,192,116465,1,0,0:0:0:0:
402,192,116543,1,0,0:0:0:0:
256,192,116543,1,0,0:0:0:0:
329,192,116622,1,0,0:0:0:0:
36,192,116622,1,0,0:0:0:0:
109,192,116700,1,0,0:0:0:0:
256,192,116700,1,0,0:0:0:0:
475,192,116779,1,0,0:0:0:0:
182,192,116779,1,0,0:0:0:0:
109,192,116858,1,0,0:0:0:0:
402,192,116858,1,0,0:0:0:0:
36,192,116936,1,0,0:0:0:0:
329,192,116936,1,0,0:0:0:0:
256,192,117015,1,0,0:0:0:0:
109,192,117015,1,0,0:0:0:0:
182,192,117093,1,0,0:0:0:0:
329,192,117093,1,0,0:0:0:0:
402,192,117172,1,0,0:0:0:0:
256,192,117172,1,0,0:0:0:0:
182,192,117250,1,0,0:0:0:0:
475,192,117250,1,0,0:0:0:0:
109,192,117329,1,0,0:0:0:0:
402,192,117329,1,0,0:0:0:0:
36,192,117407,1,0,0:0:0:0:
329,192,117407,1,0,0:0:0:0:
402,192,117486,1,0,0:0:0:0:
256,192,117486,1,0,0:0:0:0:
182,192,117564,1,0,0:0:0:0:
475,192,117564,1,0,0:0:0:0:
256,192,117643,1,0,0:0:0:0:
109,192,117643,1,0,0:0:0:0:
329,192,117721,1,0,0:0:0:0:
36,192,117721,1,0,0:0:0:0:
109,192,117800,1,0,0:0:0:0:
402,192,117800,1,0,0:0:0:0:
475,192,117878,1,0,0:0:0:0:
182,192,117878,1,0,0:0:0:0:
109,192,117957,1,0,0:0:0:0:
256,192,117957,1,0,0:0:0:0:
36,192,118036,1,0,0:0:0:0:
329,192,118036,1,0,0:0:0:0:
402,192,118114,1,0,0:0:0:0:
109,192,118114,1,0,0:0:0:0:
182,192,118193,1,0,0:0:0:0:
475,192,118193,1,0,0:0:0:0:
402,192,118271,1,0,0:0:0:0:
256,192,118271,1,0,0:0:0:0:
36,192,118350,1,0,0:0:0:0:
329,192,118350,1,0,0:0:0:0:
109,192,118389,1,0,0:0:0:0:
182,192,118428,1,0,0:0:0:0:
256,192,118467,1,0,0:0:0:0:
475,192,118507,1,0,0:0:0:0:
402,192,118546,1,0,0:0:0:0:
329,192,118585,1,0,0:0:0:0:
256,192,118625,1,0,0:0:0:0:
109,192,118664,1,0,0:0:0:0:
36,192,118703,1,0,0:0:0:0:
402,192,118742,1,0,0:0:0:0:
329,192,118782,1,0,0:0:0:0:
182,192,118821,1,0,0:0:0:0:
109,192,118860,1,0,0:0:0:0:
475,192,118899,1,0,0:0:0:0:
402,192,118939,1,0,0:0:0:0:
36,192,118978,1,0,0:0:0:0:
109,192,119017,1,0,0:0:0:0:
182,192,119056,1,0,0:0:0:0:
329,192,119096,1,0,0:0:0:0:
402,192,119135,1,0,0:0:0:0:
475,192,119174,1,0,0:0:0:0:
256,192,119214,1,0,0:0:0:0:
182,192,119253,1,0,0:0:0:0:
109,192,119292,1,0,0:0:0:0:
36,192,119331,1,0,0:0:0:0:
475,192,119371,1,0,0:0:0:0:
402,192,119410,1,0,0:0:0:0:
329,192,119449,1,0,0:0:0:0:
109,192,119488,1,0,0:0:0:0:
182,192,119528,1,0,0:0:0:0:
256,192,119567,1,0,0:0:0:0:
329,192,119606,1,0,0:0:0:0:
402,192,119606,1,0,0:0:0:0:
36,192,119606,1,0,0:0:0:0:
475,192,119606,1,0,0:0:0:0:
109,192,119920,1,0,0:0:0:0:
182,192,119920,1,0,0:0:0:0:
329,192,119920,1,0,0:0:0:0:
402,192,119920,1,0,0:0:0:0:
402,192,120234,1,0,0:0:0:0:
256,192,120234,1,0,0:0:0:0:
109,192,120234,1,0,0:0:0:0:
109,192,120392,1,0,0:0:0:0:
402,192,120392,1,0,0:0:0:0:
329,192,120444,1,0,0:0:0:0:
182,192,120444,1,0,0:0:0:0:
256,192,120496,1,0,0:0:0:0:
36,192,120549,1,0,0:0:0:0:
109,192,120549,1,0,0:0:0:0:
402,192,120549,1,0,0:0:0:0:
475,192,120549,1,0,0:0:0:0:
109,192,120863,128,0,120941:0:0:0:0:
182,192,120863,128,0,120941:0:0:0:0:
402,192,120863,128,0,120941:0:0:0:0:
329,192,120863,128,0,120941:0:0:0:0:
109,192,121020,128,0,121098:0:0:0:0:
329,192,121020,128,0,121098:0:0:0:0:
402,192,121020,128,0,121098:0:0:0:0:
182,192,121020,128,0,121098:0:0:0:0:
36,192,121177,1,0,0:0:0:0:
475,192,121177,1,0,0:0:0:0:
109,192,121255,1,0,0:0:0:0:
402,192,121255,1,0,0:0:0:0:
182,192,121334,1,0,0:0:0:0:
329,192,121334,1,0,0:0:0:0:
256,192,121413,1,0,0:0:0:0:
402,192,121413,1,0,0:0:0:0:
329,192,121491,1,0,0:0:0:0:
475,192,121491,1,0,0:0:0:0:
36,192,121491,1,0,0:0:0:0:
109,192,121700,1,0,0:0:0:0:
256,192,121700,1,0,0:0:0:0:
402,192,121700,1,0,0:0:0:0:
36,192,121910,1,0,0:0:0:0:
329,192,121910,1,0,0:0:0:0:
475,192,121910,1,0,0:0:0:0:
109,192,122119,128,0,122198:0:0:0:0:
182,192,122119,128,0,122198:0:0:0:0:
329,192,122119,128,0,122198:0:0:0:0:
402,192,122119,128,0,122198:0:0:0:0:
329,192,122276,128,0,122355:0:0:0:0:
402,192,122276,128,0,122355:0:0:0:0:
182,192,122276,128,0,122355:0:0:0:0:
109,192,122276,128,0,122355:0:0:0:0:
109,192,122433,1,0,0:0:0:0:
475,192,122433,1,0,0:0:0:0:
402,192,122512,1,0,0:0:0:0:
36,192,122512,1,0,0:0:0:0:
329,192,122591,1,0,0:0:0:0:
182,192,122591,1,0,0:0:0:0:
256,192,122669,1,0,0:0:0:0:
109,192,122669,1,0,0:0:0:0:
36,192,122748,1,0,0:0:0:0:
475,192,122748,1,0,0:0:0:0:
329,192,122748,1,0,0:0:0:0:
109,192,122957,1,0,0:0:0:0:
256,192,122957,1,0,0:0:0:0:
329,192,122957,1,0,0:0:0:0:
36,192,123166,1,0,0:0:0:0:
182,192,123166,1,0,0:0:0:0:
402,192,123166,1,0,0:0:0:0:
109,192,123376,128,0,123454:0:0:0:0:
182,192,123376,128,0,123454:0:0:0:0:
402,192,123376,128,0,123454:0:0:0:0:
329,192,123376,128,0,123454:0:0:0:0:
109,192,123533,128,0,123611:0:0:0:0:
329,192,123533,128,0,123611:0:0:0:0:
402,192,123533,128,0,123611:0:0:0:0:
182,192,123533,128,0,123611:0:0:0:0:
329,192,123690,1,0,0:0:0:0:
36,192,123690,1,0,0:0:0:0:
109,192,123769,1,0,0:0:0:0:
402,192,123769,1,0,0:0:0:0:
182,192,123847,1,0,0:0:0:0:
329,192,123847,1,0,0:0:0:0:
109,192,123926,1,0,0:0:0:0:
256,192,123926,1,0,0:0:0:0:
36,192,124004,1,0,0:0:0:0:
182,192,124004,1,0,0:0:0:0:
475,192,124004,1,0,0:0:0:0:
109,192,124214,1,0,0:0:0:0:
256,192,124214,1,0,0:0:0:0:
402,192,124214,1,0,0:0:0:0:
36,192,124423,1,0,0:0:0:0:
329,192,124423,1,0,0:0:0:0:
475,192,124423,1,0,0:0:0:0:
36,192,124632,1,0,0:0:0:0:
256,192,124632,1,0,0:0:0:0:
402,192,124632,1,0,0:0:0:0:
182,192,124842,1,0,0:0:0:0:
329,192,124842,1,0,0:0:0:0:
475,192,124842,1,0,0:0:0:0:
402,192,125051,1,0,0:0:0:0:
36,192,125051,1,0,0:0:0:0:
256,192,125051,1,0,0:0:0:0:
475,192,125261,1,0,0:0:0:0:
109,192,125261,1,0,0:0:0:0:
256,192,125261,1,0,0:0:0:0:
402,192,125470,1,0,0:0:0:0:
36,192,125470,1,0,0:0:0:0:
182,192,125470,1,0,0:0:0:0:
109,192,125680,1,0,0:0:0:0:
256,192,125680,1,0,0:0:0:0:
475,192,125680,1,0,0:0:0:0:
109,192,125889,128,0,125967:0:0:0:0:
182,192,125889,128,0,125967:0:0:0:0:
402,192,125889,128,0,125967:0:0:0:0:
329,192,125889,128,0,125967:0:0:0:0:
109,192,126046,128,0,126125:0:0:0:0:
329,192,126046,128,0,126125:0:0:0:0:
402,192,126046,128,0,126125:0:0:0:0:
182,192,126046,128,0,126125:0:0:0:0:
36,192,126203,1,0,0:0:0:0:
182,192,126203,1,0,0:0:0:0:
109,192,126282,1,0,0:0:0:0:
256,192,126282,1,0,0:0:0:0:
182,192,126360,1,0,0:0:0:0:
329,192,126360,1,0,0:0:0:0:
256,192,126439,1,0,0:0:0:0:
402,192,126439,1,0,0:0:0:0:
329,192,126517,1,0,0:0:0:0:
475,192,126517,1,0,0:0:0:0:
36,192,126517,1,0,0:0:0:0:
109,192,126727,1,0,0:0:0:0:
256,192,126727,1,0,0:0:0:0:
402,192,126727,1,0,0:0:0:0:
36,192,126936,1,0,0:0:0:0:
329,192,126936,1,0,0:0:0:0:
475,192,126936,1,0,0:0:0:0:
109,192,127145,128,0,127224:0:0:0:0:
182,192,127145,128,0,127224:0:0:0:0:
329,192,127145,128,0,127224:0:0:0:0:
402,192,127145,128,0,127224:0:0:0:0:
329,192,127303,128,0,127381:0:0:0:0:
402,192,127303,128,0,127381:0:0:0:0:
182,192,127303,128,0,127381:0:0:0:0:
109,192,127303,128,0,127381:0:0:0:0:
329,192,127460,1,0,0:0:0:0:
475,192,127460,1,0,0:0:0:0:
402,192,127538,1,0,0:0:0:0:
256,192,127538,1,0,0:0:0:0:
329,192,127617,1,0,0:0:0:0:
182,192,127617,1,0,0:0:0:0:
256,192,127695,1,0,0:0:0:0:
109,192,127695,1,0,0:0:0:0:
36,192,127774,1,0,0:0:0:0:
182,192,127774,1,0,0:0:0:0:
475,192,127774,1,0,0:0:0:0:
109,192,127983,1,0,0:0:0:0:
256,192,127983,1,0,0:0:0:0:
329,192,127983,1,0,0:0:0:0:
36,192,128193,1,0,0:0:0:0:
182,192,128193,1,0,0:0:0:0:
402,192,128193,1,0,0:0:0:0:
109,192,128402,128,0,128481:0:0:0:0:
182,192,128402,128,0,128481:0:0:0:0:
402,192,128402,128,0,128481:0:0:0:0:
329,192,128402,128,0,128481:0:0:0:0:
109,192,128559,128,0,128638:0:0:0:0:
329,192,128559,128,0,128638:0:0:0:0:
402,192,128559,128,0,128638:0:0:0:0:
182,192,128559,128,0,128638:0:0:0:0:
256,192,128716,1,0,0:0:0:0:
109,192,128716,1,0,0:0:0:0:
36,192,128795,1,0,0:0:0:0:
182,192,128795,1,0,0:0:0:0:
329,192,128873,1,0,0:0:0:0:
475,192,128873,1,0,0:0:0:0:
256,192,128952,1,0,0:0:0:0:
402,192,128952,1,0,0:0:0:0:
109,192,129030,1,0,0:0:0:0:
182,192,129030,1,0,0:0:0:0:
329,192,129030,1,0,0:0:0:0:
402,192,129240,1,0,0:0:0:0:
36,192,129240,1,0,0:0:0:0:
256,192,129240,1,0,0:0:0:0:
109,192,129449,1,0,0:0:0:0:
182,192,129449,1,0,0:0:0:0:
329,192,129449,1,0,0:0:0:0:
329,192,129659,1,0,0:0:0:0:
256,192,129659,1,0,0:0:0:0:
109,192,129737,1,0,0:0:0:0:
182,192,129816,1,0,0:0:0:0:
402,192,129868,1,0,0:0:0:0:
329,192,129868,1,0,0:0:0:0:
36,192,129894,1,0,0:0:0:0:
109,192,129973,1,0,0:0:0:0:
402,192,130077,1,0,0:0:0:0:
475,192,130077,1,0,0:0:0:0:
182,192,130130,1,0,0:0:0:0:
329,192,130208,1,0,0:0:0:0:
109,192,130287,1,0,0:0:0:0:
36,192,130287,1,0,0:0:0:0:
402,192,130365,1,0,0:0:0:0:
475,192,130444,1,0,0:0:0:0:
182,192,130496,1,0,0:0:0:0:
109,192,130496,1,0,0:0:0:0:
256,192,130706,1,0,0:0:0:0:
182,192,130706,1,0,0:0:0:0:
402,192,130706,1,0,0:0:0:0:
475,192,130915,128,0,131072:0:0:0:0:
329,192,130915,128,0,131072:0:0:0:0:
109,192,130915,128,0,131072:0:0:0:0:
256,192,130915,128,0,131072:0:0:0:0:
475,192,131229,128,0,131386:0:0:0:0:
329,192,131229,128,0,131386:0:0:0:0:
256,192,131229,128,0,131386:0:0:0:0:
109,192,131229,128,0,131386:0:0:0:0:
475,192,131858,1,0,0:0:0:0:
36,192,131858,1,0,0:0:0:0:
109,192,131936,1,0,0:0:0:0:
402,192,131936,1,0,0:0:0:0:
182,192,132015,1,0,0:0:0:0:
329,192,132015,1,0,0:0:0:0:
402,192,132093,1,0,0:0:0:0:
256,192,132093,1,0,0:0:0:0:
109,192,132172,128,0,132329:0:0:0:0:
475,192,132172,128,0,132329:0:0:0:0:
329,192,132172,128,0,132329:0:0:0:0:
182,192,132172,128,0,132329:0:0:0:0:
109,192,132486,128,0,132643:0:0:0:0:
329,192,132486,128,0,132643:0:0:0:0:
475,192,132486,128,0,132643:0:0:0:0:
182,192,132486,128,0,132643:0:0:0:0:
109,192,133114,1,0,0:0:0:0:
475,192,133114,1,0,0:0:0:0:
36,192,133193,1,0,0:0:0:0:
402,192,133193,1,0,0:0:0:0:
182,192,133271,1,0,0:0:0:0:
329,192,133271,1,0,0:0:0:0:
475,192,133350,1,0,0:0:0:0:
109,192,133350,1,0,0:0:0:0:
182,192,133428,128,0,133585:0:0:0:0:
36,192,133428,128,0,133585:0:0:0:0:
329,192,133428,128,0,133585:0:0:0:0:
256,192,133428,128,0,133585:0:0:0:0:
329,192,133742,128,0,133899:0:0:0:0:
256,192,133742,128,0,133899:0:0:0:0:
36,192,133742,128,0,133899:0:0:0:0:
182,192,133742,128,0,133899:0:0:0:0:
329,192,134371,1,0,0:0:0:0:
475,192,134371,1,0,0:0:0:0:
402,192,134449,1,0,0:0:0:0:
109,192,134449,1,0,0:0:0:0:
182,192,134528,1,0,0:0:0:0:
329,192,134528,1,0,0:0:0:0:
109,192,134606,1,0,0:0:0:0:
256,192,134606,1,0,0:0:0:0:
182,192,134685,1,0,0:0:0:0:
402,192,134685,1,0,0:0:0:0:
36,192,134685,1,0,0:0:0:0:
109,192,134894,1,0,0:0:0:0:
256,192,134894,1,0,0:0:0:0:
475,192,134894,1,0,0:0:0:0:
402,192,135104,1,0,0:0:0:0:
329,192,135104,1,0,0:0:0:0:
36,192,135104,1,0,0:0:0:0:
475,192,135313,1,0,0:0:0:0:
109,192,135313,1,0,0:0:0:0:
182,192,135313,1,0,0:0:0:0:
182,192,135522,1,0,0:0:0:0:
329,192,135522,1,0,0:0:0:0:
36,192,135522,1,0,0:0:0:0:
182,192,135732,1,0,0:0:0:0:
329,192,135732,1,0,0:0:0:0:
475,192,135732,1,0,0:0:0:0:
402,192,135941,128,0,136098:0:0:0:0:
329,192,135941,128,0,136098:0:0:0:0:
109,192,135941,128,0,136098:0:0:0:0:
36,192,135941,128,0,136098:0:0:0:0:
402,192,136255,128,0,136413:0:0:0:0:
329,192,136255,128,0,136413:0:0:0:0:
109,192,136255,128,0,136413:0:0:0:0:
36,192,136255,128,0,136413:0:0:0:0:
475,192,136884,1,0,0:0:0:0:
36,192,136884,1,0,0:0:0:0:
109,192,136962,1,0,0:0:0:0:
402,192,136962,1,0,0:0:0:0:
182,192,137041,1,0,0:0:0:0:
329,192,137041,1,0,0:0:0:0:
475,192,137119,1,0,0:0:0:0:
256,192,137119,1,0,0:0:0:0:
109,192,137198,128,0,137355:0:0:0:0:
402,192,137198,128,0,137355:0:0:0:0:
329,192,137198,128,0,137355:0:0:0:0:
36,192,137198,128,0,137355:0:0:0:0:
109,192,137512,128,0,137669:0:0:0:0:
329,192,137512,128,0,137669:0:0:0:0:
402,192,137512,128,0,137669:0:0:0:0:
36,192,137512,128,0,137669:0:0:0:0:
109,192,138140,1,0,0:0:0:0:
475,192,138140,1,0,0:0:0:0:
36,192,138219,1,0,0:0:0:0:
402,192,138219,1,0,0:0:0:0:
182,192,138297,1,0,0:0:0:0:
329,192,138297,1,0,0:0:0:0:
256,192,138376,1,0,0:0:0:0:
109,192,138376,1,0,0:0:0:0:
182,192,138454,128,0,138611:0:0:0:0:
36,192,138454,128,0,138611:0:0:0:0:
402,192,138454,128,0,138611:0:0:0:0:
475,192,138454,128,0,138611:0:0:0:0:
402,192,138769,128,0,138926:0:0:0:0:
475,192,138769,128,0,138926:0:0:0:0:
36,192,138769,128,0,138926:0:0:0:0:
182,192,138769,128,0,138926:0:0:0:0:
36,192,139083,1,0,0:0:0:0:
182,192,139083,1,0,0:0:0:0:
475,192,139083,1,0,0:0:0:0:
109,192,139292,1,0,0:0:0:0:
256,192,139292,1,0,0:0:0:0:
402,192,139292,1,0,0:0:0:0:
36,192,139502,1,0,0:0:0:0:
329,192,139502,1,0,0:0:0:0:
475,192,139502,1,0,0:0:0:0:
109,192,139711,1,0,0:0:0:0:
256,192,139711,1,0,0:0:0:0:
402,192,139711,1,0,0:0:0:0:
36,192,139711,1,0,0:0:0:0:
182,192,139920,1,0,0:0:0:0:
329,192,139920,1,0,0:0:0:0:
36,192,139920,1,0,0:0:0:0:
475,192,139920,1,0,0:0:0:0:
402,192,140130,1,0,0:0:0:0:
475,192,140130,1,0,0:0:0:0:
256,192,140130,1,0,0:0:0:0:
36,192,140130,1,0,0:0:0:0:
109,192,140339,1,0,0:0:0:0:
182,192,140339,1,0,0:0:0:0:
329,192,140339,1,0,0:0:0:0:
475,192,140339,1,0,0:0:0:0:
36,192,140496,1,0,0:0:0:0:
402,192,140549,1,0,0:0:0:0:
475,192,140549,1,0,0:0:0:0:
256,192,140549,1,0,0:0:0:0:
109,192,140575,1,0,0:0:0:0:
182,192,140653,1,0,0:0:0:0:
36,192,140732,1,0,0:0:0:0:
402,192,140758,1,0,0:0:0:0:
475,192,140758,1,0,0:0:0:0:
329,192,140758,1,0,0:0:0:0:
109,192,140810,1,0,0:0:0:0:
182,192,140889,1,0,0:0:0:0:
109,192,140967,128,0,141125:0:0:0:0:
475,192,140967,128,0,141125:0:0:0:0:
329,192,140967,128,0,141125:0:0:0:0:
256,192,140967,128,0,141125:0:0:0:0:
256,192,141282,128,0,141439:0:0:0:0:
109,192,141282,128,0,141439:0:0:0:0:
475,192,141282,128,0,141439:0:0:0:0:
329,192,141282,128,0,141439:0:0:0:0:
36,192,141596,1,0,0:0:0:0:
475,192,141596,1,0,0:0:0:0:
36,192,141910,1,0,0:0:0:0:
475,192,141910,1,0,0:0:0:0:
256,192,141910,1,0,0:0:0:0:
182,192,141988,1,0,0:0:0:0:
402,192,141988,1,0,0:0:0:0:
109,192,142067,1,0,0:0:0:0:
329,192,142067,1,0,0:0:0:0:
182,192,142145,1,0,0:0:0:0:
402,192,142145,1,0,0:0:0:0:
109,192,142224,128,0,142381:0:0:0:0:
256,192,142224,128,0,142381:0:0:0:0:
475,192,142224,128,0,142381:0:0:0:0:
36,192,142224,128,0,142381:0:0:0:0:
109,192,142538,128,0,142695:0:0:0:0:
256,192,142538,128,0,142695:0:0:0:0:
475,192,142538,128,0,142695:0:0:0:0:
36,192,142538,128,0,142695:0:0:0:0:
36,192,142852,1,0,0:0:0:0:
475,192,142852,1,0,0:0:0:0:
36,192,143166,1,0,0:0:0:0:
329,192,143166,1,0,0:0:0:0:
475,192,143166,1,0,0:0:0:0:
402,192,143245,1,0,0:0:0:0:
256,192,143245,1,0,0:0:0:0:
182,192,143324,1,0,0:0:0:0:
329,192,143324,1,0,0:0:0:0:
109,192,143402,1,0,0:0:0:0:
256,192,143402,1,0,0:0:0:0:
182,192,143481,128,0,143638:0:0:0:0:
402,192,143481,128,0,143638:0:0:0:0:
475,192,143481,128,0,143638:0:0:0:0:
36,192,143481,128,0,143638:0:0:0:0:
182,192,143795,128,0,143952:0:0:0:0:
402,192,143795,128,0,143952:0:0:0:0:
475,192,143795,128,0,143952:0:0:0:0:
36,192,143795,128,0,143952:0:0:0:0:
36,192,144109,1,0,0:0:0:0:
475,192,144109,1,0,0:0:0:0:
36,192,144423,1,0,0:0:0:0:
256,192,144423,1,0,0:0:0:0:
329,192,144502,1,0,0:0:0:0:
475,192,144502,1,0,0:0:0:0:
182,192,144580,1,0,0:0:0:0:
402,192,144580,1,0,0:0:0:0:
109,192,144659,1,0,0:0:0:0:
329,192,144659,1,0,0:0:0:0:
36,192,144737,1,0,0:0:0:0:
182,192,144737,1,0,0:0:0:0:
475,192,144737,1,0,0:0:0:0:
256,192,144737,1,0,0:0:0:0:
109,192,144947,1,0,0:0:0:0:
256,192,144947,1,0,0:0:0:0:
329,192,144947,1,0,0:0:0:0:
36,192,145051,1,0,0:0:0:0:
475,192,145051,1,0,0:0:0:0:
109,192,145156,1,0,0:0:0:0:
256,192,145156,1,0,0:0:0:0:
402,192,145156,1,0,0:0:0:0:
182,192,145365,1,0,0:0:0:0:
256,192,145365,1,0,0:0:0:0:
329,192,145365,1,0,0:0:0:0:
109,192,145575,1,0,0:0:0:0:
256,192,145575,1,0,0:0:0:0:
402,192,145575,1,0,0:0:0:0:
182,192,145680,1,0,0:0:0:0:
329,192,145680,1,0,0:0:0:0:
256,192,145784,1,0,0:0:0:0:
36,192,145784,1,0,0:0:0:0:
475,192,145784,1,0,0:0:0:0:
402,192,145837,1,0,0:0:0:0:
329,192,145915,1,0,0:0:0:0:
36,192,145994,1,0,0:0:0:0:
109,192,145994,1,0,0:0:0:0:
256,192,145994,1,0,0:0:0:0:
475,192,145994,1,0,0:0:0:0:
182,192,145994,1,0,0:0:0:0:
402,192,146072,1,0,0:0:0:0:
329,192,146151,1,0,0:0:0:0:
36,192,146151,1,0,0:0:0:0:
256,192,146229,1,0,0:0:0:0:
109,192,146308,1,0,0:0:0:0:
329,192,146308,1,0,0:0:0:0:
402,192,146308,1,0,0:0:0:0:
256,192,146386,1,0,0:0:0:0:
475,192,146386,1,0,0:0:0:0:
182,192,146465,1,0,0:0:0:0:
402,192,146465,1,0,0:0:0:0:
109,192,146543,1,0,0:0:0:0:
329,192,146543,1,0,0:0:0:0:
475,192,146622,1,0,0:0:0:0:
402,192,146622,1,0,0:0:0:0:
256,192,146622,1,0,0:0:0:0:
36,192,146622,1,0,0:0:0:0:
109,192,146700,1,0,0:0:0:0:
182,192,146779,1,0,0:0:0:0:
256,192,146858,1,0,0:0:0:0:
329,192,146858,1,0,0:0:0:0:
109,192,146936,1,0,0:0:0:0:
182,192,146936,1,0,0:0:0:0:
402,192,146936,1,0,0:0:0:0:
256,192,147015,1,0,0:0:0:0:
329,192,147093,1,0,0:0:0:0:
475,192,147093,1,0,0:0:0:0:
402,192,147172,1,0,0:0:0:0:
109,192,147250,1,0,0:0:0:0:
182,192,147250,1,0,0:0:0:0:
256,192,147250,1,0,0:0:0:0:
36,192,147250,1,0,0:0:0:0:
329,192,147329,1,0,0:0:0:0:
256,192,147407,1,0,0:0:0:0:
36,192,147407,1,0,0:0:0:0:
182,192,147486,1,0,0:0:0:0:
109,192,147564,1,0,0:0:0:0:
402,192,147564,1,0,0:0:0:0:
329,192,147564,1,0,0:0:0:0:
256,192,147643,1,0,0:0:0:0:
475,192,147643,1,0,0:0:0:0:
182,192,147721,1,0,0:0:0:0:
402,192,147721,1,0,0:0:0:0:
109,192,147800,1,0,0:0:0:0:
329,192,147800,1,0,0:0:0:0:
256,192,147878,1,0,0:0:0:0:
402,192,147878,1,0,0:0:0:0:
475,192,147878,1,0,0:0:0:0:
36,192,147878,1,0,0:0:0:0:
182,192,147957,1,0,0:0:0:0:
256,192,148036,1,0,0:0:0:0:
329,192,148114,1,0,0:0:0:0:
36,192,148114,1,0,0:0:0:0:
402,192,148193,1,0,0:0:0:0:
109,192,148193,1,0,0:0:0:0:
182,192,148193,1,0,0:0:0:0:
256,192,148271,1,0,0:0:0:0:
329,192,148350,1,0,0:0:0:0:
36,192,148350,1,0,0:0:0:0:
402,192,148428,1,0,0:0:0:0:
475,192,148507,1,0,0:0:0:0:
36,192,148507,1,0,0:0:0:0:
329,192,148507,1,0,0:0:0:0:
109,192,148546,1,0,0:0:0:0:
182,192,148585,1,0,0:0:0:0:
256,192,148625,1,0,0:0:0:0:
475,192,148664,1,0,0:0:0:0:
402,192,148703,1,0,0:0:0:0:
329,192,148742,1,0,0:0:0:0:
256,192,148782,1,0,0:0:0:0:
109,192,148821,1,0,0:0:0:0:
36,192,148860,1,0,0:0:0:0:
402,192,148899,1,0,0:0:0:0:
329,192,148939,1,0,0:0:0:0:
182,192,148978,1,0,0:0:0:0:
109,192,149017,1,0,0:0:0:0:
475,192,149056,1,0,0:0:0:0:
402,192,149096,1,0,0:0:0:0:
36,192,149135,1,0,0:0:0:0:
109,192,149174,1,0,0:0:0:0:
182,192,149214,1,0,0:0:0:0:
256,192,149253,1,0,0:0:0:0:
329,192,149292,1,0,0:0:0:0:
402,192,149331,1,0,0:0:0:0:
475,192,149371,1,0,0:0:0:0:
182,192,149410,1,0,0:0:0:0:
109,192,149449,1,0,0:0:0:0:
36,192,149488,1,0,0:0:0:0:
475,192,149528,1,0,0:0:0:0:
402,192,149567,1,0,0:0:0:0:
329,192,149606,1,0,0:0:0:0:
109,192,149645,1,0,0:0:0:0:
182,192,149685,1,0,0:0:0:0:
256,192,149724,1,0,0:0:0:0:
329,192,149763,1,0,0:0:0:0:
36,192,149763,1,0,0:0:0:0:
475,192,149763,1,0,0:0:0:0:
109,192,150077,1,0,0:0:0:0:
182,192,150077,1,0,0:0:0:0:
329,192,150077,1,0,0:0:0:0:
402,192,150077,1,0,0:0:0:0:
402,192,150392,1,0,0:0:0:0:
256,192,150392,1,0,0:0:0:0:
109,192,150392,1,0,0:0:0:0:
109,192,150549,1,0,0:0:0:0:
402,192,150549,1,0,0:0:0:0:
182,192,150549,1,0,0:0:0:0:
329,192,150549,1,0,0:0:0:0:
36,192,150706,1,0,0:0:0:0:
182,192,150706,1,0,0:0:0:0:
329,192,150706,1,0,0:0:0:0:
475,192,150706,1,0,0:0:0:0:
256,192,150706,1,0,0:0:0:0:
109,192,151020,1,0,0:0:0:0:
182,192,151020,1,0,0:0:0:0:
402,192,151020,1,0,0:0:0:0:
256,192,151020,1,0,0:0:0:0:
109,192,151177,1,0,0:0:0:0:
402,192,151177,1,0,0:0:0:0:
256,192,151177,1,0,0:0:0:0:
109,192,151334,1,0,0:0:0:0:
182,192,151334,1,0,0:0:0:0:
475,192,151334,1,0,0:0:0:0:
256,192,151413,1,0,0:0:0:0:
402,192,151413,1,0,0:0:0:0:
36,192,151491,1,0,0:0:0:0:
329,192,151491,1,0,0:0:0:0:
402,192,151570,1,0,0:0:0:0:
109,192,151648,1,0,0:0:0:0:
182,192,151648,1,0,0:0:0:0:
475,192,151648,1,0,0:0:0:0:
36,192,151805,1,0,0:0:0:0:
402,192,151858,1,0,0:0:0:0:
182,192,151858,1,0,0:0:0:0:
36,192,151962,1,0,0:0:0:0:
475,192,151962,1,0,0:0:0:0:
329,192,152067,1,0,0:0:0:0:
109,192,152067,1,0,0:0:0:0:
475,192,152119,1,0,0:0:0:0:
402,192,152276,1,0,0:0:0:0:
256,192,152276,1,0,0:0:0:0:
109,192,152276,1,0,0:0:0:0:
182,192,152276,1,0,0:0:0:0:
256,192,152433,1,0,0:0:0:0:
402,192,152433,1,0,0:0:0:0:
109,192,152433,1,0,0:0:0:0:
475,192,152591,1,0,0:0:0:0:
182,192,152591,1,0,0:0:0:0:
109,192,152591,1,0,0:0:0:0:
402,192,152669,1,0,0:0:0:0:
256,192,152669,1,0,0:0:0:0:
329,192,152748,1,0,0:0:0:0:
36,192,152748,1,0,0:0:0:0:
475,192,152826,1,0,0:0:0:0:
109,192,152905,1,0,0:0:0:0:
256,192,152905,1,0,0:0:0:0:
402,192,152905,1,0,0:0:0:0:
475,192,153062,1,0,0:0:0:0:
109,192,153114,1,0,0:0:0:0:
36,192,153114,1,0,0:0:0:0:
329,192,153219,1,0,0:0:0:0:
402,192,153219,1,0,0:0:0:0:
109,192,153324,1,0,0:0:0:0:
36,192,153324,1,0,0:0:0:0:
475,192,153376,1,0,0:0:0:0:
109,192,153533,1,0,0:0:0:0:
182,192,153533,1,0,0:0:0:0:
402,192,153533,1,0,0:0:0:0:
329,192,153533,1,0,0:0:0:0:
109,192,153690,1,0,0:0:0:0:
402,192,153690,1,0,0:0:0:0:
329,192,153690,1,0,0:0:0:0:
109,192,153847,1,0,0:0:0:0:
182,192,153847,1,0,0:0:0:0:
475,192,153847,1,0,0:0:0:0:
256,192,153926,1,0,0:0:0:0:
402,192,153926,1,0,0:0:0:0:
36,192,154004,1,0,0:0:0:0:
329,192,154004,1,0,0:0:0:0:
256,192,154083,1,0,0:0:0:0:
109,192,154161,1,0,0:0:0:0:
182,192,154161,1,0,0:0:0:0:
475,192,154161,1,0,0:0:0:0:
36,192,154318,1,0,0:0:0:0:
329,192,154371,1,0,0:0:0:0:
256,192,154371,1,0,0:0:0:0:
109,192,154475,1,0,0:0:0:0:
36,192,154475,1,0,0:0:0:0:
402,192,154580,1,0,0:0:0:0:
475,192,154580,1,0,0:0:0:0:
182,192,154632,1,0,0:0:0:0:
402,192,154789,1,0,0:0:0:0:
256,192,154789,1,0,0:0:0:0:
109,192,154789,1,0,0:0:0:0:
182,192,154789,1,0,0:0:0:0:
475,192,154947,1,0,0:0:0:0:
256,192,154999,1,0,0:0:0:0:
329,192,154999,1,0,0:0:0:0:
402,192,155104,1,0,0:0:0:0:
182,192,155104,1,0,0:0:0:0:
109,192,155104,1,0,0:0:0:0:
256,192,155208,1,0,0:0:0:0:
329,192,155208,1,0,0:0:0:0:
475,192,155261,1,0,0:0:0:0:
36,192,155418,1,0,0:0:0:0:
475,192,155418,1,0,0:0:0:0:
182,192,155418,1,0,0:0:0:0:
329,192,155418,1,0,0:0:0:0:
109,192,155496,1,0,0:0:0:0:
402,192,155575,1,0,0:0:0:0:
329,192,155614,1,0,0:0:0:0:
36,192,155627,1,0,0:0:0:0:
475,192,155627,1,0,0:0:0:0:
256,192,155653,1,0,0:0:0:0:
182,192,155693,1,0,0:0:0:0:
109,192,155732,1,0,0:0:0:0:
329,192,155810,1,0,0:0:0:0:
475,192,155837,1,0,0:0:0:0:
36,192,155837,1,0,0:0:0:0:
182,192,155837,1,0,0:0:0:0:
109,192,156046,1,0,0:0:0:0:
182,192,156046,1,0,0:0:0:0:
402,192,156046,1,0,0:0:0:0:
256,192,156046,1,0,0:0:0:0:
109,192,156203,1,0,0:0:0:0:
402,192,156203,1,0,0:0:0:0:
256,192,156203,1,0,0:0:0:0:
109,192,156360,1,0,0:0:0:0:
182,192,156360,1,0,0:0:0:0:
475,192,156360,1,0,0:0:0:0:
256,192,156439,1,0,0:0:0:0:
402,192,156439,1,0,0:0:0:0:
36,192,156517,1,0,0:0:0:0:
329,192,156517,1,0,0:0:0:0:
402,192,156596,1,0,0:0:0:0:
109,192,156674,1,0,0:0:0:0:
182,192,156674,1,0,0:0:0:0:
475,192,156674,1,0,0:0:0:0:
256,192,156831,1,0,0:0:0:0:
329,192,156884,1,0,0:0:0:0:
182,192,156884,1,0,0:0:0:0:
36,192,156988,1,0,0:0:0:0:
475,192,156988,1,0,0:0:0:0:
182,192,157093,1,0,0:0:0:0:
329,192,157093,1,0,0:0:0:0:
256,192,157145,1,0,0:0:0:0:
402,192,157303,1,0,0:0:0:0:
256,192,157303,1,0,0:0:0:0:
109,192,157303,1,0,0:0:0:0:
182,192,157303,1,0,0:0:0:0:
256,192,157460,1,0,0:0:0:0:
402,192,157460,1,0,0:0:0:0:
109,192,157460,1,0,0:0:0:0:
475,192,157617,1,0,0:0:0:0:
182,192,157617,1,0,0:0:0:0:
109,192,157617,1,0,0:0:0:0:
402,192,157695,1,0,0:0:0:0:
256,192,157695,1,0,0:0:0:0:
329,192,157774,1,0,0:0:0:0:
36,192,157774,1,0,0:0:0:0:
475,192,157852,1,0,0:0:0:0:
109,192,157931,1,0,0:0:0:0:
329,192,157931,1,0,0:0:0:0:
402,192,157931,1,0,0:0:0:0:
475,192,158088,1,0,0:0:0:0:
109,192,158140,1,0,0:0:0:0:
36,192,158140,1,0,0:0:0:0:
329,192,158245,1,0,0:0:0:0:
182,192,158245,1,0,0:0:0:0:
109,192,158350,1,0,0:0:0:0:
36,192,158350,1,0,0:0:0:0:
475,192,158402,1,0,0:0:0:0:
109,192,158559,1,0,0:0:0:0:
182,192,158559,1,0,0:0:0:0:
402,192,158559,1,0,0:0:0:0:
329,192,158559,1,0,0:0:0:0:
109,192,158716,1,0,0:0:0:0:
402,192,158716,1,0,0:0:0:0:
329,192,158716,1,0,0:0:0:0:
109,192,158873,1,0,0:0:0:0:
182,192,158873,1,0,0:0:0:0:
475,192,158873,1,0,0:0:0:0:
256,192,158952,1,0,0:0:0:0:
402,192,158952,1,0,0:0:0:0:
36,192,159030,1,0,0:0:0:0:
329,192,159030,1,0,0:0:0:0:
256,192,159109,1,0,0:0:0:0:
109,192,159187,1,0,0:0:0:0:
182,192,159187,1,0,0:0:0:0:
475,192,159187,1,0,0:0:0:0:
36,192,159344,1,0,0:0:0:0:
402,192,159397,1,0,0:0:0:0:
256,192,159397,1,0,0:0:0:0:
182,192,159502,1,0,0:0:0:0:
475,192,159502,1,0,0:0:0:0:
402,192,159606,1,0,0:0:0:0:
256,192,159606,1,0,0:0:0:0:
36,192,159659,1,0,0:0:0:0:
402,192,159816,1,0,0:0:0:0:
256,192,159816,1,0,0:0:0:0:
109,192,159816,1,0,0:0:0:0:
182,192,159816,1,0,0:0:0:0:
36,192,159973,1,0,0:0:0:0:
402,192,160025,1,0,0:0:0:0:
182,192,160025,1,0,0:0:0:0:
256,192,160025,1,0,0:0:0:0:
475,192,160130,1,0,0:0:0:0:
36,192,160130,1,0,0:0:0:0:
109,192,160234,1,0,0:0:0:0:
256,192,160234,1,0,0:0:0:0:
329,192,160234,1,0,0:0:0:0:
475,192,160287,1,0,0:0:0:0:
182,192,160444,1,0,0:0:0:0:
36,192,160444,1,0,0:0:0:0:
402,192,160444,1,0,0:0:0:0:
109,192,160444,1,0,0:0:0:0:
256,192,160601,1,0,0:0:0:0:
402,192,160653,1,0,0:0:0:0:
475,192,160653,1,0,0:0:0:0:
36,192,160680,1,0,0:0:0:0:
182,192,160758,1,0,0:0:0:0:
329,192,160758,1,0,0:0:0:0:
475,192,160837,1,0,0:0:0:0:
109,192,160863,1,0,0:0:0:0:
36,192,160863,1,0,0:0:0:0:
256,192,160915,1,0,0:0:0:0:
402,192,160994,1,0,0:0:0:0:
475,192,161072,1,0,0:0:0:0:
329,192,161072,1,0,0:0:0:0:
182,192,161072,1,0,0:0:0:0:
36,192,161072,1,0,0:0:0:0:
475,192,161229,1,0,0:0:0:0:
182,192,161229,1,0,0:0:0:0:
36,192,161229,1,0,0:0:0:0:
402,192,161386,1,0,0:0:0:0:
329,192,161386,1,0,0:0:0:0:
36,192,161386,1,0,0:0:0:0:
109,192,161465,1,0,0:0:0:0:
256,192,161465,1,0,0:0:0:0:
475,192,161543,1,0,0:0:0:0:
182,192,161543,1,0,0:0:0:0:
256,192,161622,1,0,0:0:0:0:
402,192,161700,1,0,0:0:0:0:
329,192,161700,1,0,0:0:0:0:
36,192,161700,1,0,0:0:0:0:
475,192,161858,1,0,0:0:0:0:
329,192,161910,1,0,0:0:0:0:
182,192,161910,1,0,0:0:0:0:
402,192,162015,1,0,0:0:0:0:
256,192,162015,1,0,0:0:0:0:
36,192,162119,1,0,0:0:0:0:
182,192,162119,1,0,0:0:0:0:
475,192,162172,1,0,0:0:0:0:
402,192,162329,1,0,0:0:0:0:
329,192,162329,1,0,0:0:0:0:
256,192,162329,1,0,0:0:0:0:
109,192,162329,1,0,0:0:0:0:
402,192,162486,1,0,0:0:0:0:
109,192,162486,1,0,0:0:0:0:
256,192,162486,1,0,0:0:0:0:
36,192,162643,1,0,0:0:0:0:
329,192,162643,1,0,0:0:0:0:
402,192,162643,1,0,0:0:0:0:
256,192,162721,1,0,0:0:0:0:
109,192,162721,1,0,0:0:0:0:
475,192,162800,1,0,0:0:0:0:
182,192,162800,1,0,0:0:0:0:
36,192,162878,1,0,0:0:0:0:
329,192,162957,1,0,0:0:0:0:
402,192,162957,1,0,0:0:0:0:
256,192,162957,1,0,0:0:0:0:
36,192,163114,1,0,0:0:0:0:
329,192,163166,1,0,0:0:0:0:
182,192,163166,1,0,0:0:0:0:
109,192,163271,1,0,0:0:0:0:
256,192,163271,1,0,0:0:0:0:
475,192,163376,1,0,0:0:0:0:
329,192,163376,1,0,0:0:0:0:
36,192,163428,1,0,0:0:0:0:
402,192,163585,1,0,0:0:0:0:
329,192,163585,1,0,0:0:0:0:
182,192,163585,1,0,0:0:0:0:
109,192,163585,1,0,0:0:0:0:
402,192,163742,1,0,0:0:0:0:
182,192,163742,1,0,0:0:0:0:
109,192,163742,1,0,0:0:0:0:
402,192,163899,1,0,0:0:0:0:
329,192,163899,1,0,0:0:0:0:
36,192,163899,1,0,0:0:0:0:
109,192,163978,1,0,0:0:0:0:
256,192,163978,1,0,0:0:0:0:
475,192,164056,1,0,0:0:0:0:
182,192,164056,1,0,0:0:0:0:
109,192,164135,1,0,0:0:0:0:
402,192,164214,1,0,0:0:0:0:
329,192,164214,1,0,0:0:0:0:
36,192,164214,1,0,0:0:0:0:
182,192,164371,1,0,0:0:0:0:
36,192,164423,1,0,0:0:0:0:
475,192,164423,1,0,0:0:0:0:
182,192,164528,1,0,0:0:0:0:
329,192,164528,1,0,0:0:0:0:
36,192,164632,1,0,0:0:0:0:
475,192,164632,1,0,0:0:0:0:
329,192,164685,1,0,0:0:0:0:
402,192,164842,1,0,0:0:0:0:
329,192,164842,1,0,0:0:0:0:
256,192,164842,1,0,0:0:0:0:
109,192,164842,1,0,0:0:0:0:
36,192,164999,1,0,0:0:0:0:
109,192,165051,1,0,0:0:0:0:
475,192,165051,1,0,0:0:0:0:
402,192,165051,1,0,0:0:0:0:
256,192,165156,1,0,0:0:0:0:
329,192,165156,1,0,0:0:0:0:
182,192,165156,1,0,0:0:0:0:
402,192,165261,1,0,0:0:0:0:
109,192,165261,1,0,0:0:0:0:
36,192,165261,1,0,0:0:0:0:
475,192,165313,1,0,0:0:0:0:
402,192,165470,1,0,0:0:0:0:
36,192,165470,1,0,0:0:0:0:
256,192,165470,1,0,0:0:0:0:
182,192,165470,1,0,0:0:0:0:
329,192,165627,1,0,0:0:0:0:
109,192,165680,1,0,0:0:0:0:
475,192,165680,1,0,0:0:0:0:
36,192,165680,1,0,0:0:0:0:
182,192,165784,1,0,0:0:0:0:
329,192,165784,1,0,0:0:0:0:
256,192,165784,1,0,0:0:0:0:
36,192,165889,1,0,0:0:0:0:
402,192,165889,1,0,0:0:0:0:
475,192,165889,1,0,0:0:0:0:
182,192,165941,1,0,0:0:0:0:
402,192,166098,1,0,0:0:0:0:
329,192,166098,1,0,0:0:0:0:
256,192,166098,1,0,0:0:0:0:
109,192,166098,1,0,0:0:0:0:
402,192,166255,1,0,0:0:0:0:
256,192,166255,1,0,0:0:0:0:
109,192,166255,1,0,0:0:0:0:
402,192,166413,1,0,0:0:0:0:
329,192,166413,1,0,0:0:0:0:
36,192,166413,1,0,0:0:0:0:
109,192,166491,1,0,0:0:0:0:
256,192,166491,1,0,0:0:0:0:
475,192,166570,1,0,0:0:0:0:
182,192,166570,1,0,0:0:0:0:
256,192,166648,1,0,0:0:0:0:
402,192,166727,1,0,0:0:0:0:
329,192,166727,1,0,0:0:0:0:
36,192,166727,1,0,0:0:0:0:
475,192,166884,1,0,0:0:0:0:
256,192,166936,1,0,0:0:0:0:
109,192,166936,1,0,0:0:0:0:
402,192,167041,1,0,0:0:0:0:
329,192,167041,1,0,0:0:0:0:
36,192,167145,1,0,0:0:0:0:
182,192,167145,1,0,0:0:0:0:
475,192,167198,1,0,0:0:0:0:
402,192,167355,1,0,0:0:0:0:
329,192,167355,1,0,0:0:0:0:
256,192,167355,1,0,0:0:0:0:
109,192,167355,1,0,0:0:0:0:
402,192,167512,1,0,0:0:0:0:
109,192,167512,1,0,0:0:0:0:
256,192,167512,1,0,0:0:0:0:
36,192,167669,1,0,0:0:0:0:
329,192,167669,1,0,0:0:0:0:
402,192,167669,1,0,0:0:0:0:
256,192,167748,1,0,0:0:0:0:
109,192,167748,1,0,0:0:0:0:
475,192,167826,1,0,0:0:0:0:
182,192,167826,1,0,0:0:0:0:
36,192,167905,1,0,0:0:0:0:
329,192,167983,1,0,0:0:0:0:
402,192,167983,1,0,0:0:0:0:
256,192,167983,1,0,0:0:0:0:
36,192,168140,1,0,0:0:0:0:
475,192,168193,1,0,0:0:0:0:
256,192,168193,1,0,0:0:0:0:
182,192,168297,1,0,0:0:0:0:
109,192,168297,1,0,0:0:0:0:
475,192,168402,1,0,0:0:0:0:
402,192,168402,1,0,0:0:0:0:
36,192,168454,1,0,0:0:0:0:
402,192,168611,1,0,0:0:0:0:
329,192,168611,1,0,0:0:0:0:
256,192,168611,1,0,0:0:0:0:
109,192,168611,1,0,0:0:0:0:
402,192,168769,1,0,0:0:0:0:
256,192,168769,1,0,0:0:0:0:
109,192,168769,1,0,0:0:0:0:
329,192,168926,1,0,0:0:0:0:
475,192,168926,1,0,0:0:0:0:
182,192,168926,1,0,0:0:0:0:
109,192,169004,1,0,0:0:0:0:
256,192,169004,1,0,0:0:0:0:
475,192,169083,1,0,0:0:0:0:
36,192,169083,1,0,0:0:0:0:
402,192,169083,1,0,0:0:0:0:
182,192,169161,1,0,0:0:0:0:
329,192,169240,1,0,0:0:0:0:
256,192,169240,1,0,0:0:0:0:
109,192,169240,1,0,0:0:0:0:
36,192,169397,1,0,0:0:0:0:
256,192,169449,1,0,0:0:0:0:
182,192,169449,1,0,0:0:0:0:
402,192,169554,1,0,0:0:0:0:
329,192,169554,1,0,0:0:0:0:
109,192,169659,1,0,0:0:0:0:
182,192,169659,1,0,0:0:0:0:
329,192,169711,1,0,0:0:0:0:
475,192,169868,1,0,0:0:0:0:
402,192,169868,1,0,0:0:0:0:
36,192,169868,1,0,0:0:0:0:
109,192,169868,1,0,0:0:0:0:
36,192,170077,1,0,0:0:0:0:
109,192,170077,1,0,0:0:0:0:
182,192,170077,1,0,0:0:0:0:
475,192,170287,1,0,0:0:0:0:
402,192,170287,1,0,0:0:0:0:
329,192,170287,1,0,0:0:0:0:
36,192,170496,1,0,0:0:0:0:
182,192,170496,1,0,0:0:0:0:
402,192,170496,1,0,0:0:0:0:
256,192,170496,1,0,0:0:0:0:
256,192,170706,1,0,0:0:0:0:
109,192,170706,1,0,0:0:0:0:
475,192,170706,1,0,0:0:0:0:
329,192,170706,1,0,0:0:0:0:
475,192,170915,1,0,0:0:0:0:
182,192,170915,1,0,0:0:0:0:
329,192,170915,1,0,0:0:0:0:
36,192,170915,1,0,0:0:0:0:
36,192,171125,1,0,0:0:0:0:
475,192,171125,1,0,0:0:0:0:
109,192,171125,1,0,0:0:0:0:
182,192,171125,1,0,0:0:0:0:
256,192,171203,1,0,0:0:0:0:
402,192,171203,1,0,0:0:0:0:
109,192,171282,1,0,0:0:0:0:
329,192,171282,1,0,0:0:0:0:
256,192,171360,1,0,0:0:0:0:
109,192,171439,1,0,0:0:0:0:
182,192,171439,1,0,0:0:0:0:
475,192,171439,1,0,0:0:0:0:
36,192,171596,1,0,0:0:0:0:
256,192,171596,1,0,0:0:0:0:
109,192,171753,1,0,0:0:0:0:
182,192,171753,1,0,0:0:0:0:
475,192,171753,1,0,0:0:0:0:
402,192,171910,1,0,0:0:0:0:
329,192,171910,1,0,0:0:0:0:
109,192,172067,1,0,0:0:0:0:
475,192,172067,1,0,0:0:0:0:
182,192,172067,1,0,0:0:0:0:
36,192,172224,1,0,0:0:0:0:
329,192,172224,1,0,0:0:0:0:
402,192,172303,1,0,0:0:0:0:
475,192,172381,1,0,0:0:0:0:
182,192,172381,1,0,0:0:0:0:
109,192,172381,1,0,0:0:0:0:
256,192,172460,1,0,0:0:0:0:
402,192,172460,1,0,0:0:0:0:
329,192,172538,1,0,0:0:0:0:
109,192,172538,1,0,0:0:0:0:
256,192,172617,1,0,0:0:0:0:
475,192,172695,1,0,0:0:0:0:
109,192,172695,1,0,0:0:0:0:
182,192,172695,1,0,0:0:0:0:
36,192,172852,1,0,0:0:0:0:
256,192,172852,1,0,0:0:0:0:
109,192,173009,1,0,0:0:0:0:
182,192,173009,1,0,0:0:0:0:
475,192,173009,1,0,0:0:0:0:
402,192,173166,1,0,0:0:0:0:
256,192,173166,1,0,0:0:0:0:
182,192,173324,1,0,0:0:0:0:
475,192,173324,1,0,0:0:0:0:
329,192,173324,1,0,0:0:0:0:
109,192,173481,1,0,0:0:0:0:
256,192,173481,1,0,0:0:0:0:
36,192,173638,1,0,0:0:0:0:
182,192,173638,1,0,0:0:0:0:
475,192,173638,1,0,0:0:0:0:
329,192,173716,1,0,0:0:0:0:
402,192,173795,1,0,0:0:0:0:
109,192,173873,1,0,0:0:0:0:
256,192,173873,1,0,0:0:0:0:
475,192,173952,1,0,0:0:0:0:
36,192,173952,1,0,0:0:0:0:
109,192,174030,1,0,0:0:0:0:
402,192,174109,1,0,0:0:0:0:
182,192,174109,1,0,0:0:0:0:
329,192,174109,1,0,0:0:0:0:
256,192,174187,1,0,0:0:0:0:
475,192,174266,1,0,0:0:0:0:
36,192,174266,1,0,0:0:0:0:
109,192,174266,1,0,0:0:0:0:
329,192,174344,1,0,0:0:0:0:
402,192,174423,1,0,0:0:0:0:
256,192,174502,1,0,0:0:0:0:
109,192,174502,1,0,0:0:0:0:
36,192,174580,1,0,0:0:0:0:
475,192,174580,1,0,0:0:0:0:
109,192,174659,1,0,0:0:0:0:
402,192,174737,1,0,0:0:0:0:
256,192,174737,1,0,0:0:0:0:
182,192,174737,1,0,0:0:0:0:
329,192,174816,1,0,0:0:0:0:
36,192,174894,1,0,0:0:0:0:
109,192,174894,1,0,0:0:0:0:
475,192,174894,1,0,0:0:0:0:
256,192,174973,1,0,0:0:0:0:
402,192,175051,1,0,0:0:0:0:
36,192,175130,1,0,0:0:0:0:
182,192,175130,1,0,0:0:0:0:
329,192,175208,1,0,0:0:0:0:
475,192,175208,1,0,0:0:0:0:
256,192,175287,1,0,0:0:0:0:
109,192,175365,1,0,0:0:0:0:
182,192,175365,1,0,0:0:0:0:
402,192,175365,1,0,0:0:0:0:
256,192,175444,1,0,0:0:0:0:
329,192,175522,1,0,0:0:0:0:
475,192,175522,1,0,0:0:0:0:
36,192,175522,1,0,0:0:0:0:
109,192,175601,1,0,0:0:0:0:
475,192,175680,1,0,0:0:0:0:
256,192,175680,1,0,0:0:0:0:
402,192,175758,1,0,0:0:0:0:
36,192,175758,1,0,0:0:0:0:
182,192,175758,1,0,0:0:0:0:
329,192,175837,1,0,0:0:0:0:
109,192,175837,1,0,0:0:0:0:
256,192,175915,1,0,0:0:0:0:
402,192,175994,1,0,0:0:0:0:
36,192,175994,1,0,0:0:0:0:
182,192,175994,1,0,0:0:0:0:
329,192,176072,1,0,0:0:0:0:
109,192,176151,1,0,0:0:0:0:
475,192,176151,1,0,0:0:0:0:
182,192,176151,1,0,0:0:0:0:
36,192,176151,1,0,0:0:0:0:
402,192,176229,1,0,0:0:0:0:
256,192,176229,1,0,0:0:0:0:
329,192,176308,1,0,0:0:0:0:
109,192,176308,1,0,0:0:0:0:
256,192,176386,1,0,0:0:0:0:
475,192,176465,1,0,0:0:0:0:
182,192,176465,1,0,0:0:0:0:
109,192,176465,1,0,0:0:0:0:
256,192,176622,1,0,0:0:0:0:
36,192,176622,1,0,0:0:0:0:
475,192,176779,1,0,0:0:0:0:
182,192,176779,1,0,0:0:0:0:
109,192,176779,1,0,0:0:0:0:
329,192,176936,1,0,0:0:0:0:
402,192,176936,1,0,0:0:0:0:
182,192,177093,1,0,0:0:0:0:
475,192,177093,1,0,0:0:0:0:
109,192,177093,1,0,0:0:0:0:
329,192,177250,1,0,0:0:0:0:
36,192,177250,1,0,0:0:0:0:
402,192,177329,1,0,0:0:0:0:
109,192,177407,1,0,0:0:0:0:
182,192,177407,1,0,0:0:0:0:
475,192,177407,1,0,0:0:0:0:
402,192,177486,1,0,0:0:0:0:
256,192,177486,1,0,0:0:0:0:
109,192,177564,1,0,0:0:0:0:
329,192,177564,1,0,0:0:0:0:
256,192,177643,1,0,0:0:0:0:
182,192,177721,1,0,0:0:0:0:
109,192,177721,1,0,0:0:0:0:
475,192,177721,1,0,0:0:0:0:
256,192,177878,1,0,0:0:0:0:
36,192,177878,1,0,0:0:0:0:
475,192,178036,1,0,0:0:0:0:
182,192,178036,1,0,0:0:0:0:
109,192,178036,1,0,0:0:0:0:
256,192,178193,1,0,0:0:0:0:
402,192,178193,1,0,0:0:0:0:
329,192,178350,1,0,0:0:0:0:
475,192,178350,1,0,0:0:0:0:
182,192,178350,1,0,0:0:0:0:
256,192,178507,1,0,0:0:0:0:
109,192,178507,1,0,0:0:0:0:
475,192,178664,1,0,0:0:0:0:
182,192,178664,1,0,0:0:0:0:
36,192,178664,1,0,0:0:0:0:
329,192,178742,1,0,0:0:0:0:
402,192,178821,1,0,0:0:0:0:
256,192,178899,1,0,0:0:0:0:
109,192,178899,1,0,0:0:0:0:
36,192,178978,1,0,0:0:0:0:
475,192,178978,1,0,0:0:0:0:
109,192,179056,1,0,0:0:0:0:
329,192,179135,1,0,0:0:0:0:
182,192,179135,1,0,0:0:0:0:
402,192,179135,1,0,0:0:0:0:
36,192,179214,1,0,0:0:0:0:
182,192,179292,1,0,0:0:0:0:
109,192,179292,1,0,0:0:0:0:
475,192,179292,1,0,0:0:0:0:
329,192,179371,1,0,0:0:0:0:
402,192,179449,1,0,0:0:0:0:
256,192,179528,1,0,0:0:0:0:
182,192,179528,1,0,0:0:0:0:
475,192,179606,1,0,0:0:0:0:
36,192,179606,1,0,0:0:0:0:
109,192,179685,1,0,0:0:0:0:
182,192,179763,1,0,0:0:0:0:
256,192,179763,1,0,0:0:0:0:
402,192,179763,1,0,0:0:0:0:
329,192,179842,1,0,0:0:0:0:
475,192,179920,1,0,0:0:0:0:
109,192,179920,1,0,0:0:0:0:
36,192,179920,1,0,0:0:0:0:
329,192,179999,1,0,0:0:0:0:
402,192,180077,1,0,0:0:0:0:
182,192,180156,1,0,0:0:0:0:
36,192,180156,1,0,0:0:0:0:
475,192,180234,1,0,0:0:0:0:
329,192,180234,1,0,0:0:0:0:
256,192,180313,1,0,0:0:0:0:
402,192,180392,1,0,0:0:0:0:
182,192,180392,1,0,0:0:0:0:
109,192,180392,1,0,0:0:0:0:
256,192,180470,1,0,0:0:0:0:
36,192,180549,1,0,0:0:0:0:
475,192,180549,1,0,0:0:0:0:
182,192,180549,1,0,0:0:0:0:
329,192,180706,1,0,0:0:0:0:
36,192,180784,1,0,0:0:0:0:
109,192,180863,1,0,0:0:0:0:
182,192,180863,1,0,0:0:0:0:
475,192,180863,1,0,0:0:0:0:
329,192,180941,1,0,0:0:0:0:
182,192,181020,1,0,0:0:0:0:
329,192,181098,1,0,0:0:0:0:
109,192,181177,1,0,0:0:0:0:
182,192,181177,1,0,0:0:0:0:
475,192,181177,1,0,0:0:0:0:
36,192,181177,1,0,0:0:0:0:
256,192,181255,1,0,0:0:0:0:
402,192,181255,1,0,0:0:0:0:
109,192,181334,1,0,0:0:0:0:
329,192,181334,1,0,0:0:0:0:
256,192,181413,1,0,0:0:0:0:
109,192,181491,1,0,0:0:0:0:
182,192,181491,1,0,0:0:0:0:
475,192,181491,1,0,0:0:0:0:
329,192,181570,1,0,0:0:0:0:
36,192,181648,1,0,0:0:0:0:
256,192,181648,1,0,0:0:0:0:
329,192,181727,1,0,0:0:0:0:
109,192,181805,1,0,0:0:0:0:
182,192,181805,1,0,0:0:0:0:
475,192,181805,1,0,0:0:0:0:
402,192,181884,1,0,0:0:0:0:
256,192,181962,1,0,0:0:0:0:
329,192,181962,1,0,0:0:0:0:
402,192,182041,1,0,0:0:0:0:
109,192,182119,1,0,0:0:0:0:
475,192,182119,1,0,0:0:0:0:
182,192,182119,1,0,0:0:0:0:
256,192,182198,1,0,0:0:0:0:
36,192,182276,1,0,0:0:0:0:
329,192,182276,1,0,0:0:0:0:
402,192,182355,1,0,0:0:0:0:
475,192,182433,1,0,0:0:0:0:
182,192,182433,1,0,0:0:0:0:
109,192,182433,1,0,0:0:0:0:
256,192,182512,1,0,0:0:0:0:
402,192,182512,1,0,0:0:0:0:
329,192,182591,1,0,0:0:0:0:
109,192,182591,1,0,0:0:0:0:
256,192,182669,1,0,0:0:0:0:
475,192,182748,1,0,0:0:0:0:
109,192,182748,1,0,0:0:0:0:
182,192,182748,1,0,0:0:0:0:
329,192,182826,1,0,0:0:0:0:
36,192,182905,1,0,0:0:0:0:
256,192,182905,1,0,0:0:0:0:
402,192,182983,1,0,0:0:0:0:
109,192,183062,1,0,0:0:0:0:
182,192,183062,1,0,0:0:0:0:
475,192,183062,1,0,0:0:0:0:
329,192,183140,1,0,0:0:0:0:
402,192,183219,1,0,0:0:0:0:
256,192,183219,1,0,0:0:0:0:
109,192,183297,1,0,0:0:0:0:
182,192,183376,1,0,0:0:0:0:
475,192,183376,1,0,0:0:0:0:
329,192,183376,1,0,0:0:0:0:
36,192,183454,1,0,0:0:0:0:
109,192,183533,1,0,0:0:0:0:
256,192,183533,1,0,0:0:0:0:
475,192,183611,1,0,0:0:0:0:
182,192,183690,1,0,0:0:0:0:
329,192,183690,1,0,0:0:0:0:
36,192,183690,1,0,0:0:0:0:
475,192,183769,1,0,0:0:0:0:
109,192,183847,1,0,0:0:0:0:
256,192,183926,1,0,0:0:0:0:
402,192,183926,1,0,0:0:0:0:
36,192,184004,1,0,0:0:0:0:
182,192,184004,1,0,0:0:0:0:
256,192,184083,1,0,0:0:0:0:
109,192,184161,1,0,0:0:0:0:
329,192,184161,1,0,0:0:0:0:
475,192,184161,1,0,0:0:0:0:
182,192,184240,1,0,0:0:0:0:
36,192,184318,1,0,0:0:0:0:
256,192,184318,1,0,0:0:0:0:
329,192,184318,1,0,0:0:0:0:
475,192,184397,1,0,0:0:0:0:
182,192,184397,1,0,0:0:0:0:
109,192,184475,1,0,0:0:0:0:
329,192,184554,1,0,0:0:0:0:
402,192,184554,1,0,0:0:0:0:
182,192,184632,1,0,0:0:0:0:
36,192,184632,1,0,0:0:0:0:
109,192,184789,1,0,0:0:0:0:
475,192,184789,1,0,0:0:0:0:
402,192,184789,1,0,0:0:0:0:
329,192,184868,1,0,0:0:0:0:
182,192,184947,1,0,0:0:0:0:
256,192,184947,1,0,0:0:0:0:
36,192,184947,1,0,0:0:0:0:
329,192,185025,1,0,0:0:0:0:
109,192,185104,1,0,0:0:0:0:
256,192,185182,1,0,0:0:0:0:
402,192,185182,1,0,0:0:0:0:
182,192,185261,1,0,0:0:0:0:
36,192,185261,1,0,0:0:0:0:
475,192,185339,1,0,0:0:0:0:
256,192,185418,1,0,0:0:0:0:
329,192,185418,1,0,0:0:0:0:
109,192,185418,1,0,0:0:0:0:
182,192,185496,1,0,0:0:0:0:
329,192,185575,1,0,0:0:0:0:
36,192,185575,1,0,0:0:0:0:
402,192,185575,1,0,0:0:0:0:
182,192,185653,1,0,0:0:0:0:
109,192,185732,1,0,0:0:0:0:
256,192,185732,1,0,0:0:0:0:
329,192,185810,1,0,0:0:0:0:
475,192,185810,1,0,0:0:0:0:
36,192,185889,1,0,0:0:0:0:
182,192,185889,1,0,0:0:0:0:
256,192,185967,1,0,0:0:0:0:
329,192,186046,1,0,0:0:0:0:
475,192,186046,1,0,0:0:0:0:
109,192,186046,1,0,0:0:0:0:
256,192,186125,1,0,0:0:0:0:
109,192,186203,1,0,0:0:0:0:
182,192,186203,1,0,0:0:0:0:
475,192,186203,1,0,0:0:0:0:
36,192,186203,1,0,0:0:0:0:
256,192,186282,1,0,0:0:0:0:
402,192,186282,1,0,0:0:0:0:
109,192,186360,1,0,0:0:0:0:
329,192,186360,1,0,0:0:0:0:
256,192,186439,1,0,0:0:0:0:
109,192,186517,1,0,0:0:0:0:
182,192,186517,1,0,0:0:0:0:
475,192,186517,1,0,0:0:0:0:
402,192,186596,1,0,0:0:0:0:
36,192,186674,1,0,0:0:0:0:
256,192,186674,1,0,0:0:0:0:
402,192,186753,1,0,0:0:0:0:
109,192,186831,1,0,0:0:0:0:
182,192,186831,1,0,0:0:0:0:
475,192,186831,1,0,0:0:0:0:
256,192,186910,1,0,0:0:0:0:
329,192,186988,1,0,0:0:0:0:
402,192,186988,1,0,0:0:0:0:
256,192,187067,1,0,0:0:0:0:
109,192,187145,1,0,0:0:0:0:
475,192,187145,1,0,0:0:0:0:
182,192,187145,1,0,0:0:0:0:
256,192,187224,1,0,0:0:0:0:
36,192,187303,1,0,0:0:0:0:
329,192,187303,1,0,0:0:0:0:
402,192,187381,1,0,0:0:0:0:
475,192,187460,1,0,0:0:0:0:
182,192,187460,1,0,0:0:0:0:
109,192,187460,1,0,0:0:0:0:
256,192,187538,1,0,0:0:0:0:
402,192,187538,1,0,0:0:0:0:
329,192,187617,1,0,0:0:0:0:
109,192,187617,1,0,0:0:0:0:
256,192,187695,1,0,0:0:0:0:
475,192,187774,1,0,0:0:0:0:
109,192,187774,1,0,0:0:0:0:
182,192,187774,1,0,0:0:0:0:
402,192,187852,1,0,0:0:0:0:
36,192,187931,1,0,0:0:0:0:
256,192,187931,1,0,0:0:0:0:
402,192,188009,1,0,0:0:0:0:
109,192,188088,1,0,0:0:0:0:
182,192,188088,1,0,0:0:0:0:
475,192,188088,1,0,0:0:0:0:
329,192,188166,1,0,0:0:0:0:
402,192,188245,1,0,0:0:0:0:
256,192,188245,1,0,0:0:0:0:
36,192,188324,1,0,0:0:0:0:
182,192,188402,1,0,0:0:0:0:
475,192,188402,1,0,0:0:0:0:
329,192,188402,1,0,0:0:0:0:
402,192,188481,1,0,0:0:0:0:
109,192,188559,1,0,0:0:0:0:
256,192,188559,1,0,0:0:0:0:
475,192,188638,1,0,0:0:0:0:
182,192,188716,1,0,0:0:0:0:
329,192,188716,1,0,0:0:0:0:
36,192,188716,1,0,0:0:0:0:
475,192,188795,1,0,0:0:0:0:
109,192,188873,1,0,0:0:0:0:
256,192,188952,1,0,0:0:0:0:
402,192,188952,1,0,0:0:0:0:
36,192,189030,1,0,0:0:0:0:
182,192,189030,1,0,0:0:0:0:
256,192,189109,1,0,0:0:0:0:
109,192,189187,1,0,0:0:0:0:
329,192,189187,1,0,0:0:0:0:
475,192,189187,1,0,0:0:0:0:
182,192,189266,1,0,0:0:0:0:
36,192,189344,1,0,0:0:0:0:
256,192,189344,1,0,0:0:0:0:
329,192,189344,1,0,0:0:0:0:
475,192,189423,1,0,0:0:0:0:
182,192,189423,1,0,0:0:0:0:
109,192,189502,1,0,0:0:0:0:
329,192,189580,1,0,0:0:0:0:
402,192,189580,1,0,0:0:0:0:
182,192,189659,1,0,0:0:0:0:
36,192,189659,1,0,0:0:0:0:
256,192,189737,1,0,0:0:0:0:
109,192,189816,1,0,0:0:0:0:
475,192,189816,1,0,0:0:0:0:
402,192,189816,1,0,0:0:0:0:
182,192,189894,1,0,0:0:0:0:
36,192,189973,1,0,0:0:0:0:
256,192,189973,1,0,0:0:0:0:
402,192,189973,1,0,0:0:0:0:
475,192,189973,1,0,0:0:0:0:
109,192,190130,1,0,0:0:0:0:
109,192,190444,1,0,0:0:0:0:
329,192,190444,1,0,0:0:0:0:
475,192,190601,1,0,0:0:0:0:
256,192,190601,1,0,0:0:0:0:
402,192,190601,1,0,0:0:0:0:
329,192,190680,1,0,0:0:0:0:
475,192,190758,1,0,0:0:0:0:
256,192,190797,1,0,0:0:0:0:
402,192,190837,1,0,0:0:0:0:
182,192,190876,1,0,0:0:0:0:
109,192,190915,1,0,0:0:0:0:
329,192,190915,1,0,0:0:0:0:
256,192,190994,1,0,0:0:0:0:
329,192,191072,1,0,0:0:0:0:
182,192,191072,1,0,0:0:0:0:
109,192,191151,1,0,0:0:0:0:
256,192,191151,1,0,0:0:0:0:
36,192,191229,1,0,0:0:0:0:
182,192,191229,1,0,0:0:0:0:
475,192,191229,128,0,192486:0:0:0:0:
36,192,192172,1,0,0:0:0:0:
402,192,192486,1,0,0:0:0:0:
256,192,192486,128,0,193742:0:0:0:0:
109,192,193114,1,0,0:0:0:0:
329,192,193742,1,0,0:0:0:0:
36,192,193742,128,0,194999:0:0:0:0:
182,192,194685,1,0,0:0:0:0:
109,192,194999,1,0,0:0:0:0:
475,192,194999,128,0,196255:0:0:0:0:
109,192,195627,1,0,0:0:0:0:
182,192,195784,1,0,0:0:0:0:
256,192,195941,1,0,0:0:0:0:
402,192,196098,1,0,0:0:0:0:
329,192,196255,1,0,0:0:0:0:
182,192,196255,128,0,197512:0:0:0:0:
36,192,197198,1,0,0:0:0:0:
109,192,197512,1,0,0:0:0:0:
256,192,197512,128,0,198769:0:0:0:0:
475,192,198140,1,0,0:0:0:0:
329,192,198769,1,0,0:0:0:0:
475,192,198769,128,0,200025:0:0:0:0:
182,192,199083,1,0,0:0:0:0:
329,192,199397,1,0,0:0:0:0:
109,192,199711,1,0,0:0:0:0:
402,192,200025,1,0,0:0:0:0:
329,192,200025,128,0,201282:0:0:0:0:
182,192,200653,1,0,0:0:0:0:
109,192,200653,128,0,201282:0:0:0:0:
475,192,201282,1,0,0:0:0:0:
402,192,201282,128,0,202538:0:0:0:0:
36,192,202224,1,0,0:0:0:0:
475,192,202538,1,0,0:0:0:0:
256,192,202538,128,0,203795:0:0:0:0:
36,192,203166,1,0,0:0:0:0:
402,192,203795,1,0,0:0:0:0:
329,192,203795,128,0,205051:0:0:0:0:
109,192,204737,1,0,0:0:0:0:
36,192,205051,1,0,0:0:0:0:
109,192,205051,128,0,206308:0:0:0:0:
475,192,205680,1,0,0:0:0:0:
402,192,205837,1,0,0:0:0:0:
182,192,205994,1,0,0:0:0:0:
36,192,206151,1,0,0:0:0:0:
256,192,206308,1,0,0:0:0:0:
402,192,206308,128,0,207564:0:0:0:0:
36,192,207250,1,0,0:0:0:0:
182,192,207564,1,0,0:0:0:0:
256,192,207564,128,0,208821:0:0:0:0:
402,192,208821,128,0,211334:0:0:0:0:
109,192,208821,128,0,211334:0:0:0:0:
