osu file format v14

[General]
AudioFilename: audio.mp3
AudioLeadIn: 0
PreviewTime: 169882
Countdown: 0
SampleSet: Soft
StackLeniency: 0.7
Mode: 3
LetterboxInBreaks: 0
SpecialStyle: 0
WidescreenStoryboard: 1

[Editor]
Bookmarks: 55065,65118,79804,100301,155589,190772
DistanceSpacing: 1.3
BeatDivisor: 4
GridSize: 8
TimelineZoom: 1.6

[Metadata]
Title:AO-Infinity
TitleUnicode:AO-∞
Artist:Seiryu
ArtistUnicode:青龍
Creator:Arzenvald
Version:Beginner
Source:
Tags:qwce-90007 beatmania iidx 24 sinobuz BEMANI jubeat reflec beat plus Ryu* Ryu☆ KONAMI Nakahara Ryutaro 中原龍太郎 Sei-ryu track 20 twenty Electronic English video game EXIT TUNES DANCE PRODUCTION EDP 2017
BeatmapID:4127691
BeatmapSetID:1712457

[Difficulty]
HPDrainRate:6
CircleSize:7
OverallDifficulty:6
ApproachRate:5
SliderMultiplier:1.4
SliderTickRate:1

[Events]
//Background and Video events
0,0,"ye1080.jpg",0,0
//Break Periods
//Storyboard Layer 0 (Background)
//Storyboard Layer 1 (Fail)
//Storyboard Layer 2 (Pass)
//Storyboard Layer 3 (Foreground)
//Storyboard Layer 4 (Overlay)
//Storyboard Sound Samples

[TimingPoints]
235,314.13612565445,4,2,1,50,1,0
60549,-100,4,2,1,50,0,1
79397,-100,4,2,1,50,0,0
151020,-100,4,2,1,50,0,1
169868,-100,4,2,1,50,0,0
171125,-100,4,2,1,50,0,1
189973,-100,4,2,1,50,0,0

[HitObjects]
182,192,235,1,0,0:0:0:0:
475,192,1491,1,0,0:0:0:0:
36,192,2119,1,0,0:0:0:0:
329,192,2748,1,0,0:0:0:0:
109,192,4004,1,0,0:0:0:0:
402,192,5261,1,0,0:0:0:0:
36,192,6517,1,0,0:0:0:0:
329,192,7145,1,0,0:0:0:0:
109,192,7774,1,0,0:0:0:0:
182,192,8402,1,0,0:0:0:0:
329,192,9030,1,0,0:0:0:0:
402,192,9659,1,0,0:0:0:0:
475,192,10287,1,0,0:0:0:0:
402,192,11543,1,0,0:0:0:0:
109,192,12172,1,0,0:0:0:0:
182,192,12800,1,0,0:0:0:0:
36,192,14056,1,0,0:0:0:0:
402,192,14685,1,0,0:0:0:0:
329,192,15313,1,0,0:0:0:0:
109,192,16570,1,0,0:0:0:0:
402,192,17198,1,0,0:0:0:0:
256,192,17826,128,0,20339:0:0:0:0:
475,192,20339,1,0,0:0:0:0:
36,192,21282,1,0,0:0:0:0:
475,192,21596,1,0,0:0:0:0:
182,192,22224,1,0,0:0:0:0:
329,192,22852,1,0,0:0:0:0:
182,192,23795,1,0,0:0:0:0:
36,192,24109,1,0,0:0:0:0:
256,192,24737,128,0,25365:0:0:0:0:
329,192,25365,1,0,0:0:0:0:
182,192,26308,1,0,0:0:0:0:
329,192,26622,1,0,0:0:0:0:
475,192,27250,1,0,0:0:0:0:
329,192,27878,1,0,0:0:0:0:
182,192,28193,1,0,0:0:0:0:
329,192,28507,1,0,0:0:0:0:
36,192,28821,1,0,0:0:0:0:
475,192,29135,1,0,0:0:0:0:
182,192,29763,1,0,0:0:0:0:
475,192,30392,1,0,0:0:0:0:
182,192,31334,1,0,0:0:0:0:
475,192,31648,1,0,0:0:0:0:
36,192,32276,1,0,0:0:0:0:
329,192,32905,1,0,0:0:0:0:
182,192,33847,1,0,0:0:0:0:
36,192,34161,1,0,0:0:0:0:
182,192,34475,1,0,0:0:0:0:
256,192,34789,128,0,35418:0:0:0:0:
329,192,35418,1,0,0:0:0:0:
36,192,36360,1,0,0:0:0:0:
329,192,36674,1,0,0:0:0:0:
475,192,37303,1,0,0:0:0:0:
182,192,37931,1,0,0:0:0:0:
36,192,39187,1,0,0:0:0:0:
109,192,39816,1,0,0:0:0:0:
475,192,40444,1,0,0:0:0:0:
329,192,40758,1,0,0:0:0:0:
182,192,41072,1,0,0:0:0:0:
475,192,41700,1,0,0:0:0:0:
329,192,42015,1,0,0:0:0:0:
182,192,42329,1,0,0:0:0:0:
109,192,42957,1,0,0:0:0:0:
256,192,43585,1,0,0:0:0:0:
36,192,44214,1,0,0:0:0:0:
182,192,44842,1,0,0:0:0:0:
475,192,45470,1,0,0:0:0:0:
329,192,45784,1,0,0:0:0:0:
182,192,46098,1,0,0:0:0:0:
475,192,46727,1,0,0:0:0:0:
329,192,47041,1,0,0:0:0:0:
182,192,47355,1,0,0:0:0:0:
109,192,47983,1,0,0:0:0:0:
256,192,48611,1,0,0:0:0:0:
36,192,49240,1,0,0:0:0:0:
182,192,49868,1,0,0:0:0:0:
402,192,50496,1,0,0:0:0:0:
256,192,50810,1,0,0:0:0:0:
109,192,51125,1,0,0:0:0:0:
402,192,51753,1,0,0:0:0:0:
256,192,52067,1,0,0:0:0:0:
109,192,52381,1,0,0:0:0:0:
329,192,53009,1,0,0:0:0:0:
475,192,53638,1,0,0:0:0:0:
256,192,54266,1,0,0:0:0:0:
402,192,54894,128,0,55522:0:0:0:0:
329,192,55522,1,0,0:0:0:0:
182,192,55837,1,0,0:0:0:0:
36,192,56151,1,0,0:0:0:0:
329,192,56779,1,0,0:0:0:0:
182,192,57093,1,0,0:0:0:0:
36,192,57407,1,0,0:0:0:0:
256,192,58036,128,0,59292:0:0:0:0:
109,192,59292,1,0,0:0:0:0:
109,192,59606,1,0,0:0:0:0:
402,192,59920,1,0,0:0:0:0:
402,192,60234,1,0,0:0:0:0:
182,192,60549,1,0,0:0:0:0:
36,192,60863,1,0,0:0:0:0:
402,192,61177,1,0,0:0:0:0:
256,192,61491,1,0,0:0:0:0:
182,192,61805,1,0,0:0:0:0:
36,192,62119,1,0,0:0:0:0:
402,192,62433,1,0,0:0:0:0:
256,192,62748,1,0,0:0:0:0:
109,192,63062,1,0,0:0:0:0:
329,192,63376,1,0,0:0:0:0:
402,192,63690,1,0,0:0:0:0:
475,192,64004,1,0,0:0:0:0:
36,192,64318,1,0,0:0:0:0:
256,192,64632,1,0,0:0:0:0:
329,192,64947,1,0,0:0:0:0:
402,192,65261,1,0,0:0:0:0:
182,192,65575,1,0,0:0:0:0:
36,192,65889,1,0,0:0:0:0:
402,192,66203,1,0,0:0:0:0:
256,192,66517,1,0,0:0:0:0:
182,192,66831,1,0,0:0:0:0:
36,192,67145,1,0,0:0:0:0:
402,192,67460,1,0,0:0:0:0:
256,192,67774,1,0,0:0:0:0:
109,192,68088,1,0,0:0:0:0:
329,192,68402,1,0,0:0:0:0:
402,192,68716,1,0,0:0:0:0:
475,192,69030,1,0,0:0:0:0:
36,192,69344,1,0,0:0:0:0:
182,192,69344,1,0,0:0:0:0:
109,192,69973,1,0,0:0:0:0:
402,192,70287,1,0,0:0:0:0:
182,192,70601,1,0,0:0:0:0:
36,192,70915,1,0,0:0:0:0:
402,192,71229,1,0,0:0:0:0:
256,192,71543,1,0,0:0:0:0:
182,192,71858,1,0,0:0:0:0:
36,192,72172,1,0,0:0:0:0:
402,192,72486,1,0,0:0:0:0:
256,192,72800,1,0,0:0:0:0:
109,192,73114,1,0,0:0:0:0:
329,192,73428,1,0,0:0:0:0:
402,192,73742,1,0,0:0:0:0:
475,192,74056,1,0,0:0:0:0:
36,192,74371,1,0,0:0:0:0:
256,192,74685,1,0,0:0:0:0:
329,192,74999,1,0,0:0:0:0:
402,192,75313,1,0,0:0:0:0:
182,192,75627,1,0,0:0:0:0:
36,192,75941,1,0,0:0:0:0:
402,192,76255,1,0,0:0:0:0:
256,192,76570,1,0,0:0:0:0:
182,192,76884,1,0,0:0:0:0:
36,192,77198,1,0,0:0:0:0:
402,192,77512,1,0,0:0:0:0:
256,192,77826,1,0,0:0:0:0:
109,192,78140,1,0,0:0:0:0:
329,192,78454,1,0,0:0:0:0:
402,192,78769,1,0,0:0:0:0:
475,192,79083,1,0,0:0:0:0:
182,192,79397,1,0,0:0:0:0:
36,192,79397,128,0,80653:0:0:0:0:
256,192,80653,1,0,0:0:0:0:
402,192,81282,1,0,0:0:0:0:
109,192,81596,1,0,0:0:0:0:
402,192,81910,1,0,0:0:0:0:
36,192,82538,1,0,0:0:0:0:
475,192,83166,1,0,0:0:0:0:
36,192,83795,1,0,0:0:0:0:
402,192,84109,1,0,0:0:0:0:
109,192,84423,1,0,0:0:0:0:
109,192,85051,1,0,0:0:0:0:
182,192,85365,1,0,0:0:0:0:
256,192,85680,1,0,0:0:0:0:
329,192,86308,1,0,0:0:0:0:
182,192,86622,1,0,0:0:0:0:
329,192,86936,1,0,0:0:0:0:
475,192,87564,1,0,0:0:0:0:
182,192,88193,1,0,0:0:0:0:
36,192,88507,1,0,0:0:0:0:
329,192,88821,1,0,0:0:0:0:
182,192,89135,1,0,0:0:0:0:
475,192,89449,1,0,0:0:0:0:
329,192,90077,1,0,0:0:0:0:
256,192,90706,1,0,0:0:0:0:
402,192,91334,1,0,0:0:0:0:
109,192,91648,1,0,0:0:0:0:
402,192,91962,1,0,0:0:0:0:
36,192,92591,1,0,0:0:0:0:
475,192,93219,1,0,0:0:0:0:
109,192,93847,1,0,0:0:0:0:
402,192,94161,1,0,0:0:0:0:
182,192,94475,1,0,0:0:0:0:
402,192,95104,1,0,0:0:0:0:
329,192,95418,1,0,0:0:0:0:
256,192,95732,1,0,0:0:0:0:
329,192,96360,1,0,0:0:0:0:
109,192,96674,1,0,0:0:0:0:
402,192,96988,1,0,0:0:0:0:
475,192,97617,1,0,0:0:0:0:
182,192,98245,1,0,0:0:0:0:
256,192,99502,1,0,0:0:0:0:
256,192,99973,1,0,0:0:0:0:
109,192,100758,1,0,0:0:0:0:
402,192,100758,1,0,0:0:0:0:
182,192,101072,128,0,101700:0:0:0:0:
329,192,101700,128,0,102329:0:0:0:0:
36,192,102329,128,0,102957:0:0:0:0:
475,192,102957,128,0,103585:0:0:0:0:
329,192,103585,128,0,104214:0:0:0:0:
182,192,104214,128,0,104842:0:0:0:0:
36,192,104842,128,0,105156:0:0:0:0:
256,192,105156,128,0,105470:0:0:0:0:
475,192,105470,128,0,105784:0:0:0:0:
109,192,106098,128,0,106727:0:0:0:0:
182,192,106727,128,0,107355:0:0:0:0:
329,192,107355,128,0,107983:0:0:0:0:
402,192,107983,128,0,108297:0:0:0:0:
475,192,108297,128,0,110182:0:0:0:0:
402,192,110182,128,0,110810:0:0:0:0:
256,192,110810,1,0,0:0:0:0:
182,192,111125,1,0,0:0:0:0:
109,192,111439,1,0,0:0:0:0:
36,192,111753,1,0,0:0:0:0:
329,192,112067,1,0,0:0:0:0:
256,192,112381,1,0,0:0:0:0:
182,192,112695,1,0,0:0:0:0:
109,192,113009,1,0,0:0:0:0:
402,192,113324,1,0,0:0:0:0:
329,192,113638,1,0,0:0:0:0:
256,192,113952,1,0,0:0:0:0:
182,192,114266,1,0,0:0:0:0:
475,192,114580,1,0,0:0:0:0:
402,192,114894,1,0,0:0:0:0:
329,192,115208,1,0,0:0:0:0:
256,192,115522,1,0,0:0:0:0:
36,192,115837,128,0,117093:0:0:0:0:
109,192,115837,1,0,0:0:0:0:
402,192,117093,1,0,0:0:0:0:
475,192,117093,128,0,118350:0:0:0:0:
256,192,118350,128,0,119606:0:0:0:0:
402,192,119606,1,0,0:0:0:0:
109,192,119920,1,0,0:0:0:0:
475,192,120234,1,0,0:0:0:0:
256,192,120392,1,0,0:0:0:0:
36,192,120549,1,0,0:0:0:0:
402,192,120863,1,0,0:0:0:0:
475,192,120863,1,0,0:0:0:0:
109,192,121491,1,0,0:0:0:0:
36,192,121491,1,0,0:0:0:0:
182,192,122119,1,0,0:0:0:0:
329,192,122119,1,0,0:0:0:0:
109,192,122748,1,0,0:0:0:0:
402,192,122748,1,0,0:0:0:0:
182,192,123376,1,0,0:0:0:0:
36,192,123376,1,0,0:0:0:0:
475,192,124004,1,0,0:0:0:0:
329,192,124004,1,0,0:0:0:0:
182,192,124632,1,0,0:0:0:0:
256,192,124632,1,0,0:0:0:0:
329,192,125261,1,0,0:0:0:0:
402,192,125261,1,0,0:0:0:0:
36,192,125889,1,0,0:0:0:0:
475,192,125889,1,0,0:0:0:0:
182,192,126517,1,0,0:0:0:0:
329,192,126517,1,0,0:0:0:0:
109,192,127145,1,0,0:0:0:0:
36,192,127145,1,0,0:0:0:0:
402,192,127774,1,0,0:0:0:0:
475,192,127774,1,0,0:0:0:0:
256,192,128402,1,0,0:0:0:0:
109,192,128402,1,0,0:0:0:0:
329,192,129030,1,0,0:0:0:0:
475,192,129030,1,0,0:0:0:0:
36,192,129659,1,0,0:0:0:0:
182,192,129659,1,0,0:0:0:0:
256,192,130287,1,0,0:0:0:0:
475,192,130915,1,0,0:0:0:0:
329,192,130915,1,0,0:0:0:0:
402,192,131229,1,0,0:0:0:0:
182,192,132172,1,0,0:0:0:0:
329,192,132172,1,0,0:0:0:0:
256,192,132486,1,0,0:0:0:0:
36,192,133428,1,0,0:0:0:0:
182,192,133428,1,0,0:0:0:0:
109,192,133742,1,0,0:0:0:0:
36,192,134685,1,0,0:0:0:0:
256,192,134685,1,0,0:0:0:0:
182,192,135313,1,0,0:0:0:0:
402,192,135313,1,0,0:0:0:0:
329,192,135941,1,0,0:0:0:0:
475,192,135941,1,0,0:0:0:0:
402,192,136255,1,0,0:0:0:0:
182,192,137198,1,0,0:0:0:0:
36,192,137198,1,0,0:0:0:0:
109,192,137512,1,0,0:0:0:0:
182,192,138454,1,0,0:0:0:0:
329,192,138454,1,0,0:0:0:0:
256,192,138769,1,0,0:0:0:0:
475,192,139083,1,0,0:0:0:0:
329,192,139711,1,0,0:0:0:0:
109,192,139711,1,0,0:0:0:0:
256,192,140339,1,0,0:0:0:0:
475,192,140339,1,0,0:0:0:0:
36,192,140967,1,0,0:0:0:0:
109,192,140967,1,0,0:0:0:0:
402,192,141282,1,0,0:0:0:0:
475,192,141282,1,0,0:0:0:0:
36,192,142224,1,0,0:0:0:0:
109,192,142224,1,0,0:0:0:0:
402,192,142538,1,0,0:0:0:0:
475,192,142538,1,0,0:0:0:0:
109,192,143481,1,0,0:0:0:0:
36,192,143481,1,0,0:0:0:0:
402,192,143795,1,0,0:0:0:0:
475,192,143795,1,0,0:0:0:0:
36,192,144737,1,0,0:0:0:0:
329,192,144737,1,0,0:0:0:0:
182,192,145365,1,0,0:0:0:0:
475,192,145994,1,0,0:0:0:0:
329,192,145994,1,0,0:0:0:0:
182,192,146308,1,0,0:0:0:0:
36,192,146622,1,0,0:0:0:0:
402,192,146936,1,0,0:0:0:0:
256,192,147250,1,0,0:0:0:0:
109,192,147250,1,0,0:0:0:0:
475,192,147564,1,0,0:0:0:0:
329,192,147878,1,0,0:0:0:0:
182,192,148193,1,0,0:0:0:0:
36,192,148507,1,0,0:0:0:0:
475,192,148507,128,0,149763:0:0:0:0:
182,192,149763,1,0,0:0:0:0:
329,192,150077,1,0,0:0:0:0:
109,192,150392,1,0,0:0:0:0:
256,192,150549,1,0,0:0:0:0:
402,192,150706,1,0,0:0:0:0:
36,192,151020,1,0,0:0:0:0:
109,192,151020,1,0,0:0:0:0:
256,192,151648,1,0,0:0:0:0:
182,192,151648,128,0,152276:0:0:0:0:
475,192,152276,1,0,0:0:0:0:
402,192,152276,1,0,0:0:0:0:
109,192,152591,1,0,0:0:0:0:
256,192,152905,1,0,0:0:0:0:
329,192,152905,128,0,153533:0:0:0:0:
182,192,153533,1,0,0:0:0:0:
109,192,153533,1,0,0:0:0:0:
109,192,154161,1,0,0:0:0:0:
182,192,154161,128,0,154789:0:0:0:0:
329,192,154789,1,0,0:0:0:0:
402,192,154789,1,0,0:0:0:0:
475,192,155104,1,0,0:0:0:0:
109,192,155418,1,0,0:0:0:0:
182,192,155418,1,0,0:0:0:0:
256,192,155732,1,0,0:0:0:0:
402,192,156046,1,0,0:0:0:0:
475,192,156046,1,0,0:0:0:0:
36,192,156674,1,0,0:0:0:0:
109,192,156674,128,0,157303:0:0:0:0:
475,192,157303,1,0,0:0:0:0:
402,192,157303,1,0,0:0:0:0:
329,192,157617,1,0,0:0:0:0:
256,192,157931,1,0,0:0:0:0:
182,192,157931,128,0,158559:0:0:0:0:
402,192,158559,1,0,0:0:0:0:
475,192,158559,1,0,0:0:0:0:
109,192,159187,1,0,0:0:0:0:
36,192,159187,128,0,159816:0:0:0:0:
256,192,159816,1,0,0:0:0:0:
329,192,159816,1,0,0:0:0:0:
402,192,160130,1,0,0:0:0:0:
36,192,160444,1,0,0:0:0:0:
109,192,160444,1,0,0:0:0:0:
182,192,160758,1,0,0:0:0:0:
256,192,161072,1,0,0:0:0:0:
329,192,161072,1,0,0:0:0:0:
36,192,161700,1,0,0:0:0:0:
475,192,161700,128,0,162329:0:0:0:0:
109,192,162329,1,0,0:0:0:0:
182,192,162329,1,0,0:0:0:0:
402,192,162643,1,0,0:0:0:0:
329,192,162957,1,0,0:0:0:0:
109,192,162957,128,0,163585:0:0:0:0:
256,192,163585,1,0,0:0:0:0:
182,192,163585,1,0,0:0:0:0:
475,192,164214,1,0,0:0:0:0:
36,192,164214,128,0,164842:0:0:0:0:
402,192,164842,1,0,0:0:0:0:
329,192,164842,1,0,0:0:0:0:
109,192,165156,1,0,0:0:0:0:
182,192,165470,1,0,0:0:0:0:
256,192,165470,1,0,0:0:0:0:
402,192,165784,1,0,0:0:0:0:
36,192,166098,1,0,0:0:0:0:
109,192,166098,1,0,0:0:0:0:
256,192,166727,1,0,0:0:0:0:
182,192,166727,128,0,167355:0:0:0:0:
475,192,167355,1,0,0:0:0:0:
402,192,167355,1,0,0:0:0:0:
109,192,167669,1,0,0:0:0:0:
256,192,167983,1,0,0:0:0:0:
329,192,167983,128,0,168611:0:0:0:0:
182,192,168611,1,0,0:0:0:0:
109,192,168611,1,0,0:0:0:0:
109,192,169240,1,0,0:0:0:0:
182,192,169240,128,0,169868:0:0:0:0:
256,192,169868,1,0,0:0:0:0:
329,192,169868,128,0,170496:0:0:0:0:
402,192,170496,1,0,0:0:0:0:
475,192,170496,128,0,171125:0:0:0:0:
182,192,171125,1,0,0:0:0:0:
36,192,171439,1,0,0:0:0:0:
402,192,171753,1,0,0:0:0:0:
256,192,172067,1,0,0:0:0:0:
182,192,172381,1,0,0:0:0:0:
36,192,172695,1,0,0:0:0:0:
402,192,173009,1,0,0:0:0:0:
256,192,173324,1,0,0:0:0:0:
109,192,173638,1,0,0:0:0:0:
329,192,173952,1,0,0:0:0:0:
402,192,174266,1,0,0:0:0:0:
475,192,174580,1,0,0:0:0:0:
36,192,174894,1,0,0:0:0:0:
256,192,175208,1,0,0:0:0:0:
329,192,175522,1,0,0:0:0:0:
402,192,175837,1,0,0:0:0:0:
182,192,176151,1,0,0:0:0:0:
36,192,176465,1,0,0:0:0:0:
402,192,176779,1,0,0:0:0:0:
256,192,177093,1,0,0:0:0:0:
182,192,177407,1,0,0:0:0:0:
36,192,177721,1,0,0:0:0:0:
402,192,178036,1,0,0:0:0:0:
256,192,178350,1,0,0:0:0:0:
109,192,178664,1,0,0:0:0:0:
329,192,178978,1,0,0:0:0:0:
402,192,179292,1,0,0:0:0:0:
475,192,179606,1,0,0:0:0:0:
36,192,179920,1,0,0:0:0:0:
109,192,180234,1,0,0:0:0:0:
402,192,180549,1,0,0:0:0:0:
475,192,180863,1,0,0:0:0:0:
182,192,181177,128,0,181491:0:0:0:0:
36,192,181491,128,0,181805:0:0:0:0:
402,192,181805,128,0,182119:0:0:0:0:
256,192,182119,128,0,182433:0:0:0:0:
182,192,182433,128,0,182748:0:0:0:0:
36,192,182748,128,0,183062:0:0:0:0:
402,192,183062,128,0,183376:0:0:0:0:
256,192,183376,128,0,183690:0:0:0:0:
109,192,183690,128,0,184004:0:0:0:0:
329,192,184004,128,0,184318:0:0:0:0:
402,192,184318,128,0,184632:0:0:0:0:
475,192,184632,128,0,184947:0:0:0:0:
36,192,184947,128,0,185261:0:0:0:0:
256,192,185261,128,0,185575:0:0:0:0:
329,192,185575,128,0,185889:0:0:0:0:
402,192,185889,128,0,186203:0:0:0:0:
182,192,186203,128,0,186517:0:0:0:0:
36,192,186517,128,0,186831:0:0:0:0:
402,192,186831,128,0,187145:0:0:0:0:
256,192,187145,128,0,187460:0:0:0:0:
182,192,187460,128,0,187774:0:0:0:0:
36,192,187774,128,0,188088:0:0:0:0:
402,192,188088,128,0,188402:0:0:0:0:
256,192,188402,128,0,188716:0:0:0:0:
109,192,188716,128,0,189030:0:0:0:0:
329,192,189030,128,0,189344:0:0:0:0:
402,192,189344,128,0,189659:0:0:0:0:
475,192,189659,128,0,189973:0:0:0:0:
182,192,189973,1,0,0:0:0:0:
36,192,189973,1,0,0:0:0:0:
475,192,190444,1,0,0:0:0:0:
329,192,190444,1,0,0:0:0:0:
109,192,191229,1,0,0:0:0:0:
402,192,191229,1,0,0:0:0:0:
475,192,192486,1,0,0:0:0:0:
36,192,193114,1,0,0:0:0:0:
329,192,193742,1,0,0:0:0:0:
109,192,194999,1,0,0:0:0:0:
402,192,196255,1,0,0:0:0:0:
36,192,197512,1,0,0:0:0:0:
329,192,198140,1,0,0:0:0:0:
109,192,198769,1,0,0:0:0:0:
182,192,199397,1,0,0:0:0:0:
329,192,200025,1,0,0:0:0:0:
402,192,200653,1,0,0:0:0:0:
475,192,201282,1,0,0:0:0:0:
402,192,202538,1,0,0:0:0:0:
109,192,203166,1,0,0:0:0:0:
182,192,203795,1,0,0:0:0:0:
36,192,205051,1,0,0:0:0:0:
402,192,205680,1,0,0:0:0:0:
182,192,206308,1,0,0:0:0:0:
109,192,207564,1,0,0:0:0:0:
256,192,208821,128,0,211334:0:0:0:0:
