osu file format v14

[General]
AudioFilename: audio.mp3
AudioLeadIn: 0
PreviewTime: 59371
Countdown: 1
SampleSet: Normal
StackLeniency: 0.7
Mode: 0
LetterboxInBreaks: 0
WidescreenStoryboard: 1

[Editor]
DistanceSpacing: 2.3
BeatDivisor: 4
GridSize: 4
TimelineZoom: 1.9

[Metadata]
Title:AO-Infinite [prototype]
TitleUnicode:AO-∞ [prototype]
Artist:Seiryu
ArtistUnicode:青龍
Creator:_derp
Version:Infinite Hallucination
Source:
Tags:electronic techno vocaloid chinese seiryuu
BeatmapID:1205904
BeatmapSetID:568764

[Difficulty]
HPDrainRate:7
CircleSize:4.3
OverallDifficulty:8
ApproachRate:9.2
SliderMultiplier:1.4
SliderTickRate:1

[Events]
//Background and Video events
0,0,"u r fgt.jpg",0,0
//Break Periods
2,101246,103618
//Storyboard Layer 0 (Background)
//Storyboard Layer 1 (Fail)
//Storyboard Layer 2 (Pass)
//Storyboard Layer 3 (Foreground)
//Storyboard Layer 4 (Overlay)
//Storyboard Sound Samples

[TimingPoints]
-105,314.13612565445,4,1,0,100,1,0
20627,-200,4,2,0,5,0,0
39476,-133.333333333333,4,2,0,40,0,0
59580,-133.333333333333,4,2,0,100,0,1
80313,-133.333333333333,4,2,0,80,0,0
84014,-100,4,2,0,80,0,0
85428,-133.333333333333,4,2,0,80,0,0
101046,-133.333333333333,4,1,0,100,0,0
115968,-133.333333333333,4,2,0,65,0,0
120209,-100,4,2,0,65,0,0
120444,-100,4,2,0,65,0,0
121465,-133.333333333333,4,1,0,100,0,0
131056,-142.857142857143,4,1,0,45,0,0
132460,-166.666666666667,4,1,0,45,0,0
146282,-133.333333333333,4,1,0,65,0,0
149198,-133.333333333333,4,1,0,65,0,0
150366,-100,4,1,0,65,0,1
150601,-133.333333333333,4,1,0,65,0,1
150994,-133.333333333333,4,1,0,65,0,1
171413,-133.333333333333,4,2,0,60,0,1
187120,-133.333333333333,4,2,0,70,0,1
187748,-133.333333333333,4,2,0,80,0,1
188376,-133.333333333333,4,2,0,90,0,1
188926,-133.333333333333,4,2,0,100,0,1
190104,-100,4,2,0,100,0,1
190732,-133.333333333333,4,2,0,100,0,1
191439,-166.666666666667,4,2,0,35,0,0
201344,-125,4,2,0,5,0,0
207234,-142.857142857143,4,2,0,5,0,0

[HitObjects]
100,260,20627,6,0,B|108:188|168:192|192:144|172:104|152:72,1,210
272,128,21884,6,0,B|296:160|336:168,1,70
441,143,22512,2,0,P|417:118|400:88,1,70
362,244,23141,2,0,P|330:284|234:300,1,140
116,208,24083,6,0,L|84:144,1,70
256,229,25182,1,0,0:0:0:0:
218,192,25340,1,0,0:0:0:0:
256,154,25497,1,0,0:0:0:0:
293,192,25654,1,0,0:0:0:0:
194,304,26910,6,0,B|178:244|142:244|130:172,1,140
413,176,28167,5,0,0:0:0:0:
294,66,28481,1,0,0:0:0:0:
271,288,28795,1,0,0:0:0:0:
111,98,29109,1,0,0:0:0:0:
98,303,29423,1,0,0:0:0:0:
256,180,30052,5,0,0:0:0:0:
397,229,30680,2,0,B|397:173|397:173|329:121|385:65|445:81|441:129|441:129,1,210
435,300,31936,6,0,B|403:348|403:348|383:300|335:272,1,140
224,72,33193,6,0,B|171:56|171:56|155:116|223:144|172:202,1,210
201,325,34449,6,0,L|265:297,1,70
466,129,35078,1,0,0:0:0:0:
398,61,35235,1,0,0:0:0:0:
354,145,35392,1,0,0:0:0:0:
262,125,35549,1,0,0:0:0:0:
302,229,35706,1,0,0:0:0:0:
124,277,36648,6,0,P|143:307|155:340,1,70
121,56,37591,2,0,B|119:88|77:145|77:145|114:150,1,140
280,272,39476,5,0,0:0:0:0:
368,52,39711,1,0,0:0:0:0:
176,52,39947,5,0,0:0:0:0:
356,160,40104,1,0,0:0:0:0:
168,220,40339,5,0,0:0:0:0:
320,312,40575,1,0,0:0:0:0:
268,208,40732,5,0,0:0:0:0:
276,180,40811,1,0,0:0:0:0:
284,152,40889,1,0,0:0:0:0:
292,124,40968,1,0,0:0:0:0:
300,96,41046,1,0,0:0:0:0:
484,36,41203,1,0,0:0:0:0:
496,244,41360,2,0,P|496:270|484:304,1,52.5000020027161
172,300,41674,1,0,0:0:0:0:
232,228,41832,5,0,0:0:0:0:
232,220,41910,1,0,0:0:0:0:
232,212,41989,1,0,0:0:0:0:
232,204,42067,1,0,0:0:0:0:
232,196,42146,1,0,0:0:0:0:
232,188,42224,1,0,0:0:0:0:
232,180,42303,1,0,0:0:0:0:
152,44,42460,6,0,P|124:24|88:16,1,52.5000020027161
56,280,42774,2,0,P|68:303|85:322,1,52.5000020027161
204,288,43088,5,0,0:0:0:0:
216,48,43245,1,0,0:0:0:0:
416,176,43481,5,0,0:0:0:0:
216,48,43716,2,0,P|191:47|164:54,1,52.5000020027161
168,240,44109,5,0,0:0:0:0:
376,336,44345,2,0,P|406:328|434:309,1,52.5000020027161
152,248,44737,1,0,0:0:0:0:
388,116,44973,2,0,P|380:72|380:48,1,52.5000020027161
408,240,45366,1,0,0:0:0:0:
256,200,45601,1,0,0:0:0:0:
148,320,45758,5,0,0:0:0:0:
140,312,45836,1,0,0:0:0:0:
132,304,45915,1,0,0:0:0:0:
124,296,45993,1,0,0:0:0:0:
116,288,46072,1,0,0:0:0:0:
40,96,46230,2,0,P|72:92|104:84,1,52.5000020027161
356,40,46544,2,0,P|368:68|396:104,1,52.5000020027161
192,208,46858,5,0,0:0:0:0:
181,214,46936,1,0,0:0:0:0:
172,220,47015,1,0,0:0:0:0:
162,225,47093,1,0,0:0:0:0:
152,231,47172,1,0,0:0:0:0:
142,237,47250,1,0,0:0:0:0:
132,242,47329,1,0,0:0:0:0:
120,356,47486,6,0,P|152:356|188:348,1,52.5000020027161
416,248,47800,2,0,P|428:224|456:196,1,52.5000020027161
316,68,48114,2,0,P|288:36|276:12,1,52.5000020027161
96,76,48507,5,0,0:0:0:0:
88,268,48743,2,0,B|65:283|53:307,1,52.5000020027161
268,336,49135,1,0,0:0:0:0:
332,116,49371,2,0,P|323:94|307:70,1,52.5000020027161
132,256,49764,5,0,0:0:0:0:
372,344,49999,2,0,P|404:356|444:352,1,52.5000020027161
480,104,50392,1,0,0:0:0:0:
296,176,50627,1,0,0:0:0:0:
232,24,50785,5,0,0:0:0:0:
206,32,50863,1,0,0:0:0:0:
181,40,50942,1,0,0:0:0:0:
155,49,51020,1,0,0:0:0:0:
130,57,51099,1,0,0:0:0:0:
12,224,51256,2,0,P|28:243|52:255,1,52.5000020027161
232,140,51570,2,0,P|244:120|266:102,1,52.5000020027161
476,32,51884,5,0,0:0:0:0:
484,52,51962,1,0,0:0:0:0:
492,76,52041,1,0,0:0:0:0:
500,100,52120,1,0,0:0:0:0:
496,124,52198,1,0,0:0:0:0:
488,148,52277,1,0,0:0:0:0:
480,172,52355,1,0,0:0:0:0:
348,312,52512,6,0,P|322:317|296:314,1,52.5000020027161
228,56,52826,2,0,P|220:87|226:115,1,52.5000020027161
404,176,53141,2,0,P|378:181|353:178,1,52.5000020027161
60,220,53533,5,0,0:0:0:0:
256,240,53769,2,0,P|256:272|240:304,1,52.5000020027161
412,92,54161,1,0,0:0:0:0:
208,48,54397,2,0,P|196:68|188:100,1,52.5000020027161
176,296,54790,1,0,0:0:0:0:
336,156,55025,1,0,0:0:0:0:
400,240,55182,6,0,L|424:260,3,26.2500010013581
384,72,55497,6,0,L|392:44,3,26.2500010013581
424,136,55811,1,0,0:0:0:0:
388,152,55889,1,0,0:0:0:0:
352,164,55968,1,0,0:0:0:0:
332,120,56046,1,0,0:0:0:0:
288,92,56125,1,0,0:0:0:0:
240,88,56203,1,0,0:0:0:0:
196,108,56282,1,0,0:0:0:0:
172,152,56360,1,0,0:0:0:0:
164,232,56439,6,0,L|196:240,1,26.2500010013581
256,180,56597,2,0,L|256:148,1,26.2500010013581
120,88,56754,2,0,L|92:112,1,26.2500010013581
56,180,56911,5,0,0:0:0:0:
48,220,56989,1,0,0:0:0:0:
56,260,57068,1,0,0:0:0:0:
84,292,57146,1,0,0:0:0:0:
124,304,57225,1,0,0:0:0:0:
164,300,57303,1,0,0:0:0:0:
200,276,57381,6,0,L|184:248,1,26.2500010013581
320,280,57538,2,0,L|364:268,1,26.2500010013581
268,152,57696,2,0,L|272:112,1,26.2500010013581
196,200,57853,2,0,L|164:216,1,26.2500010013581
239,54,58010,1,0,0:0:0:0:
203,54,58088,1,0,0:0:0:0:
167,54,58167,1,0,0:0:0:0:
131,54,58245,1,0,0:0:0:0:
87,54,58324,6,0,L|83:10,1,26.2500010013581
59,98,58481,2,0,L|32:94,1,26.2500010013581
67,134,58638,1,0,0:0:0:0:
91,166,58716,1,0,0:0:0:0:
131,178,58795,1,0,0:0:0:0:
171,166,58873,1,0,0:0:0:0:
199,134,58952,2,0,L|215:46,1,78.7500030040742
440,120,59423,5,0,0:0:0:0:
480,224,59580,2,0,L|438:292,1,78.7500030040742
348,152,59894,2,0,L|356:100,1,52.5000020027161
252,232,60209,2,0,P|208:268|140:292,1,105.000004005432
108,80,60837,5,0,0:0:0:0:
108,112,60915,1,0,0:0:0:0:
108,144,60994,1,0,0:0:0:0:
108,176,61072,1,0,0:0:0:0:
108,208,61151,2,0,P|124:228|152:248,1,52.5000020027161
288,100,61465,2,0,P|280:72|280:44,1,52.5000020027161
476,164,61779,2,0,P|496:184|516:220,1,52.5000020027161
472,236,62015,5,0,0:0:0:0:
439,246,62093,1,0,0:0:0:0:
407,252,62172,1,0,0:0:0:0:
372,258,62250,1,0,0:0:0:0:
336,263,62329,1,0,0:0:0:0:
300,268,62408,2,0,P|268:264|232:248,1,52.5000020027161
184,112,62722,2,0,P|163:97|148:75,1,52.5000020027161
364,80,63035,1,0,0:0:0:0:
356,324,63193,1,0,0:0:0:0:
448,184,63350,6,0,P|466:149|470:111,1,78.7500030040742
168,72,63821,1,0,0:0:0:0:
292,128,63978,1,0,0:0:0:0:
48,284,64214,6,0,P|53:324|70:361,1,78.7500030040742
352,296,64606,1,0,0:0:0:0:
120,204,64842,1,0,0:0:0:0:
128,96,65078,5,0,0:0:0:0:
112,48,65235,2,0,L|112:20,7,26.2500010013581
152,60,65863,1,0,0:0:0:0:
188,48,65942,1,0,0:0:0:0:
228,44,66020,1,0,0:0:0:0:
268,48,66099,1,0,0:0:0:0:
304,60,66177,1,0,0:0:0:0:
416,244,66334,2,0,P|404:268|384:288,1,52.5000020027161
284,107,66648,2,0,P|292:79|304:59,1,52.5000020027161
452,140,66962,5,0,0:0:0:0:
468,176,67041,1,0,0:0:0:0:
484,212,67120,1,0,0:0:0:0:
496,248,67198,1,0,0:0:0:0:
484,284,67277,1,0,0:0:0:0:
464,320,67355,1,0,0:0:0:0:
440,348,67434,2,0,P|412:348|376:336,1,52.5000020027161
396,182,67748,2,0,P|380:158|376:134,1,52.5000020027161
232,100,68062,2,0,P|212:120|188:156,1,52.5000020027161
248,284,68376,5,0,0:0:0:0:
424,112,68612,1,0,0:0:0:0:
404,268,68848,2,0,P|372:268|332:256,1,52.5000020027161
180,84,69240,5,0,0:0:0:0:
112,228,69476,2,0,P|148:228|172:220,1,52.5000020027161
436,204,69868,5,0,0:0:0:0:
312,48,70104,2,0,P|286:55|263:67,1,52.5000020027161
256,248,70575,1,0,0:0:0:0:
56,312,70889,5,0,0:0:0:0:
40,276,70968,1,0,0:0:0:0:
56,248,71046,1,0,0:0:0:0:
40,216,71125,1,0,0:0:0:0:
56,188,71203,1,0,0:0:0:0:
200,68,71360,2,0,P|228:60|260:40,1,52.5000020027161
376,208,71675,2,0,P|380:236|400:268,1,52.5000020027161
280,336,71989,5,0,0:0:0:0:
252,352,72067,1,0,0:0:0:0:
220,336,72146,1,0,0:0:0:0:
192,352,72224,1,0,0:0:0:0:
160,340,72303,1,0,0:0:0:0:
132,352,72381,1,0,0:0:0:0:
100,336,72460,2,0,P|84:308|72:272,1,52.5000020027161
220,176,72774,2,0,P|215:144|216:106,1,52.5000020027161
396,84,73088,2,0,P|403:52|420:18,1,52.5000020027161
480,168,73402,5,0,0:0:0:0:
192,80,73638,1,0,0:0:0:0:
268,316,73874,1,0,0:0:0:0:
268,316,74031,1,0,0:0:0:0:
44,252,74266,2,0,P|59:215|80:182,1,78.7500030040742
296,48,74659,5,0,0:0:0:0:
220,280,74894,1,0,0:0:0:0:
93,72,75130,2,0,P|69:96|61:112,1,52.5000020027161
184,236,75523,1,0,0:0:0:0:
360,188,75758,1,0,0:0:0:0:
364,64,75915,5,0,0:0:0:0:
328,48,75993,1,0,0:0:0:0:
288,40,76072,1,0,0:0:0:0:
248,44,76151,1,0,0:0:0:0:
208,56,76230,2,0,P|185:68|159:93,1,52.5000020027161
81,307,76544,2,0,P|69:331|52:350,1,52.5000020027161
12,180,76858,5,0,0:0:0:0:
136,264,77015,1,0,0:0:0:0:
164,268,77093,1,0,0:0:0:0:
192,272,77172,1,0,0:0:0:0:
220,276,77251,1,0,0:0:0:0:
248,280,77329,1,0,0:0:0:0:
276,284,77408,1,0,0:0:0:0:
304,288,77486,6,0,P|336:280|368:252,1,52.5000020027161
200,104,77800,2,0,P|168:76|160:64,1,52.5000020027161
356,12,78114,1,0,0:0:0:0:
410,232,78271,1,0,0:0:0:0:
480,120,78428,6,0,P|476:76|464:36,1,78.7500030040742
176,260,78900,1,0,0:0:0:0:
168,76,79057,2,0,P|148:121|141:152,1,78.7500030040742
310,279,79528,1,0,0:0:0:0:
416,136,79685,2,0,B|392:186|401:229|401:229|332:241|332:241|308:283,1,210.000008010865
104,140,80627,5,0,0:0:0:0:
124,136,80706,1,0,0:0:0:0:
144,132,80784,1,0,0:0:0:0:
164,128,80863,1,0,0:0:0:0:
188,124,80942,2,0,L|215:133,3,26.2500010013581
248,308,81256,2,0,L|251:336,3,26.2500010013581
400,164,81570,2,0,L|426:156,3,26.2500010013581
128,108,81884,2,0,L|139:84,3,26.2500010013581
300,40,82198,5,0,0:0:0:0:
320,60,82277,1,0,0:0:0:0:
340,80,82355,1,0,0:0:0:0:
360,100,82434,1,0,0:0:0:0:
380,120,82512,1,0,0:0:0:0:
400,140,82591,1,0,0:0:0:0:
420,160,82669,1,0,0:0:0:0:
440,180,82748,1,0,0:0:0:0:
460,200,82826,2,0,L|467:225,3,26.2500010013581
388,304,83141,5,0,0:0:0:0:
349,292,83219,1,0,0:0:0:0:
308,280,83298,1,0,0:0:0:0:
276,272,83376,1,0,0:0:0:0:
240,208,83455,2,0,L|250:183,7,26.2500010013581
192,120,84083,6,0,P|160:104|134:79,1,70
326,71,84397,1,0,0:0:0:0:
83,212,84554,1,0,0:0:0:0:
374,226,84711,6,0,P|402:242|438:249,1,70
200,331,85025,1,0,0:0:0:0:
248,65,85182,1,0,0:0:0:0:
307,340,85340,1,0,0:0:0:0:
135,80,85497,1,0,0:0:0:0:
364,116,85654,1,0,0:0:0:0:
348,128,85732,1,0,0:0:0:0:
332,140,85811,1,0,0:0:0:0:
316,152,85889,1,0,0:0:0:0:
312,236,85968,6,0,L|301:260,3,26.2500010013581
304,80,86282,2,0,L|315:56,3,26.2500010013581
312,236,86596,2,0,L|332:264,3,26.2500010013581
120,208,86910,2,0,L|97:220,3,26.2500010013581
160,296,87224,5,0,0:0:0:0:
184,296,87303,1,0,0:0:0:0:
208,296,87381,1,0,0:0:0:0:
232,296,87460,1,0,0:0:0:0:
256,296,87538,1,0,0:0:0:0:
280,296,87617,1,0,0:0:0:0:
304,296,87695,1,0,0:0:0:0:
328,296,87774,1,0,0:0:0:0:
384,248,87853,6,0,L|407:236,3,26.2500010013581
448,176,88167,1,0,0:0:0:0:
420,148,88245,1,0,0:0:0:0:
392,120,88324,1,0,0:0:0:0:
360,96,88402,1,0,0:0:0:0:
312,144,88481,2,0,L|285:151,3,26.2500010013581
192,112,88795,5,0,0:0:0:0:
180,128,88873,1,0,0:0:0:0:
168,144,88952,1,0,0:0:0:0:
156,160,89031,1,0,0:0:0:0:
144,176,89109,1,0,0:0:0:0:
132,192,89188,1,0,0:0:0:0:
120,208,89266,1,0,0:0:0:0:
108,224,89345,1,0,0:0:0:0:
100,272,89423,2,0,L|114:293,3,26.2500010013581
336,320,89737,2,0,L|357:304,3,26.2500010013581
300,188,90051,6,0,L|283:167,3,26.2500010013581
280,128,90366,1,0,0:0:0:0:
268,88,90444,1,0,0:0:0:0:
240,56,90523,1,0,0:0:0:0:
200,48,90601,1,0,0:0:0:0:
160,64,90680,1,0,0:0:0:0:
144,108,90758,1,0,0:0:0:0:
152,148,90837,1,0,0:0:0:0:
144,188,90915,1,0,0:0:0:0:
120,224,90994,6,0,L|103:203,3,26.2500010013581
264,88,91308,2,0,L|285:73,3,26.2500010013581
432,168,91622,5,0,0:0:0:0:
432,188,91701,1,0,0:0:0:0:
432,208,91779,1,0,0:0:0:0:
432,228,91858,1,0,0:0:0:0:
432,248,91936,1,0,0:0:0:0:
432,268,92015,1,0,0:0:0:0:
432,284,92093,1,0,0:0:0:0:
432,300,92172,1,0,0:0:0:0:
432,316,92250,2,0,L|410:330,3,26.2500010013581
402,106,92565,6,0,L|424:92,3,26.2500010013581
204,88,92879,2,0,L|179:79,3,26.2500010013581
116,152,93193,5,0,0:0:0:0:
116,172,93272,1,0,0:0:0:0:
116,192,93350,1,0,0:0:0:0:
116,212,93429,1,0,0:0:0:0:
188,305,93507,2,0,P|216:305|248:313,1,52.5000020027161
280,180,93821,2,0,P|288:152|288:120,1,52.5000020027161
420,120,94135,2,0,P|436:92|468:64,1,52.5000020027161
421,248,94449,1,0,0:0:0:0:
244,48,94606,5,0,0:0:0:0:
244,48,94764,1,0,0:0:0:0:
140,172,95078,1,0,0:0:0:0:
252,332,95392,2,0,P|276:339|311:330,1,52.5000020027161
281,209,95706,1,0,0:0:0:0:
488,192,96020,6,0,L|509:205,2,26.2500010013581
232,92,96334,1,0,0:0:0:0:
232,92,96413,1,0,0:0:0:0:
232,92,96491,1,0,0:0:0:0:
257,308,96648,6,0,L|244:330,2,26.2500010013581
372,72,96962,1,0,0:0:0:0:
372,72,97041,1,0,0:0:0:0:
372,72,97119,1,0,0:0:0:0:
317,274,97277,6,0,L|343:273,2,26.2500010013581
96,288,97591,1,0,0:0:0:0:
96,288,97670,1,0,0:0:0:0:
96,288,97748,1,0,0:0:0:0:
168,84,97905,6,0,L|182:105,3,26.2500010013581
264,236,98219,2,0,L|245:254,3,26.2500010013581
272,72,98533,2,0,L|298:73,3,26.2500010013581
252,56,98847,1,0,0:0:0:0:
228,40,98925,1,0,0:0:0:0:
200,40,99004,1,0,0:0:0:0:
176,48,99082,1,0,0:0:0:0:
188,116,99161,5,0,0:0:0:0:
164,132,99240,1,0,0:0:0:0:
140,140,99318,1,0,0:0:0:0:
112,136,99397,1,0,0:0:0:0:
68,192,99475,5,0,0:0:0:0:
56,212,99554,1,0,0:0:0:0:
44,232,99632,1,0,0:0:0:0:
32,256,99711,2,0,L|40:282,1,26.2500010013581
224,352,99947,6,0,P|264:340|308:312,1,78.7500030040742
308,308,100261,1,0,0:0:0:0:
316,296,100339,1,0,0:0:0:0:
324,284,100418,1,0,0:0:0:0:
332,272,100497,1,0,0:0:0:0:
340,260,100575,1,0,0:0:0:0:
352,244,100654,1,0,0:0:0:0:
364,224,100732,5,0,0:0:0:0:
352,200,100811,1,0,0:0:0:0:
332,180,100889,1,0,0:0:0:0:
312,160,100968,1,0,0:0:0:0:
272,160,101046,1,4,0:0:0:0:
256,192,104188,12,0,109528,0:0:0:0:
160,192,110470,6,0,L|141:210,8,26.2500010013581,0|0|0|0|0|0|0|0|4,0:0|0:0|0:0|0:0|0:0|0:0|0:0|0:0|0:0,0:0:0:0:
176,116,111413,5,0,0:0:0:0:
384,268,111727,1,0,0:0:0:0:
180,288,112041,5,0,0:0:0:0:
368,56,112355,1,0,0:0:0:0:
100,216,112669,5,0,0:0:0:0:
420,168,112983,1,0,0:0:0:0:
88,68,113298,5,0,0:0:0:0:
392,320,113612,1,0,0:0:0:0:
328,24,113926,5,0,0:0:0:0:
180,328,114240,1,0,0:0:0:0:
436,104,114554,5,0,0:0:0:0:
80,276,114868,1,0,0:0:0:0:
408,328,115182,5,0,0:0:0:0:
116,44,115497,1,0,0:0:0:0:
240,232,115811,5,0,0:0:0:0:
216,328,115968,1,0,0:0:0:0:
304,348,116125,5,0,0:0:0:0:
340,336,116203,1,0,0:0:0:0:
372,312,116282,1,0,0:0:0:0:
388,276,116360,1,0,0:0:0:0:
348,220,116439,5,8,0:0:0:0:
340,180,116518,1,0,0:0:0:0:
320,148,116596,1,0,0:0:0:0:
288,128,116675,1,0,0:0:0:0:
260,188,116753,5,0,0:0:0:0:
232,216,116832,1,0,0:0:0:0:
196,228,116910,1,0,0:0:0:0:
152,224,116989,1,0,0:0:0:0:
92,264,117067,5,8,0:0:0:0:
112,300,117146,1,0,0:0:0:0:
144,324,117224,1,0,0:0:0:0:
180,336,117303,1,0,0:0:0:0:
208,272,117381,5,0,0:0:0:0:
248,272,117460,1,0,0:0:0:0:
284,284,117538,1,0,0:0:0:0:
316,308,117617,1,0,0:0:0:0:
376,340,117695,5,8,0:0:0:0:
404,312,117774,1,0,0:0:0:0:
420,276,117853,1,0,0:0:0:0:
428,240,117931,1,0,0:0:0:0:
372,204,118010,5,0,0:0:0:0:
360,164,118088,1,0,0:0:0:0:
335,133,118167,1,0,0:0:0:0:
299,118,118245,1,0,0:0:0:0:
248,168,118324,5,8,0:0:0:0:
264,204,118402,1,0,0:0:0:0:
292,228,118481,1,0,0:0:0:0:
328,240,118559,1,0,0:0:0:0:
376,224,118638,6,0,L|412:244,1,26.2500010013581,8|0,0:0|0:0,0:0:0:0:
416,200,118795,2,0,L|452:220,1,26.2500010013581,8|0,0:0|0:0,0:0:0:0:
432,160,118952,2,0,L|409:147,3,26.2500010013581
424,104,119266,2,0,P|392:84|356:72,1,52.5000020027161,8|0,0:0|0:0,0:0:0:0:
372,180,119476,2,0,L|344:208,1,35.0000013351441,8|0,0:0|0:0,0:0:0:0:
376,208,119685,2,0,L|356:236,1,35.0000013351441,8|0,0:0|0:0,0:0:0:0:
328,312,119894,2,0,P|280:332|232:328,1,78.7500030040742
236,228,120209,2,0,P|276:224|312:208,1,70
275,127,120523,2,0,P|240:51|208:128,1,210
152,312,121151,5,0,0:0:0:0:
144,312,121308,1,0,0:0:0:0:
352,320,121465,1,0,0:0:0:0:
368,324,121544,1,0,0:0:0:0:
384,329,121622,1,0,0:0:0:0:
400,334,121701,1,0,0:0:0:0:
416,339,121779,1,0,0:0:0:0:
264,200,121989,5,0,0:0:0:0:
420,104,122198,2,0,P|396:71|367:51,1,70.0000026702882
268,76,122565,1,0,0:0:0:0:
208,312,122722,5,0,0:0:0:0:
228,308,122800,1,0,0:0:0:0:
244,304,122879,1,0,0:0:0:0:
260,300,122957,1,0,0:0:0:0:
276,296,123036,1,0,0:0:0:0:
380,144,123245,2,0,P|360:116|352:80,1,70.0000026702882
108,104,123664,1,0,0:0:0:0:
108,104,123821,1,0,0:0:0:0:
328,28,123978,5,0,0:0:0:0:
344,32,124057,1,0,0:0:0:0:
360,36,124135,1,0,0:0:0:0:
376,40,124214,1,0,0:0:0:0:
392,44,124292,1,0,0:0:0:0:
480,196,124502,2,0,P|460:228|428:260,1,70.0000026702882
244,320,124921,5,0,0:0:0:0:
170,61,125130,1,0,0:0:0:0:
362,165,125339,5,0,0:0:0:0:
115,313,125549,1,0,0:0:0:0:
95,117,125758,5,0,0:0:0:0:
356,304,125968,1,0,0:0:0:0:
295,147,126177,5,0,0:0:0:0:
295,147,126334,1,0,0:0:0:0:
216,40,126491,5,0,0:0:0:0:
198,38,126569,1,0,0:0:0:0:
180,36,126648,1,0,0:0:0:0:
162,34,126726,1,0,0:0:0:0:
144,33,126805,1,0,0:0:0:0:
72,228,127015,2,0,P|84:264|109:302,1,70.0000026702882
360,212,127434,1,0,0:0:0:0:
360,212,127591,1,0,0:0:0:0:
184,160,127748,5,0,0:0:0:0:
180,144,127826,1,0,0:0:0:0:
176,128,127905,1,0,0:0:0:0:
172,112,127983,1,0,0:0:0:0:
168,96,128062,1,0,0:0:0:0:
368,44,128271,2,0,P|400:56|435:64,1,70.0000026702882
470,286,128690,1,0,0:0:0:0:
470,286,128847,1,0,0:0:0:0:
196,291,129004,5,0,0:0:0:0:
176,295,129083,1,0,0:0:0:0:
156,299,129161,1,0,0:0:0:0:
136,303,129240,1,0,0:0:0:0:
116,307,129319,1,0,0:0:0:0:
296,104,129528,1,0,0:0:0:0:
296,288,129737,1,0,0:0:0:0:
108,232,129947,5,0,0:0:0:0:
96,192,130025,1,0,0:0:0:0:
108,152,130104,1,0,0:0:0:0:
140,128,130182,1,0,0:0:0:0:
180,124,130261,1,0,0:0:0:0:
220,132,130340,1,0,0:0:0:0:
264,128,130418,1,0,0:0:0:0:
296,104,130497,5,0,0:0:0:0:
308,144,130575,1,0,0:0:0:0:
336,176,130654,1,0,0:0:0:0:
372,196,130732,1,0,0:0:0:0:
412,208,130811,2,0,L|424:232,1,26.2500010013581
140,200,131203,6,0,B|136:152|136:152|156:96|156:96,1,97.9999970092775
296,84,132146,1,0,0:0:0:0:
320,76,132224,1,0,0:0:0:0:
344,68,132303,1,0,0:0:0:0:
368,60,132381,1,0,0:0:0:0:
392,52,132460,2,0,B|420:136,1,83.9999974365235
216,256,133402,5,0,0:0:0:0:
204,272,133481,1,0,0:0:0:0:
192,288,133559,1,0,0:0:0:0:
180,304,133638,1,0,0:0:0:0:
168,320,133716,2,0,B|104:252,1,83.9999974365235
360,112,134659,5,0,0:0:0:0:
366,128,134737,1,0,0:0:0:0:
372,145,134816,1,0,0:0:0:0:
378,162,134894,1,0,0:0:0:0:
384,179,134973,2,0,P|392:208|394:238,1,55.9999982910157
100,272,135392,5,0,0:0:0:0:
176,256,135601,2,0,P|160:224|134:202,1,69.9999978637696
388,132,136020,5,0,0:0:0:0:
358,53,136230,2,0,L|391:140,1,83.9999974365235
136,248,137172,5,0,0:0:0:0:
128,232,137250,1,0,0:0:0:0:
120,216,137329,1,0,0:0:0:0:
112,200,137408,1,0,0:0:0:0:
104,184,137486,2,0,L|132:92,1,83.9999974365235
352,36,138428,5,0,0:0:0:0:
367,42,138507,1,0,0:0:0:0:
384,49,138586,1,0,0:0:0:0:
400,57,138664,1,0,0:0:0:0:
416,65,138743,2,0,L|440:144,1,83.9999974365235
308,256,139370,5,0,0:0:0:0:
208,128,139580,1,0,0:0:0:0:
220,296,139790,5,0,0:0:0:0:
292,88,139999,1,0,0:0:0:0:
124,304,140209,5,0,0:0:0:0:
384,84,140418,1,0,0:0:0:0:
40,276,140627,5,0,0:0:0:0:
472,104,140837,1,0,0:0:0:0:
416,304,141046,5,0,0:0:0:0:
88,76,141256,1,4,0:0:0:0:
244,136,141570,6,0,P|247:91|242:48,1,83.9999974365235
136,232,142198,2,0,P|165:260|193:296,1,83.9999974365235
352,244,142826,2,0,P|366:206|389:169,1,83.9999974365235
242,166,143455,2,0,B|234:127|244:84,1,83.9999974365235
336,264,144083,5,0,0:0:0:0:
176,116,144397,1,0,0:0:0:0:
256,328,144711,5,0,0:0:0:0:
256,48,145025,1,0,0:0:0:0:
132,312,145339,5,0,0:0:0:0:
380,72,145654,1,0,0:0:0:0:
456,140,145968,1,0,0:0:0:0:
432,260,146125,5,0,0:0:0:0:
420,292,146203,1,0,0:0:0:0:
404,328,146282,2,0,L|376:344,1,26.2500010013581
232,284,146439,2,0,L|216:240,1,26.2500010013581
272,172,146596,1,0,0:0:0:0:
260,136,146675,1,0,0:0:0:0:
232,108,146753,1,0,0:0:0:0:
196,92,146832,1,0,0:0:0:0:
156,92,146910,2,0,P|144:80|136:60,1,26.2500010013581
132,208,147120,6,0,P|112:220|96:240,1,35.0000013351441
284,300,147329,2,0,P|292:315|308:332,1,35.0000013351441
276,80,147538,2,0,L|300:52,1,26.2500010013581
320,68,147696,2,0,L|340:44,1,26.2500010013581
468,204,147853,1,0,0:0:0:0:
464,244,147931,1,0,0:0:0:0:
448,280,148010,1,0,0:0:0:0:
416,300,148088,1,0,0:0:0:0:
380,312,148167,6,0,P|360:324|344:340,1,39.3750015020371
248,232,148363,2,0,P|232:224|212:212,1,39.3750015020371
276,80,148599,2,0,P|284:64|300:44,1,39.3750015020371
424,160,148795,2,0,L|440:124,1,26.2500010013581
272,188,148953,2,0,L|236:172,1,26.2500010013581
76,252,149109,1,0,0:0:0:0:
80,292,149188,1,0,0:0:0:0:
100,324,149266,1,0,0:0:0:0:
132,348,149345,1,0,0:0:0:0:
180,360,149423,6,0,L|192:312,1,35.0000013351441
216,338,149633,2,0,L|224:304,1,35.0000013351441
252,320,149842,2,0,L|259:285,1,35.0000013351441
200,220,150051,2,0,P|184:180|176:136,1,78.7500030040742
244,128,150366,2,0,L|316:188,1,87.5
348,148,150654,2,0,P|332:88|288:68,1,113.750004339218
100,76,151308,6,0,L|88:128,1,52.5000020027161
292,236,151622,1,0,0:0:0:0:
320,224,151701,1,0,0:0:0:0:
348,212,151779,1,0,0:0:0:0:
376,200,151858,1,0,0:0:0:0:
404,188,151936,1,0,0:0:0:0:
480,276,152146,2,0,P|464:312|440:340,1,70.0000026702882
279,326,152565,5,0,0:0:0:0:
279,326,152722,1,0,0:0:0:0:
248,60,152879,1,0,0:0:0:0:
237,63,152957,1,0,0:0:0:0:
226,66,153036,1,0,0:0:0:0:
215,69,153114,1,0,0:0:0:0:
204,73,153193,1,0,0:0:0:0:
92,304,153402,5,0,0:0:0:0:
136,108,153612,1,0,0:0:0:0:
340,248,153821,2,0,P|340:220|336:192,1,52.5000020027161
139,38,154135,5,0,0:0:0:0:
127,38,154214,1,0,0:0:0:0:
115,38,154292,1,0,0:0:0:0:
103,38,154371,1,0,0:0:0:0:
91,38,154449,1,0,0:0:0:0:
192,252,154659,5,0,0:0:0:0:
316,136,154868,1,0,0:0:0:0:
248,312,155078,5,0,0:0:0:0:
264,72,155287,1,0,0:0:0:0:
324,324,155497,5,0,0:0:0:0:
192,40,155706,1,0,0:0:0:0:
56,272,155915,5,0,0:0:0:0:
392,48,156138,1,0,0:0:0:0:
414,176,156334,6,0,P|393:192|376:212,1,52.5000020027161
272,32,156648,1,0,0:0:0:0:
252,32,156727,1,0,0:0:0:0:
232,32,156805,1,0,0:0:0:0:
212,32,156884,1,0,0:0:0:0:
192,32,156962,1,0,0:0:0:0:
40,196,157172,2,0,P|63:225|95:253,1,70.0000026702882
348,160,157591,5,0,0:0:0:0:
348,160,157748,1,0,0:0:0:0:
152,144,157905,1,0,0:0:0:0:
148,156,157984,1,0,0:0:0:0:
144,168,158063,1,0,0:0:0:0:
140,180,158141,1,0,0:0:0:0:
136,192,158220,1,0,0:0:0:0:
248,280,158428,6,0,P|277:303|297:327,1,70.0000026702882
435,163,158847,1,0,0:0:0:0:
435,163,159004,1,0,0:0:0:0:
216,40,159161,5,0,0:0:0:0:
205,49,159240,1,0,0:0:0:0:
195,59,159319,1,0,0:0:0:0:
184,69,159397,1,0,0:0:0:0:
174,79,159476,1,0,0:0:0:0:
300,252,159685,5,0,0:0:0:0:
216,136,159894,1,0,0:0:0:0:
228,300,160104,5,0,0:0:0:0:
280,80,160313,1,0,0:0:0:0:
152,320,160523,5,0,0:0:0:0:
364,60,160732,1,0,0:0:0:0:
468,240,160942,5,0,0:0:0:0:
96,60,161151,1,0,0:0:0:0:
388,232,161360,6,0,L|388:284,1,52.5000020027161
168,256,161675,1,0,0:0:0:0:
168,236,161753,1,0,0:0:0:0:
168,216,161832,1,0,0:0:0:0:
168,196,161910,1,0,0:0:0:0:
168,176,161989,1,0,0:0:0:0:
292,48,162198,2,0,P|325:41|357:25,1,70.0000026702882
500,200,162617,1,0,0:0:0:0:
500,200,162774,1,0,0:0:0:0:
364,312,162931,5,0,0:0:0:0:
347,317,163010,1,0,0:0:0:0:
332,322,163088,1,0,0:0:0:0:
316,327,163167,1,0,0:0:0:0:
301,333,163245,1,0,0:0:0:0:
320,128,163455,2,0,P|346:103|376:68,1,70.0000026702882
104,64,163873,1,0,0:0:0:0:
100,68,164031,1,0,0:0:0:0:
124,308,164188,5,0,0:0:0:0:
143,316,164266,1,0,0:0:0:0:
163,324,164345,1,0,0:0:0:0:
183,333,164423,1,0,0:0:0:0:
203,341,164502,1,0,0:0:0:0:
296,120,164711,5,0,0:0:0:0:
216,252,164921,1,0,0:0:0:0:
384,136,165130,5,0,0:0:0:0:
136,240,165339,1,0,0:0:0:0:
452,204,165549,5,0,0:0:0:0:
88,180,165758,1,0,0:0:0:0:
376,328,165968,5,0,0:0:0:0:
112,28,166177,1,0,0:0:0:0:
265,268,166387,1,0,0:0:0:0:
265,268,166544,1,0,0:0:0:0:
220,84,166701,5,0,0:0:0:0:
232,100,166779,1,0,0:0:0:0:
244,116,166858,1,0,0:0:0:0:
256,132,166936,1,0,0:0:0:0:
268,148,167015,1,0,0:0:0:0:
336,340,167224,2,0,P|372:348|416:344,1,70.0000026702882
464,148,167643,1,0,0:0:0:0:
464,148,167800,1,0,0:0:0:0:
240,40,167957,5,0,0:0:0:0:
219,50,168035,1,0,0:0:0:0:
198,61,168114,1,0,0:0:0:0:
178,72,168192,1,0,0:0:0:0:
157,83,168271,1,0,0:0:0:0:
76,276,168481,2,0,P|91:306|116:331,1,70.0000026702882
276,160,168900,1,0,0:0:0:0:
276,160,169057,1,0,0:0:0:0:
448,240,169214,5,0,0:0:0:0:
457,218,169292,1,0,0:0:0:0:
466,197,169371,1,0,0:0:0:0:
476,176,169449,1,0,0:0:0:0:
485,154,169528,1,0,0:0:0:0:
204,124,169737,5,0,0:0:0:0:
300,252,169947,1,0,0:0:0:0:
280,76,170156,5,0,0:0:0:0:
232,292,170366,1,0,0:0:0:0:
188,24,170575,5,0,0:0:0:0:
332,364,170784,1,0,0:0:0:0:
448,68,170981,5,0,0:0:0:0:
72,140,171203,1,0,0:0:0:0:
192,96,171413,6,0,L|184:72,3,26.2500010013581
336,256,171727,6,0,L|360:261,3,26.2500010013581
256,280,172041,5,0,0:0:0:0:
239,278,172120,1,0,0:0:0:0:
223,276,172199,1,0,0:0:0:0:
206,274,172277,1,0,0:0:0:0:
236,200,172355,6,0,L|228:176,3,26.2500010013581
388,76,172669,6,0,L|410:63,3,26.2500010013581
436,120,172983,5,0,0:0:0:0:
440,136,173062,1,0,0:0:0:0:
444,152,173141,1,0,0:0:0:0:
448,168,173219,1,0,0:0:0:0:
220,292,173298,6,0,L|194:289,3,26.2500010013581
144,232,173612,1,0,0:0:0:0:
160,200,173690,1,0,0:0:0:0:
156,164,173769,1,0,0:0:0:0:
136,136,173847,1,0,0:0:0:0:
204,96,173926,5,0,0:0:0:0:
223,63,174004,1,0,0:0:0:0:
259,51,174083,1,0,0:0:0:0:
295,55,174161,1,0,0:0:0:0:
332,68,174240,6,0,L|357:70,3,26.2500010013581
236,176,174554,6,0,L|210:173,3,26.2500010013581
456,208,174868,6,0,L|482:211,3,26.2500010013581
456,140,175182,5,0,0:0:0:0:
440,116,175261,1,0,0:0:0:0:
416,100,175339,1,0,0:0:0:0:
388,92,175418,1,0,0:0:0:0:
344,144,175497,5,0,0:0:0:0:
348,172,175575,1,0,0:0:0:0:
344,200,175654,1,0,0:0:0:0:
328,224,175732,1,0,0:0:0:0:
328,296,175811,5,0,0:0:0:0:
300,304,175889,1,0,0:0:0:0:
272,304,175968,1,0,0:0:0:0:
248,292,176046,1,0,0:0:0:0:
185,243,176125,5,0,0:0:0:0:
185,271,176203,1,0,0:0:0:0:
185,307,176282,1,0,0:0:0:0:
185,343,176360,1,0,0:0:0:0:
272,304,176439,6,0,L|298:307,3,26.2500010013581
420,228,176753,5,0,0:0:0:0:
420,200,176832,1,0,0:0:0:0:
420,172,176910,1,0,0:0:0:0:
420,144,176989,1,0,0:0:0:0:
304,64,177067,6,0,L|282:50,3,26.2500010013581
188,256,177381,6,0,L|170:274,3,26.2500010013581
296,268,177696,5,0,0:0:0:0:
308,245,177774,1,0,0:0:0:0:
321,223,177853,1,0,0:0:0:0:
334,201,177931,1,0,0:0:0:0:
268,120,178010,6,0,L|246:106,3,26.2500010013581
360,84,178324,5,0,0:0:0:0:
376,100,178402,1,0,0:0:0:0:
392,116,178481,1,0,0:0:0:0:
408,132,178559,1,0,0:0:0:0:
436,216,178638,6,0,L|419:235,3,26.2500010013581
264,304,178952,1,0,0:0:0:0:
252,296,179031,1,0,0:0:0:0:
240,288,179109,1,0,0:0:0:0:
228,280,179188,1,0,0:0:0:0:
232,240,179266,5,0,0:0:0:0:
225,229,179345,1,0,0:0:0:0:
219,219,179423,1,0,0:0:0:0:
213,209,179502,1,0,0:0:0:0:
240,168,179580,5,0,0:2:0:0:
240,156,179659,1,0,0:2:0:0:
240,144,179737,1,0,0:2:0:0:
240,132,179816,1,0,0:2:0:0:
288,108,179894,5,0,0:2:0:0:
294,97,179973,1,0,0:2:0:0:
300,87,180051,1,0,0:2:0:0:
308,76,180130,1,0,0:2:0:0:
424,128,180209,6,0,L|437:149,3,26.2500010013581
300,252,180523,6,0,L|283:271,3,26.2500010013581
472,128,180837,6,0,L|489:109,3,26.2500010013581
480,200,181151,1,0,0:0:0:0:
437,225,181230,1,0,0:0:0:0:
397,248,181308,1,0,0:0:0:0:
355,267,181387,1,0,0:0:0:0:
332,344,181465,6,0,L|309:332,3,26.2500010013581
368,152,181779,6,0,L|390:140,3,26.2500010013581
164,152,182093,6,0,L|141:140,3,26.2500010013581
228,328,182408,6,0,L|250:316,3,26.2500010013581
348,332,182722,1,0,0:0:0:0:
368,315,182800,1,0,0:0:0:0:
388,299,182879,1,0,0:0:0:0:
408,283,182957,1,0,0:0:0:0:
372,208,183036,6,0,L|349:196,3,26.2500010013581
420,108,183350,6,0,L|442:96,3,26.2500010013581
336,96,183664,1,0,0:0:0:0:
312,112,183743,1,0,0:0:0:0:
292,128,183821,1,0,0:0:0:0:
272,144,183900,1,0,0:0:0:0:
252,160,183978,1,0,0:0:0:0:
232,176,184057,1,0,0:0:0:0:
212,192,184135,1,0,0:0:0:0:
192,208,184214,1,0,0:0:0:0:
200,288,184292,6,0,L|176:300,3,26.2500010013581
284,272,184606,1,0,0:0:0:0:
291,244,184685,1,0,0:0:0:0:
299,216,184764,1,0,0:0:0:0:
307,193,184842,1,0,0:0:0:0:
248,160,184921,6,0,L|220:176,3,26.2500010013581
256,92,185235,1,0,0:0:0:0:
280,88,185313,1,0,0:0:0:0:
308,84,185392,1,0,0:0:0:0:
332,80,185470,1,0,0:0:0:0:
416,144,185549,6,0,L|438:132,3,26.2500010013581
360,268,185863,6,0,L|336:259,3,26.2500010013581
312,156,186177,6,0,L|334:144,3,26.2500010013581
342,269,186491,1,0,0:0:0:0:
315,264,186570,1,0,0:0:0:0:
287,259,186648,1,0,0:0:0:0:
260,253,186727,1,0,0:0:0:0:
232,248,186805,1,0,0:0:0:0:
205,243,186884,1,0,0:0:0:0:
177,237,186962,1,0,0:0:0:0:
150,232,187041,1,0,0:0:0:0:
148,296,187120,5,0,0:0:0:0:
176,280,187198,1,0,0:0:0:0:
204,264,187277,1,0,0:0:0:0:
232,248,187355,1,0,0:0:0:0:
260,232,187434,1,0,0:0:0:0:
288,216,187512,1,0,0:0:0:0:
316,200,187591,1,0,0:0:0:0:
344,184,187669,1,0,0:0:0:0:
348,248,187748,5,0,0:0:0:0:
320,220,187826,1,0,0:0:0:0:
292,192,187905,1,0,0:0:0:0:
264,164,187983,1,0,0:0:0:0:
236,136,188062,1,0,0:0:0:0:
208,108,188141,1,0,0:0:0:0:
180,80,188219,1,0,0:0:0:0:
152,52,188298,1,0,0:0:0:0:
92,88,188376,5,0,0:0:0:0:
88,124,188455,1,0,0:0:0:0:
96,160,188533,1,0,0:0:0:0:
116,192,188612,1,0,0:0:0:0:
148,212,188690,1,0,0:0:0:0:
184,220,188769,1,0,0:0:0:0:
220,220,188847,1,0,0:0:0:0:
224,284,188926,5,0,0:0:0:0:
184,292,189004,1,0,0:0:0:0:
144,284,189083,1,0,0:0:0:0:
108,260,189161,1,0,0:0:0:0:
96,220,189240,1,0,0:0:0:0:
104,180,189319,1,0,0:0:0:0:
140,156,189397,1,0,0:0:0:0:
180,148,189476,1,0,0:0:0:0:
220,156,189554,1,0,0:0:0:0:
268,168,189633,5,0,0:0:0:0:
288,116,189711,1,0,0:0:0:0:
332,80,189790,1,0,0:0:0:0:
388,76,189868,1,0,0:0:0:0:
440,104,189947,1,0,0:0:0:0:
464,156,190025,1,0,0:0:0:0:
464,212,190104,1,0,0:0:0:0:
432,256,190182,1,0,0:0:0:0:
380,280,190261,6,0,L|388:324,1,35
324,288,190418,2,0,L|256:260,1,70
320,176,190732,2,0,P|338:156|351:134,1,52.5000020027161
328,116,190968,5,0,0:0:0:0:
308,128,191046,1,0,0:0:0:0:
288,140,191125,1,0,0:0:0:0:
268,152,191203,1,0,0:0:0:0:
248,164,191282,1,0,0:0:0:0:
228,176,191360,1,0,0:0:0:0:
208,188,191439,1,0,0:0:0:0:
188,200,191517,1,4,0:0:0:0:
200,136,192460,6,0,P|172:168|152:216,1,83.9999974365235
248,300,193402,1,0,0:0:0:0:
360,224,194031,1,0,0:0:0:0:
347,57,194973,5,0,0:0:0:0:
295,145,195287,1,0,0:0:0:0:
120,172,196072,5,0,0:0:0:0:
192,244,196230,1,0,0:0:0:0:
284,208,196387,1,0,0:0:0:0:
384,228,196544,1,0,0:0:0:0:
459,262,197486,6,0,P|439:314|419:346,1,83.9999974365235
160,152,198428,1,0,0:0:0:0:
336,120,199057,5,0,0:0:0:0:
368,244,199371,1,0,0:0:0:0:
280,308,199685,1,0,0:0:0:0:
164,308,199999,1,0,0:0:0:0:
216,152,200313,1,0,0:0:0:0:
392,200,200942,1,0,0:0:0:0:
240,324,201570,2,0,B|264:292|264:292|212:284|180:244|180:208|180:208|236:196|236:196,1,224
304,76,202512,1,0,0:0:0:0:
156,92,202826,6,0,P|112:128|80:184,1,112
340,208,203455,2,0,P|396:188|444:140,1,112
232,80,204083,2,0,L|164:176,1,112
376,168,205025,5,0,0:0:0:0:
252,280,205339,1,0,0:0:0:0:
34,231,205968,5,0,0:0:0:0:
123,164,206125,1,0,0:0:0:0:
158,270,206282,1,0,0:0:0:0:
266,240,206439,1,0,0:0:0:0:
329,330,206596,1,0,0:0:0:0:
396,156,207538,6,0,P|352:128|304:124,1,97.9999970092775
256,240,209109,1,0,0:0:0:0:
256,192,209266,12,0,211779,0:0:0:0:
