osu file format v14

[General]
AudioFilename: 20.+AO-.mp3
AudioLeadIn: 0
PreviewTime: 170038
Countdown: 0
SampleSet: Soft
StackLeniency: 0.4
Mode: 0
LetterboxInBreaks: 0
WidescreenStoryboard: 1

[Editor]
Bookmarks: 22473,23101,27499,28127,55768,55770,56867,63307,63542,63778,63935,64171,64406,64563,64799,65035,65192,65427,65663,81527,81841,82155,82469,82783,83097,83412,83726,84040,84432,84668,84982,85296,85610,85925,86553,86788,86867,87181,87652,88124,89537,90480,90951,91265,91736,91893,92521,93150,94249,94406,94720,95035,95349,95663,95977,97548,98176,100375,101003,116556,117183,117341,117498,117654,117890,118518,118519,118597,119383,141843,142157,142471,142785,143099,143492,151266,156922,157132,157341,157551,157708,158179,158388,158598,158807,158964,168231,178915,179229,179543,179857,180171,180486,180800,181114
DistanceSpacing: 3
BeatDivisor: 4
GridSize: 32
TimelineZoom: 2.799999

[Metadata]
Title:AO-INFINITY
TitleUnicode:AO-∞
Artist:Seiryu
ArtistUnicode:青龍
Creator:TheCosmicWolf
Version:Blueshift
Source:REFLEC BEAT plus
Tags:ryu ao-infinity ryu blue dragon exit tunes ao infinity AO INFINITY Cosmic Dragon
BeatmapID:1636119
BeatmapSetID:779055

[Difficulty]
HPDrainRate:5.6
CircleSize:4
OverallDifficulty:9
ApproachRate:10
SliderMultiplier:1.8
SliderTickRate:1

[Events]
//Background and Video events
0,0,"blue-dragon-ao-infinity.jpg",0,0
//Break Periods
2,101207,109934
//Storyboard Layer 0 (Background)
//Storyboard Layer 1 (Fail)
//Storyboard Layer 2 (Pass)
//Storyboard Layer 3 (Foreground)
//Storyboard Sound Samples

[TimingPoints]
484,314.13612565445,4,2,0,20,1,0
484,-142.857142857143,4,2,0,20,0,0
2918,-333.333333333334,4,2,0,20,0,0
3860,-142.857142857143,4,2,0,20,0,0
39432,-142.857142857143,4,2,0,30,0,0
40061,-142.857142857143,4,2,0,35,0,0
41792,314.13612565445,4,2,0,35,1,0
50744,-100,4,2,0,45,0,0
55770,-100,4,2,0,55,0,0
56085,-333.333333333333,4,2,0,55,0,0
58127,-100,4,2,0,55,0,0
58284,-100,4,2,0,60,0,0
60797,-71.4285714285715,4,2,0,70,0,1
63938,-100,4,2,0,70,0,1
65195,-71.4285714285714,4,2,0,70,0,1
68964,-100,4,2,0,70,0,1
70849,-71.4285714285714,4,2,0,70,0,1
73990,-100,4,2,0,70,0,1
75875,-71.4285714285714,4,2,0,70,0,1
79664,-71.4285714285714,4,2,0,5,0,1
80587,-83.3333333333333,4,2,0,70,0,1
80901,-83.3333333333333,4,2,0,50,0,0
115848,-71.4285714285714,4,2,0,50,0,0
117105,-62.5,4,2,0,50,0,0
117811,-55.5555555555556,4,2,0,50,0,0
118558,-55.5555555555556,4,2,0,51,0,0
118715,-55.5555555555556,4,2,0,54,0,0
118872,-55.5555555555556,4,2,0,57,0,0
119029,-55.5555555555556,4,2,0,60,0,0
119186,-55.5555555555556,4,2,0,63,0,0
119343,-55.5555555555556,4,2,0,66,0,0
119500,-55.5555555555556,4,2,0,69,0,0
119657,-55.5555555555556,4,2,0,72,0,0
119696,-83.3333333333333,4,2,0,75,0,0
119814,-83.3333333333333,4,2,0,50,0,0
121111,-100,4,2,0,80,0,0
121306,-100,4,2,0,60,0,0
122327,-100,4,2,0,80,0,0
122563,-100,4,2,0,60,0,0
123584,-100,4,2,0,80,0,0
123819,-100,4,2,0,60,0,0
126058,-100,4,2,0,80,0,0
126372,-100,4,2,0,60,0,0
127353,-100,4,2,0,80,0,0
127589,-100,4,2,0,60,0,0
128610,-100,4,2,0,80,0,0
128845,-100,4,2,0,80,0,0
128945,-100,4,2,0,60,0,0
131163,-100,4,2,0,55,0,0
148733,-62.5,4,2,0,60,0,0
149304,-55.5555555555556,4,2,0,60,0,0
149932,-100,4,2,0,60,0,0
151268,-71.4285714285714,4,2,0,70,0,1
153153,-71.4285714285714,4,2,0,70,0,1
156608,-71.4285714285714,4,2,0,70,0,1
158179,-71.4285714285714,4,2,0,70,0,1
161948,-71.4285714285714,4,2,0,70,0,1
163205,-71.4285714285714,4,2,0,70,0,1
166346,-100,4,2,0,60,0,0
169488,-100,4,2,0,80,0,0
169697,-100,4,2,0,82,0,0
169907,-100,4,2,0,83,0,0
170116,-100,4,2,0,84,0,0
170325,-100,4,2,0,85,0,0
170535,-100,4,2,0,86,0,0
170744,-100,4,2,0,89,0,0
170954,-100,4,2,0,93,0,0
171163,-100,4,2,0,99,0,0
171373,-71.4285714285714,4,2,0,70,0,1
178832,-83.3333333333333,4,2,0,70,0,1
179539,-66.6666666666667,4,2,0,70,0,1
180167,-58.8235294117647,4,2,0,70,0,1
181817,-71.4285714285714,4,2,0,70,0,1
190240,-71.4285714285714,4,2,0,5,0,1
190849,-71.4285714285714,4,2,0,70,0,1
191477,-100,4,2,0,70,0,0

[Colours]
Combo1 : 0,128,255
Combo2 : 0,255,255
Combo3 : 192,192,192
Combo4 : 0,0,255
Combo5 : 128,128,128
Combo6 : 147,255,255

[HitObjects]
147,224,484,6,0,B|224:224|256:128|256:128|288:224|367:224,1,314.999990386963,2|0,0:0|0:0,3:0:0:0:
423,63,1426,2,0,B|455:101|455:101|423:159,1,94.499997116089,2|0,0:0|0:0,0:0:0:0:
385,213,1740,2,0,B|344:284|305:287|305:287|288:254|330:179,1,220.499993270874,2|0,0:0|0:0,0:0:0:0:
272,147,2368,6,0,B|223:108|195:68|195:68|182:116|141:177,1,220.499993270874,2|0,0:0|0:0,0:0:0:0:
216,188,2997,2,0,L|243:328,1,134.999995880127,2|0,0:0|0:0,0:0:0:0:
459,292,3939,2,0,B|424:279|424:279|362:299,1,94.499997116089,2|0,0:0|0:0,0:0:0:0:
397,213,4253,2,0,B|350:228|350:228|271:201,1,125.999996154785,2|0,0:0|0:0,0:0:0:0:
152,178,4881,5,0,0:0:0:0:
213,119,5038,1,0,0:0:0:0:
234,201,5196,1,2,0:0:0:0:
152,178,5353,1,2,0:0:0:0:
213,119,5510,2,0,B|277:55|277:55|341:119|341:119|277:183|277:183|279:238,1,314.999990386963,2|0,0:0|0:0,0:0:0:0:
280,300,6452,6,0,B|230:303|230:303|186:273,1,94.499997116089,2|0,0:0|0:0,0:0:0:0:
217,211,6766,2,0,B|248:231|248:231|306:228|306:228|368:100,1,220.499993270874,2|0,0:0|0:0,0:0:0:0:
425,93,7394,2,0,P|490:98|421:135,1,188.999994232178,2|0,0:0|0:0,0:0:0:0:
96,186,8023,6,0,L|160:263,1,94.499997116089,2|0,0:0|0:0,0:0:0:0:
250,204,8337,2,0,L|186:129,1,94.499997116089,2|0,0:0|0:0,0:0:0:0:
379,133,8647,6,0,L|318:205,1,94.499997116089,2|0,0:0|0:0,0:0:0:0:
412,251,8961,2,0,L|472:178,1,94.499997116089,2|0,0:0|0:0,0:0:0:0:
472,110,9279,2,0,B|345:65|344:156|232:87,1,220.499993270874,2|0,0:0|0:0,0:0:0:0:
315,51,9904,6,0,P|316:135|192:144,1,220.499993270874,2|0,0:0|0:0,0:0:0:0:
136,47,10532,6,0,B|136:116|70:141|70:141|139:174|139:243,1,251.999992309571,2|0,0:0|0:0,0:0:0:0:
344,278,11474,2,0,P|366:232|413:220,1,94.499997116089,2|0,0:0|0:0,0:0:0:0:
335,122,11788,2,0,P|312:187|206:224,1,188.999994232178,2|0,0:0|0:0,0:0:0:0:
183,148,12417,6,0,B|107:53|70:173|70:173|124:191|122:243,2,251.999992309571,2|0|0,0:0|0:0|0:0,0:0:0:0:
118,327,13991,2,0,P|168:315|204:247,2,125.999996154785,2|2|0,0:0|0:0|0:0,0:0:0:0:
257,148,14934,5,2,0:0:0:0:
338,141,15091,1,2,0:0:0:0:
300,220,15248,1,0,0:0:0:0:
257,148,15405,1,0,0:0:0:0:
338,141,15562,2,0,B|405:137|405:137|458:116|458:116|418:152|418:152|377:215,1,251.999992309571
67,315,16504,6,0,P|106:286|151:273,1,94.499997116089,2|0,0:0|0:0,0:0:0:0:
215,230,16819,2,0,B|200:204|171:189|140:194|140:194|169:163|216:179|251:157,1,188.999994232178,2|0,0:0|0:0,0:0:0:0:
357,75,17447,6,0,P|415:85|329:186,1,251.999992309571
255,191,20588,5,4,0:0:0:0:
255,191,21531,2,0,B|254:128|254:128|194:164,1,125.999996154785,2|0,0:0|0:0,0:0:0:0:
137,212,22473,2,0,B|253:262|253:262|253:131,2,251.999992309571
113,71,24044,5,2,0:0:0:0:
247,81,24201,1,2,0:0:0:0:
323,123,24358,2,2,L|275:175,1,62.9999980773926
168,210,24672,2,2,L|222:255,1,62.9999980773926
341,256,24986,2,2,L|284:299,3,62.9999980773926
72,199,25614,1,4,0:0:0:0:
121,93,26557,6,0,P|139:153|212:162,1,125.999996154785,2|0,0:0|0:0,0:0:0:0:
299,122,27499,2,0,P|363:58|378:172,1,251.999992309571
236,253,28442,6,2,L|356:312,2,125.999996154785
320,158,29227,5,0,0:0:0:0:
188,189,29384,2,0,L|233:132,1,62.9999980773926
282,273,29698,2,0,L|217:269,1,62.9999980773926
133,186,30012,1,0,0:0:0:0:
190,71,30169,1,0,0:0:0:0:
250,189,30326,2,0,P|252:251|205:293,1,125.999996154785
112,244,31583,6,0,P|121:174|158:126,1,125.999996154785,2|0,0:0|0:0,0:0:0:0:
307,65,32525,2,0,B|352:127|352:127|320:209|320:209|366:288|366:288,2,251.999992309571,2|0|0,0:0|0:0|0:0,0:0:0:0:
134,250,33939,5,0,0:0:0:0:
134,250,34096,2,0,L|195:285,1,62.9999980773926
307,282,34410,2,0,P|364:264|390:196,1,125.999996154785
198,46,35038,5,0,0:0:0:0:
290,113,35196,1,0,0:0:0:0:
179,150,35353,2,0,P|130:176|101:208,1,94.499997116089
100,289,35667,2,0,B|170:246|242:292|242:292|296:208|384:215,1,314.999990386963
256,192,37233,12,0,39118,0:0:0:0:
256,96,39436,6,0,L|325:141,1,62.9999980773926
345,218,39672,2,0,L|278:256,1,62.9999980773926
208,152,39908,1,0,0:0:0:0:
260,58,40065,6,0,L|197:99,1,62.9999980773926
147,204,40300,2,0,L|210:243,1,62.9999980773926
367,185,40536,1,0,0:0:0:0:
260,60,40697,5,2,0:0:0:0:
215,52,40771,1,2,0:0:0:0:
171,58,40850,1,2,0:0:0:0:
131,77,40929,1,2,0:0:0:0:
98,108,41007,1,10,0:0:0:0:
243,235,41164,5,0,0:0:0:0:
311,113,41321,1,0,0:0:0:0:
160,119,41478,1,0,0:0:0:0:
243,235,41635,1,0,0:0:0:0:
371,149,41791,5,2,0:0:0:0:
371,149,41869,1,2,0:0:0:0:
405,122,41948,1,2,0:0:0:0:
399,80,42026,1,2,0:0:0:0:
359,64,42105,1,2,0:0:0:0:
326,91,42183,1,2,0:0:0:0:
333,134,42262,1,10,0:0:0:0:
294,250,42421,5,0,0:0:0:0:
123,172,42578,1,0,0:0:0:0:
274,92,42735,1,0,0:0:0:0:
206,272,42892,1,0,0:0:0:0:
26,154,43049,1,0,0:0:0:0:
26,154,43206,2,0,B|59:115|59:115|91:151|134:163,1,135,8|0,0:0|0:0,0:0:0:0:
327,137,43677,5,0,0:0:0:0:
65,212,43834,2,0,B|46:253|69:291|69:291|115:284|158:296,1,135,8|0,0:0|0:0,0:0:0:0:
474,51,44305,5,0,0:0:0:0:
421,317,44463,2,0,B|402:329|388:356|388:356|359:323|313:308,1,135,8|0,0:0|0:0,0:0:0:0:
182,182,44934,5,0,0:0:0:0:
452,193,45091,2,0,B|455:253|455:253|396:230|360:280,1,135,8|0,0:0|0:0,0:0:0:0:
36,96,45562,1,0,0:0:0:0:
305,96,45719,1,2,0:0:0:0:
343,119,45798,1,2,0:0:0:0:
368,156,45876,1,2,0:0:0:0:
377,199,45955,1,2,0:0:0:0:
367,243,46033,1,10,0:0:0:0:
208,351,46190,5,0,0:0:0:0:
246,156,46347,1,0,0:0:0:0:
358,297,46504,1,0,0:0:0:0:
158,248,46662,1,0,0:0:0:0:
363,125,46819,5,2,0:0:0:0:
363,125,46897,1,2,0:0:0:0:
380,85,46976,1,2,0:0:0:0:
423,80,47054,1,2,0:0:0:0:
447,117,47133,1,2,0:0:0:0:
428,155,47211,1,2,0:0:0:0:
385,158,47290,1,10,0:0:0:0:
124,171,47447,5,0,0:0:0:0:
270,45,47604,1,0,0:0:0:0:
324,236,47761,1,0,0:0:0:0:
155,104,47918,1,0,0:0:0:0:
354,79,48075,1,0,0:0:0:0:
424,272,48232,2,0,B|403:283|391:311|391:311|360:281|316:263,1,135,8|0,0:0|0:0,0:0:0:0:
185,137,48703,5,0,0:0:0:0:
455,153,48860,2,0,B|441:203|441:203|390:197|362:237,1,135,8|0,0:0|0:0,0:0:0:0:
38,51,49332,5,0,0:0:0:0:
91,317,49489,2,0,B|92:343|124:356|124:356|149:318|199:308,1,135,8|0,0:0|0:0,0:0:0:0:
330,182,49960,5,0,0:0:0:0:
60,198,50117,2,0,B|94:221|94:221|84:274|125:269|181:266,1,135,8|0,0:0|0:0,0:0:0:0:
476,96,50588,1,0,0:0:0:0:
253,192,50745,5,2,0:0:0:0:
253,192,50824,1,2,0:0:0:0:
253,192,50902,1,2,0:0:0:0:
253,192,50981,1,2,0:0:0:0:
253,192,51059,1,2,0:0:0:0:
292,318,51216,5,0,0:0:0:0:
292,318,51374,2,0,L|388:251,1,90,8|0,0:0|0:0,0:0:0:0:
208,47,51688,2,0,L|112:114,1,90,8|0,0:0|0:0,0:0:0:0:
252,189,52002,5,2,0:0:0:0:
252,189,52080,1,2,0:0:0:0:
252,189,52159,1,2,0:0:0:0:
252,189,52237,1,2,0:0:0:0:
252,189,52316,1,2,0:0:0:0:
220,318,52473,5,0,0:0:0:0:
220,318,52630,2,0,L|124:251,1,90,8|0,0:0|0:0,0:0:0:0:
304,47,52944,2,0,L|400:114,1,90,8|0,0:0|0:0,0:0:0:0:
107,98,53258,6,0,B|133:147|133:147|161:99|194:114,1,90,8|0,0:0|0:0,0:0:0:0:
405,286,53573,2,0,B|379:237|379:237|351:285|318:270,1,90,8|0,0:0|0:0,0:0:0:0:
107,286,53887,6,0,B|133:237|133:237|161:285|194:270,1,90,8|0,0:0|0:0,0:0:0:0:
405,98,54201,2,0,B|379:147|379:147|351:99|318:114,1,90,8|0,0:0|0:0,0:0:0:0:
95,62,54515,6,0,L|190:127,1,90,8|0,0:0|0:0,0:0:0:0:
417,322,54829,2,0,L|322:257,1,90,8|0,0:0|0:0,0:0:0:0:
417,62,55143,2,0,L|322:127,1,90,8|0,0:0|0:0,0:0:0:0:
95,322,55457,2,0,L|169:271,1,90,8|0,0:0|0:0,0:0:0:0:
193,143,55771,5,6,0:0:0:0:
154,157,55850,1,2,0:0:0:0:
124,127,55929,1,2,0:0:0:0:
142,89,56007,1,2,0:0:0:0:
187,96,56085,1,0,0:0:0:0:
194,108,56163,1,0,0:0:0:0:
204,118,56242,1,0,0:0:0:0:
215,124,56320,1,0,0:0:0:0:
227,129,56399,1,0,0:0:0:0:
240,131,56477,1,0,0:0:0:0:
254,131,56556,1,0,0:0:0:0:
267,127,56634,1,0,0:0:0:0:
278,120,56713,1,0,0:0:0:0:
288,110,56791,1,0,0:0:0:0:
288,110,56870,5,0,0:0:0:0:
289,109,56949,1,0,0:0:0:0:
295,102,57027,1,6,0:0:0:0:
333,84,57106,1,2,0:0:0:0:
364,115,57184,1,2,0:0:0:0:
346,153,57263,1,2,0:0:0:0:
297,145,57341,1,0,0:0:0:0:
285,152,57419,1,0,0:0:0:0:
276,161,57498,1,0,0:0:0:0:
267,171,57576,1,0,0:0:0:0:
262,184,57655,1,0,0:0:0:0:
260,196,57733,1,0,0:0:0:0:
261,210,57812,1,0,0:0:0:0:
264,223,57890,1,0,0:0:0:0:
271,235,57969,1,0,0:0:0:0:
279,245,58047,1,0,0:0:0:0:
291,250,58127,2,0,L|342:262,1,45
393,293,58285,5,0,0:0:0:0:
355,330,58363,1,0,0:0:0:0:
310,358,58442,1,0,0:0:0:0:
260,371,58520,1,0,0:0:0:0:
206,370,58599,1,0,0:0:0:0:
156,354,58677,5,0,0:0:0:0:
112,324,58756,1,0,0:0:0:0:
79,283,58834,1,0,0:0:0:0:
59,234,58913,1,0,0:0:0:0:
51,170,58991,1,0,0:0:0:0:
65,108,59070,1,0,0:0:0:0:
97,56,59148,5,0,0:0:0:0:
145,20,59227,1,0,0:0:0:0:
201,3,59305,1,0,0:0:0:0:
272,0,59384,1,0,0:0:0:0:
344,18,59463,1,0,0:0:0:0:
404,66,59541,2,0,L|322:164,1,90
112,316,59855,6,0,L|194:218,1,90
258,191,60169,1,0,0:0:0:0:
258,191,60326,1,0,0:0:0:0:
419,183,60798,5,0,0:0:0:0:
401,130,60876,1,0,0:0:0:0:
363,88,60955,1,0,0:0:0:0:
312,63,61033,1,0,0:0:0:0:
256,60,61112,5,8,0:0:0:0:
228,283,61269,1,2,0:0:0:0:
347,151,61426,1,2,0:0:0:0:
143,135,61583,1,2,0:0:0:0:
317,313,61740,1,2,0:0:0:0:
442,192,61897,5,0,0:0:0:0:
442,192,61976,1,0,0:0:0:0:
442,192,62054,1,0,0:0:0:0:
423,129,62133,1,0,0:0:0:0:
381,78,62211,1,0,0:0:0:0:
324,47,62290,1,0,0:0:0:0:
259,40,62368,5,8,0:0:0:0:
210,313,62525,1,2,0:0:0:0:
353,146,62682,1,2,0:0:0:0:
92,139,62840,1,2,0:0:0:0:
272,343,62997,1,2,0:0:0:0:
360,93,63154,1,2,0:0:0:0:
148,94,63311,6,0,L|259:187,1,125.999996154785
383,135,63546,2,0,L|280:246,1,125.999996154785
289,319,63782,2,0,L|206:238,1,62.9999980773926
132,267,63939,2,0,L|222:177,1,90
209,97,64175,2,8,B|277:121|277:121|308:203,1,135
378,94,64567,6,0,L|285:183,1,90
143,135,64803,2,0,L|228:222,1,90
237,319,65038,2,0,L|293:258,1,45
408,288,65196,2,0,L|310:209,1,90
317,97,65431,2,8,B|226:142|226:142|183:243,1,188.999994232178
308,129,65824,5,0,0:0:0:0:
376,141,65902,1,0,0:0:0:0:
427,189,65981,1,0,0:0:0:0:
444,257,66059,1,0,0:0:0:0:
419,323,66138,5,8,0:0:0:0:
180,194,66295,1,2,0:0:0:0:
400,73,66452,1,2,0:0:0:0:
277,346,66609,1,2,0:0:0:0:
174,86,66766,1,2,0:0:0:0:
428,221,66923,5,0,0:0:0:0:
428,221,67002,1,0,0:0:0:0:
428,221,67080,1,0,0:0:0:0:
409,283,67159,1,0,0:0:0:0:
360,327,67237,1,0,0:0:0:0:
295,336,67316,1,0,0:0:0:0:
236,310,67394,5,8,0:0:0:0:
262,72,67552,1,2,0:0:0:0:
358,245,67709,1,2,0:0:0:0:
165,149,67866,1,2,0:0:0:0:
372,86,68023,1,2,0:0:0:0:
241,253,68180,1,2,0:0:0:0:
188,37,68337,6,0,P|228:95|299:130,1,125.999996154785
373,142,68573,2,0,P|343:210|270:253,1,125.999996154785
250,319,68808,2,0,P|217:286|202:240,1,62.9999980773926
116,242,68965,2,0,P|188:193|230:183,1,90,0|0,2:0|2:0,2:0:0:0:
207,97,69201,2,8,B|275:121|275:121|306:203,1,135
270,74,69593,6,0,P|243:130|180:157,1,90
135,160,69829,2,0,P|149:201|222:244,1,90
234,309,70065,2,0,P|267:276|276:240,1,45
354,230,70222,2,0,P|310:189|255:187,1,90,8|0,2:0|2:0,2:0:0:0:
142,89,70536,1,4,0:0:0:0:
142,89,70850,5,0,0:0:0:0:
78,116,70929,1,0,0:0:0:0:
48,178,71007,1,0,0:0:0:0:
66,246,71086,1,0,0:0:0:0:
122,285,71164,5,8,0:0:0:0:
414,137,71321,1,2,0:0:0:0:
172,115,71478,1,2,0:0:0:0:
286,338,71635,1,2,0:0:0:0:
392,81,71792,1,2,0:0:0:0:
153,55,71949,5,0,0:0:0:0:
153,55,72028,1,0,0:0:0:0:
153,55,72107,1,0,0:0:0:0:
109,103,72185,1,0,0:0:0:0:
84,165,72264,1,0,0:0:0:0:
84,230,72342,1,0,0:0:0:0:
106,292,72421,5,8,0:0:0:0:
267,193,72578,1,2,0:0:0:0:
34,93,72735,1,2,0:0:0:0:
130,343,72892,1,2,0:0:0:0:
340,119,73049,1,2,0:0:0:0:
52,223,73206,1,2,0:0:0:0:
371,290,73363,6,0,L|260:197,1,125.999996154785
136,249,73599,2,0,L|239:138,1,125.999996154785
230,65,73834,2,0,L|313:146,1,62.9999980773926
371,127,73991,2,0,L|280:217,1,90
310,287,74227,2,8,B|245:252|245:252|211:181,1,135
141,290,74620,6,0,L|234:201,1,90
376,249,74855,2,0,L|291:162,1,90
282,65,75091,2,0,L|226:126,1,45
111,96,75248,2,0,L|209:175,1,90
204,271,75483,2,8,B|274:232|274:232|309:154,1,135
141,69,75876,5,0,0:0:0:0:
78,101,75955,1,0,0:0:0:0:
47,163,76033,1,0,0:0:0:0:
57,231,76112,1,0,0:0:0:0:
106,281,76190,5,8,0:0:0:0:
353,153,76347,1,2,0:0:0:0:
48,128,76504,1,2,0:0:0:0:
301,341,76662,1,2,0:0:0:0:
222,53,76819,1,2,0:0:0:0:
99,83,76976,5,0,0:0:0:0:
99,83,77054,1,0,0:0:0:0:
99,83,77133,1,0,0:0:0:0:
64,135,77211,1,0,0:0:0:0:
54,197,77290,1,0,0:0:0:0:
70,257,77368,1,0,0:0:0:0:
111,305,77447,5,8,0:0:0:0:
289,175,77604,1,2,0:0:0:0:
77,135,77761,1,2,0:0:0:0:
333,304,77918,1,2,0:0:0:0:
208,44,78075,1,2,0:0:0:0:
142,339,78232,1,2,0:0:0:0:
362,265,78389,6,0,P|304:225|269:154,1,125.999996154785
257,80,78625,2,0,P|189:110|146:183,1,125.999996154785
80,203,78860,2,0,P|113:236|159:251,1,62.9999980773926
157,337,79018,2,0,P|205:264|199:186,1,125.999996154785,0|0,2:0|2:0,2:0:0:0:
285,172,79253,2,8,B|204:122|204:122|129:185,1,188.999994232178,8|8,0:0|0:0,3:0:0:0:
29,184,79646,2,0,B|-78:297|44:374|177:293|46:166|46:166|-83:41|51:-54|172:37|46:166,1,692.999978851319
89,150,80588,5,8,0:0:0:0:
89,150,80667,1,8,0:0:0:0:
89,150,80745,1,8,0:0:0:0:
89,150,80824,1,8,0:0:0:0:
89,150,80902,1,4,0:0:0:0:
117,195,80981,1,0,0:0:0:0:
155,234,81059,1,0,0:0:0:0:
200,262,81138,1,0,0:0:0:0:
251,280,81216,1,0,0:0:0:0:
305,286,81295,1,0,0:0:0:0:
358,280,81374,1,0,0:0:0:0:
409,262,81452,1,0,0:0:0:0:
458,235,81531,5,4,0:0:0:0:
458,288,81609,1,0,0:0:0:0:
431,333,81688,1,0,0:0:0:0:
383,357,81766,1,0,0:0:0:0:
330,351,81845,5,0,0:0:0:0:
288,318,81923,1,0,0:0:0:0:
271,268,82002,1,0,0:0:0:0:
283,216,82080,1,0,0:0:0:0:
307,172,82159,5,0,0:0:0:0:
326,122,82237,1,0,0:0:0:0:
317,70,82316,1,0,0:0:0:0:
281,31,82394,1,0,0:0:0:0:
229,17,82473,5,0,0:0:0:0:
179,33,82552,1,0,0:0:0:0:
144,74,82630,1,0,0:0:0:0:
137,126,82709,1,0,0:0:0:0:
154,176,82787,5,0,0:0:0:0:
171,226,82866,1,0,0:0:0:0:
156,277,82944,1,0,0:0:0:0:
115,310,83023,1,0,0:0:0:0:
62,314,83101,1,0,0:0:0:0:
16,287,83180,1,0,0:0:0:0:
1,237,83258,5,4,0:0:0:0:
49,213,83337,1,0,0:0:0:0:
102,201,83415,1,0,0:0:0:0:
155,205,83494,1,0,0:0:0:0:
205,224,83573,1,0,0:0:0:0:
254,248,83651,1,0,0:0:0:0:
305,264,83730,1,0,0:0:0:0:
359,262,83808,1,0,0:0:0:0:
409,243,83887,1,0,0:0:0:0:
449,208,83965,1,0,0:0:0:0:
466,158,84044,1,0,0:0:0:0:
453,106,84122,1,0,0:0:0:0:
414,70,84201,1,0,0:0:0:0:
361,60,84279,1,0,0:0:0:0:
312,80,84356,2,0,L|267:122,1,53.9999983520508
270,325,84515,6,0,L|229:265,1,53.9999983520508,2|0,0:0|0:0,0:0:0:0:
175,94,84672,2,0,L|216:154,1,53.9999983520508,2|0,0:0|0:0,0:0:0:0:
349,262,84829,6,0,L|270:247,1,53.9999983520508,2|0,0:0|0:0,0:0:0:0:
95,156,84986,2,0,L|174:171,1,53.9999983520508,2|0,0:0|0:0,0:0:0:0:
354,156,85143,6,0,L|282:205,1,53.9999983520508,2|0,0:0|0:0,0:0:0:0:
77,270,85300,2,0,L|149:220,1,53.9999983520508,2|0,0:0|0:0,0:0:0:0:
294,36,85457,6,0,L|277:129,1,53.9999983520508,2|0,0:0|0:0,0:0:0:0:
169,336,85614,1,2,3:0:0:0:
169,336,85693,1,2,0:0:0:0:
169,336,85771,1,2,0:0:0:0:
169,336,85850,1,2,0:0:0:0:
169,336,85929,1,4,0:0:0:0:
222,339,86007,1,0,0:0:0:0:
269,314,86086,1,0,0:0:0:0:
296,268,86164,1,0,0:0:0:0:
294,215,86243,1,0,0:0:0:0:
264,171,86321,1,0,0:0:0:0:
215,149,86400,1,0,0:0:0:0:
162,157,86478,1,0,0:0:0:0:
118,184,86557,5,0,0:0:0:0:
151,225,86635,1,0,0:0:0:0:
202,242,86714,1,0,0:0:0:0:
254,230,86792,1,0,0:0:0:0:
291,192,86871,1,0,0:0:0:0:
303,140,86949,1,0,0:0:0:0:
285,90,87028,1,0,0:0:0:0:
244,56,87107,1,0,0:0:0:0:
197,27,87185,5,4,0:0:0:0:
166,70,87264,1,0,0:0:0:0:
164,124,87342,1,0,0:0:0:0:
190,170,87421,1,0,0:0:0:0:
236,196,87499,1,0,0:0:0:0:
289,193,87578,1,0,0:0:0:0:
340,169,87656,5,4,0:0:0:0:
299,134,87735,1,0,0:0:0:0:
246,127,87813,1,0,0:0:0:0:
197,149,87892,1,0,0:0:0:0:
167,193,87970,1,0,0:0:0:0:
166,247,88049,1,0,0:0:0:0:
198,295,88127,5,4,0:0:0:0:
246,272,88206,1,0,0:0:0:0:
282,232,88285,1,0,0:0:0:0:
298,181,88363,1,0,0:0:0:0:
292,128,88442,1,0,0:0:0:0:
264,82,88520,1,0,0:0:0:0:
221,51,88599,1,0,0:0:0:0:
168,41,88677,1,0,0:0:0:0:
116,53,88756,1,0,0:0:0:0:
73,85,88834,1,0,0:0:0:0:
47,132,88913,1,0,0:0:0:0:
43,186,88991,1,0,0:0:0:0:
61,236,89070,1,0,0:0:0:0:
95,274,89148,1,0,0:0:0:0:
142,298,89227,1,0,0:0:0:0:
195,302,89305,1,0,0:0:0:0:
246,283,89382,2,0,L|298:256,1,53.9999983520508
289,73,89541,6,0,L|214:84,1,53.9999983520508,2|0,0:0|0:0,0:0:0:0:
281,253,89698,2,0,L|356:242,1,53.9999983520508,2|0,0:0|0:0,0:0:0:0:
181,50,89855,6,0,L|124:132,1,53.9999983520508,2|0,0:0|0:0,0:0:0:0:
387,274,90012,2,0,L|448:193,1,53.9999983520508,2|0,0:0|0:0,0:0:0:0:
95,142,90169,6,0,L|113:243,1,53.9999983520508,2|0,0:0|0:0,0:0:0:0:
498,160,90326,2,0,L|481:58,1,53.9999983520508,2|0,0:0|0:0,0:0:0:0:
231,273,90483,1,2,0:0:0:0:
231,273,90562,1,2,0:0:0:0:
231,273,90641,1,2,0:0:0:0:
231,273,90719,1,2,0:0:0:0:
231,273,90798,1,2,0:0:0:0:
231,273,90876,1,2,0:0:0:0:
230,273,90955,5,6,0:0:0:0:
272,305,91033,1,0,0:0:0:0:
325,311,91112,1,0,0:0:0:0:
374,290,91190,1,0,0:0:0:0:
406,247,91269,1,0,0:0:0:0:
412,194,91347,1,0,0:0:0:0:
390,145,91426,1,0,0:0:0:0:
347,114,91504,1,0,0:0:0:0:
294,108,91583,1,0,0:0:0:0:
245,130,91662,1,0,0:0:0:0:
210,170,91740,5,0,0:0:0:0:
167,202,91819,1,0,0:0:0:0:
114,208,91897,5,0,0:0:0:0:
65,187,91976,1,0,0:0:0:0:
33,144,92054,1,0,0:0:0:0:
27,91,92133,1,0,0:0:0:0:
49,42,92211,1,0,0:0:0:0:
92,11,92290,1,0,0:0:0:0:
145,5,92368,1,0,0:0:0:0:
194,27,92447,1,0,0:0:0:0:
235,62,92525,5,0,0:0:0:0:
277,93,92604,1,0,0:0:0:0:
330,102,92682,1,0,0:0:0:0:
382,93,92761,1,0,0:0:0:0:
432,83,92840,1,0,0:0:0:0:
480,103,92918,1,0,0:0:0:0:
510,147,92997,1,0,0:0:0:0:
512,200,93075,1,0,0:0:0:0:
485,247,93154,5,0,0:0:0:0:
438,272,93232,1,0,0:0:0:0:
382,272,93311,1,0,0:0:0:0:
332,252,93389,1,0,0:0:0:0:
298,211,93468,1,0,0:0:0:0:
289,158,93546,1,0,0:0:0:0:
307,108,93625,1,0,0:0:0:0:
347,73,93703,1,0,0:0:0:0:
399,63,93782,1,0,0:0:0:0:
450,79,93860,1,0,0:0:0:0:
486,119,93939,1,0,0:0:0:0:
498,171,94018,1,0,0:0:0:0:
484,224,94094,2,0,L|442:287,1,53.9999983520508
257,339,94253,6,0,L|202:291,1,53.9999983520508,2|0,0:0|0:0,0:0:0:0:
221,105,94410,2,0,L|286:162,1,53.9999983520508,2|0,0:0|0:0,0:0:0:0:
98,214,94567,5,0,0:0:0:0:
98,214,94646,1,0,0:0:0:0:
98,214,94724,2,0,L|43:166,1,53.9999983520508,2|0,0:0|0:0,0:0:0:0:
311,192,94881,1,0,0:0:0:0:
311,192,94960,1,0,0:0:0:0:
311,192,95038,2,0,L|376:249,1,53.9999983520508,2|0,0:0|0:0,0:0:0:0:
176,201,95196,5,0,0:0:0:0:
137,163,95274,1,0,0:0:0:0:
127,111,95353,2,0,L|127:48,1,53.9999983520508,2|0,0:0|0:0,0:0:0:0:
302,138,95510,1,0,0:0:0:0:
340,175,95588,1,0,0:0:0:0:
350,227,95667,5,2,0:0:0:0:
350,227,95745,1,2,0:0:0:0:
350,227,95824,1,2,0:0:0:0:
350,227,95902,1,2,0:0:0:0:
350,227,95981,1,0,0:0:0:0:
350,280,96059,5,0,0:0:0:0:
320,323,96138,1,0,0:0:0:0:
269,341,96216,1,0,0:0:0:0:
218,326,96295,1,0,0:0:0:0:
186,284,96374,1,0,0:0:0:0:
183,231,96452,1,0,0:0:0:0:
211,186,96531,1,0,0:0:0:0:
250,155,96609,1,0,0:0:0:0:
278,110,96688,1,0,0:0:0:0:
275,57,96766,1,0,0:0:0:0:
242,15,96845,1,0,0:0:0:0:
191,0,96923,1,0,0:0:0:0:
141,18,97002,1,0,0:0:0:0:
110,61,97080,1,0,0:0:0:0:
110,114,97159,1,0,0:0:0:0:
131,164,97237,1,0,0:0:0:0:
167,202,97316,1,0,0:0:0:0:
218,216,97394,1,0,0:0:0:0:
270,202,97473,1,0,0:0:0:0:
318,176,97552,5,4,0:0:0:0:
317,229,97630,1,0,0:0:0:0:
287,272,97709,1,0,0:0:0:0:
236,289,97787,1,0,0:0:0:0:
185,275,97866,1,0,0:0:0:0:
153,233,97944,1,0,0:0:0:0:
150,180,98023,1,0,0:0:0:0:
175,133,98101,1,0,0:0:0:0:
219,103,98180,5,4,0:0:0:0:
224,155,98258,1,0,0:0:0:0:
190,200,98337,1,0,0:0:0:0:
140,226,98415,1,0,0:0:0:0:
88,221,98494,1,0,0:0:0:0:
43,193,98573,1,0,0:0:0:0:
18,146,98651,1,0,0:0:0:0:
17,89,98730,1,0,0:0:0:0:
51,40,98808,1,0,0:0:0:0:
106,23,98887,1,0,0:0:0:0:
158,36,98965,1,0,0:0:0:0:
195,73,99044,1,0,0:0:0:0:
223,118,99122,1,0,0:0:0:0:
219,171,99201,1,0,0:0:0:0:
186,212,99279,1,0,0:0:0:0:
154,254,99358,1,0,0:0:0:0:
151,307,99436,1,0,0:0:0:0:
179,353,99515,1,0,0:0:0:0:
227,375,99593,1,0,0:0:0:0:
280,367,99672,1,0,0:0:0:0:
319,331,99751,1,0,0:0:0:0:
331,279,99829,1,0,0:0:0:0:
312,229,99908,1,0,0:0:0:0:
283,184,99986,1,0,0:0:0:0:
265,133,100065,1,0,0:0:0:0:
278,82,100143,1,0,0:0:0:0:
319,48,100222,1,0,0:0:0:0:
372,43,100300,1,0,0:0:0:0:
418,69,100379,5,8,0:0:0:0:
441,117,100457,1,8,0:0:0:0:
433,170,100536,1,8,0:0:0:0:
409,198,100614,1,8,0:0:0:0:
431,217,100693,1,8,0:0:0:0:
391,225,100771,1,8,0:0:0:0:
430,244,100850,1,8,0:0:0:0:
374,238,100929,1,8,0:0:0:0:
419,274,101007,1,8,0:0:0:0:
256,122,110429,5,0,0:0:0:0:
250,114,110508,1,0,0:0:0:0:
250,128,110586,1,0,0:0:0:0:
263,128,110665,1,0,0:0:0:0:
262,114,110743,1,0,0:0:0:0:
245,112,110822,1,0,0:0:0:0:
245,133,110900,1,0,0:0:0:0:
269,132,110979,1,0,0:0:0:0:
256,121,111057,6,0,L|256:12,1,107.999996704102,4|0,0:0|0:0,0:0:0:0:
256,263,111372,2,0,L|256:384,1,107.999996704102
256,121,111686,6,0,L|256:-7,1,107.999996704102
256,263,112000,2,0,L|256:384,1,107.999996704102
352,192,112314,6,0,L|480:192,1,107.999996704102,4|0,0:0|0:0,0:0:0:0:
160,192,112628,2,0,L|32:192,1,107.999996704102
352,192,112942,6,0,L|480:192,1,107.999996704102
160,192,113256,2,0,L|32:192,1,107.999996704102
256,128,113571,6,0,L|256:16,1,107.999996704102,4|0,0:0|0:0,0:0:0:0:
256,256,113885,2,0,L|256:384,1,107.999996704102
256,128,114199,6,0,L|256:0,1,107.999996704102
256,256,114513,2,0,L|256:384,1,107.999996704102
320,256,114827,6,0,L|416:352,1,107.999996704102,4|0,0:0|0:0,0:0:0:0:
192,128,115141,2,0,L|96:32,1,107.999996704102
320,256,115455,6,0,L|416:352,1,107.999996704102
192,128,115768,2,0,L|153:88,1,53.9999983520508
64,96,115928,1,0,0:0:0:0:
56,158,116006,1,0,0:0:0:0:
75,217,116085,1,0,0:0:0:0:
117,264,116163,1,0,0:0:0:0:
174,289,116242,1,0,0:0:0:0:
237,288,116320,1,0,0:0:0:0:
293,262,116399,1,0,0:0:0:0:
334,215,116477,1,0,0:0:0:0:
352,155,116556,5,0,0:0:0:0:
302,116,116634,1,0,0:0:0:0:
241,102,116713,1,0,0:0:0:0:
180,114,116791,1,0,0:0:0:0:
129,150,116870,1,0,0:0:0:0:
97,204,116948,1,0,0:0:0:0:
91,267,117027,1,0,0:0:0:0:
110,326,117105,1,0,0:0:0:0:
153,372,117184,5,0,0:0:0:0:
218,343,117262,1,0,0:0:0:0:
264,288,117341,1,0,0:0:0:0:
279,219,117419,1,0,0:0:0:0:
260,150,117498,1,0,0:0:0:0:
212,97,117576,1,0,0:0:0:0:
145,72,117655,1,0,0:0:0:0:
75,81,117733,1,0,0:0:0:0:
16,121,117812,5,0,0:0:0:0:
54,190,117890,1,0,0:0:0:0:
126,225,117969,1,0,0:0:0:0:
204,210,118047,1,0,0:0:0:0:
259,153,118126,1,0,0:0:0:0:
314,95,118205,1,0,0:0:0:0:
392,80,118284,1,0,0:0:0:0:
464,115,118362,1,0,0:0:0:0:
502,185,118441,1,0,0:0:0:0:
488,263,118519,1,0,0:0:0:0:
435,322,118598,1,0,0:0:0:0:
357,343,118676,1,0,0:0:0:0:
281,318,118755,1,0,0:0:0:0:
231,255,118833,1,0,0:0:0:0:
223,176,118912,1,0,0:0:0:0:
250,101,118990,1,0,0:0:0:0:
315,53,119069,1,0,0:0:0:0:
394,48,119147,1,0,0:0:0:0:
464,87,119226,1,0,0:0:0:0:
501,157,119304,1,0,0:0:0:0:
494,237,119383,1,0,0:0:0:0:
448,302,119461,1,0,0:0:0:0:
375,335,119540,1,0,0:0:0:0:
295,325,119618,1,0,0:0:0:0:
233,275,119697,1,0,0:0:0:0:
205,200,119775,1,0,0:0:0:0:
203,121,119853,2,0,L|296:27,1,107.999996704102,8|0,0:0|0:0,0:0:0:0:
309,263,120168,2,0,L|216:357,1,107.999996704102,8|0,0:0|0:0,0:0:0:0:
256,192,120483,1,4,0:0:0:0:
256,192,120641,1,4,0:0:0:0:
416,64,121112,5,8,0:0:0:0:
128,288,121269,1,8,0:0:0:0:
268,322,121426,5,0,0:3:0:0:
306,329,121504,1,0,0:3:0:0:
355,322,121583,1,0,0:3:0:0:
405,296,121662,1,0,0:3:0:0:
448,256,121740,2,0,L|448:164,1,90,8|0,0:0|0:0,0:0:0:0:
352,128,121936,2,0,L|352:227,1,90,8|0,0:0|0:0,0:0:0:0:
263,237,122172,2,0,L|263:152,1,60,4|0,0:0|0:0,0:0:0:0:
96,320,122366,5,8,0:0:0:0:
384,96,122523,1,8,0:0:0:0:
244,62,122682,5,0,0:3:0:0:
206,55,122761,1,0,0:3:0:0:
157,62,122840,1,0,0:3:0:0:
107,88,122918,1,0,0:3:0:0:
64,128,122997,2,0,L|64:220,1,90,8|0,0:0|0:0,0:0:0:0:
160,256,123191,2,0,L|160:157,1,90,8|0,0:0|0:0,0:0:0:0:
249,147,123427,2,0,L|249:232,1,60,8|0,0:0|0:0,0:0:0:0:
416,320,123625,5,8,0:0:0:0:
128,96,123782,1,8,0:0:0:0:
268,62,123939,5,0,0:3:0:0:
306,55,124018,1,0,0:3:0:0:
355,62,124096,1,0,0:3:0:0:
405,88,124175,1,0,0:3:0:0:
448,128,124253,2,0,L|448:220,1,90,8|0,0:0|0:0,0:0:0:0:
352,256,124449,2,0,L|352:157,1,90,8|0,0:0|0:0,0:0:0:0:
232,165,124685,1,4,0:0:0:0:
95,278,124881,5,4,0:0:0:0:
266,32,125078,1,4,0:0:0:0:
82,340,125313,1,4,0:0:0:0:
434,262,125510,1,4,0:0:0:0:
24,172,125706,1,4,0:0:0:0:
484,32,125942,1,4,0:0:0:0:
96,64,126138,5,8,0:0:0:0:
384,288,126295,1,8,0:0:0:0:
244,322,126452,5,0,0:3:0:0:
206,329,126531,1,0,0:3:0:0:
157,322,126609,1,0,0:3:0:0:
107,296,126688,1,0,0:3:0:0:
64,256,126766,2,0,L|64:164,1,90,8|0,0:0|0:0,0:0:0:0:
160,128,126963,2,0,L|160:227,1,90,8|0,0:0|0:0,0:0:0:0:
249,237,127198,2,0,L|249:152,1,60,4|0,0:0|0:0,0:0:0:0:
416,320,127394,5,8,0:0:0:0:
128,96,127552,1,8,0:0:0:0:
268,62,127709,5,0,0:3:0:0:
306,55,127787,1,0,0:3:0:0:
355,62,127866,1,0,0:3:0:0:
405,88,127944,1,0,0:3:0:0:
448,128,128023,2,0,L|448:220,1,90,8|0,0:0|0:0,0:0:0:0:
352,256,128219,2,0,L|352:157,1,90,8|0,0:0|0:0,0:0:0:0:
263,147,128455,2,0,L|263:232,1,60,8|0,0:0|0:0,0:0:0:0:
96,320,128651,5,8,0:0:0:0:
384,96,128808,1,8,0:0:0:0:
244,62,128965,5,0,0:3:0:0:
206,55,129044,1,0,0:3:0:0:
157,62,129122,1,0,0:3:0:0:
107,88,129201,1,0,0:3:0:0:
64,128,129279,2,0,L|64:220,1,90,8|0,0:0|0:0,0:0:0:0:
160,256,129476,2,0,L|160:157,1,90,8|0,0:0|0:0,0:0:0:0:
280,165,129711,1,4,0:0:0:0:
417,278,129908,5,4,0:0:0:0:
246,32,130104,1,4,0:0:0:0:
430,340,130340,1,4,0:0:0:0:
78,262,130534,1,4,0:0:0:0:
488,172,130732,1,4,0:0:0:0:
28,32,130968,1,4,0:0:0:0:
256,192,131164,5,0,0:0:0:0:
256,192,131478,1,0,0:0:0:0:
247,285,132107,5,0,0:3:0:0:
219,290,132185,1,0,0:3:0:0:
184,285,132264,1,0,0:3:0:0:
148,266,132342,1,0,0:3:0:0:
117,238,132421,2,0,P|94:168|163:93,1,180
264,98,133047,5,0,0:0:0:0:
264,98,133363,5,0,0:3:0:0:
292,93,133442,1,0,0:3:0:0:
327,98,133520,1,0,0:3:0:0:
359,116,133599,1,0,0:3:0:0:
394,145,133677,2,0,P|417:215|349:291,1,180
183,198,134304,1,0,0:0:0:0:
183,198,134620,5,0,0:3:0:0:
221,191,134698,1,0,0:3:0:0:
270,198,134777,1,0,0:3:0:0:
320,224,134855,1,0,0:3:0:0:
363,265,134934,1,0,0:0:0:0:
73,329,135130,1,0,0:0:0:0:
373,335,135366,1,0,0:0:0:0:
20,114,135562,1,0,0:0:0:0:
399,24,135758,1,0,0:0:0:0:
43,345,135994,1,0,0:0:0:0:
255,191,136190,5,0,0:0:0:0:
255,191,136504,1,0,0:0:0:0:
243,324,137133,5,0,0:3:0:0:
204,331,137211,1,0,0:3:0:0:
154,324,137290,1,0,0:3:0:0:
103,298,137368,1,0,0:3:0:0:
59,257,137447,2,0,P|27:159|92:93,1,180,4|0,0:0|0:0,0:0:0:0:
268,59,138073,5,0,0:0:0:0:
268,59,138389,5,0,0:3:0:0:
307,52,138468,1,0,0:3:0:0:
357,59,138546,1,0,0:3:0:0:
403,84,138625,1,0,0:3:0:0:
452,126,138703,2,0,P|484:224|419:290,1,180,4|0,0:0|0:0,0:0:0:0:
256,192,139332,5,0,0:0:0:0:
370,322,139528,1,0,0:0:0:0:
85,100,139764,1,0,0:0:0:0:
444,86,139960,1,0,0:0:0:0:
73,329,140156,1,0,0:0:0:0:
433,335,140392,1,0,0:0:0:0:
90,93,140588,1,0,0:0:0:0:
505,21,140785,1,0,0:0:0:0:
34,343,141020,1,0,0:0:0:0:
255,191,141216,5,0,0:0:0:0:
255,191,141531,1,0,0:0:0:0:
241,349,142159,5,0,0:3:0:0:
195,357,142237,1,0,0:3:0:0:
136,349,142316,1,0,0:3:0:0:
75,317,142394,1,0,0:3:0:0:
23,269,142473,2,0,P|0:159|36:91,1,180,4|0,0:0|0:0,0:0:0:0:
270,34,143099,5,0,0:0:0:0:
270,34,143415,5,0,0:3:0:0:
316,26,143494,1,0,0:3:0:0:
375,34,143573,1,0,0:3:0:0:
430,64,143651,1,0,0:3:0:0:
488,114,143730,2,0,P|512:223|475:293,1,180,4|0,0:0|0:0,0:0:0:0:
329,198,144356,5,0,0:0:0:0:
329,198,144672,5,0,0:3:0:0:
291,191,144751,1,0,0:3:0:0:
242,198,144829,1,0,0:3:0:0:
192,224,144908,1,0,0:3:0:0:
149,265,144986,1,0,0:0:0:0:
439,329,145182,1,0,0:0:0:0:
139,335,145418,1,0,0:0:0:0:
492,114,145614,1,0,0:0:0:0:
113,24,145811,1,0,0:0:0:0:
469,345,146046,1,0,0:0:0:0:
144,90,146243,5,4,0:0:0:0:
101,104,146321,1,0,0:0:0:0:
68,134,146400,1,0,0:0:0:0:
51,175,146478,1,0,0:0:0:0:
52,220,146557,1,0,0:0:0:0:
71,260,146635,1,0,0:0:0:0:
105,289,146714,1,0,0:0:0:0:
148,301,146792,1,0,0:0:0:0:
192,295,146871,1,0,0:0:0:0:
230,271,146949,1,0,0:0:0:0:
254,233,147028,6,0,L|255:172,5,45
257,150,147499,5,4,0:0:0:0:
281,112,147578,1,0,0:0:0:0:
319,88,147656,1,0,0:0:0:0:
363,82,147735,1,0,0:0:0:0:
406,94,147813,1,0,0:0:0:0:
440,123,147892,1,0,0:0:0:0:
459,163,147970,1,0,0:0:0:0:
460,208,148049,1,0,0:0:0:0:
443,249,148127,1,0,0:0:0:0:
410,279,148204,5,0,0:0:0:0:
368,293,148285,1,0,0:0:0:0:
324,289,148363,1,0,0:0:0:0:
286,265,148442,1,0,0:0:0:0:
261,228,148520,1,0,0:0:0:0:
254,184,148599,1,0,0:0:0:0:
266,141,148677,1,0,0:0:0:0:
313,88,148756,1,4,0:0:0:0:
383,76,148834,1,0,0:0:0:0:
445,109,148913,5,0,0:0:0:0:
474,174,148991,1,0,0:0:0:0:
456,243,149070,1,0,0:0:0:0:
401,286,149148,1,0,0:0:0:0:
330,286,149227,1,0,0:0:0:0:
274,243,149305,1,0,0:0:0:0:
247,176,149384,1,0,0:0:0:0:
193,118,149463,1,0,0:0:0:0:
114,113,149541,1,0,0:0:0:0:
54,164,149620,1,0,0:0:0:0:
45,242,149698,1,0,0:0:0:0:
94,305,149777,1,0,0:0:0:0:
172,317,149855,1,0,0:0:0:0:
236,271,149934,1,0,0:0:0:0:
248,191,150010,6,0,L|249:70,1,90,4|0,0:0|0:0,0:0:0:0:
264,193,150325,6,0,L|263:314,1,90,4|0,0:0|0:0,0:0:0:0:
256,191,150641,5,0,0:0:0:0:
256,191,150798,5,0,0:0:0:0:
96,64,151269,5,10,0:0:0:0:
384,288,151426,1,10,0:0:0:0:
244,322,151583,5,0,0:3:0:0:
206,329,151662,1,0,0:3:0:0:
157,322,151740,1,0,0:3:0:0:
107,296,151819,1,0,0:3:0:0:
64,256,151897,2,0,L|96:128,1,125.999996154785,4|0,0:0|0:0,0:0:0:0:
160,96,152093,2,0,L|192:224,1,125.999996154785,4|0,0:0|0:0,0:0:0:0:
256,224,152329,2,0,L|288:128,1,83.9999974365235,4|0,0:0|0:0,0:0:0:0:
448,320,152525,5,10,0:0:0:0:
160,96,152682,1,10,0:0:0:0:
300,62,152840,5,0,0:3:0:0:
338,55,152918,1,0,0:3:0:0:
387,62,152997,1,0,0:3:0:0:
437,88,153075,1,0,0:3:0:0:
480,128,153154,2,0,L|448:256,1,125.999996154785,4|0,0:0|0:0,0:0:0:0:
384,288,153350,2,0,L|352:160,1,107.999996704102,4|0,0:0|0:0,0:0:0:0:
288,160,153586,2,0,L|256:256,1,71.9999978027344,4|0,0:0|0:0,0:0:0:0:
96,320,153782,5,10,0:0:0:0:
384,96,153939,1,10,0:0:0:0:
241,35,154096,5,0,0:3:0:0:
195,27,154175,1,0,0:3:0:0:
136,35,154253,1,0,0:3:0:0:
76,66,154332,1,0,0:3:0:0:
32,128,154410,2,0,L|64:256,1,107.999996704102,4|0,0:0|0:0,0:0:0:0:
128,288,154607,2,0,L|160:160,1,107.999996704102,4|0,0:0|0:0,0:0:0:0:
256,128,154842,1,4,0:0:0:0:
417,278,155038,5,2,0:0:0:0:
246,32,155235,1,2,0:0:0:0:
430,340,155470,1,2,0:0:0:0:
78,262,155667,1,2,0:0:0:0:
488,172,155863,1,2,0:0:0:0:
28,32,156099,1,2,0:0:0:0:
256,192,156295,5,10,0:0:0:0:
256,192,156452,1,10,0:0:0:0:
253,349,156609,5,0,0:3:0:0:
200,359,156688,1,0,0:3:0:0:
131,349,156766,1,0,0:3:0:0:
64,320,156845,1,0,0:3:0:0:
21,262,156923,2,0,L|151:193,1,125.999996154785,4|0,0:0|0:0,0:0:0:0:
208,161,157132,2,0,L|93:111,1,125.999996154785,4|0,0:0|0:0,0:0:0:0:
18,94,157341,2,0,L|36:194,1,83.9999974365235,4|0,0:0|0:0,0:0:0:0:
416,64,157552,5,10,0:0:0:0:
128,288,157709,1,10,0:0:0:0:
258,34,157866,5,0,0:3:0:0:
311,24,157944,1,0,0:3:0:0:
380,34,158023,1,0,0:3:0:0:
448,64,158101,1,0,0:3:0:0:
491,122,158179,2,0,L|361:191,1,125.999996154785,4|0,0:0|0:0,0:0:0:0:
304,223,158388,2,0,L|419:273,1,125.999996154785,4|0,0:0|0:0,0:0:0:0:
494,290,158597,2,0,L|476:190,1,83.9999974365235,4|0,0:0|0:0,0:0:0:0:
342,322,158808,5,10,0:0:0:0:
135,60,158965,1,10,0:0:0:0:
267,24,159122,5,0,0:3:0:0:
318,15,159201,1,0,0:3:0:0:
383,24,159279,1,0,0:3:0:0:
449,58,159358,1,0,0:3:0:0:
498,126,159436,2,0,L|463:267,1,107.999996704102,4|0,0:0|0:0,0:0:0:0:
392,303,159633,2,0,L|357:162,1,107.999996704102,4|0,0:0|0:0,0:0:0:0:
251,126,159868,1,4,0:0:0:0:
56,243,160065,6,0,L|111:214,1,35.9999989013672,4|0,0:0|0:0,0:0:0:0:
312,26,160261,2,0,L|297:90,1,35.9999989013672,4|0,0:0|0:0,0:0:0:0:
410,312,160497,2,0,L|323:305,1,71.9999978027344,4|0,0:0|0:0,0:0:0:0:
73,133,160693,2,0,L|148:93,1,71.9999978027344,4|0,0:0|0:0,0:0:0:0:
427,49,160889,2,0,L|356:124,1,71.9999978027344,4|0,0:0|0:0,0:0:0:0:
294,340,161046,2,0,L|190:250,1,107.999996704102,4|0,0:0|0:0,0:0:0:0:
256,192,161321,5,10,0:0:0:0:
256,192,161478,1,10,0:0:0:0:
253,349,161635,5,0,0:3:0:0:
200,359,161714,1,0,0:3:0:0:
131,349,161792,1,0,0:3:0:0:
64,320,161871,1,0,0:3:0:0:
21,262,161949,2,0,L|62:113,1,125.999996154785,4|0,0:0|0:0,0:0:0:0:
128,96,162146,2,0,L|160:224,1,107.999996704102,4|0,0:0|0:0,0:0:0:0:
224,256,162381,2,0,L|256:160,1,71.9999978027344,4|0,0:0|0:0,0:0:0:0:
416,64,162578,5,10,0:0:0:0:
128,288,162735,1,10,0:0:0:0:
258,34,162892,5,0,0:3:0:0:
311,24,162970,1,0,0:3:0:0:
380,34,163049,1,0,0:3:0:0:
448,64,163127,1,0,0:3:0:0:
491,122,163206,2,0,L|450:271,1,125.999996154785,4|0,0:0|0:0,0:0:0:0:
384,288,163402,2,0,L|352:160,1,107.999996704102,4|0,0:0|0:0,0:0:0:0:
288,128,163638,2,0,L|256:224,1,71.9999978027344,4|0,0:0|0:0,0:0:0:0:
472,341,163834,5,10,0:0:0:0:
163,122,163991,1,10,0:0:0:0:
267,24,164148,5,0,0:3:0:0:
318,15,164227,1,0,0:3:0:0:
383,24,164305,1,0,0:3:0:0:
449,58,164384,1,0,0:3:0:0:
498,126,164463,2,0,L|463:267,1,107.999996704102,4|0,0:0|0:0,0:0:0:0:
392,303,164659,2,0,L|357:162,1,107.999996704102,4|0,0:0|0:0,0:0:0:0:
251,126,164894,1,4,0:0:0:0:
56,243,165091,5,2,0:0:0:0:
312,26,165287,1,2,0:0:0:0:
425,357,165523,1,2,0:0:0:0:
41,92,165719,1,2,0:0:0:0:
492,85,165915,1,2,0:0:0:0:
148,367,166151,1,2,0:0:0:0:
256,192,166347,5,10,0:0:0:0:
256,192,166504,1,10,0:0:0:0:
253,349,166662,5,0,0:3:0:0:
200,359,166740,1,0,0:3:0:0:
131,349,166819,1,0,0:3:0:0:
64,320,166897,1,0,0:3:0:0:
21,262,166975,2,0,L|122:212,1,90,4|0,0:0|0:0,0:0:0:0:
208,161,167184,2,0,L|111:109,1,90,4|0,0:0|0:0,0:0:0:0:
17,76,167393,2,0,L|37:158,1,60,4|0,0:0|0:0,0:0:0:0:
416,64,167604,5,10,0:0:0:0:
128,288,167761,1,10,0:0:0:0:
258,34,167918,5,0,0:3:0:0:
311,24,167997,1,0,0:3:0:0:
380,34,168075,1,0,0:3:0:0:
448,64,168154,1,0,0:3:0:0:
491,122,168231,2,0,L|390:178,1,90,4|0,0:0|0:0,0:0:0:0:
301,222,168440,2,0,L|399:268,1,90,4|0,0:0|0:0,0:0:0:0:
489,292,168649,2,0,L|475:219,1,60,4|0,0:0|0:0,0:0:0:0:
384,315,168860,5,10,0:0:0:0:
120,61,169018,1,10,0:0:0:0:
267,24,169175,5,0,0:3:0:0:
318,15,169253,1,0,0:3:0:0:
383,24,169332,1,0,0:3:0:0:
449,58,169410,1,0,0:3:0:0:
498,126,169489,2,0,L|475:238,1,90
392,303,169685,2,0,L|366:199,1,90
251,126,169919,1,0,0:0:0:0:
56,243,170117,6,0,L|106:214,1,30
312,26,170313,2,0,L|299:83,1,30
410,312,170549,2,0,L|338:298,1,45
73,133,170745,2,0,L|131:98,1,45
427,49,170942,2,0,L|387:100,1,45
294,340,171177,2,0,L|226:294,1,45
74,179,171374,5,0,0:0:0:0:
90,120,171452,1,0,0:0:0:0:
127,73,171531,1,0,0:0:0:0:
179,43,171609,1,0,0:0:0:0:
239,35,171688,1,8,0:0:0:0:
350,271,171845,5,2,0:0:0:0:
101,175,172002,1,2,0:0:0:0:
306,64,172159,1,2,0:0:0:0:
180,338,172316,1,2,0:0:0:0:
99,140,172473,5,0,0:0:0:0:
99,140,172552,1,0,0:0:0:0:
99,140,172630,1,0,0:0:0:0:
131,86,172709,1,0,0:0:0:0:
179,45,172787,1,0,0:0:0:0:
238,24,172866,1,0,0:0:0:0:
301,22,172944,1,8,0:0:0:0:
333,287,173101,5,2,0:0:0:0:
99,132,173258,1,2,0:0:0:0:
418,119,173415,1,2,0:0:0:0:
158,306,173573,1,2,0:0:0:0:
341,50,173730,1,2,0:0:0:0:
379,308,173887,6,0,L|259:205,1,125.999996154785
99,259,174122,2,0,L|215:136,1,125.999996154785
188,43,174358,2,0,L|272:117,1,62.9999980773926
412,124,174515,2,0,L|297:248,1,125.999996154785
337,342,174751,2,0,B|248:305|248:305|218:215,1,188.999994232178
132,75,175143,6,0,L|253:179,1,125.999996154785
412,124,175379,2,0,L|297:248,1,125.999996154785
324,341,175614,2,0,L|239:266,1,62.9999980773926
99,259,175771,2,0,L|215:136,1,125.999996154785
175,42,176007,2,0,B|264:79|264:79|293:168,1,188.999994232178
74,216,176400,5,0,0:0:0:0:
50,158,176478,1,0,0:0:0:0:
57,96,176557,1,0,0:0:0:0:
92,44,176635,1,0,0:0:0:0:
147,15,176714,5,8,0:0:0:0:
360,116,176871,1,2,0:0:0:0:
78,263,177028,1,2,0:0:0:0:
236,22,177185,1,2,0:0:0:0:
229,308,177342,1,2,0:0:0:0:
50,143,177499,5,0,0:0:0:0:
50,143,177578,1,0,0:0:0:0:
50,143,177656,1,0,0:0:0:0:
66,83,177735,1,0,0:0:0:0:
107,36,177813,1,0,0:0:0:0:
165,12,177892,1,0,0:0:0:0:
228,16,177970,5,8,0:0:0:0:
352,269,178127,1,2,0:0:0:0:
90,231,178285,1,2,0:0:0:0:
390,68,178442,1,2,0:0:0:0:
227,358,178599,1,2,0:0:0:0:
231,49,178756,1,2,0:0:0:0:
369,210,178913,1,0,0:0:0:0:
361,262,178991,1,0,0:0:0:0:
325,301,179070,1,0,0:0:0:0:
273,313,179148,1,0,0:0:0:0:
224,294,179227,1,0,0:0:0:0:
194,250,179305,1,0,0:0:0:0:
195,197,179384,1,0,0:0:0:0:
225,153,179463,1,0,0:0:0:0:
268,122,179541,5,4,0:0:0:0:
246,184,179620,1,0,0:0:0:0:
189,216,179698,1,0,0:0:0:0:
124,202,179777,1,0,0:0:0:0:
86,148,179855,1,0,0:0:0:0:
94,82,179934,1,0,0:0:0:0:
143,39,180012,1,0,0:0:0:0:
211,23,180091,1,0,0:0:0:0:
275,49,180169,5,4,0:0:0:0:
210,84,180248,1,0,0:0:0:0:
188,155,180326,1,0,0:0:0:0:
224,221,180405,1,0,0:0:0:0:
296,241,180483,1,0,0:0:0:0:
361,204,180562,1,0,0:0:0:0:
380,132,180641,1,0,0:0:0:0:
350,63,180719,1,0,0:0:0:0:
282,32,180798,1,0,0:0:0:0:
211,55,180876,1,0,0:0:0:0:
173,120,180955,1,0,0:0:0:0:
190,193,181033,1,0,0:0:0:0:
251,236,181112,1,10,0:0:0:0:
254,263,181190,1,10,0:0:0:0:
254,280,181269,1,10,0:0:0:0:
254,298,181347,1,10,0:0:0:0:
254,317,181426,5,6,0:0:0:0:
316,320,181504,1,0,0:0:0:0:
375,300,181583,1,0,0:0:0:0:
422,258,181662,1,0,0:0:0:0:
450,202,181740,5,8,0:0:0:0:
178,109,181897,1,2,0:0:0:0:
308,369,182054,1,2,0:0:0:0:
367,77,182211,1,2,0:0:0:0:
111,299,182368,1,2,0:0:0:0:
425,320,182525,5,0,0:0:0:0:
425,320,182604,1,0,0:0:0:0:
425,320,182682,1,0,0:0:0:0:
469,276,182761,1,0,0:0:0:0:
493,218,182840,5,0,0:0:0:0:
495,156,182918,1,0,0:0:0:0:
473,97,182997,1,8,0:0:0:0:
123,35,183154,1,2,0:0:0:0:
305,348,183311,1,2,0:0:0:0:
462,32,183468,1,2,0:0:0:0:
160,214,183625,1,2,0:0:0:0:
491,333,183782,1,2,0:0:0:0:
379,75,183939,6,0,L|259:179,1,125.999996154785
99,124,184175,2,0,L|215:248,1,125.999996154785
188,341,184410,2,0,L|272:266,1,62.9999980773926
412,259,184567,2,0,L|297:136,1,125.999996154785
337,42,184803,2,0,B|248:79|248:79|218:168,1,188.999994232178
132,308,185196,6,0,L|253:205,1,125.999996154785
412,259,185431,2,0,L|297:136,1,125.999996154785
324,43,185667,2,0,L|239:117,1,62.9999980773926
99,124,185824,2,0,L|215:248,1,125.999996154785
175,342,186059,2,0,B|264:305|264:305|293:215,1,188.999994232178
273,311,186452,5,0,0:0:0:0:
334,319,186531,1,0,0:0:0:0:
393,298,186609,1,0,0:0:0:0:
436,252,186688,1,0,0:0:0:0:
452,192,186766,5,8,0:0:0:0:
139,31,186923,1,2,0:0:0:0:
169,329,187080,1,2,0:0:0:0:
417,75,187237,1,2,0:0:0:0:
70,139,187394,1,2,0:0:0:0:
393,298,187552,5,0,0:0:0:0:
393,298,187630,1,0,0:0:0:0:
393,298,187709,1,0,0:0:0:0:
437,253,187787,1,0,0:0:0:0:
456,193,187866,1,0,0:0:0:0:
446,132,187944,1,0,0:0:0:0:
410,81,188023,5,8,0:0:0:0:
35,32,188180,1,2,0:0:0:0:
211,366,188337,1,2,0:0:0:0:
424,50,188494,5,2,0:0:0:0:
59,84,188651,1,2,0:0:0:0:
322,354,188808,1,2,0:0:0:0:
380,76,188963,6,0,L|259:179,1,125.999996154785
100,125,189198,2,0,L|215:248,1,125.999996154785
188,341,189434,2,0,L|273:267,1,62.9999980773926
413,260,189591,2,0,L|297:136,1,125.999996154785
326,52,189827,2,0,B|237:89|237:89|208:179,1,188.999994232178
256,192,190221,2,0,B|416:384|573:194|416:0|255:191|255:191|96:384|-64:192|96:0|255:191,1,1007.99996923828
