osu file format v14

[General]
AudioFilename: audio.mp3
AudioLeadIn: 0
PreviewTime: 80901
Countdown: 0
SampleSet: Soft
StackLeniency: 0.2
Mode: 0
LetterboxInBreaks: 0
WidescreenStoryboard: 1

[Editor]
Bookmarks: 59540,80587,85928,90482,99750,100378,101006,110430,148755,171373
DistanceSpacing: 1.2
BeatDivisor: 4
GridSize: 16
TimelineZoom: 1.5

[Metadata]
Title:AO-INFINITY
TitleUnicode:AO-INFINITY
Artist:Seiryu
ArtistUnicode:Seiryu
Creator:Meii
Version:INFINITY (Easy mode)
Source:Seiryu
Tags:seiryu blue dragon ao infinity marathon deathstream streamtraing
BeatmapID:1974523
BeatmapSetID:943714

[Difficulty]
HPDrainRate:3
CircleSize:4
OverallDifficulty:8
ApproachRate:9.3
SliderMultiplier:1.7
SliderTickRate:1

[Events]
//Background and Video events
0,0,"858666_ice-dragon-wallpaper.jpg",0,0
//Break Periods
2,101320,109802
//Storyboard Layer 0 (Background)
//Storyboard Layer 1 (Fail)
//Storyboard Layer 2 (Pass)
//Storyboard Layer 3 (Foreground)
//Storyboard Sound Samples

[TimingPoints]
483,314.13612565445,4,2,0,30,1,0
483,-138.888888888889,4,2,0,30,0,0
20587,-121.951219512195,4,2,0,30,0,0
39435,-121.951219512195,4,2,0,30,0,0
58284,-27.6243093922652,4,2,0,30,0,0
59540,-75.7575757575757,4,2,0,30,0,0
60797,-75.7575757575757,4,2,0,50,0,1
79645,-121.951219512195,4,2,0,30,0,0
85928,-121.951219512195,4,2,0,40,0,0
90954,-108.695652173913,4,2,0,40,0,0
101006,-121.951219512195,4,2,0,30,0,0
118598,-27.6243093922652,4,2,0,30,0,0
119854,-121.951219512195,4,2,0,30,0,0
121111,-70.4225352112676,4,2,0,40,0,0
151268,-75.7575757575757,4,2,0,50,0,1
190221,-108.695652173913,4,2,0,40,0,0
191477,-138.888888888889,4,2,0,30,0,0

[HitObjects]
128,128,483,5,0,0:0:0:0:
416,128,1425,1,0,0:0:0:0:
128,128,1739,1,0,0:0:0:0:
448,128,2367,1,0,0:0:0:0:
224,256,2996,1,0,0:0:0:0:
224,256,3938,6,0,L|224:384,1,122.400002988281
224,384,4880,1,0,0:0:0:0:
288,352,5037,1,0,0:0:0:0:
320,288,5195,1,0,0:0:0:0:
320,224,5352,1,0,0:0:0:0:
288,160,5509,1,0,0:0:0:0:
288,160,6451,2,0,L|160:160,1,122.400002988281
160,160,7393,5,0,0:0:0:0:
160,160,8022,2,0,L|160:128,1,30.6000007470703
160,32,8336,1,0,0:0:0:0:
224,128,8650,1,0,0:0:0:0:
288,32,8964,1,0,0:0:0:0:
288,128,9278,2,0,L|288:160,1,30.6000007470703
288,160,9907,1,0,0:0:0:0:
64,288,10535,5,0,0:0:0:0:
352,288,11477,1,0,0:0:0:0:
64,288,11791,1,0,0:0:0:0:
64,288,12420,1,0,0:0:0:0:
64,288,13048,1,0,0:0:0:0:
416,224,13990,6,0,L|416:96,2,122.400002988281
384,288,14933,1,0,0:0:0:0:
320,256,15090,1,0,0:0:0:0:
288,320,15247,1,0,0:0:0:0:
352,352,15404,1,0,0:0:0:0:
384,288,15561,2,0,L|403:251,1,30.6000007470703
448,192,16503,6,0,L|352:96,1,122.400002988281
352,96,17446,1,0,0:0:0:0:
352,96,18074,1,0,0:0:0:0:
96,160,20587,5,0,0:0:0:0:
352,160,21530,1,0,0:0:0:0:
96,160,21844,1,0,0:0:0:0:
352,160,22472,1,0,0:0:0:0:
352,160,23100,1,0,0:0:0:0:
256,192,24043,2,0,L|256:352,1,139.400002127075
256,352,24985,5,0,0:0:0:0:
256,224,25142,1,0,0:0:0:0:
256,320,25299,5,0,0:0:0:0:
256,256,25456,1,0,0:0:0:0:
256,384,25613,5,0,0:0:0:0:
256,384,26556,2,0,L|256:224,1,139.400002127075
256,160,27498,1,0,0:0:0:0:
256,64,28126,1,0,0:0:0:0:
320,128,28441,1,0,0:0:0:0:
224,192,28755,1,0,0:0:0:0:
320,256,29069,1,0,0:0:0:0:
224,320,29383,1,0,0:0:0:0:
96,224,30011,5,0,0:0:0:0:
96,96,30640,2,0,L|96:32,1,34.8500005317688
96,64,31582,1,0,0:0:0:0:
256,64,31896,2,0,L|256:128,1,34.8500005317688
256,192,32524,1,0,0:0:0:0:
256,288,33153,2,0,L|256:352,1,34.8500005317688
480,320,34095,6,0,L|480:160,1,139.400002127075
480,160,34723,1,0,0:0:0:0:
384,96,35037,1,0,0:0:0:0:
256,256,35195,1,0,0:0:0:0:
416,96,35352,1,0,0:0:0:0:
224,256,35509,1,0,0:0:0:0:
256,96,35666,5,0,0:0:0:0:
256,96,36608,2,0,L|96:96,1,139.400002127075
96,96,37551,1,0,0:0:0:0:
96,192,38179,2,0,L|96:256,1,34.8500005317688
128,352,39435,6,0,L|224:352,1,69.7000010635376
288,288,39671,2,0,L|192:288,1,69.7000010635376
128,288,39907,1,0,0:0:0:0:
32,192,40064,6,0,L|103:256,1,69.7000010635376
193,251,40300,2,0,L|121:186,1,69.7000010635376
74,144,40536,1,0,0:0:0:0:
144,64,40692,5,0,0:0:0:0:
176,64,40770,1,0,0:0:0:0:
208,64,40849,1,0,0:0:0:0:
240,64,40928,1,0,0:0:0:0:
272,64,41006,1,0,0:0:0:0:
192,176,41163,1,0,0:0:0:0:
304,64,41320,1,0,0:0:0:0:
160,176,41477,1,0,0:0:0:0:
336,64,41634,1,0,0:0:0:0:
128,176,41791,1,0,0:0:0:0:
128,176,41870,1,0,0:0:0:0:
128,176,41948,1,0,0:0:0:0:
112,192,42027,5,0,0:0:0:0:
96,208,42106,1,0,0:0:0:0:
80,224,42184,1,0,0:0:0:0:
64,240,42263,1,0,0:0:0:0:
208,256,42420,1,0,0:0:0:0:
48,256,42577,1,0,0:0:0:0:
288,256,42734,1,0,0:0:0:0:
128,256,42891,1,0,0:0:0:0:
384,256,43048,1,0,0:0:0:0:
32,272,43205,6,0,L|96:192,1,69.7000010635376
208,192,43441,2,0,L|144:272,1,69.7000010635376
112,320,43676,1,0,0:0:0:0:
18,207,43833,6,0,L|102:147,1,69.7000010635376
209,178,44069,2,0,L|126:238,1,69.7000010635376
82,275,44304,1,0,0:0:0:0:
368,224,44462,6,0,L|324:278,1,69.7000010635376
192,304,44698,2,0,L|235:249,1,69.7000010635376
288,176,44933,1,0,0:0:0:0:
384,176,45090,6,0,L|373:244,1,69.7000010635376
271,333,45326,2,0,L|281:264,1,69.7000010635376
290,174,45561,1,0,0:0:0:0:
224,32,45718,5,0,0:0:0:0:
224,64,45797,1,0,0:0:0:0:
224,96,45875,1,0,0:0:0:0:
224,128,45954,1,0,0:0:0:0:
224,160,46032,1,0,0:0:0:0:
224,336,46189,1,0,0:0:0:0:
224,192,46346,1,0,0:0:0:0:
256,336,46503,1,0,0:0:0:0:
192,192,46661,1,0,0:0:0:0:
288,336,46818,1,0,0:0:0:0:
288,336,46896,1,0,0:0:0:0:
288,336,46975,1,0,0:0:0:0:
288,304,47053,5,0,0:0:0:0:
288,272,47132,1,0,0:0:0:0:
288,240,47210,1,0,0:0:0:0:
288,208,47289,1,0,0:0:0:0:
288,32,47446,1,0,0:0:0:0:
288,176,47603,1,0,0:0:0:0:
320,32,47760,1,0,0:0:0:0:
256,176,47917,1,0,0:0:0:0:
352,32,48074,1,0,0:0:0:0:
224,176,48231,6,0,L|288:96,1,69.7000010635376
400,96,48467,2,0,L|336:176,1,69.7000010635376
304,224,48702,1,0,0:0:0:0:
240,160,48859,6,0,L|324:100,1,69.7000010635376
431,131,49095,2,0,L|348:191,1,69.7000010635376
304,228,49330,1,0,0:0:0:0:
64,240,49488,6,0,L|108:186,1,69.7000010635376
240,160,49724,2,0,L|197:215,1,69.7000010635376
144,288,49959,1,0,0:0:0:0:
48,288,50116,6,0,L|59:220,1,69.7000010635376
64,192,50352,1,0,0:0:0:0:
80,160,50430,1,0,0:0:0:0:
112,144,50509,1,0,0:0:0:0:
144,144,50587,1,0,0:0:0:0:
176,128,50666,1,0,0:0:0:0:
208,128,50744,5,0,0:0:0:0:
240,128,50823,1,0,0:0:0:0:
272,96,50901,1,0,0:0:0:0:
304,96,50980,1,0,0:0:0:0:
336,64,51058,1,0,0:0:0:0:
416,64,51215,1,0,0:0:0:0:
384,240,51373,1,0,0:0:0:0:
464,64,51530,1,0,0:0:0:0:
336,240,51687,1,0,0:0:0:0:
512,64,51844,1,0,0:0:0:0:
512,64,51922,1,0,0:0:0:0:
512,64,52001,1,0,0:0:0:0:
512,96,52079,5,0,0:0:0:0:
496,128,52158,1,0,0:0:0:0:
464,144,52236,1,0,0:0:0:0:
432,144,52315,1,0,0:0:0:0:
288,144,52472,1,0,0:0:0:0:
480,240,52629,1,0,0:0:0:0:
320,112,52786,1,0,0:0:0:0:
448,272,52943,1,0,0:0:0:0:
352,80,53100,1,0,0:0:0:0:
416,304,53257,5,0,0:0:0:0:
208,272,53493,1,0,0:0:0:0:
112,96,53729,1,0,0:0:0:0:
288,16,53886,5,0,0:0:0:0:
399,196,54121,1,0,0:0:0:0:
272,368,54357,1,0,0:0:0:0:
64,272,54514,5,0,0:0:0:0:
208,80,54750,1,0,0:0:0:0:
480,128,54985,1,0,0:0:0:0:
416,320,55142,5,0,0:0:0:0:
416,320,55221,1,0,0:0:0:0:
416,320,55299,2,0,L|432:336,5,17.4250002658844
384,336,55535,2,0,L|384:368,5,17.4250002658844
256,240,55770,5,4,0:0:0:0:
227,265,55849,1,0,0:0:0:0:
191,276,55927,1,0,0:0:0:0:
153,278,56006,1,0,0:0:0:0:
116,269,56084,1,0,0:0:0:0:
83,249,56163,1,0,0:0:0:0:
59,219,56241,1,0,0:0:0:0:
44,183,56320,1,0,0:0:0:0:
43,144,56398,1,0,0:0:0:0:
64,111,56477,1,0,0:0:0:0:
96,88,56555,1,0,0:0:0:0:
132,73,56634,1,0,0:0:0:0:
171,73,56712,1,0,0:0:0:0:
207,87,56791,1,0,0:0:0:0:
236,112,56869,2,0,L|268:151,1,34.8500005317688
256,240,57027,5,4,0:0:0:0:
285,265,57106,1,0,0:0:0:0:
321,276,57184,1,0,0:0:0:0:
359,278,57263,1,0,0:0:0:0:
396,269,57341,1,0,0:0:0:0:
429,249,57420,1,0,0:0:0:0:
453,219,57498,1,0,0:0:0:0:
468,183,57577,1,0,0:0:0:0:
469,144,57655,1,0,0:0:0:0:
448,111,57734,1,0,0:0:0:0:
416,88,57812,1,0,0:0:0:0:
380,73,57891,1,0,0:0:0:0:
341,73,57969,1,0,0:0:0:0:
305,87,58048,1,0,0:0:0:0:
276,112,58126,2,0,L|244:151,1,34.8500005317688
232,189,58284,6,0,P|190:202|166:266,1,76.9249995891762
232,189,58362,2,0,P|194:212|188:280,1,76.9249995891762
232,189,58441,2,0,P|202:221|213:288,1,76.9249995891762
232,189,58519,2,0,P|211:227|239:290,1,76.9249995891762
232,189,58598,2,0,P|222:231|265:284,1,76.9249995891762
232,189,58676,2,0,P|222:231|265:284,1,76.9249995891762
232,189,58755,2,0,P|233:232|289:272,1,76.9249995891762
232,189,58833,2,0,P|245:231|309:254,1,76.9249995891762
232,189,58912,2,0,P|255:226|323:232,1,76.9249995891762
232,189,58990,2,0,P|264:218|331:207,1,76.9249995891762
232,189,59069,2,0,P|270:209|333:181,1,76.9249995891762
232,189,59147,2,0,P|274:198|327:155,1,76.9249995891762
232,189,59226,2,0,P|275:187|315:131,1,76.9249995891762
232,189,59304,2,0,P|274:175|297:112,1,76.9249995891762
232,195,59383,2,0,P|268:171|274:103,1,76.9249995891762
232,195,59462,2,0,P|261:162|250:95,1,76.9249995891762
232,195,59540,5,0,0:0:0:0:
80,112,59854,1,0,0:0:0:0:
80,112,60168,1,0,0:0:0:0:
304,224,60325,1,0,0:0:0:0:
32,224,60482,1,0,0:0:0:0:
112,64,60797,5,0,0:0:0:0:
160,96,60875,1,0,0:0:0:0:
208,128,60954,1,0,0:0:0:0:
256,160,61032,1,0,0:0:0:0:
304,192,61111,1,0,0:0:0:0:
128,272,61268,1,0,0:0:0:0:
416,224,61425,1,0,0:0:0:0:
96,320,61582,1,0,0:0:0:0:
448,176,61739,1,0,0:0:0:0:
64,368,61896,1,0,0:0:0:0:
64,368,61975,1,0,0:0:0:0:
64,368,62053,1,0,0:0:0:0:
20,333,62132,5,0,0:0:0:0:
2,280,62210,1,0,0:0:0:0:
15,224,62289,1,0,0:0:0:0:
60,189,62367,1,0,0:0:0:0:
352,288,62524,1,0,0:0:0:0:
112,176,62681,1,0,0:0:0:0:
320,336,62839,1,0,0:0:0:0:
154,139,62996,1,0,0:0:0:0:
288,384,63153,1,0,0:0:0:0:
192,96,63310,5,0,0:0:0:0:
416,208,63545,1,0,0:0:0:0:
192,320,63781,1,0,0:0:0:0:
219,82,63938,5,0,0:0:0:0:
406,248,64173,1,0,0:0:0:0:
161,299,64409,1,0,0:0:0:0:
169,115,64566,5,0,0:0:0:0:
414,166,64801,1,0,0:0:0:0:
227,332,65037,1,0,0:0:0:0:
192,96,65195,5,0,0:0:0:0:
416,208,65430,1,0,0:0:0:0:
192,320,65666,1,0,0:0:0:0:
416,48,65823,5,0,0:0:0:0:
368,80,65901,1,0,0:0:0:0:
320,112,65980,1,0,0:0:0:0:
272,144,66058,1,0,0:0:0:0:
224,176,66137,1,0,0:0:0:0:
352,368,66294,1,0,0:0:0:0:
176,208,66451,1,0,0:0:0:0:
400,304,66608,1,0,0:0:0:0:
128,240,66765,1,0,0:0:0:0:
416,224,66922,1,0,0:0:0:0:
416,224,67001,1,0,0:0:0:0:
416,224,67079,1,0,0:0:0:0:
362,207,67158,5,0,0:0:0:0:
323,166,67236,1,0,0:0:0:0:
309,111,67315,1,0,0:0:0:0:
333,61,67393,1,0,0:0:0:0:
480,224,67551,1,0,0:0:0:0:
384,32,67708,1,0,0:0:0:0:
288,224,67865,1,0,0:0:0:0:
496,96,68022,1,0,0:0:0:0:
272,96,68179,1,0,0:0:0:0:
176,16,68336,5,0,0:0:0:0:
112,208,68572,1,0,0:0:0:0:
240,368,68807,1,0,0:0:0:0:
133,42,68964,5,0,0:0:0:0:
121,244,69200,1,0,0:0:0:0:
286,366,69435,1,0,0:0:0:0:
98,79,69592,5,0,0:0:0:0:
139,277,69828,1,0,0:0:0:0:
330,352,70063,1,0,0:0:0:0:
74,124,70221,5,0,0:0:0:0:
369,327,70535,1,0,0:0:0:0:
160,320,70849,5,0,0:0:0:0:
208,288,70928,1,0,0:0:0:0:
256,256,71006,1,0,0:0:0:0:
304,224,71085,1,0,0:0:0:0:
352,192,71163,1,0,0:0:0:0:
224,48,71320,1,0,0:0:0:0:
448,192,71477,1,0,0:0:0:0:
160,64,71634,1,0,0:0:0:0:
496,160,71791,1,0,0:0:0:0:
96,80,71948,1,0,0:0:0:0:
96,80,72027,1,0,0:0:0:0:
96,80,72106,1,0,0:0:0:0:
55,117,72184,5,0,0:0:0:0:
39,171,72263,1,0,0:0:0:0:
50,225,72341,1,0,0:0:0:0:
78,273,72420,1,0,0:0:0:0:
320,208,72577,1,0,0:0:0:0:
96,352,72734,1,0,0:0:0:0:
352,192,72891,1,0,0:0:0:0:
64,368,73048,1,0,0:0:0:0:
384,176,73205,1,0,0:0:0:0:
32,384,73362,5,0,0:0:0:0:
192,96,73598,1,0,0:0:0:0:
336,352,73833,1,0,0:0:0:0:
0,319,73990,5,0,0:0:0:0:
219,82,74226,1,0,0:0:0:0:
291,367,74461,1,0,0:0:0:0:
0,246,74619,5,0,0:0:0:0:
248,76,74855,1,0,0:0:0:0:
245,370,75090,1,0,0:0:0:0:
0,169,75247,5,0,0:0:0:0:
278,78,75483,1,0,0:0:0:0:
199,361,75718,1,0,0:0:0:0:
32,112,75875,5,0,0:0:0:0:
96,112,75954,1,0,0:0:0:0:
160,112,76032,1,0,0:0:0:0:
224,112,76111,1,0,0:0:0:0:
288,112,76189,1,0,0:0:0:0:
176,256,76346,1,0,0:0:0:0:
352,112,76503,1,0,0:0:0:0:
112,256,76661,1,0,0:0:0:0:
416,112,76818,1,0,0:0:0:0:
48,256,76975,1,0,0:0:0:0:
48,256,77053,1,0,0:0:0:0:
48,256,77132,1,0,0:0:0:0:
70,306,77210,5,0,0:0:0:0:
124,322,77289,1,0,0:0:0:0:
179,316,77367,1,0,0:0:0:0:
226,284,77446,1,0,0:0:0:0:
240,112,77603,1,0,0:0:0:0:
464,272,77760,1,0,0:0:0:0:
179,316,77917,1,0,0:0:0:0:
368,112,78074,1,0,0:0:0:0:
352,368,78231,1,0,0:0:0:0:
96,144,78388,5,0,0:0:0:0:
352,80,78624,1,0,0:0:0:0:
464,304,78859,1,0,0:0:0:0:
113,104,79017,5,0,0:0:0:0:
377,108,79253,1,0,0:0:0:0:
427,354,79488,1,0,0:0:0:0:
141,70,79645,6,0,B|208:64|208:64|224:160|320:160,1,209.100003190613
336,112,80195,2,0,P|352:144|304:224,1,139.400002127075
240,224,80587,1,0,0:0:0:0:
192,192,80666,1,0,0:0:0:0:
144,160,80744,1,0,0:0:0:0:
96,128,80823,1,0,0:0:0:0:
48,96,80901,5,0,0:0:0:0:
38,122,80980,1,0,0:0:0:0:
39,149,81058,1,0,0:0:0:0:
50,174,81137,1,0,0:0:0:0:
67,195,81215,1,0,0:0:0:0:
88,213,81294,1,0,0:0:0:0:
112,227,81373,1,0,0:0:0:0:
139,232,81451,1,0,0:0:0:0:
167,230,81530,1,0,0:0:0:0:
192,219,81608,1,0,0:0:0:0:
215,203,81687,1,0,0:0:0:0:
237,186,81765,1,0,0:0:0:0:
260,170,81844,1,0,0:0:0:0:
284,157,81922,1,0,0:0:0:0:
311,152,82001,1,0,0:0:0:0:
338,156,82079,1,0,0:0:0:0:
363,168,82158,5,0,0:0:0:0:
383,186,82236,1,0,0:0:0:0:
396,210,82315,1,0,0:0:0:0:
399,237,82393,1,0,0:0:0:0:
395,264,82472,1,0,0:0:0:0:
385,290,82551,1,0,0:0:0:0:
370,313,82629,1,0,0:0:0:0:
349,331,82708,1,0,0:0:0:0:
326,346,82786,1,0,0:0:0:0:
300,357,82865,1,0,0:0:0:0:
272,360,82943,1,0,0:0:0:0:
244,356,83022,1,0,0:0:0:0:
218,344,83100,1,0,0:0:0:0:
195,327,83179,1,0,0:0:0:0:
181,303,83257,1,0,0:0:0:0:
172,276,83336,1,0,0:0:0:0:
184,251,83414,5,0,0:0:0:0:
205,233,83493,1,0,0:0:0:0:
225,214,83572,1,0,0:0:0:0:
241,191,83650,1,0,0:0:0:0:
254,166,83729,1,0,0:0:0:0:
260,139,83807,1,0,0:0:0:0:
256,111,83886,1,0,0:0:0:0:
242,86,83964,1,0,0:0:0:0:
223,65,84043,1,0,0:0:0:0:
198,52,84121,1,0,0:0:0:0:
170,48,84200,1,0,0:0:0:0:
142,52,84278,1,0,0:0:0:0:
118,67,84357,1,0,0:0:0:0:
102,89,84435,1,0,0:0:0:0:
91,115,84514,1,0,0:0:0:0:
88,142,84592,1,0,0:0:0:0:
106,163,84671,6,0,L|138:201,1,34.8500005317688
298,251,84828,2,0,L|266:213,1,34.8500005317688
62,264,84985,2,0,L|105:247,1,34.8500005317688
275,92,85142,2,0,L|232:109,1,34.8500005317688
185,316,85299,6,0,L|206:345,1,34.8500005317688
138,95,85456,2,0,L|118:67,1,34.8500005317688
326,187,85613,2,0,L|366:172,1,34.8500005317688
73,171,85770,2,0,L|33:186,1,34.8500005317688
262,296,85928,5,0,0:0:0:0:
288,303,86006,1,0,0:0:0:0:
316,301,86085,1,0,0:0:0:0:
341,289,86163,1,0,0:0:0:0:
362,270,86242,1,0,0:0:0:0:
378,247,86320,1,0,0:0:0:0:
388,220,86399,1,0,0:0:0:0:
385,192,86477,1,0,0:0:0:0:
373,166,86556,1,0,0:0:0:0:
352,147,86634,1,0,0:0:0:0:
327,133,86713,1,0,0:0:0:0:
299,132,86791,1,0,0:0:0:0:
271,129,86870,1,0,0:0:0:0:
246,141,86948,1,0,0:0:0:0:
225,159,87027,1,0,0:0:0:0:
205,179,87106,1,0,0:0:0:0:
183,195,87184,5,0,0:0:0:0:
155,189,87263,1,0,0:0:0:0:
131,174,87341,1,0,0:0:0:0:
122,147,87420,1,0,0:0:0:0:
129,120,87498,1,0,0:0:0:0:
148,99,87577,1,0,0:0:0:0:
172,86,87655,1,0,0:0:0:0:
199,81,87734,1,0,0:0:0:0:
226,82,87812,1,0,0:0:0:0:
252,90,87891,1,0,0:0:0:0:
277,101,87969,1,0,0:0:0:0:
303,108,88048,1,0,0:0:0:0:
330,112,88126,1,0,0:0:0:0:
358,111,88205,1,0,0:0:0:0:
385,105,88284,1,0,0:0:0:0:
411,96,88362,1,0,0:0:0:0:
433,79,88441,5,0,0:0:0:0:
423,104,88519,1,0,0:0:0:0:
414,130,88598,1,0,0:0:0:0:
412,157,88676,1,0,0:0:0:0:
415,184,88755,1,0,0:0:0:0:
422,210,88833,1,0,0:0:0:0:
432,236,88912,1,0,0:0:0:0:
441,262,88990,1,0,0:0:0:0:
444,289,89069,1,0,0:0:0:0:
435,315,89147,1,0,0:0:0:0:
415,334,89226,1,0,0:0:0:0:
389,345,89304,1,0,0:0:0:0:
361,347,89383,1,0,0:0:0:0:
333,344,89462,1,0,0:0:0:0:
306,336,89540,1,0,0:0:0:0:
286,315,89619,1,0,0:0:0:0:
261,302,89697,6,0,L|238:275,1,34.8500005317688
69,214,89854,2,0,L|91:240,1,34.8500005317688
305,201,90011,2,0,L|272:213,1,34.8500005317688
92,373,90168,2,0,L|124:360,1,34.8500005317688
150,160,90325,2,0,L|118:111,1,34.8500005317688
128,96,90482,5,0,0:0:0:0:
176,96,90561,1,0,0:0:0:0:
224,96,90640,1,0,0:0:0:0:
272,96,90718,1,0,0:0:0:0:
320,96,90797,1,0,0:0:0:0:
368,96,90875,1,0,0:0:0:0:
416,96,90954,5,4,0:0:0:0:
429,128,91032,1,0,0:0:0:0:
432,163,91111,1,0,0:0:0:0:
424,197,91189,1,0,0:0:0:0:
406,227,91268,1,0,0:0:0:0:
383,253,91346,1,0,0:0:0:0:
356,276,91425,1,0,0:0:0:0:
325,293,91503,1,0,0:0:0:0:
291,303,91582,1,0,0:0:0:0:
255,308,91661,1,0,0:0:0:0:
220,303,91739,1,0,0:0:0:0:
188,287,91818,1,0,0:0:0:0:
161,264,91896,1,0,0:0:0:0:
145,232,91975,1,0,0:0:0:0:
140,197,92053,1,0,0:0:0:0:
159,167,92132,1,0,0:0:0:0:
190,152,92210,5,0,0:0:0:0:
217,129,92289,1,0,0:0:0:0:
231,97,92367,1,0,0:0:0:0:
228,61,92446,1,0,0:0:0:0:
209,31,92524,1,0,0:0:0:0:
176,17,92603,1,0,0:0:0:0:
141,18,92681,1,0,0:0:0:0:
109,33,92760,1,0,0:0:0:0:
85,59,92839,1,0,0:0:0:0:
73,92,92917,1,0,0:0:0:0:
80,126,92996,1,0,0:0:0:0:
103,151,93074,1,0,0:0:0:0:
124,179,93153,1,0,0:0:0:0:
139,210,93231,1,0,0:0:0:0:
139,245,93310,1,0,0:0:0:0:
131,279,93388,1,0,0:0:0:0:
113,309,93467,5,0,0:0:0:0:
86,331,93545,1,0,0:0:0:0:
50,328,93624,1,0,0:0:0:0:
21,307,93702,1,0,0:0:0:0:
8,273,93781,1,0,0:0:0:0:
11,238,93859,1,0,0:0:0:0:
36,212,93938,1,0,0:0:0:0:
71,207,94017,1,0,0:0:0:0:
102,222,94095,1,0,0:0:0:0:
134,235,94174,1,0,0:0:0:0:
168,235,94252,1,0,0:0:0:0:
200,220,94331,1,0,0:0:0:0:
227,198,94409,1,0,0:0:0:0:
243,166,94488,1,0,0:0:0:0:
240,131,94566,1,0,0:0:0:0:
212,109,94645,1,0,0:0:0:0:
198,76,94723,5,0,0:0:0:0:
214,44,94802,1,0,0:0:0:0:
246,30,94880,1,0,0:0:0:0:
281,29,94959,1,0,0:0:0:0:
313,41,95037,1,0,0:0:0:0:
338,65,95116,1,0,0:0:0:0:
347,99,95195,1,0,0:0:0:0:
344,133,95273,1,0,0:0:0:0:
330,165,95352,1,0,0:0:0:0:
319,198,95430,1,0,0:0:0:0:
313,233,95509,1,0,0:0:0:0:
318,267,95587,1,0,0:0:0:0:
333,298,95666,1,0,0:0:0:0:
356,323,95744,1,0,0:0:0:0:
384,343,95823,1,0,0:0:0:0:
418,350,95901,1,0,0:0:0:0:
453,344,95980,5,0,0:0:0:0:
480,321,96058,1,0,0:0:0:0:
493,288,96137,1,0,0:0:0:0:
489,253,96215,1,0,0:0:0:0:
476,220,96294,1,0,0:0:0:0:
450,194,96373,1,0,0:0:0:0:
418,178,96451,1,0,0:0:0:0:
382,177,96530,1,0,0:0:0:0:
350,193,96608,1,0,0:0:0:0:
323,216,96687,1,0,0:0:0:0:
295,237,96765,1,0,0:0:0:0:
262,252,96844,1,0,0:0:0:0:
227,255,96922,1,0,0:0:0:0:
192,246,97001,1,0,0:0:0:0:
160,231,97079,1,0,0:0:0:0:
138,202,97158,1,0,0:0:0:0:
123,170,97236,5,0,0:0:0:0:
130,135,97315,1,0,0:0:0:0:
158,114,97393,1,0,0:0:0:0:
192,104,97472,1,0,0:0:0:0:
226,110,97551,1,0,0:0:0:0:
258,122,97629,1,0,0:0:0:0:
291,131,97708,1,0,0:0:0:0:
325,133,97786,1,0,0:0:0:0:
360,129,97865,1,0,0:0:0:0:
393,118,97943,1,0,0:0:0:0:
420,95,98022,1,0,0:0:0:0:
435,63,98100,1,0,0:0:0:0:
421,30,98179,1,0,0:0:0:0:
387,20,98257,1,0,0:0:0:0:
351,19,98336,1,0,0:0:0:0:
323,40,98414,1,0,0:0:0:0:
299,66,98493,5,0,0:0:0:0:
282,97,98572,1,0,0:0:0:0:
278,131,98650,1,0,0:0:0:0:
285,165,98729,1,0,0:0:0:0:
300,196,98807,1,0,0:0:0:0:
325,221,98886,1,0,0:0:0:0:
349,246,98964,1,0,0:0:0:0:
365,277,99043,1,0,0:0:0:0:
371,311,99121,1,0,0:0:0:0:
364,345,99200,1,0,0:0:0:0:
342,372,99278,1,0,0:0:0:0:
307,381,99357,1,0,0:0:0:0:
272,377,99435,1,0,0:0:0:0:
241,359,99514,1,0,0:0:0:0:
218,332,99592,1,0,0:0:0:0:
215,296,99671,1,0,0:0:0:0:
229,263,99750,5,0,0:0:0:0:
234,257,99828,1,0,0:0:0:0:
239,251,99907,1,0,0:0:0:0:
244,245,99985,1,0,0:0:0:0:
249,239,100064,1,0,0:0:0:0:
254,233,100142,1,0,0:0:0:0:
259,227,100221,1,0,0:0:0:0:
264,221,100299,1,0,0:0:0:0:
268,214,100378,2,0,L|279:197,7,19.5499993437195
305,189,100692,5,0,0:0:0:0:
336,144,100770,1,0,0:0:0:0:
368,96,100849,1,0,0:0:0:0:
400,48,100928,1,0,0:0:0:0:
432,0,101006,1,0,0:0:0:0:
132,95,110430,5,0,0:0:0:0:
116,126,110509,1,0,0:0:0:0:
112,160,110587,1,0,0:0:0:0:
130,189,110666,1,0,0:0:0:0:
161,202,110744,1,0,0:0:0:0:
196,201,110823,1,0,0:0:0:0:
226,184,110901,1,0,0:0:0:0:
242,153,110980,1,0,0:0:0:0:
236,118,111058,5,0,0:0:0:0:
224,96,111373,1,0,0:0:0:0:
208,64,111687,1,0,0:0:0:0:
192,32,112001,1,0,0:0:0:0:
384,32,112315,6,0,L|336:96,1,69.7000010635376
384,128,112629,2,0,L|336:192,1,69.7000010635376
384,224,112943,2,0,L|336:288,1,69.7000010635376
384,320,113257,2,0,L|336:384,1,69.7000010635376
96,352,113572,5,0,0:0:0:0:
352,176,113886,5,0,0:0:0:0:
80,64,114200,5,0,0:0:0:0:
256,304,114514,5,0,0:0:0:0:
304,32,114828,6,0,L|400:32,1,69.7000010635376
368,96,115142,2,0,L|272:96,1,69.7000010635376
304,160,115456,2,0,L|400:160,1,69.7000010635376
368,224,115770,2,0,L|256:224,1,104.550001595306
256,240,116085,5,4,0:0:0:0:
227,265,116164,1,0,0:0:0:0:
191,276,116242,1,0,0:0:0:0:
153,278,116321,1,0,0:0:0:0:
116,269,116399,1,0,0:0:0:0:
83,249,116478,1,0,0:0:0:0:
59,219,116556,1,0,0:0:0:0:
44,183,116635,1,0,0:0:0:0:
43,144,116713,1,0,0:0:0:0:
64,111,116792,1,0,0:0:0:0:
96,88,116870,1,0,0:0:0:0:
132,73,116949,1,0,0:0:0:0:
171,73,117027,1,0,0:0:0:0:
207,87,117106,1,0,0:0:0:0:
236,112,117184,2,0,L|268:151,1,34.8500005317688
256,240,117342,5,4,0:0:0:0:
285,265,117421,1,0,0:0:0:0:
321,276,117499,1,0,0:0:0:0:
359,278,117578,1,0,0:0:0:0:
396,269,117656,1,0,0:0:0:0:
429,249,117735,1,0,0:0:0:0:
453,219,117813,1,0,0:0:0:0:
468,183,117892,1,0,0:0:0:0:
469,144,117970,1,0,0:0:0:0:
448,111,118049,1,0,0:0:0:0:
416,88,118127,1,0,0:0:0:0:
380,73,118206,1,0,0:0:0:0:
341,73,118284,1,0,0:0:0:0:
305,87,118363,1,0,0:0:0:0:
276,112,118441,2,0,L|244:151,1,34.8500005317688
232,189,118599,6,0,P|190:202|166:266,1,76.9249995891762
232,189,118677,2,0,P|194:212|188:280,1,76.9249995891762
232,189,118756,2,0,P|202:221|213:288,1,76.9249995891762
232,189,118834,2,0,P|211:227|239:290,1,76.9249995891762
232,189,118913,2,0,P|222:231|265:284,1,76.9249995891762
232,189,118991,2,0,P|222:231|265:284,1,76.9249995891762
232,189,119070,2,0,P|233:232|289:272,1,76.9249995891762
232,189,119148,2,0,P|245:231|309:254,1,76.9249995891762
232,189,119227,2,0,P|255:226|323:232,1,76.9249995891762
232,189,119305,2,0,P|264:218|331:207,1,76.9249995891762
232,189,119384,2,0,P|270:209|333:181,1,76.9249995891762
232,189,119462,2,0,P|274:198|327:155,1,76.9249995891762
232,189,119541,2,0,P|275:187|315:131,1,76.9249995891762
232,189,119619,2,0,P|274:175|297:112,1,76.9249995891762
232,189,119697,2,0,P|268:165|274:97,1,76.9249995891762
232,189,119776,2,0,P|261:156|250:89,1,76.9249995891762
232,195,119854,5,0,0:0:0:0:
232,195,120168,1,0,0:0:0:0:
232,195,120482,1,0,0:0:0:0:
144,256,120640,1,0,0:0:0:0:
224,320,120797,1,0,0:0:0:0:
384,272,121111,6,0,L|384:112,1,120.699993922272
384,96,121425,1,0,0:0:0:0:
335,60,121503,1,0,0:0:0:0:
275,50,121582,1,0,0:0:0:0:
215,61,121661,1,0,0:0:0:0:
164,92,121739,5,0,0:0:0:0:
384,272,121975,1,0,0:0:0:0:
124,133,122210,1,0,0:0:0:0:
48,144,122367,6,0,L|48:208,1,60.349996961136
128,256,122524,2,0,L|128:195,1,60.349996961136
124,133,122681,1,0,0:0:0:0:
164,92,122760,1,0,0:0:0:0:
215,61,122838,1,0,0:0:0:0:
275,50,122917,1,0,0:0:0:0:
335,60,122996,5,0,0:0:0:0:
128,256,123231,1,0,0:0:0:0:
384,96,123467,1,0,0:0:0:0:
336,336,123624,6,0,L|372:287,1,60.349996961136
371,182,123781,2,0,L|334:230,1,60.349996961136
304,272,123938,1,0,0:0:0:0:
272,320,124017,1,0,0:0:0:0:
240,368,124095,1,0,0:0:0:0:
208,320,124174,1,0,0:0:0:0:
176,272,124252,5,0,0:0:0:0:
112,176,124488,1,0,0:0:0:0:
224,144,124645,1,0,0:0:0:0:
128,265,124880,5,0,0:0:0:0:
80,123,125116,1,0,0:0:0:0:
231,121,125273,1,0,0:0:0:0:
81,238,125509,5,0,2:0:0:0:
69,54,125745,1,0,2:0:0:0:
250,99,125902,1,0,2:0:0:0:
80,240,126137,6,0,L|192:240,1,60.349996961136
192,304,126294,2,0,L|128:304,1,60.349996961136
70,306,126451,1,0,0:0:0:0:
30,260,126530,1,0,0:0:0:0:
33,200,126608,1,0,0:0:0:0:
84,167,126687,1,0,0:0:0:0:
139,188,126765,5,0,0:0:0:0:
400,384,127001,1,0,0:0:0:0:
160,240,127158,1,0,0:0:0:0:
384,240,127393,6,0,L|384:320,1,60.349996961136
464,352,127551,2,0,L|464:288,1,60.349996961136
464,240,127708,1,0,0:0:0:0:
432,192,127786,1,0,0:0:0:0:
400,144,127865,1,0,0:0:0:0:
368,96,127943,1,0,0:0:0:0:
336,48,128022,5,0,0:0:0:0:
160,240,128257,1,0,0:0:0:0:
304,0,128414,1,0,0:0:0:0:
192,288,128650,6,0,L|96:288,1,60.349996961136
64,208,128807,2,0,L|144:208,1,60.349996961136
176,208,128964,1,0,0:0:0:0:
224,208,129043,1,0,0:0:0:0:
272,208,129121,1,0,0:0:0:0:
320,208,129200,1,0,0:0:0:0:
368,208,129278,5,0,0:0:0:0:
192,48,129514,1,0,0:0:0:0:
416,208,129671,1,0,0:0:0:0:
464,208,129907,5,0,0:0:0:0:
463,249,129985,1,0,0:0:0:0:
447,288,130064,1,0,0:0:0:0:
414,314,130142,1,0,0:0:0:0:
375,332,130221,1,0,0:0:0:0:
333,338,130299,1,0,0:0:0:0:
300,311,130378,1,0,0:0:0:0:
261,293,130456,1,0,0:0:0:0:
218,287,130535,1,0,0:0:0:0:
178,301,130613,1,0,0:0:0:0:
151,334,130692,1,0,0:0:0:0:
120,363,130770,1,0,0:0:0:0:
78,373,130849,1,0,0:0:0:0:
29,303,131006,1,0,0:0:0:0:
416,176,131163,5,0,0:0:0:0:
80,176,131477,1,0,0:0:0:0:
256,48,132106,1,0,0:0:0:0:
256,96,132184,1,0,0:0:0:0:
256,144,132263,1,0,0:0:0:0:
256,192,132341,1,0,0:0:0:0:
256,240,132420,1,0,0:0:0:0:
256,0,132734,1,0,0:0:0:0:
256,48,133362,5,0,0:0:0:0:
256,96,133440,1,0,0:0:0:0:
256,144,133519,1,0,0:0:0:0:
256,192,133597,1,0,0:0:0:0:
256,240,133676,1,0,0:0:0:0:
256,0,133990,1,0,0:0:0:0:
256,48,134619,5,0,0:0:0:0:
256,96,134697,1,0,0:0:0:0:
256,144,134776,1,0,0:0:0:0:
256,192,134854,1,0,0:0:0:0:
256,240,134933,1,0,0:0:0:0:
256,0,135168,5,0,0:0:0:0:
80,144,135325,1,0,0:0:0:0:
256,288,135561,1,0,0:0:0:0:
432,144,135797,1,0,0:0:0:0:
256,0,135954,1,0,0:0:0:0:
80,144,136189,5,0,0:0:0:0:
432,144,136503,1,0,0:0:0:0:
256,48,137132,5,0,0:0:0:0:
256,96,137210,1,0,0:0:0:0:
256,144,137289,1,0,0:0:0:0:
256,192,137367,1,0,0:0:0:0:
256,240,137446,1,0,0:0:0:0:
256,0,137760,1,0,0:0:0:0:
256,48,138388,5,0,0:0:0:0:
256,96,138466,1,0,0:0:0:0:
256,144,138545,1,0,0:0:0:0:
256,192,138623,1,0,0:0:0:0:
256,240,138702,1,0,0:0:0:0:
256,0,139017,1,0,0:0:0:0:
96,272,139331,5,0,0:0:0:0:
256,80,139566,1,0,0:0:0:0:
352,320,139723,1,0,0:0:0:0:
80,227,139959,5,0,0:0:0:0:
284,83,140194,1,0,0:0:0:0:
315,340,140351,1,0,0:0:0:0:
77,181,140587,5,0,0:0:0:0:
312,95,140822,1,0,0:0:0:0:
275,350,140979,1,0,0:0:0:0:
256,240,141215,5,0,0:0:0:0:
256,0,141530,1,0,0:0:0:0:
256,48,141844,1,0,0:0:0:0:
256,48,142158,5,0,0:0:0:0:
256,96,142236,1,0,0:0:0:0:
256,144,142315,1,0,0:0:0:0:
256,192,142393,1,0,0:0:0:0:
256,240,142472,1,0,0:0:0:0:
256,0,142786,1,0,0:0:0:0:
256,48,143100,1,0,0:0:0:0:
256,48,143414,5,0,0:0:0:0:
256,96,143492,1,0,0:0:0:0:
256,144,143571,1,0,0:0:0:0:
256,192,143649,1,0,0:0:0:0:
256,240,143728,1,0,0:0:0:0:
256,0,144043,1,0,0:0:0:0:
256,48,144357,1,0,0:0:0:0:
256,48,144671,5,0,0:0:0:0:
256,96,144749,1,0,0:0:0:0:
256,144,144828,1,0,0:0:0:0:
256,192,144906,1,0,0:0:0:0:
256,240,144985,5,0,0:0:0:0:
96,112,145220,1,0,0:0:0:0:
416,128,145378,1,0,0:0:0:0:
256,288,145613,5,0,0:0:0:0:
48,112,145849,1,0,0:0:0:0:
464,128,146006,1,0,0:0:0:0:
256,320,146242,5,0,0:0:0:0:
214,317,146320,1,0,0:0:0:0:
176,297,146399,1,0,0:0:0:0:
151,263,146477,1,0,0:0:0:0:
137,222,146556,1,0,0:0:0:0:
146,181,146634,1,0,0:0:0:0:
166,143,146713,1,0,0:0:0:0:
200,119,146791,1,0,0:0:0:0:
240,106,146870,1,0,0:0:0:0:
281,107,146948,1,0,0:0:0:0:
318,126,147027,1,0,0:0:0:0:
346,157,147106,1,0,0:0:0:0:
356,188,147184,1,0,0:0:0:0:
352,230,147263,1,0,0:0:0:0:
327,263,147341,1,0,0:0:0:0:
285,272,147420,1,0,0:0:0:0:
243,265,147498,5,0,0:0:0:0:
209,238,147577,1,0,0:0:0:0:
204,196,147655,1,0,0:0:0:0:
222,157,147734,1,0,0:0:0:0:
260,141,147812,1,0,0:0:0:0:
299,125,147891,1,0,0:0:0:0:
332,99,147969,1,0,0:0:0:0:
343,58,148048,1,0,0:0:0:0:
322,21,148126,1,0,0:0:0:0:
281,9,148205,1,0,0:0:0:0:
239,15,148284,1,0,0:0:0:0:
203,36,148362,1,0,0:0:0:0:
180,72,148441,1,0,0:0:0:0:
186,113,148519,1,0,0:0:0:0:
190,155,148598,1,0,0:0:0:0:
175,194,148676,1,0,0:0:0:0:
141,220,148755,2,0,L|106:246,32,30.174998480568
256,304,150325,5,0,0:0:0:0:
416,192,150640,1,0,0:0:0:0:
256,112,150797,1,0,0:0:0:0:
400,336,150954,1,0,0:0:0:0:
240,192,151268,6,0,L|183:192,1,56.0999998287964
112,272,151425,2,0,L|176:272,1,56.0999998287964
208,240,151582,1,0,0:0:0:0:
240,192,151661,1,0,0:0:0:0:
272,144,151739,1,0,0:0:0:0:
304,96,151818,1,0,0:0:0:0:
336,48,151896,5,0,0:0:0:0:
432,240,152132,1,0,0:0:0:0:
208,240,152289,1,0,0:0:0:0:
336,48,152524,6,0,L|400:48,1,56.0999998287964
448,112,152681,2,0,L|384:112,1,56.0999998287964
336,128,152839,1,0,0:0:0:0:
288,160,152917,1,0,0:0:0:0:
240,192,152996,1,0,0:0:0:0:
192,224,153074,1,0,0:0:0:0:
144,256,153153,5,0,0:0:0:0:
112,16,153388,1,0,0:0:0:0:
336,128,153545,1,0,0:0:0:0:
144,256,153781,6,0,L|64:256,1,56.0999998287964
32,320,153938,2,0,L|96:320,1,56.0999998287964
144,321,154095,1,0,0:0:0:0:
192,292,154174,1,0,0:0:0:0:
222,245,154252,1,0,0:0:0:0:
225,188,154331,1,0,0:0:0:0:
191,143,154409,5,0,0:0:0:0:
32,320,154645,1,0,0:0:0:0:
288,208,154802,1,0,0:0:0:0:
64,96,155037,5,0,0:0:0:0:
256,320,155273,1,0,0:0:0:0:
272,48,155430,1,0,0:0:0:0:
80,256,155666,5,0,0:0:0:0:
368,192,155901,1,0,0:0:0:0:
144,48,156058,1,0,0:0:0:0:
448,240,156294,6,0,L|448:320,1,56.0999998287964
368,368,156451,2,0,L|368:288,1,56.0999998287964
368,256,156608,1,0,0:0:0:0:
368,192,156687,1,0,0:0:0:0:
368,128,156765,1,0,0:0:0:0:
368,64,156844,1,0,0:0:0:0:
368,0,156922,5,0,0:0:0:0:
144,128,157158,1,0,0:0:0:0:
368,256,157315,1,0,0:0:0:0:
368,0,157551,6,0,L|432:0,1,56.0999998287964
480,64,157708,2,0,L|416:64,1,56.0999998287964
368,80,157865,1,0,0:0:0:0:
320,112,157943,1,0,0:0:0:0:
272,144,158022,1,0,0:0:0:0:
224,176,158100,1,0,0:0:0:0:
176,208,158179,5,0,0:0:0:0:
448,336,158414,1,0,0:0:0:0:
224,176,158572,1,0,0:0:0:0:
384,272,158807,6,0,L|480:272,1,56.0999998287964
504,336,158964,2,0,L|440:336,1,56.0999998287964
391,330,159121,1,0,0:0:0:0:
340,304,159200,1,0,0:0:0:0:
320,251,159278,1,0,0:0:0:0:
324,194,159357,1,0,0:0:0:0:
356,148,159435,5,0,0:0:0:0:
504,336,159671,1,0,0:0:0:0:
224,336,159828,1,0,0:0:0:0:
356,148,160064,5,0,0:0:0:0:
192,336,160299,1,0,0:0:0:0:
128,96,160456,1,0,0:0:0:0:
356,148,160692,5,0,0:0:0:0:
160,336,160928,1,0,0:0:0:0:
32,32,161085,1,0,0:0:0:0:
272,192,161320,6,0,L|329:192,1,56.0999998287964
400,112,161477,2,0,L|336:112,1,56.0999998287964
304,144,161634,1,0,0:0:0:0:
272,192,161713,1,0,0:0:0:0:
240,240,161791,1,0,0:0:0:0:
208,288,161870,1,0,0:0:0:0:
176,336,161948,5,0,0:0:0:0:
80,144,162184,1,0,0:0:0:0:
304,144,162341,1,0,0:0:0:0:
176,336,162576,6,0,L|112:336,1,56.0999998287964
64,272,162733,2,0,L|128:272,1,56.0999998287964
176,256,162891,1,0,0:0:0:0:
224,224,162969,1,0,0:0:0:0:
272,192,163048,1,0,0:0:0:0:
320,160,163126,1,0,0:0:0:0:
368,128,163205,5,0,0:0:0:0:
400,368,163440,1,0,0:0:0:0:
176,256,163597,1,0,0:0:0:0:
368,128,163833,6,0,L|448:128,1,56.0999998287964
480,64,163990,2,0,L|416:64,1,56.0999998287964
368,63,164147,1,0,0:0:0:0:
320,92,164226,1,0,0:0:0:0:
290,139,164304,1,0,0:0:0:0:
287,196,164383,1,0,0:0:0:0:
321,241,164461,5,0,0:0:0:0:
480,64,164697,1,0,0:0:0:0:
224,176,164854,1,0,0:0:0:0:
448,288,165089,5,0,0:0:0:0:
256,64,165325,1,0,0:0:0:0:
240,336,165482,1,0,0:0:0:0:
432,128,165718,5,0,0:0:0:0:
144,192,165953,1,0,0:0:0:0:
368,336,166110,1,0,0:0:0:0:
64,144,166346,6,0,L|64:64,1,56.0999998287964
144,16,166503,2,0,L|144:96,1,56.0999998287964
144,128,166660,1,0,0:0:0:0:
144,192,166739,1,0,0:0:0:0:
144,256,166817,1,0,0:0:0:0:
144,320,166896,1,0,0:0:0:0:
144,384,166974,5,0,0:0:0:0:
368,256,167210,1,0,0:0:0:0:
144,128,167367,1,0,0:0:0:0:
144,384,167603,6,0,L|80:384,1,56.0999998287964
32,320,167760,2,0,L|96:320,1,56.0999998287964
144,304,167917,1,0,0:0:0:0:
192,272,167995,1,0,0:0:0:0:
240,240,168074,1,0,0:0:0:0:
288,208,168152,1,0,0:0:0:0:
336,176,168231,5,0,0:0:0:0:
64,48,168466,1,0,0:0:0:0:
288,208,168624,1,0,0:0:0:0:
128,112,168859,6,0,L|32:112,1,56.0999998287964
8,48,169016,2,0,L|72:48,1,56.0999998287964
121,54,169173,1,0,0:0:0:0:
172,80,169252,1,0,0:0:0:0:
192,133,169330,1,0,0:0:0:0:
188,190,169409,1,0,0:0:0:0:
156,236,169487,5,0,0:0:0:0:
8,48,169723,1,0,0:0:0:0:
288,48,169880,1,0,0:0:0:0:
156,236,170116,5,0,0:0:0:0:
320,48,170351,1,0,0:0:0:0:
384,288,170508,1,0,0:0:0:0:
156,236,170744,5,0,0:0:0:0:
352,48,170980,1,0,0:0:0:0:
480,352,171137,1,0,0:0:0:0:
64,336,171373,5,0,0:0:0:0:
112,288,171451,1,0,0:0:0:0:
160,240,171530,1,0,0:0:0:0:
208,192,171608,1,0,0:0:0:0:
256,144,171687,1,0,0:0:0:0:
464,288,171844,5,0,0:0:0:0:
304,96,172001,1,0,0:0:0:0:
416,336,172158,1,0,0:0:0:0:
352,48,172315,1,0,0:0:0:0:
368,384,172472,1,0,0:0:0:0:
368,384,172551,1,0,0:0:0:0:
368,384,172629,1,0,0:0:0:0:
320,368,172708,5,0,0:0:0:0:
278,315,172786,1,0,0:0:0:0:
288,248,172865,1,0,0:0:0:0:
336,201,172943,1,0,0:0:0:0:
240,16,173100,1,0,0:0:0:0:
402,210,173257,1,0,0:0:0:0:
180,47,173414,1,0,0:0:0:0:
444,261,173572,1,0,0:0:0:0:
149,106,173728,1,0,0:0:0:0:
417,316,173886,5,0,0:0:0:0:
240,16,174121,1,0,0:0:0:0:
80,336,174357,1,0,0:0:0:0:
443,270,174515,5,0,0:0:0:0:
194,26,174750,1,0,0:0:0:0:
128,352,174985,1,0,0:0:0:0:
457,218,175142,5,0,0:0:0:0:
154,47,175378,1,0,0:0:0:0:
176,368,175613,1,0,0:0:0:0:
457,165,175770,5,0,0:0:0:0:
120,78,176006,1,0,0:0:0:0:
224,384,176242,1,0,0:0:0:0:
320,384,176399,5,0,0:0:0:0:
272,336,176477,1,0,0:0:0:0:
224,288,176556,1,0,0:0:0:0:
176,240,176634,1,0,0:0:0:0:
128,192,176713,1,0,0:0:0:0:
416,240,176870,5,0,0:0:0:0:
80,144,177027,1,0,0:0:0:0:
368,288,177184,1,0,0:0:0:0:
32,96,177341,1,0,0:0:0:0:
320,336,177498,1,0,0:0:0:0:
320,336,177577,1,0,0:0:0:0:
306,270,177655,5,0,0:0:0:0:
333,208,177734,1,0,0:0:0:0:
390,173,177812,1,0,0:0:0:0:
457,180,177891,1,0,0:0:0:0:
499,231,177969,1,0,0:0:0:0:
320,64,178126,1,0,0:0:0:0:
478,295,178284,1,0,0:0:0:0:
384,48,178441,1,0,0:0:0:0:
430,341,178598,1,0,0:0:0:0:
448,80,178755,1,0,0:0:0:0:
368,384,178912,5,0,0:0:0:0:
64,256,179147,1,0,0:0:0:0:
336,128,179383,1,0,0:0:0:0:
320,384,179540,5,0,0:0:0:0:
64,208,179776,1,0,0:0:0:0:
336,80,180011,1,0,0:0:0:0:
272,384,180168,5,0,0:0:0:0:
64,160,180404,1,0,0:0:0:0:
336,32,180640,1,0,0:0:0:0:
224,384,180797,5,0,0:0:0:0:
336,0,181111,2,0,L|336:56,3,56.0999998287964
272,0,181425,5,0,0:0:0:0:
224,48,181503,1,0,0:0:0:0:
176,96,181582,1,0,0:0:0:0:
128,144,181661,1,0,0:0:0:0:
80,192,181739,1,0,0:0:0:0:
368,144,181896,5,0,0:0:0:0:
32,240,182053,1,0,0:0:0:0:
352,80,182210,1,0,0:0:0:0:
0,272,182367,1,0,0:0:0:0:
336,16,182524,1,0,0:0:0:0:
336,16,182603,1,0,0:0:0:0:
336,16,182681,1,0,0:0:0:0:
280,54,182760,5,0,0:0:0:0:
287,121,182839,1,0,0:0:0:0:
335,166,182917,1,0,0:0:0:0:
402,173,182996,1,0,0:0:0:0:
192,48,183153,1,0,0:0:0:0:
462,144,183310,1,0,0:0:0:0:
176,112,183467,1,0,0:0:0:0:
494,84,183624,1,0,0:0:0:0:
192,176,183781,1,0,0:0:0:0:
464,240,183938,5,0,0:0:0:0:
203,37,184174,1,0,0:0:0:0:
171,328,184409,1,0,0:0:0:0:
467,167,184566,5,0,0:0:0:0:
173,35,184802,1,0,0:0:0:0:
218,325,185037,1,0,0:0:0:0:
438,100,185195,5,0,0:0:0:0:
144,41,185431,1,0,0:0:0:0:
261,310,185666,1,0,0:0:0:0:
408,29,185823,5,0,0:0:0:0:
116,54,186059,1,0,0:0:0:0:
300,284,186294,1,0,0:0:0:0:
256,224,186451,5,0,0:0:0:0:
208,176,186530,1,0,0:0:0:0:
160,128,186608,1,0,0:0:0:0:
112,80,186687,1,0,0:0:0:0:
64,32,186765,1,0,0:0:0:0:
300,284,186922,5,0,0:0:0:0:
64,32,187079,1,0,0:0:0:0:
256,224,187236,1,0,0:0:0:0:
112,80,187393,1,0,0:0:0:0:
208,176,187551,1,0,0:0:0:0:
208,176,187629,1,0,0:0:0:0:
208,176,187708,1,0,0:0:0:0:
271,156,187786,5,0,0:0:0:0:
336,173,187865,1,0,0:0:0:0:
382,220,187943,1,0,0:0:0:0:
388,287,188022,1,0,0:0:0:0:
240,80,188179,1,0,0:0:0:0:
349,341,188336,1,0,0:0:0:0:
304,48,188493,1,0,0:0:0:0:
281,350,188650,1,0,0:0:0:0:
368,80,188807,1,0,0:0:0:0:
208,320,188964,5,0,0:0:0:0:
400,176,189200,1,0,0:0:0:0:
160,96,189435,1,0,0:0:0:0:
256,304,189592,5,0,0:0:0:0:
176,48,189828,1,0,0:0:0:0:
448,160,190064,1,0,0:0:0:0:
208,288,190221,5,0,0:0:0:0:
208,288,190299,1,0,0:0:0:0:
208,288,190378,1,0,0:0:0:0:
208,288,190456,1,0,0:0:0:0:
208,288,190535,1,0,0:0:0:0:
208,288,190613,1,0,0:0:0:0:
208,288,190692,1,0,0:0:0:0:
208,288,190770,1,0,0:0:0:0:
208,288,190849,2,0,L|224:304,7,19.5499993437195
256,256,191163,5,0,0:0:0:0:
288,224,191242,1,0,0:0:0:0:
320,192,191320,1,0,0:0:0:0:
352,160,191399,1,0,0:0:0:0:
384,128,191477,5,0,0:0:0:0:
96,128,192419,1,0,0:0:0:0:
384,128,192733,1,0,0:0:0:0:
64,128,193361,1,0,0:0:0:0:
288,256,193990,1,0,0:0:0:0:
288,256,194932,6,0,L|288:384,1,122.400002988281
288,384,195874,1,0,0:0:0:0:
224,352,196031,1,0,0:0:0:0:
192,288,196189,1,0,0:0:0:0:
192,224,196346,1,0,0:0:0:0:
224,160,196503,1,0,0:0:0:0:
224,160,197445,2,0,L|352:160,1,122.400002988281
352,160,198387,5,0,0:0:0:0:
352,160,199016,2,0,L|352:128,1,30.6000007470703
352,32,199330,1,0,0:0:0:0:
288,128,199644,1,0,0:0:0:0:
224,32,199958,1,0,0:0:0:0:
224,128,200272,2,0,L|224:160,1,30.6000007470703
224,160,200901,1,0,0:0:0:0:
448,288,201529,5,0,0:0:0:0:
160,288,202471,1,0,0:0:0:0:
448,288,202785,1,0,0:0:0:0:
448,288,203414,1,0,0:0:0:0:
448,288,204042,1,0,0:0:0:0:
96,224,204984,6,0,L|96:96,1,122.400002988281
128,288,205927,1,0,0:0:0:0:
192,256,206084,1,0,0:0:0:0:
224,320,206241,1,0,0:0:0:0:
160,352,206398,1,0,0:0:0:0:
128,288,206555,2,0,L|109:251,1,30.6000007470703
64,192,207497,6,0,L|160:96,1,122.400002988281
160,96,209068,1,0,0:0:0:0:
256,192,209147,12,0,211582,0:0:0:0:
