osu file format v14

[General]
AudioFilename: audio.mp3
AudioLeadIn: 0
PreviewTime: 60797
Countdown: 0
SampleSet: Drum
StackLeniency: 0.5
Mode: 0
LetterboxInBreaks: 0
WidescreenStoryboard: 1

[Editor]
Bookmarks: 192498
DistanceSpacing: 4.6
BeatDivisor: 4
GridSize: 16
TimelineZoom: 4.599999

[Metadata]
Title:AO-INFINITY
TitleUnicode:AO-∞
Artist:Seiryu
ArtistUnicode:青龍
Creator:Autist
Version:Limitless
Source:REFLEC BEAT plus
Tags:ryu* ao-∞ pack ryu☆ blue dragon exit tunes konami benami beatmania iidx 24 sinobuz dance speed qwce-90007 comiket 91 c91
BeatmapID:1604310
BeatmapSetID:746829

[Difficulty]
HPDrainRate:4.5
CircleSize:4
OverallDifficulty:9
ApproachRate:9.7
SliderMultiplier:1.6
SliderTickRate:1

[Events]
//Background and Video events
0,0,"universe.jpg",0,0
//Break Periods
2,101206,108050
//Storyboard Layer 0 (Background)
//Storyboard Layer 1 (Fail)
//Storyboard Layer 2 (Pass)
//Storyboard Layer 3 (Foreground)
//Storyboard Layer 4 (Overlay)
//Storyboard Sound Samples

[TimingPoints]
483,314.13612565445,4,3,1,20,1,0
483,-200,4,3,1,20,0,0
1111,-200,4,3,1,5,0,0
1425,-200,4,3,1,20,0,0
3624,-200,4,3,1,5,0,0
3676,-200,4,3,1,20,0,0
12106,-200,4,3,1,5,0,0
12420,-200,4,3,1,20,0,0
12734,-200,4,3,1,5,0,0
12786,-200,4,3,1,20,0,0
13362,-200,4,3,1,5,0,0
13414,-200,4,3,1,20,0,0
20587,-500,4,3,1,20,0,0
21215,-200,4,3,1,5,0,0
21530,-333.333333333333,4,3,1,20,0,0
22472,-250,4,3,1,20,0,0
24043,-250,4,3,1,20,0,0
31896,-200,4,3,1,20,0,0
32210,-161.290322580645,4,3,1,5,0,0
32263,-161.290322580645,4,3,1,20,0,0
32839,-161.290322580645,4,3,1,5,0,0
32891,-161.290322580645,4,3,1,20,0,0
33467,-161.290322580645,4,3,1,5,0,0
33545,-166.666666666667,4,3,1,20,0,0
39435,-142.857142857143,4,3,1,30,0,0
39592,-142.857142857143,4,3,1,5,0,0
39671,-142.857142857143,4,3,1,30,0,0
39828,-142.857142857143,4,3,1,5,0,0
39907,-142.857142857143,4,3,1,30,0,0
40064,-142.857142857143,4,3,1,35,0,0
40221,-142.857142857143,4,3,1,5,0,0
40299,-142.857142857143,4,3,1,35,0,0
40456,-142.857142857143,4,3,1,5,0,0
40535,-100,4,3,1,40,0,0
48624,-100,4,3,1,5,0,0
48702,-100,4,3,1,40,0,0
49252,-100,4,3,1,5,0,0
49331,-100,4,3,1,40,0,0
49880,-100,4,3,1,5,0,0
49959,-100,4,3,1,40,0,0
50744,-100,4,3,1,45,0,0
53257,-200,4,3,1,45,0,0
53414,-200,4,3,1,5,0,0
53493,-200,4,3,1,45,0,0
53729,-200,4,3,1,45,0,0
53807,-200,4,3,1,45,0,0
54043,-200,4,3,1,5,0,0
54121,-200,4,3,1,45,0,0
54357,-200,4,3,1,45,0,0
54514,-200,4,3,1,45,0,0
54671,-200,4,3,1,5,0,0
54750,-200,4,3,1,45,0,0
54985,-100,4,3,1,45,0,0
55142,-71.4285714285714,4,3,1,45,0,0
55770,-100,4,3,1,55,0,0
57027,-66.6666666666667,4,3,1,55,0,0
58284,-100,4,3,1,60,0,0
60561,-100,4,3,1,5,0,0
60797,-71.4285714285715,4,3,69,80,0,1
60875,-71.4285714285715,4,3,1,80,0,1
63467,-71.4285714285715,4,3,1,5,0,1
63572,-71.4285714285715,4,3,1,70,0,1
63729,-71.4285714285715,4,3,1,5,0,1
63781,-71.4285714285715,4,3,1,70,0,1
63938,-100,4,3,1,70,0,1
64095,-100,4,3,1,5,0,1
64174,-100,4,3,1,70,0,1
64331,-100,4,3,1,5,0,1
64409,-100,4,3,1,70,0,1
64723,-100,4,3,1,5,0,1
64828,-100,4,3,1,70,0,1
64985,-100,4,3,1,5,0,1
65037,-100,4,3,1,70,0,1
65195,-71.4285714285714,4,3,1,70,0,1
68336,-66.6666666666667,4,3,1,70,0,1
68493,-66.6666666666667,4,3,1,5,0,1
68545,-66.6666666666667,4,3,1,70,0,1
68729,-66.6666666666667,4,3,1,5,0,1
68807,-66.6666666666667,4,3,1,70,0,1
68964,-66.6666666666667,4,3,1,70,0,1
69121,-66.6666666666667,4,3,1,5,0,1
69200,-66.6666666666667,4,3,1,70,0,1
69357,-66.6666666666667,4,3,1,5,0,1
69435,-66.6666666666667,4,3,1,70,0,1
69750,-66.6666666666667,4,3,1,5,0,1
69854,-66.6666666666667,4,3,1,70,0,1
70011,-66.6666666666667,4,3,1,5,0,1
70064,-66.6666666666667,4,3,1,70,0,1
70378,-66.6666666666667,4,3,1,5,0,1
70535,-66.6666666666667,4,3,1,70,0,1
70770,-66.6666666666667,4,3,1,5,0,1
70849,-71.4285714285714,4,3,1,70,0,1
73519,-71.4285714285714,4,3,1,5,0,1
73624,-71.4285714285714,4,3,1,70,0,1
73781,-71.4285714285714,4,3,1,5,0,1
73833,-100,4,3,1,70,0,1
73990,-100,4,3,1,70,0,1
74147,-100,4,3,1,5,0,1
74226,-100,4,3,1,70,0,1
74409,-100,4,3,1,5,0,1
74462,-100,4,3,1,70,0,1
74566,-100,4,3,1,5,0,1
74619,-100,4,3,1,70,0,1
74776,-100,4,3,1,5,0,1
74854,-100,4,3,1,70,0,1
75037,-100,4,3,1,5,0,1
75090,-100,4,3,1,70,0,1
75195,-100,4,3,1,5,0,1
75247,-100,4,3,1,70,0,1
75404,-100,4,3,1,5,0,1
75482,-100,4,3,1,70,0,1
75640,-100,4,3,1,5,0,1
75718,-100,4,3,1,70,0,1
75875,-71.4285714285714,4,3,1,70,0,1
78545,-71.4285714285714,4,3,1,5,0,1
78624,-71.4285714285714,4,3,1,70,0,1
78781,-71.4285714285714,4,3,1,5,0,1
78859,-71.4285714285714,4,3,1,70,0,1
79174,-71.4285714285714,4,3,1,5,0,1
79252,-71.4285714285714,4,3,1,70,0,1
79409,-71.4285714285714,4,3,1,5,0,1
79488,-71.4285714285714,4,3,1,70,0,1
80587,-71.4285714285714,4,3,1,70,0,1
80901,-100,4,3,1,50,0,0
116085,-100,4,3,1,30,0,0
116713,-100,4,3,1,35,0,0
117341,-100,4,3,1,40,0,0
117969,-100,4,3,1,45,0,0
121111,-100,4,3,69,60,0,0
122053,-100,4,3,1,5,0,0
122158,-100,4,3,1,60,0,0
122263,-100,4,3,1,5,0,0
122367,-100,4,3,1,60,0,0
123310,-100,4,3,1,5,0,0
123414,-100,4,3,1,60,0,0
123519,-100,4,3,1,5,0,0
123624,-100,4,3,1,60,0,0
124566,-100,4,3,1,5,0,0
124671,-100,4,3,1,60,0,0
124776,-100,4,3,1,5,0,0
124880,-100,4,3,1,60,0,0
124985,-100,4,3,1,5,0,0
125090,-100,4,3,1,60,0,0
125195,-100,4,3,1,5,0,0
125299,-100,4,3,1,60,0,0
125404,-100,4,3,1,5,0,0
125509,-100,4,3,1,60,0,0
125613,-100,4,3,1,5,0,0
125718,-100,4,3,1,60,0,0
125823,-100,4,3,1,5,0,0
125928,-100,4,3,1,60,0,0
126032,-100,4,3,1,5,0,0
126137,-100,4,3,1,60,0,0
127079,-100,4,3,1,5,0,0
127184,-100,4,3,1,60,0,0
127289,-100,4,3,1,5,0,0
127341,-100,4,3,1,60,0,0
128336,-100,4,3,1,5,0,0
128441,-100,4,3,1,60,0,0
128545,-100,4,3,1,5,0,0
128598,-100,4,3,1,60,0,0
129592,-100,4,3,1,5,0,0
129697,-100,4,3,1,60,0,0
129802,-100,4,3,1,5,0,0
129907,-100,4,3,1,60,0,0
130011,-100,4,3,1,5,0,0
130116,-100,4,3,1,60,0,0
130221,-100,4,3,1,5,0,0
130325,-100,4,3,1,60,0,0
130430,-100,4,3,1,5,0,0
130535,-100,4,3,1,60,0,0
130640,-100,4,3,1,5,0,0
130744,-100,4,3,1,60,0,0
130849,-100,4,3,1,5,0,0
130954,-100,4,3,1,60,0,0
131058,-100,4,3,1,5,0,0
131163,-100,4,3,69,55,0,0
131477,-100,4,3,1,55,0,0
139435,-100,4,3,1,5,0,0
139540,-100,4,3,1,55,0,0
139645,-100,4,3,1,5,0,0
139750,-100,4,3,1,55,0,0
139854,-100,4,3,1,5,0,0
139959,-100,4,3,1,55,0,0
140064,-100,4,3,1,5,0,0
140168,-100,4,3,1,55,0,0
140273,-100,4,3,1,5,0,0
140378,-100,4,3,1,55,0,0
140482,-100,4,3,1,5,0,0
140587,-100,4,3,1,55,0,0
140692,-100,4,3,1,5,0,0
140797,-100,4,3,1,55,0,0
140901,-100,4,3,1,5,0,0
141006,-100,4,3,1,55,0,0
141111,-100,4,3,1,5,0,0
141215,-100,4,3,1,55,0,0
148755,-100,4,3,1,60,0,0
151268,-71.4285714285714,4,3,69,80,0,1
151425,-71.4285714285714,4,3,1,60,0,1
152210,-71.4285714285714,4,3,1,5,0,1
152263,-71.4285714285714,4,3,1,70,0,1
152420,-71.4285714285714,4,3,1,5,0,1
152472,-71.4285714285714,4,3,1,70,0,1
153153,-83.3333333333333,4,3,1,70,0,1
153467,-83.3333333333333,4,3,1,5,0,1
153572,-83.3333333333333,4,3,1,70,0,1
153676,-83.3333333333333,4,3,1,5,0,1
153781,-83.3333333333333,4,3,1,70,0,1
154514,-83.3333333333333,4,3,1,5,0,1
154619,-83.3333333333333,4,3,1,70,0,1
154723,-83.3333333333333,4,3,1,5,0,1
154828,-83.3333333333333,4,3,1,70,0,1
154933,-83.3333333333333,4,3,1,5,0,1
155037,-83.3333333333333,4,3,1,70,0,1
155142,-83.3333333333333,4,3,1,5,0,1
155247,-83.3333333333333,4,3,1,70,0,1
155352,-83.3333333333333,4,3,1,5,0,1
155456,-83.3333333333333,4,3,1,70,0,1
155561,-83.3333333333333,4,3,1,5,0,1
155666,-83.3333333333333,4,3,1,70,0,1
155770,-83.3333333333333,4,3,1,5,0,1
155875,-83.3333333333333,4,3,1,70,0,1
155980,-83.3333333333333,4,3,1,5,0,1
156085,-83.3333333333333,4,3,1,70,0,1
156189,-83.3333333333333,4,3,1,5,0,1
156294,-83.3333333333333,4,3,1,70,0,1
156608,-71.4285714285714,4,3,1,70,0,1
158179,-83.3333333333333,4,3,1,70,0,1
158493,-83.3333333333333,4,3,1,5,0,1
158598,-83.3333333333333,4,3,1,70,0,1
158702,-83.3333333333333,4,3,1,5,0,1
158807,-83.3333333333333,4,3,1,70,0,1
159540,-83.3333333333333,4,3,1,5,0,1
159645,-83.3333333333333,4,3,1,70,0,1
159750,-83.3333333333333,4,3,1,5,0,1
159854,-83.3333333333333,4,3,1,70,0,1
159959,-83.3333333333333,4,3,1,5,0,1
160064,-83.3333333333333,4,3,1,70,0,1
160168,-83.3333333333333,4,3,1,5,0,1
160273,-83.3333333333333,4,3,1,70,0,1
160378,-83.3333333333333,4,3,1,5,0,1
160482,-83.3333333333333,4,3,1,70,0,1
160587,-83.3333333333333,4,3,1,5,0,1
160692,-83.3333333333333,4,3,1,70,0,1
160797,-83.3333333333333,4,3,1,5,0,1
160901,-83.3333333333333,4,3,1,70,0,1
161006,-83.3333333333333,4,3,1,5,0,1
161111,-83.3333333333333,4,3,1,70,0,1
161215,-83.3333333333333,4,3,1,5,0,1
161320,-83.3333333333333,4,3,1,70,0,1
161948,-71.4285714285714,4,3,1,70,0,1
163205,-83.3333333333333,4,3,1,70,0,1
163519,-83.3333333333333,4,3,1,5,0,1
163624,-83.3333333333333,4,3,1,70,0,1
163729,-83.3333333333333,4,3,1,5,0,1
163833,-83.3333333333333,4,3,1,70,0,1
164566,-83.3333333333333,4,3,1,5,0,1
164671,-83.3333333333333,4,3,1,70,0,1
164776,-83.3333333333333,4,3,1,5,0,1
164880,-83.3333333333333,4,3,1,70,0,1
164985,-83.3333333333333,4,3,1,5,0,1
165090,-83.3333333333333,4,3,1,70,0,1
165195,-83.3333333333333,4,3,1,5,0,1
165299,-83.3333333333333,4,3,1,70,0,1
165404,-83.3333333333333,4,3,1,5,0,1
165509,-83.3333333333333,4,3,1,70,0,1
165613,-83.3333333333333,4,3,1,5,0,1
165718,-83.3333333333333,4,3,1,70,0,1
165823,-83.3333333333333,4,3,1,5,0,1
165928,-83.3333333333333,4,3,1,70,0,1
166032,-83.3333333333333,4,3,1,5,0,1
166137,-83.3333333333333,4,3,1,70,0,1
166242,-83.3333333333333,4,3,1,5,0,1
166346,-100,4,3,1,60,0,0
167289,-100,4,3,1,5,0,0
167393,-100,4,3,1,60,0,0
167498,-100,4,3,1,5,0,0
167603,-100,4,3,1,60,0,0
168545,-100,4,3,1,5,0,0
168650,-100,4,3,1,60,0,0
168755,-100,4,3,1,5,0,0
168859,-100,4,3,1,60,0,0
169488,-100,4,3,1,61,0,0
169592,-100,4,3,1,5,0,0
169697,-100,4,3,1,62,0,0
169697,-100,4,3,1,62,0,0
169802,-100,4,3,1,5,0,0
169907,-100,4,3,1,63,0,0
170011,-100,4,3,1,5,0,0
170116,-100,4,3,1,64,0,0
170325,-100,4,3,1,65,0,0
170535,-100,4,3,1,66,0,0
170744,-100,4,3,1,67,0,0
170954,-100,4,3,1,68,0,0
171163,-100,4,3,1,69,0,0
171373,-71.4285714285714,4,3,1,70,0,1
189121,-71.4285714285714,4,3,1,5,0,1
189174,-71.4285714285714,4,3,1,70,0,1
189331,-71.4285714285714,4,3,1,5,0,1
189435,-71.4285714285714,4,3,1,70,0,1
189750,-71.4285714285714,4,3,1,5,0,1
189802,-71.4285714285714,4,3,1,70,0,1
189959,-71.4285714285714,4,3,1,5,0,1
190064,-71.4285714285714,4,3,1,70,0,1
190221,-200,4,3,1,70,0,1
190535,-71.4285714285714,4,3,1,5,0,1
190849,-71.4285714285714,4,3,1,70,0,1
191477,-250,4,3,1,70,0,0
194579,-250,4,3,1,5,0,0
194933,-294.117647058824,4,3,1,20,0,0
198388,-294.117647058824,4,3,1,70,0,0
199017,-294.117647058824,4,3,1,50,0,0
201530,-294.117647058824,4,3,1,50,0,0
201844,-133.333333333333,4,3,1,5,0,0
202472,-294.117647058824,4,3,1,40,0,0
203100,-133.333333333333,4,3,1,5,0,0
203414,-294.117647058824,4,3,1,30,0,0
203729,-133.333333333333,4,3,1,5,0,0
204043,-294.117647058824,4,3,1,25,0,0
204357,-133.333333333333,4,3,1,5,0,0
207812,-294.117647058824,4,3,1,15,0,0
208126,-294.117647058824,4,3,1,5,0,0

[Colours]
Combo1 : 192,192,192
Combo2 : 0,255,255

[HitObjects]
287,253,20587,6,0,P|321:243|344:218,1,64
337,107,21530,6,0,P|311:115|288:132,1,47.9999985351563
185,216,22472,6,0,P|204:295|237:329,1,128
336,120,24043,6,0,L|352:186,1,64
376,280,24985,5,0,0:0:0:0:
364,220,25142,1,0,0:0:0:0:
316,184,25299,1,0,0:0:0:0:
256,184,25456,1,0,0:0:0:0:
274,282,25613,1,0,0:0:0:0:
274,282,26556,5,0,0:0:0:0:
138,165,26870,1,0,0:0:0:0:
358,98,27498,5,0,0:0:0:0:
104,160,28126,5,0,0:0:0:0:
152,272,28441,1,0,0:0:0:0:
264,224,28755,1,0,0:0:0:0:
216,112,29069,1,0,0:0:0:0:
186,193,29383,5,0,0:0:0:0:
472,336,30011,5,0,0:0:0:0:
512,32,30640,5,0,0:0:0:0:
472,336,31582,5,0,0:0:0:0:
512,32,31896,6,0,L|430:68,1,80
255,140,32524,2,0,L|345:182,1,99.1999960644533
508,254,33153,2,0,L|418:296,1,99.1999960644533
418,296,34095,5,0,0:0:0:0:
291,353,34409,1,0,0:0:0:0:
308,215,34723,1,0,0:0:0:0:
188,119,35037,5,0,0:0:0:0:
200,179,35194,1,0,0:0:0:0:
248,215,35351,1,0,0:0:0:0:
308,215,35508,1,0,0:0:0:0:
290,117,35665,1,0,0:0:0:0:
96,148,36608,6,0,B|146:143|136:175|204:163,1,95.9999970703126
366,63,37551,5,0,0:0:0:0:
256,192,38179,5,4,0:0:0:0:
64,280,39435,6,0,L|48:224,1,55.9999982910157
160,176,39671,2,0,L|105:162,1,55.9999982910157
176,288,39907,1,0,0:0:0:0:
250,246,40064,6,0,L|264:192,1,55.9999982910157
314,303,40299,2,0,L|368:288,1,55.9999982910157
376,176,40535,1,0,0:0:0:0:
416,72,40692,5,2,0:0:0:0:
456,96,40770,1,0,0:0:0:0:
480,136,40849,1,0,0:0:0:0:
480,184,40928,1,0,0:0:0:0:
456,224,41006,5,0,0:0:0:0:
402,156,41163,1,0,0:0:0:0:
360,304,41320,1,0,0:0:0:0:
288,114,41477,1,0,0:0:0:0:
226,261,41634,1,0,0:0:0:0:
169,77,41791,5,0,0:0:0:0:
169,77,41870,1,0,0:0:0:0:
169,77,41948,1,0,0:0:0:0:
159,106,42027,1,0,0:0:0:0:
151,138,42106,1,0,0:0:0:0:
143,170,42184,1,0,0:0:0:0:
135,202,42263,6,0,L|103:315,1,80
240,208,42577,5,0,0:0:0:0:
304,352,42734,1,0,0:0:0:0:
367,205,42891,1,0,0:0:0:0:
236,297,43048,1,0,0:0:0:0:
80,268,43205,6,0,P|62:212|80:156,2,120
207,215,43833,1,0,0:0:0:0:
251,27,44069,1,0,0:0:0:0:
308,209,44304,1,0,0:0:0:0:
458,263,44462,6,0,P|476:207|458:151,2,120
308,175,45090,1,0,0:0:0:0:
251,357,45326,1,0,0:0:0:0:
207,169,45561,1,0,0:0:0:0:
248,32,45718,5,0,0:0:0:0:
208,33,45797,1,0,0:0:0:0:
171,48,45875,1,0,0:0:0:0:
142,75,45954,1,0,0:0:0:0:
124,110,46032,5,0,0:0:0:0:
344,128,46189,1,0,0:0:0:0:
130,240,46346,5,0,2:0:0:0:
338,320,46503,1,0,2:0:0:0:
224,136,46661,1,0,2:0:0:0:
58,214,46818,5,0,0:0:0:0:
58,214,46896,1,0,0:0:0:0:
58,214,46975,1,0,0:0:0:0:
75,178,47053,1,0,0:0:0:0:
105,152,47132,1,0,0:0:0:0:
144,146,47210,1,0,0:0:0:0:
181,159,47289,5,0,0:0:0:0:
262,305,47446,1,0,0:0:0:0:
312,120,47603,5,0,0:0:0:0:
394,293,47760,1,0,0:0:0:0:
411,125,47917,1,0,0:0:0:0:
308,209,48074,1,0,0:0:0:0:
248,163,48231,5,0,0:0:0:0:
104,224,48467,2,0,B|64:243|24:232,1,80
9,228,48702,1,0,0:0:0:0:
167,140,48859,1,0,0:0:0:0:
0,16,49095,2,0,B|46:30|70:66,1,80
73,72,49331,1,0,0:0:0:0:
251,209,49488,5,0,0:0:0:0:
339,285,49723,2,0,P|363:253|367:214,1,80
365,200,49959,1,0,0:0:0:0:
387,54,50116,1,0,0:0:0:0:
280,74,50273,1,0,0:0:0:0:
280,74,50351,1,0,0:0:0:0:
280,74,50430,2,0,L|272:120,3,40
264,160,50744,5,0,0:0:0:0:
256,200,50823,1,0,0:0:0:0:
248,240,50901,1,0,0:0:0:0:
240,280,50980,1,0,0:0:0:0:
232,320,51058,5,0,0:0:0:0:
341,172,51215,1,0,0:0:0:0:
290,366,51373,5,0,0:0:0:0:
191,192,51530,2,0,L|231:288,1,80
351,63,51844,1,0,0:0:0:0:
351,63,51922,1,0,0:0:0:0:
351,63,52001,1,0,0:0:0:0:
375,94,52079,1,0,0:0:0:0:
390,131,52158,1,0,0:0:0:0:
389,170,52236,1,0,0:0:0:0:
380,209,52315,5,0,0:0:0:0:
320,344,52472,1,0,0:0:0:0:
307,147,52629,1,0,0:0:0:0:
103,195,52786,1,0,0:0:0:0:
215,70,52943,5,0,0:0:0:0:
88,232,53100,1,0,0:0:0:0:
88,232,53257,6,0,L|104:195,1,40
155,87,53493,1,0,0:0:0:0:
155,87,53572,6,0,L|138:123,1,40
32,172,53886,6,0,L|69:158,1,40
182,116,54122,1,0,0:0:0:0:
182,116,54201,6,0,L|145:130,1,40
35,90,54514,6,0,L|72:106,1,40
180,157,54750,1,0,0:0:0:0:
180,157,54829,6,0,L|144:141,1,40
112,48,55142,5,0,0:0:0:0:
72,72,55220,1,0,0:0:0:0:
56,104,55299,1,0,0:0:0:0:
56,136,55377,1,0,0:0:0:0:
72,160,55456,2,0,P|90:179|125:193,3,55.9999982910157
250,234,55770,6,0,P|266:222|284:215,1,40
354,124,55928,2,0,P|337:135|319:142,1,40
208,152,56085,1,0,0:0:0:0:
176,128,56163,1,0,0:0:0:0:
136,112,56242,1,0,0:0:0:0:
96,112,56320,1,0,0:0:0:0:
56,128,56399,1,0,0:0:0:0:
32,160,56477,1,0,0:0:0:0:
24,200,56556,1,0,0:0:0:0:
41,235,56634,1,0,0:0:0:0:
72,260,56713,1,0,0:0:0:0:
111,263,56791,1,0,0:0:0:0:
149,251,56870,1,0,0:0:0:0:
188,255,56948,1,0,0:0:0:0:
229,261,57027,2,0,P|257:252|282:235,1,60.0000022888184
427,184,57184,2,0,P|395:165|366:158,1,60.0000022888184
228,141,57341,5,0,0:0:0:0:
189,187,57419,1,0,0:0:0:0:
178,245,57498,1,0,0:0:0:0:
198,287,57576,1,0,0:0:0:0:
254,268,57655,1,0,0:0:0:0:
311,284,57734,1,0,0:0:0:0:
366,308,57812,1,0,0:0:0:0:
424,299,57890,1,0,0:0:0:0:
468,259,57969,1,0,0:0:0:0:
482,201,58047,1,0,0:0:0:0:
461,146,58126,1,0,0:0:0:0:
424,99,58205,1,0,0:0:0:0:
380,140,58284,6,0,L|394:153,1,20
339,180,58363,2,0,L|348:197,1,20
289,200,58441,2,0,L|291:219,1,20
236,191,58519,2,0,L|244:173,1,20
185,164,58597,2,0,L|195:147,1,20
139,121,58676,2,0,L|151:105,1,20
119,52,58755,6,0,L|99:57,1,20
75,88,58833,2,0,L|59:100,1,20
57,146,58912,2,0,L|45:162,1,20
53,212,58990,2,0,L|45:231,1,20
85,274,59069,2,0,L|85:293,1,20
144,316,59147,2,0,L|149:335,1,20
221,330,59226,2,0,L|231:347,1,20
304,321,59305,2,0,L|320:332,1,20
382,279,59383,2,0,L|400:286,1,20
442,212,59462,2,0,L|461:211,1,20
464,124,59540,5,8,0:0:0:0:
280,323,59854,5,8,0:0:0:0:
280,323,60168,5,8,0:0:0:0:
342,116,60325,1,8,0:0:0:0:
432,336,60482,2,2,L|456:368,1,40,4|0,0:0|0:0,0:0:0:0:
432,336,60797,5,6,0:0:0:0:
467,292,60875,1,0,0:0:0:0:
480,238,60954,1,0,0:0:0:0:
468,184,61032,1,0,0:0:0:0:
440,136,61111,5,2,0:0:0:0:
130,187,61268,1,0,0:0:0:0:
397,3,61425,1,2,0:0:0:0:
85,39,61582,1,0,0:0:0:0:
339,221,61739,5,2,0:0:0:0:
40,328,61896,1,0,0:0:0:0:
40,328,61975,1,0,0:0:0:0:
40,328,62053,1,2,0:0:0:0:
73,301,62132,1,0,0:0:0:0:
112,269,62210,1,0,0:0:0:0:
150,243,62289,1,0,0:0:0:0:
188,218,62367,5,2,0:0:0:0:
456,32,62524,1,0,0:0:0:0:
128,32,62681,1,2,0:0:0:0:
416,192,62839,1,0,0:0:0:0:
104,176,62996,1,2,0:0:0:0:
408,96,63153,1,0,0:0:0:0:
184,328,63310,6,0,B|115:339|66:265,1,111.999996582031,6|0,0:0|0:0,0:0:0:0:
104,176,63572,2,0,P|143:217|201:220,1,111.999996582031
272,200,63781,1,0,0:0:0:0:
384,136,63938,6,0,B|463:146,1,80,2|0,0:0|0:0,0:0:0:0:
352,40,64174,2,0,B|272:46,1,80
189,53,64409,1,0,0:0:0:0:
309,226,64566,6,0,P|304:280|272:315,1,80,2|0,0:0|0:0,0:0:0:0:
197,298,64828,2,0,P|186:258|198:214,1,80
256,160,65037,1,0,0:0:0:0:
112,32,65195,5,2,0:0:0:0:
72,56,65273,1,0,0:0:0:0:
56,88,65352,1,0,0:0:0:0:
56,120,65430,1,0,0:0:0:0:
72,144,65509,2,2,P|104:152|120:176,3,55.9999982910157
48,176,65823,5,6,0:0:0:0:
24,224,65901,1,0,0:0:0:0:
24,280,65980,1,0,0:0:0:0:
48,328,66058,1,0,0:0:0:0:
96,352,66137,5,2,0:0:0:0:
376,168,66294,1,0,0:0:0:0:
40,88,66451,1,2,0:0:0:0:
240,360,66608,1,0,0:0:0:0:
232,24,66765,1,2,0:0:0:0:
40,296,66922,5,0,0:0:0:0:
40,296,67001,1,0,0:0:0:0:
40,296,67079,1,2,0:0:0:0:
48,240,67158,1,0,0:0:0:0:
88,198,67236,1,0,0:0:0:0:
144,183,67315,1,0,0:0:0:0:
199,198,67393,5,2,0:0:0:0:
480,340,67551,1,0,0:0:0:0:
350,66,67708,1,2,0:0:0:0:
146,293,67865,1,0,0:0:0:0:
249,44,68022,5,2,0:0:0:0:
368,298,68179,1,0,0:0:0:0:
118,128,68336,6,0,P|83:175|87:233,1,120.000004577637,6|0,0:0|0:0,0:0:0:0:
128,296,68572,2,0,B|192:320|242:283,1,120.000004577637
246,169,68807,1,0,0:0:0:0:
354,324,68964,6,0,P|411:268|417:225,1,120.000004577637,2|0,0:0|0:0,0:0:0:0:
246,169,69200,2,0,P|222:223|235:281,1,120.000004577637
336,136,69435,1,0,0:0:0:0:
464,128,69592,6,0,P|429:79|378:49,1,120.000004577637,2|0,0:0|0:0,0:0:0:0:
417,231,69854,2,0,B|363:252|299:228,1,120.000004577637
192,152,70064,1,0,0:0:0:0:
158,60,70221,2,0,P|101:116|112:208,1,120.000004577637,12|0,0:0|0:0,0:0:0:0:
209,180,70535,2,0,P|193:117|205:181,1,180.000006866455,12|0,0:0|0:0,0:0:0:0:
224,208,70849,5,6,0:0:0:0:
272,232,70928,1,0,0:0:0:0:
320,256,71006,1,0,0:0:0:0:
368,280,71085,1,0,0:0:0:0:
416,304,71163,5,2,0:0:0:0:
104,320,71320,1,0,0:0:0:0:
216,24,71477,1,2,0:0:0:0:
411,191,71634,1,0,0:0:0:0:
265,295,71791,5,2,0:0:0:0:
168,144,71948,1,0,0:0:0:0:
168,144,72027,1,0,0:0:0:0:
168,144,72106,1,2,0:0:0:0:
216,120,72184,1,0,0:0:0:0:
272,112,72263,1,0,0:0:0:0:
328,120,72341,1,0,0:0:0:0:
376,144,72420,5,2,0:0:0:0:
94,217,72577,1,0,0:0:0:0:
269,44,72734,1,2,0:0:0:0:
219,289,72891,1,0,0:0:0:0:
119,73,73048,1,2,0:0:0:0:
324,187,73205,1,0,0:0:0:0:
72,336,73362,6,0,P|130:351|200:336,1,111.999996582031,2|0,0:0|0:0,0:0:0:0:
256,288,73624,2,0,P|204:259|144:256,1,111.999996582031
68,261,73833,1,0,0:0:0:0:
223,175,73990,6,0,B|244:141|289:134,1,80,2|0,0:0|0:0,0:0:0:0:
411,220,74252,2,0,B|371:228|331:206,1,80
289,134,74462,1,0,0:0:0:0:
159,241,74619,6,0,P|134:272|100:292,1,80,2|0,0:0|0:0,0:0:0:0:
0,238,74880,2,0,P|24:206|58:186,1,80
141,161,75090,1,0,0:0:0:0:
30,53,75247,6,0,P|63:31|102:25,1,80,2|0,0:0|0:0,0:0:0:0:
196,75,75482,2,0,P|228:97|267:108,1,80
375,108,75718,1,0,0:0:0:0:
386,264,75875,5,6,0:0:0:0:
357,307,75954,1,0,0:0:0:0:
312,335,76032,1,0,0:0:0:0:
255,332,76111,1,0,0:0:0:0:
205,312,76189,5,2,0:0:0:0:
64,147,76346,1,0,0:0:0:0:
310,135,76503,1,2,0:0:0:0:
94,257,76661,1,0,0:0:0:0:
205,37,76818,5,2,0:0:0:0:
287,255,76975,1,0,0:0:0:0:
287,255,77053,1,0,0:0:0:0:
287,255,77132,1,2,0:0:0:0:
336,232,77210,1,0,0:0:0:0:
368,184,77289,1,0,0:0:0:0:
384,128,77367,1,0,0:0:0:0:
368,72,77446,5,2,0:0:0:0:
64,151,77603,1,0,0:0:0:0:
306,34,77760,1,2,0:0:0:0:
147,264,77917,1,0,0:0:0:0:
153,28,78074,5,2,0:0:0:0:
287,255,78231,1,0,0:0:0:0:
72,128,78388,6,0,P|24:156|-8:208,1,111.999996582031,2|0,0:0|0:0,0:0:0:0:
105,242,78624,2,0,B|159:265|176:324,1,111.999996582031
284,289,78859,1,0,0:0:0:0:
284,289,79017,6,0,P|339:269|360:213,1,111.999996582031,2|0,0:0|0:0,0:0:0:0:
416,16,79252,2,0,B|384:64|304:96,1,111.999996582031
217,112,79488,1,0,0:0:0:0:
104,184,79645,6,0,B|160:216|224:175|224:175|253:170|297:161|326:81|275:16|204:8|142:35|113:98|148:182|224:175|224:175|314:155|309:213|377:197,1,671.999979492188,6|2,0:0|0:0,0:0:0:0:
396,192,80666,1,0,0:0:0:0:
434,169,80744,2,0,P|459:132|451:88,1,55.9999982910157,2|2,0:0|0:0,0:0:0:0:
299,70,80901,5,6,0:0:0:0:
288,87,80979,1,0,0:0:0:0:
278,104,81058,1,0,0:0:0:0:
267,121,81136,1,0,0:0:0:0:
256,137,81215,1,2,0:0:0:0:
245,154,81294,1,0,0:0:0:0:
234,171,81373,1,0,0:0:0:0:
223,187,81451,1,0,0:0:0:0:
214,205,81530,1,2,0:0:0:0:
250,200,81608,1,0,0:0:0:0:
285,204,81687,1,0,0:0:0:0:
318,219,81765,1,0,0:0:0:0:
351,234,81844,1,2,0:0:0:0:
386,231,81922,1,0,0:0:0:0:
420,219,82001,1,0,0:0:0:0:
448,197,82079,1,0,0:0:0:0:
464,164,82158,6,0,P|459:144|448:128,1,40,2|0,0:0|0:0,0:0:0:0:
438,19,82315,2,0,P|418:23|402:34,1,40
293,36,82472,2,0,P|298:56|309:72,1,40,2|0,0:0|0:0,0:0:0:0:
319,181,82629,2,0,P|338:176|354:165,1,40
146,123,82786,5,2,0:0:0:0:
170,149,82864,1,0,0:0:0:0:
177,184,82943,1,0,0:0:0:0:
165,218,83021,1,0,0:0:0:0:
145,247,83100,1,2,0:0:0:0:
133,280,83178,1,0,0:0:0:0:
140,315,83257,1,0,0:0:0:0:
164,341,83335,1,0,0:0:0:0:
204,340,83414,6,0,P|220:304|218:271,1,40,2|0,0:0|0:0,0:0:0:0:
408,105,83572,2,0,P|424:141|422:174,1,40
425,310,83729,1,2,0:0:0:0:
393,292,83807,1,0,0:0:0:0:
369,265,83886,1,0,0:0:0:0:
355,233,83964,1,0,0:0:0:0:
358,196,84043,2,0,P|364:158|380:130,1,40,2|0,0:0|0:0,0:0:0:0:
462,62,84200,2,0,P|479:101|477:134,1,40
282,234,84357,5,2,0:0:0:0:
282,234,84435,1,0,0:0:0:0:
282,234,84514,2,0,L|329:222,1,40
318,42,84672,2,0,L|289:-1,1,40,2|0,0:0|0:0,0:0:0:0:
123,126,84829,2,0,L|84:132,1,40
273,267,84985,2,0,L|306:297,1,40,2|0,0:0|0:0,0:0:0:0:
280,40,85142,2,0,L|286:-4,1,40
143,216,85299,6,0,L|126:252,1,40,2|0,0:0|0:0,0:0:0:0:
344,170,85456,2,0,L|388:160,1,40
161,37,85613,2,0,L|127:7,1,40,2|0,0:0|0:0,0:0:0:0:
264,226,85770,1,0,0:0:0:0:
264,226,85849,1,0,0:0:0:0:
264,226,85928,6,0,P|285:248|325:268,3,40,2|0|0|0,0:0|0:0|0:0|0:0,0:0:0:0:
365,273,86242,1,2,0:0:0:0:
399,263,86320,1,0,0:0:0:0:
425,238,86399,1,0,0:0:0:0:
436,204,86477,1,0,0:0:0:0:
430,169,86556,1,2,0:0:0:0:
417,135,86634,1,0,0:0:0:0:
394,106,86713,2,0,P|373:86|347:75,1,40
293,168,86870,6,0,L|281:206,1,40,2|0,0:0|0:0,0:0:0:0:
121,249,87027,2,0,L|134:212,1,40
218,101,87184,5,2,0:0:0:0:
218,101,87263,1,0,0:0:0:0:
218,101,87341,1,0,0:0:0:0:
208,135,87420,1,0,0:0:0:0:
209,171,87498,1,2,0:0:0:0:
221,199,87576,1,0,0:0:0:0:
255,188,87655,1,0,0:0:0:0:
291,188,87733,1,0,0:0:0:0:
325,198,87812,1,2,0:0:0:0:
359,210,87890,1,0,0:0:0:0:
395,215,87969,1,0,0:0:0:0:
428,203,88047,1,0,0:0:0:0:
454,178,88126,1,2,0:0:0:0:
472,147,88204,1,0,0:0:0:0:
477,111,88283,1,0,0:0:0:0:
470,76,88362,1,0,0:0:0:0:
449,48,88441,6,0,P|422:26|386:22,3,40,2|0|0|0,0:0|0:0|0:0|0:0,0:0:0:0:
322,164,88755,2,0,P|295:186|259:190,3,40,2|0|0|0,0:0|0:0|0:0|0:0,0:0:0:0:
115,157,89068,1,2,0:0:0:0:
132,126,89147,1,0,0:0:0:0:
158,102,89225,1,0,0:0:0:0:
191,87,89304,1,0,0:0:0:0:
226,76,89382,1,2,0:0:0:0:
262,77,89461,1,0,0:0:0:0:
293,85,89540,6,0,P|318:76|346:77,1,40
467,163,89697,2,0,P|461:189|447:213,1,40,2|0,0:0|0:0,0:0:0:0:
313,274,89854,2,0,P|292:256|279:231,1,40
308,66,90011,6,0,P|335:64|361:72,1,40,2|0,0:0|0:0,0:0:0:0:
470,199,90168,2,0,P|458:223|438:242,1,40
275,284,90325,2,0,P|259:261|253:234,1,40,2|0,0:0|0:0,0:0:0:0:
120,112,90482,1,8,0:0:0:0:
40,128,90561,1,8,0:0:0:0:
8,200,90640,1,8,0:0:0:0:
40,272,90718,1,8,0:0:0:0:
120,288,90797,1,8,0:0:0:0:
184,240,90875,1,8,0:0:0:0:
222,169,90954,5,6,0:0:0:0:
250,141,91032,1,0,0:0:0:0:
287,127,91111,1,0,0:0:0:0:
326,122,91189,1,0,0:0:0:0:
366,129,91268,1,2,0:0:0:0:
402,145,91346,1,0,0:0:0:0:
428,175,91425,1,0,0:0:0:0:
439,213,91503,1,0,0:0:0:0:
434,252,91582,1,2,0:0:0:0:
403,277,91661,1,0,0:0:0:0:
367,295,91739,1,0,0:0:0:0:
327,295,91818,1,0,0:0:0:0:
291,276,91896,1,2,0:0:0:0:
268,242,91975,1,0,0:0:0:0:
263,202,92053,1,0,0:0:0:0:
247,164,92132,1,0,0:0:0:0:
231,127,92210,5,2,0:0:0:0:
196,107,92289,1,0,0:0:0:0:
158,98,92367,1,0,0:0:0:0:
120,106,92446,1,0,0:0:0:0:
89,129,92524,1,2,0:0:0:0:
74,164,92603,1,0,0:0:0:0:
112,168,92681,1,0,0:0:0:0:
134,140,92760,1,0,0:0:0:0:
145,106,92839,1,2,0:0:0:0:
141,70,92917,1,0,0:0:0:0:
123,39,92996,1,0,0:0:0:0:
89,25,93074,1,0,0:0:0:0:
108,56,93153,1,2,0:0:0:0:
125,85,93231,1,0,0:0:0:0:
141,116,93310,1,0,0:0:0:0:
158,145,93388,1,0,0:0:0:0:
178,179,93467,6,0,L|199:211,3,40,2|0|0|0,0:0|0:0|0:0|0:0,0:0:0:0:
265,330,93781,2,0,P|245:326|226:332,3,40,2|0|0|0,0:0|0:0|0:0|0:0,0:0:0:0:
317,191,94095,1,2,0:0:0:0:
340,161,94173,1,0,0:0:0:0:
377,150,94252,1,0,0:0:0:0:
412,163,94330,1,0,0:0:0:0:
440,192,94409,2,0,L|472:232,1,40,2|0,0:0|0:0,0:0:0:0:
360,60,94566,2,0,L|340:97,1,40
284,192,94723,5,2,0:0:0:0:
266,226,94801,1,0,0:0:0:0:
235,246,94880,1,0,0:0:0:0:
196,249,94958,1,0,0:0:0:0:
163,232,95037,1,2,0:0:0:0:
141,201,95116,1,0,0:0:0:0:
139,161,95194,1,0,0:0:0:0:
157,125,95273,1,0,0:0:0:0:
189,100,95352,2,0,P|209:88|231:83,3,40,2|0|0|0,0:0|0:0|0:0|0:0,0:0:0:0:
228,215,95666,5,2,0:0:0:0:
234,238,95744,1,0,0:0:0:0:
241,261,95823,1,0,0:0:0:0:
248,285,95901,1,0,0:0:0:0:
255,308,95980,1,6,0:0:0:0:
293,296,96058,1,0,0:0:0:0:
333,293,96137,1,0,0:0:0:0:
372,299,96215,1,0,0:0:0:0:
408,303,96294,1,2,0:0:0:0:
437,276,96372,1,0,0:0:0:0:
461,244,96451,1,0,0:0:0:0:
468,205,96529,1,0,0:0:0:0:
455,167,96608,1,2,0:0:0:0:
448,128,96686,1,0,0:0:0:0:
466,93,96765,1,0,0:0:0:0:
451,56,96844,1,0,0:0:0:0:
424,26,96922,6,0,P|397:10|351:9,3,40,2|0|0|0,0:0|0:0|0:0|0:0,0:0:0:0:
307,77,97236,1,2,0:0:0:0:
281,107,97314,1,0,0:0:0:0:
246,126,97393,1,0,0:0:0:0:
206,127,97471,1,0,0:0:0:0:
168,116,97551,6,0,L|135:87,1,40,2|0,0:0|0:0,0:0:0:0:
36,224,97708,2,0,L|66:197,1,40
273,246,97865,6,0,L|303:272,1,40,2|0,0:0|0:0,0:0:0:0:
143,352,98022,2,0,L|173:325,1,40
273,246,98179,5,2,0:0:0:0:
289,210,98257,1,0,0:0:0:0:
287,170,98336,1,0,0:0:0:0:
268,135,98414,1,0,0:0:0:0:
243,103,98493,6,0,P|226:87|205:78,3,40,2|0|0|0,0:0|0:0|0:0|0:0,0:0:0:0:
81,177,98807,6,2,P|64:188|44:192,3,40,0|0|0|0,0:0|0:0|0:0|0:0,0:0:0:0:
176,178,99121,6,0,P|195:184|212:193,3,40,2|0|0|0,0:0|0:0|0:0|0:0,0:0:0:0:
126,310,99435,6,0,P|143:300|162:294,3,40,2|0|0|0,0:0|0:0|0:0|0:0,0:0:0:0:
355,242,99750,6,0,P|338:252|319:258,4,40,6|0|0|0|0,0:0|0:0|0:0|0:0|0:0,0:0:0:0:
464,168,100221,6,0,P|481:178|500:184,2,40,6|0|0,0:0|0:0|0:0,0:0:0:0:
408,110,100456,1,0,0:0:0:0:
352,150,100535,2,2,L|350:126,1,20
288,142,100613,2,2,L|289:170,1,20
240,166,100691,1,2,0:0:0:0:
192,158,100770,1,2,0:0:0:0:
160,182,100849,1,2,0:0:0:0:
128,174,100927,1,2,0:0:0:0:
104,190,101006,5,6,0:0:0:0:
256,192,108545,12,0,109802,0:0:0:0:
84,115,110430,5,8,0:0:0:0:
142,62,110509,1,8,0:0:0:0:
218,70,110587,1,8,0:0:0:0:
271,123,110666,1,8,0:0:0:0:
331,169,110744,1,8,0:0:0:0:
407,146,110823,1,8,0:0:0:0:
423,70,110901,1,8,0:0:0:0:
362,24,110980,1,8,0:0:0:0:
293,55,111058,5,12,0:0:0:0:
362,24,111373,1,8,0:0:0:0:
423,70,111687,1,8,0:0:0:0:
407,146,112001,1,8,0:0:0:0:
331,169,112315,5,12,0:0:0:0:
271,123,112629,1,8,0:0:0:0:
218,70,112943,1,8,0:0:0:0:
142,62,113257,1,8,0:0:0:0:
84,115,113572,5,12,0:0:0:0:
112,184,113886,1,8,0:0:0:0:
192,216,114200,1,8,0:0:0:0:
176,136,114514,1,8,0:0:0:0:
248,104,114828,5,8,0:0:0:0:
312,152,115142,1,8,0:0:0:0:
280,224,115456,1,8,0:0:0:0:
232,160,115770,1,8,0:0:0:0:
176,96,115928,5,8,0:0:0:0:
195,61,116006,1,8,0:0:0:0:
233,50,116085,1,8,0:0:0:0:
271,59,116163,1,8,0:0:0:0:
304,81,116242,1,8,0:0:0:0:
313,119,116320,1,8,0:0:0:0:
339,149,116399,1,8,0:0:0:0:
374,166,116477,1,8,0:0:0:0:
413,158,116556,1,8,0:0:0:0:
443,132,116634,1,8,0:0:0:0:
443,91,116713,1,8,0:0:0:0:
426,54,116791,1,8,0:0:0:0:
393,30,116870,1,8,0:0:0:0:
353,35,116948,1,8,0:0:0:0:
318,55,117027,1,8,0:0:0:0:
304,81,117106,1,8,0:0:0:0:
280,117,117184,5,8,0:0:0:0:
248,147,117263,1,8,0:0:0:0:
204,153,117341,1,8,0:0:0:0:
162,138,117420,1,8,0:0:0:0:
131,106,117498,1,8,0:0:0:0:
145,64,117577,1,8,0:0:0:0:
181,40,117655,1,8,0:0:0:0:
225,45,117734,1,8,0:0:0:0:
260,69,117812,1,8,0:0:0:0:
282,107,117891,1,8,0:0:0:0:
287,149,117969,1,8,0:0:0:0:
272,191,118048,1,8,0:0:0:0:
255,231,118126,1,8,0:0:0:0:
223,261,118205,1,8,0:0:0:0:
182,277,118284,1,8,0:0:0:0:
138,277,118362,1,8,0:0:0:0:
99,254,118441,5,8,0:0:0:0:
84,212,118519,1,8,0:0:0:0:
81,167,118598,2,0,L|52:166,1,20
102,135,118676,2,0,L|73:134,1,20
122,107,118755,2,0,L|95:98,1,20
149,87,118833,2,0,L|124:72,1,20
181,73,118912,2,0,L|161:52,1,20
215,69,118990,2,0,L|200:44,1,20
249,73,119069,6,0,L|242:45,1,20
288,80,119147,2,0,L|288:51,1,20
329,101,119226,2,0,L|338:74,1,20
364,149,119305,2,0,L|385:130,1,20
357,214,119383,2,0,L|384:208,1,20
328,280,119462,2,0,L|354:289,1,20
259,291,119540,2,0,L|273:314,1,20
186,275,119619,2,0,L|186:302,1,20
121,233,119697,2,0,L|114:259,1,20
75,165,119776,2,0,L|61:188,1,20
70,85,119854,5,8,0:0:0:0:
176,296,120168,1,8,0:0:0:0:
176,296,120482,5,8,0:0:0:0:
362,115,120640,1,8,0:0:0:0:
448,352,120797,1,14,0:0:0:0:
256,336,121111,5,6,0:0:0:0:
172,92,121268,1,0,0:0:0:0:
106,209,121425,1,2,0:0:0:0:
176,200,121503,1,0,0:0:0:0:
247,174,121582,1,0,0:0:0:0:
308,130,121661,1,0,0:0:0:0:
352,68,121739,5,2,0:0:0:0:
426,269,121948,2,0,L|408:320,1,53.3333333333333,2|0,0:0|0:0,0:0:0:0:
469,122,122158,2,0,L|488:72,1,53.3333333333333,2|0,0:0|0:0,0:0:0:0:
336,280,122367,5,2,0:0:0:0:
224,48,122524,1,0,0:0:0:0:
88,80,122681,1,2,0:0:0:0:
122,146,122759,1,0,0:0:0:0:
185,187,122838,1,0,0:0:0:0:
260,192,122916,1,0,0:0:0:0:
327,159,122995,5,2,0:0:0:0:
236,325,123205,2,0,L|214:373,1,53.3333333333333,2|0,0:0|0:0,0:0:0:0:
173,174,123414,2,0,L|151:125,1,53.3333333333333,2|0,0:0|0:0,0:0:0:0:
96,352,123624,5,2,0:0:0:0:
32,104,123781,1,0,0:0:0:0:
141,184,123938,1,2,0:0:0:0:
217,189,124017,1,0,0:0:0:0:
282,150,124095,1,0,0:0:0:0:
358,155,124174,1,0,0:0:0:0:
419,112,124252,5,2,0:0:0:0:
400,280,124462,2,0,L|352:312,1,53.3333333333333,2|0,0:0|0:0,0:0:0:0:
272,288,124671,2,0,L|288:232,1,53.3333333333333,2|0,0:0|0:0,0:0:0:0:
342,153,124880,6,0,L|368:200,1,53.3333333333333,2|0,0:0|0:0,0:0:0:0:
256,136,125090,2,0,L|281:89,1,53.3333333333333,2|0,0:0|0:0,0:0:0:0:
342,25,125299,2,0,L|368:72,1,53.3333333333333,2|0,0:0|0:0,0:0:0:0:
144,200,125509,6,0,L|195:185,1,53.3333333333333,6|0,0:0|0:0,0:0:0:0:
453,139,125718,2,0,L|401:124,1,53.3333333333333,6|0,0:0|0:0,0:0:0:0:
144,48,125928,2,0,L|195:33,1,53.3333333333333,6|0,0:0|0:0,0:0:0:0:
288,336,126137,5,2,0:0:0:0:
440,56,126294,1,0,0:0:0:0:
464,192,126451,1,2,0:0:0:0:
392,168,126530,1,0,0:0:0:0:
320,144,126608,1,0,0:0:0:0:
248,120,126687,1,0,0:0:0:0:
176,96,126765,5,2,0:0:0:0:
8,191,126975,2,0,L|38:234,1,53.3333333333333,2|0,0:0|0:0,0:0:0:0:
145,139,127184,2,0,L|175:95,1,53.3333333333333,2|0,0:0|0:0,0:0:0:0:
286,349,127393,5,2,0:0:0:0:
360,32,127551,1,0,0:0:0:0:
472,72,127708,1,2,0:0:0:0:
474,146,127786,1,0,0:0:0:0:
439,213,127865,1,0,0:0:0:0:
376,253,127943,1,0,0:0:0:0:
301,257,128022,5,2,0:0:0:0:
200,96,128231,2,0,L|222:145,1,53.3333333333333,2|0,0:0|0:0,0:0:0:0:
248,336,128440,2,0,L|226:288,1,53.3333333333333,2|0,0:0|0:0,0:0:0:0:
88,56,128650,5,2,0:0:0:0:
184,360,128807,1,0,0:0:0:0:
168,216,128964,1,2,0:0:0:0:
244,221,129043,1,0,0:0:0:0:
309,182,129121,1,0,0:0:0:0:
385,187,129200,1,0,0:0:0:0:
446,144,129278,5,2,0:0:0:0:
416,64,129488,2,0,L|368:32,1,53.3333333333333,2|0,0:0|0:0,0:0:0:0:
288,56,129697,2,0,L|304:112,1,53.3333333333333,2|0,0:0|0:0,0:0:0:0:
358,191,129906,6,0,L|384:144,1,53.3333333333333,2|0,0:0|0:0,0:0:0:0:
272,208,130116,2,0,L|297:255,1,53.3333333333333,2|0,0:0|0:0,0:0:0:0:
358,319,130325,2,0,L|384:272,1,53.3333333333333,2|0,0:0|0:0,0:0:0:0:
160,144,130535,6,0,L|211:159,1,53.3333333333333,6|0,0:0|0:0,0:0:0:0:
469,205,130744,2,0,L|417:220,1,53.3333333333333,6|0,0:0|0:0,0:0:0:0:
160,296,130954,2,0,L|211:311,1,53.3333333333333,6|0,0:0|0:0,0:0:0:0:
312,336,131163,5,6,0:0:0:0:
312,336,131477,1,6,0:0:0:0:
184,80,132106,5,0,0:0:0:0:
158,98,132184,1,0,0:0:0:0:
141,125,132263,1,0,0:0:0:0:
136,157,132341,1,0,0:0:0:0:
142,188,132420,5,6,0:0:0:0:
192,288,132734,1,6,0:0:0:0:
192,288,133362,5,0,0:0:0:0:
220,306,133440,1,0,0:0:0:0:
254,314,133519,1,0,0:0:0:0:
289,306,133597,1,0,0:0:0:0:
318,288,133676,5,6,0:0:0:0:
370,188,133990,1,6,0:0:0:0:
370,188,134619,5,0,0:0:0:0:
377,150,134698,1,0,0:0:0:0:
371,112,134776,1,0,0:0:0:0:
350,79,134855,1,0,0:0:0:0:
319,58,134933,5,6,0:0:0:0:
205,281,135142,1,6,0:0:0:0:
69,45,135352,1,6,0:0:0:0:
273,163,135561,1,6,0:0:0:0:
1,163,135770,1,6,0:0:0:0:
205,45,135980,1,6,0:0:0:0:
69,281,136189,5,6,0:0:0:0:
69,281,136503,1,6,0:0:0:0:
301,305,137132,5,0,0:0:0:0:
332,299,137211,1,0,0:0:0:0:
361,285,137289,1,0,0:0:0:0:
383,262,137368,1,0,0:0:0:0:
398,234,137446,5,6,0:0:0:0:
294,193,137760,1,6,0:0:0:0:
235,105,138388,5,0,0:0:0:0:
210,130,138466,1,0,0:0:0:0:
194,162,138545,1,0,0:0:0:0:
190,198,138623,1,0,0:0:0:0:
198,233,138702,5,6,0:0:0:0:
276,354,139017,1,6,0:0:0:0:
400,280,139331,6,0,L|432:232,1,53.3333333333333,2|0,0:0|0:0,0:0:0:0:
408,151,139540,2,0,L|352:167,1,53.3333333333333,2|0,0:0|0:0,0:0:0:0:
273,221,139749,2,0,L|320:246,1,53.3333333333333,2|0,0:0|0:0,0:0:0:0:
255,135,139959,6,0,L|208:159,1,53.3333333333333,2|0,0:0|0:0,0:0:0:0:
144,221,140168,2,0,L|191:247,1,53.3333333333333,2|0,0:0|0:0,0:0:0:0:
320,23,140378,2,0,L|305:74,1,53.3333333333333,2|0,0:0|0:0,0:0:0:0:
258,332,140587,6,0,L|242:279,1,53.3333333333333,6|0,0:0|0:0,0:0:0:0:
167,23,140797,2,0,L|152:74,1,53.3333333333333,6|0,0:0|0:0,0:0:0:0:
68,328,141006,2,0,L|52:275,1,53.3333333333333,6|0,0:0|0:0,0:0:0:0:
24,173,141215,5,6,0:0:0:0:
24,173,141530,1,2,0:0:0:0:
24,173,141844,1,2,0:0:0:0:
104,205,142158,5,0,0:0:0:0:
95,235,142236,1,0,0:0:0:0:
86,266,142315,1,0,0:0:0:0:
77,297,142393,1,0,0:0:0:0:
68,328,142472,5,6,0:0:0:0:
2,236,142786,1,2,0:0:0:0:
2,236,143100,1,2,0:0:0:0:
58,131,143414,5,0,0:0:0:0:
91,119,143492,1,0,0:0:0:0:
127,121,143571,1,0,0:0:0:0:
159,137,143649,1,0,0:0:0:0:
182,165,143728,5,6,0:0:0:0:
194,276,144043,1,2,0:0:0:0:
194,276,144357,1,2,0:0:0:0:
344,336,144671,5,0,0:0:0:0:
354,301,144749,1,0,0:0:0:0:
365,267,144828,1,0,0:0:0:0:
376,233,144906,1,0,0:0:0:0:
387,198,144985,5,6,0:0:0:0:
272,88,145195,1,2,0:0:0:0:
416,16,145404,1,2,0:0:0:0:
416,240,145613,5,2,0:0:0:0:
184,128,145823,1,2,0:0:0:0:
416,16,146032,1,2,0:0:0:0:
472,128,146242,5,6,0:0:0:0:
438,139,146320,1,0,0:0:0:0:
402,139,146399,1,0,0:0:0:0:
367,129,146477,1,0,0:0:0:0:
338,109,146556,1,2,0:0:0:0:
308,89,146634,1,0,0:0:0:0:
274,80,146713,1,0,0:0:0:0:
238,83,146791,1,0,0:0:0:0:
205,97,146870,1,2,0:0:0:0:
179,121,146948,1,0,0:0:0:0:
168,155,147027,1,0,0:0:0:0:
176,189,147105,1,0,0:0:0:0:
200,215,147184,1,2,0:0:0:0:
231,233,147262,1,0,0:0:0:0:
251,262,147341,1,0,0:0:0:0:
255,298,147419,1,0,0:0:0:0:
243,331,147498,5,2,0:0:0:0:
208,299,147576,1,0,0:0:0:0:
192,254,147655,1,0,0:0:0:0:
198,207,147733,1,0,0:0:0:0:
226,168,147812,1,2,0:0:0:0:
268,146,147891,1,0,0:0:0:0:
296,108,147969,1,0,0:0:0:0:
294,61,148048,1,0,0:0:0:0:
264,25,148126,1,2,0:0:0:0:
216,23,148204,1,0,0:0:0:0:
171,39,148283,1,0,0:0:0:0:
139,74,148361,1,0,0:0:0:0:
126,120,148440,1,2,0:0:0:0:
128,167,148518,1,0,0:0:0:0:
173,152,148597,1,0,0:0:0:0:
220,158,148675,1,0,0:0:0:0:
254,191,148755,6,0,L|280:168,1,20,2|0,0:0|0:0,0:0:0:0:
262,238,148833,2,0,L|296:232,1,20
241,280,148912,2,0,L|264:288,1,20
205,309,148990,2,0,L|228:334,1,20
158,317,149068,2,0,L|164:350,1,20
116,296,149147,2,0,L|108:318,1,20
84,259,149226,2,0,L|76:239,1,20
137,229,149305,2,0,L|131:208,1,20,0|0,2:0|2:0,2:0:0:0:
187,231,149383,6,0,L|185:210,1,20
239,239,149462,2,0,L|243:218,1,20,0|0,2:0|2:0,2:0:0:0:
291,272,149540,2,0,L|281:290,1,20
358,268,149619,2,0,L|359:288,1,20
419,232,149697,2,0,L|425:251,1,20
464,172,149776,2,0,L|476:188,1,20
471,100,149854,2,0,L|486:112,1,20
453,26,149933,2,0,L|471:33,1,20
386,0,150011,5,8,0:0:0:0:
208,240,150325,1,8,0:0:0:0:
496,240,150640,5,8,0:0:0:0:
190,99,150797,1,8,0:0:0:0:
469,29,150954,2,0,L|508:19,1,40,14|0,0:0|0:0,0:0:0:0:
480,219,151268,5,6,0:0:0:0:
179,187,151425,1,0,0:0:0:0:
305,343,151582,1,2,0:0:0:0:
314,276,151661,1,0,0:0:0:0:
324,210,151739,1,0,0:0:0:0:
334,143,151818,1,0,0:0:0:0:
344,77,151896,5,2,0:0:0:0:
165,97,152106,2,2,P|158:137|129:166,1,74.6666643880209,0|2,0:0|0:0,0:0:0:0:
96,293,152315,2,0,P|68:265|61:226,1,74.6666643880209,0|2,0:0|0:0,0:0:0:0:
7,103,152524,5,2,0:0:0:0:
330,179,152681,1,0,0:0:0:0:
42,280,152839,1,2,0:0:0:0:
96,293,152917,1,0,0:0:0:0:
151,307,152996,1,0,0:0:0:0:
205,320,153074,1,0,0:0:0:0:
259,333,153153,5,2,0:0:0:0:
409,359,153362,2,0,P|433:337|442:296,1,63.9999980468751,0|2,0:0|0:0,0:0:0:0:
358,176,153572,2,0,P|367:206|391:227,1,63.9999980468751,0|2,0:0|0:0,0:0:0:0:
448,150,153781,1,2,0:0:0:0:
167,86,153938,1,0,0:0:0:0:
391,43,154095,5,2,0:0:0:0:
365,110,154174,1,0,0:0:0:0:
317,163,154252,1,0,0:0:0:0:
252,196,154331,1,0,0:0:0:0:
182,215,154409,6,0,P|148:221|113:210,1,63.9999980468751,2|0,0:0|0:0,0:0:0:0:
66,131,154619,2,0,P|100:125|135:136,1,63.9999980468751,0|2,0:0|0:0,0:0:0:0:
121,44,154828,2,0,P|153:56|178:83,1,63.9999980468751,2|0,0:0|0:0,0:0:0:0:
280,189,155037,6,0,P|253:210|217:218,1,63.9999980468751,2|0,0:0|0:0,0:0:0:0:
65,289,155247,2,0,P|43:262|35:226,1,63.9999980468751,2|0,0:0|0:0,0:0:0:0:
189,124,155456,2,0,P|156:134|120:130,1,63.9999980468751,2|0,0:0|0:0,0:0:0:0:
28,12,155666,6,0,P|22:46|33:81,1,63.9999980468751,6|0,0:0|0:0,0:0:0:0:
191,186,155875,2,0,P|183:155|188:123,1,63.9999980468751,6|0,0:0|0:0,0:0:0:0:
371,12,156085,2,0,P|336:6|301:17,1,63.9999980468751,6|0,0:0|0:0,0:0:0:0:
121,44,156294,5,6,0:0:0:0:
49,322,156451,1,0,0:0:0:0:
286,342,156608,1,2,0:0:0:0:
347,317,156686,1,0,0:0:0:0:
381,260,156765,1,0,0:0:0:0:
373,195,156843,1,0,0:0:0:0:
328,147,156922,5,2,0:0:0:0:
195,121,157132,2,0,P|206:202|269:243,1,149.333328776042
433,272,157551,5,2,0:0:0:0:
482,42,157708,1,0,0:0:0:0:
252,91,157865,1,2,0:0:0:0:
214,145,157943,1,0,0:0:0:0:
214,211,158022,1,0,0:0:0:0:
252,266,158100,1,0,0:0:0:0:
313,289,158179,5,2,0:0:0:0:
309,174,158388,2,0,L|388:157,1,63.9999980468751,0|2,0:0|0:0,0:0:0:0:
453,107,158598,2,0,L|382:82,1,63.9999980468751
90,96,158807,5,2,0:0:0:0:
360,192,158964,1,0,0:0:0:0:
97,183,159121,5,2,0:0:0:0:
159,183,159200,1,0,0:0:0:0:
217,202,159278,1,0,0:0:0:0:
266,241,159357,1,0,0:0:0:0:
314,277,159435,6,0,P|345:291|381:290,1,63.9999980468751,2|0,0:0|0:0,0:0:0:0:
441,173,159645,2,0,P|432:206|408:234,1,63.9999980468751,0|2,0:0|0:0,0:0:0:0:
300,169,159854,2,0,P|278:145|267:115,1,63.9999980468751
155,245,160063,6,0,P|182:266|218:274,1,63.9999980468751,6|0,0:0|0:0,0:0:0:0:
370,345,160273,2,0,P|392:318|400:282,1,63.9999980468751,0|2,0:0|0:0,0:0:0:0:
246,180,160482,2,0,P|279:190|315:186,1,63.9999980468751
402,68,160692,6,0,P|408:102|397:137,1,63.9999980468751,6|0,0:0|0:0,0:0:0:0:
244,242,160901,2,0,P|252:211|247:179,1,63.9999980468751,4|2,0:0|0:0,0:0:0:0:
270,11,161111,2,0,P|245:31|231:60,1,63.9999980468751,4|0,0:0|0:0,0:0:0:0:
120,154,161320,5,6,0:0:0:0:
405,190,161477,1,0,0:0:0:0:
125,52,161634,1,2,0:0:0:0:
64,77,161712,1,0,0:0:0:0:
30,134,161791,1,0,0:0:0:0:
38,199,161869,1,0,0:0:0:0:
83,247,161948,5,2,0:0:0:0:
181,273,162158,2,0,P|170:192|107:151,1,149.333328776042
132,17,162577,5,2,0:0:0:0:
83,247,162734,1,0,0:0:0:0:
313,198,162891,1,2,0:0:0:0:
351,144,162969,1,0,0:0:0:0:
351,78,163048,1,0,0:0:0:0:
313,23,163126,1,0,0:0:0:0:
252,0,163205,5,2,0:0:0:0:
112,182,163414,2,0,L|172:203,1,63.9999980468751,0|2,0:0|0:0,0:0:0:0:
256,115,163624,2,0,L|193:128,1,63.9999980468751
448,150,163833,5,2,0:0:0:0:
167,86,163990,1,0,0:0:0:0:
454,228,164147,1,2,0:0:0:0:
389,260,164226,1,0,0:0:0:0:
317,261,164304,1,0,0:0:0:0:
255,224,164382,1,0,0:0:0:0:
182,215,164462,6,0,P|148:221|113:210,1,63.9999980468751,2|0,0:0|0:0,0:0:0:0:
66,131,164671,2,0,P|100:125|135:136,1,63.9999980468751,0|2,0:0|0:0,0:0:0:0:
121,44,164880,2,0,P|153:56|178:83,1,63.9999980468751
280,189,165090,6,0,P|253:210|221:217,1,63.9999980468751,2|0,0:0|0:0,0:0:0:0:
65,289,165299,2,0,P|43:262|35:226,1,63.9999980468751,0|2,0:0|0:0,0:0:0:0:
189,124,165508,2,0,P|156:134|120:130,1,63.9999980468751
28,12,165718,6,0,P|22:46|33:81,1,63.9999980468751,6|0,0:0|0:0,0:0:0:0:
191,186,165927,2,0,P|183:155|188:123,1,63.9999980468751,4|2,0:0|0:0,0:0:0:0:
371,12,166137,2,0,P|336:6|301:17,1,63.9999980468751,4|0,0:0|0:0,0:0:0:0:
397,124,166346,5,6,0:0:0:0:
121,44,166503,1,0,0:0:0:0:
502,138,166660,1,2,0:0:0:0:
477,199,166738,1,0,0:0:0:0:
420,233,166817,1,0,0:0:0:0:
355,225,166895,1,0,0:0:0:0:
307,180,166974,5,2,0:0:0:0:
291,49,167184,2,2,L|317:95,1,53.3333333333333,0|0,0:0|0:0,0:0:0:0:
211,95,167393,2,0,L|184:48,1,53.3333333333333
433,272,167603,5,2,0:0:0:0:
482,42,167760,1,0,0:0:0:0:
252,91,167917,1,2,0:0:0:0:
214,145,167995,1,0,0:0:0:0:
214,211,168074,1,0,0:0:0:0:
252,266,168152,1,0,0:0:0:0:
313,289,168231,5,2,0:0:0:0:
453,107,168440,2,0,L|403:87,1,53.3333333333333,0|2,0:0|0:0,0:0:0:0:
309,174,168650,2,0,L|361:164,1,53.3333333333333
272,41,168859,5,2,0:0:0:0:
213,275,169017,1,0,0:0:0:0:
353,143,169174,1,2,0:0:0:0:
293,153,169252,1,0,0:0:0:0:
234,164,169331,1,0,0:0:0:0:
175,175,169409,1,0,0:0:0:0:
116,186,169488,6,0,L|41:199,1,53.3333333333333,2|0,0:0|0:0,0:0:0:0:
144,55,169697,2,0,L|219:42,1,53.3333333333333,0|2,0:0|0:0,0:0:0:0:
355,75,169907,2,0,L|302:83,1,53.3333333333333
121,265,170116,5,6,0:0:0:0:
463,149,170325,1,6,0:0:0:0:
144,55,170535,1,6,0:0:0:0:
316,336,170744,1,6,0:0:0:0:
336,5,170954,1,6,0:0:0:0:
121,265,171163,1,6,0:0:0:0:
97,116,171373,5,6,0:0:0:0:
162,154,171451,1,0,0:0:0:0:
227,192,171530,1,0,0:0:0:0:
291,231,171608,1,0,0:0:0:0:
356,270,171687,5,2,0:0:0:0:
54,271,171844,1,0,0:0:0:0:
292,84,172001,5,2,0:0:0:0:
199,371,172158,1,0,0:0:0:0:
387,135,172315,5,2,0:0:0:0:
128,37,172472,1,0,0:0:0:0:
128,37,172551,1,0,0:0:0:0:
128,37,172629,1,2,0:0:0:0:
74,88,172707,1,0,0:0:0:0:
53,160,172786,1,0,0:0:0:0:
71,232,172864,1,0,0:0:0:0:
124,285,172943,5,2,0:0:0:0:
424,252,173100,1,0,0:0:0:0:
134,164,173257,1,2,0:0:0:0:
434,253,173414,1,0,0:0:0:0:
131,280,173572,5,2,0:0:0:0:
402,123,173729,1,0,0:0:0:0:
114,29,173886,1,2,0:0:0:0:
391,175,174043,1,0,0:0:0:0:
219,18,174200,5,2,0:0:0:0:
299,315,174357,1,0,0:0:0:0:
239,6,174514,5,2,0:0:0:0:
285,325,174671,1,0,0:0:0:0:
325,14,174828,5,2,0:0:0:0:
200,320,174985,2,0,B|141:359|88:290,1,111.999996582031,0|2,0:0|0:0,0:0:0:0:
19,23,175299,5,0,0:0:0:0:
284,135,175456,1,2,0:0:0:0:
19,247,175613,1,0,0:0:0:0:
285,215,175770,5,2,0:0:0:0:
12,249,175928,1,0,0:0:0:0:
292,216,176085,2,0,P|343:187|362:129,1,111.999996582031,2|0,0:0|0:0,0:0:0:0:
310,53,176399,5,2,0:0:0:0:
238,75,176477,1,0,0:0:0:0:
179,123,176556,1,0,0:0:0:0:
141,187,176634,1,0,0:0:0:0:
130,262,176713,5,2,0:0:0:0:
431,345,176870,1,0,0:0:0:0:
130,262,177027,1,2,0:0:0:0:
420,178,177184,1,0,0:0:0:0:
190,374,177341,5,2,0:0:0:0:
473,262,177498,1,0,0:0:0:0:
473,262,177577,1,0,0:0:0:0:
473,262,177655,1,2,0:0:0:0:
510,207,177733,1,0,0:0:0:0:
502,142,177812,1,0,0:0:0:0:
452,99,177890,1,0,0:0:0:0:
386,102,177969,5,2,0:0:0:0:
212,338,178126,1,0,0:0:0:0:
313,51,178284,1,2,0:0:0:0:
342,351,178441,1,0,0:0:0:0:
229,34,178598,5,2,0:0:0:0:
99,343,178755,1,0,0:0:0:0:
408,213,178912,1,2,0:0:0:0:
81,132,179069,1,0,0:0:0:0:
448,97,179226,5,2,0:0:0:0:
71,240,179383,1,0,0:0:0:0:
473,264,179540,1,2,0:0:0:0:
99,26,179697,1,0,0:0:0:0:
493,184,179854,5,2,0:0:0:0:
54,349,180011,1,0,0:0:0:0:
474,97,180168,5,2,0:0:0:0:
203,380,180325,1,0,0:0:0:0:
430,10,180482,5,2,0:0:0:0:
353,369,180640,1,0,0:0:0:0:
344,24,180797,2,0,B|296:64|232:32|232:32|168:64|112:8,1,223.999993164063,2|0,0:0|0:0,0:0:0:0:
342,177,181425,5,2,0:0:0:0:
346,251,181503,1,0,0:0:0:0:
310,316,181582,1,0,0:0:0:0:
244,351,181660,1,0,0:0:0:0:
170,343,181739,5,2,0:0:0:0:
32,256,181896,1,0,0:0:0:0:
168,24,182053,1,2,0:0:0:0:
272,272,182210,1,0,0:0:0:0:
360,16,182367,5,2,0:0:0:0:
128,152,182524,1,0,0:0:0:0:
128,152,182603,1,0,0:0:0:0:
128,152,182681,1,2,0:0:0:0:
187,121,182759,1,0,0:0:0:0:
253,111,182838,1,0,0:0:0:0:
319,123,182916,1,0,0:0:0:0:
378,155,182995,5,2,0:0:0:0:
200,360,183153,1,0,0:0:0:0:
296,40,183310,1,2,0:0:0:0:
336,376,183467,1,0,0:0:0:0:
120,80,183624,5,2,0:0:0:0:
424,288,183781,1,0,0:0:0:0:
40,160,183938,1,2,0:0:0:0:
433,182,184095,2,0,B|461:245|422:289,1,111.999996582031,0|2,0:0|0:0,0:0:0:0:
23,337,184409,1,0,0:0:0:0:
429,101,184566,5,2,0:0:0:0:
40,8,184723,1,0,0:0:0:0:
408,16,184880,1,2,0:0:0:0:
32,168,185037,2,0,P|14:223|48:272,1,111.999996582031,0|2,0:0|0:0,0:0:0:0:
472,344,185352,1,0,0:0:0:0:
200,0,185509,5,2,0:0:0:0:
96,368,185666,1,0,0:0:0:0:
456,192,185823,5,2,0:0:0:0:
32,288,185980,1,0,0:0:0:0:
464,184,186137,2,0,B|494:128|451:81,1,111.999996582031,2|0,0:0|0:0,0:0:0:0:
313,26,186451,1,2,0:0:0:0:
240,46,186529,1,0,0:0:0:0:
182,94,186608,1,0,0:0:0:0:
148,160,186686,1,0,0:0:0:0:
141,235,186765,5,2,0:0:0:0:
344,384,186922,1,0,0:0:0:0:
264,128,187079,1,2,0:0:0:0:
168,376,187236,1,0,0:0:0:0:
392,232,187393,1,2,0:0:0:0:
120,232,187551,5,0,0:0:0:0:
120,232,187629,1,0,0:0:0:0:
120,232,187708,1,2,0:0:0:0:
141,159,187786,1,0,0:0:0:0:
183,98,187865,1,0,0:0:0:0:
247,58,187943,1,0,0:0:0:0:
322,44,188022,5,2,0:0:0:0:
408,288,188179,1,0,0:0:0:0:
432,24,188336,1,2,0:0:0:0:
312,264,188493,1,0,0:0:0:0:
504,80,188650,5,2,0:0:0:0:
261,194,188807,1,0,0:0:0:0:
506,170,188964,6,0,P|446:220|386:237,1,111.999996582031,2|0,0:0|0:0,0:0:0:0:
319,263,189200,2,0,P|385:304|447:312,1,111.999996582031,2|0,0:0|0:0,0:0:0:0:
292,231,189435,1,2,0:0:0:0:
207,48,189592,6,0,P|131:45|79:61,1,111.999996582031,2|0,0:0|0:0,0:0:0:0:
133,148,189828,2,0,P|187:158|243:153,1,111.999996582031,2|0,0:0|0:0,0:0:0:0:
448,112,190064,1,2,0:0:0:0:
448,112,190221,2,0,P|440:48|360:24,1,140,6|0,0:0|0:0,0:0:0:0:
352,32,190849,5,8,0:0:0:0:
338,56,190927,1,8,0:0:0:0:
325,81,191006,1,8,0:0:0:0:
312,106,191084,1,8,0:0:0:0:
298,130,191163,5,2,0:0:0:0:
285,155,191241,1,2,0:0:0:0:
272,180,191320,1,2,0:0:0:0:
261,206,191399,1,2,0:0:0:0:
248,232,191477,38,0,B|227:250|207:254|185:253|162:244|142:234|121:214|116:180|134:152|153:141|176:126|195:127|219:129|233:125|254:134|276:151|278:188|273:212|288:224|301:239|308:260|328:256|348:256|368:260|388:256|408:252|432:240|452:196|424:152|404:136|368:132|336:136|308:164,1,633.60001546875,6|0,0:0|0:0,0:0:0:0:
