osu file format v14

[General]
AudioFilename: audio145.mp3
AudioLeadIn: 0
PreviewTime: -1
Countdown: 0
SampleSet: None
StackLeniency: 0.7
Mode: 3
LetterboxInBreaks: 0
SpecialStyle: 0
WidescreenStoryboard: 0

[Editor]
DistanceSpacing: 0.8
BeatDivisor: 12
GridSize: 32
TimelineZoom: 2.2

[Metadata]
Title:AO-INFINITY
TitleUnicode:AO-∞
Artist:Seiryu
ArtistUnicode:青龍
Creator:Affinityy
Version:Reflection [1.45x Rate]
Source:REFLEC BEAT plus
Tags:
BeatmapID:2458403
BeatmapSetID:1177420

[Difficulty]
HPDrainRate:6
CircleSize:4
OverallDifficulty:0
ApproachRate:5
SliderMultiplier:1.4
SliderTickRate:1

[Events]
//Background and Video events
0,0,"bg.png",0,0
//Break Periods
//Storyboard Layer 0 (Background)
//Storyboard Layer 1 (Fail)
//Storyboard Layer 2 (Pass)
//Storyboard Layer 3 (Foreground)
//Storyboard Layer 4 (Overlay)
//Storyboard Sound Samples

[TimingPoints]
409,216.645603899621,4,2,1,30,1,0
41986,-100,4,2,1,30,0,1
55852,-100,4,2,1,30,0,0
104164,-100,4,2,1,30,0,1
132166,-100,4,2,1,30,0,0

[HitObjects]
320,192,409,128,0,1672:0:0:0:0:
64,192,409,128,0,1239:0:0:0:0:
192,192,1059,128,0,2106:0:0:0:0:
448,192,1275,128,0,3730:0:0:0:0:
64,192,1275,128,0,2106:0:0:0:0:
320,192,1708,128,0,2972:0:0:0:0:
64,192,2142,128,0,2972:0:0:0:0:
192,192,2142,128,0,2756:0:0:0:0:
192,192,2792,128,0,3514:0:0:0:0:
64,192,3008,128,0,3406:0:0:0:0:
320,192,3008,128,0,3622:0:0:0:0:
64,192,3441,128,0,3839:0:0:0:0:
192,192,3550,128,0,3839:0:0:0:0:
320,192,3659,128,0,4706:0:0:0:0:
448,192,3767,128,0,5139:0:0:0:0:
64,192,3875,128,0,4706:0:0:0:0:
192,192,3875,128,0,4489:0:0:0:0:
192,192,4525,128,0,5572:0:0:0:0:
64,192,4741,128,0,5572:0:0:0:0:
320,192,4741,128,0,5789:0:0:0:0:
448,192,5174,128,0,6006:0:0:0:0:
64,192,5608,128,0,6439:0:0:0:0:
192,192,5608,128,0,6222:0:0:0:0:
320,192,5825,128,0,6439:0:0:0:0:
448,192,6041,128,0,6872:0:0:0:0:
192,192,6258,128,0,8172:0:0:0:0:
64,192,6474,128,0,8605:0:0:0:0:
320,192,6474,128,0,7305:0:0:0:0:
448,192,6908,128,0,7305:0:0:0:0:
320,192,7341,128,0,7955:0:0:0:0:
448,192,7341,128,0,8172:0:0:0:0:
320,192,7991,128,0,10121:0:0:0:0:
192,192,8208,128,0,9039:0:0:0:0:
448,192,8208,128,0,9905:0:0:0:0:
64,192,8641,128,0,9039:0:0:0:0:
192,192,9074,128,0,9688:0:0:0:0:
64,192,9074,128,0,9905:0:0:0:0:
192,192,9724,128,0,10446:0:0:0:0:
64,192,9941,128,0,10338:0:0:0:0:
448,192,9941,128,0,10663:0:0:0:0:
320,192,10158,128,0,10555:0:0:0:0:
64,192,10374,128,0,10772:0:0:0:0:
192,192,10483,128,0,10772:0:0:0:0:
320,192,10591,128,0,11421:0:0:0:0:
448,192,10699,128,0,11638:0:0:0:0:
192,192,10808,128,0,12071:0:0:0:0:
64,192,10808,128,0,11638:0:0:0:0:
320,192,11457,128,0,12505:0:0:0:0:
448,192,11674,128,0,12505:0:0:0:0:
64,192,11674,128,0,14238:0:0:0:0:
192,192,12108,128,0,14888:0:0:0:0:
320,192,12541,128,0,15104:0:0:0:0:
448,192,12541,128,0,14238:0:0:0:0:
64,192,14274,128,0,15538:0:0:0:0:
448,192,14274,128,0,15104:0:0:0:0:
192,192,14924,128,0,15971:0:0:0:0:
320,192,15141,128,0,16621:0:0:0:0:
448,192,15141,128,0,15971:0:0:0:0:
64,192,15574,128,0,16837:0:0:0:0:
192,192,16007,128,0,17379:0:0:0:0:
448,192,16007,128,0,16837:0:0:0:0:
320,192,16657,128,0,17488:0:0:0:0:
64,192,16874,128,0,17271:0:0:0:0:
448,192,16874,128,0,17596:0:0:0:0:
64,192,17307,128,0,17704:0:0:0:0:
192,192,17415,128,0,17704:0:0:0:0:
320,192,17523,128,0,18354:0:0:0:0:
448,192,17632,128,0,18571:0:0:0:0:
192,192,17740,128,0,18571:0:0:0:0:
64,192,17740,128,0,19437:0:0:0:0:
320,192,18390,128,0,19004:0:0:0:0:
192,192,18607,128,0,19870:0:0:0:0:
448,192,18607,128,0,19437:0:0:0:0:
320,192,19040,128,0,19654:0:0:0:0:
64,192,19473,128,0,20088:0:0:0:0:
448,192,19473,128,0,20304:0:0:0:0:
320,192,19690,128,0,20304:0:0:0:0:
192,192,19907,128,0,20737:0:0:0:0:
64,192,20123,128,0,21170:0:0:0:0:
320,192,20340,128,0,21821:0:0:0:0:
448,192,20340,128,0,21170:0:0:0:0:
192,192,20773,128,0,22037:0:0:0:0:
448,192,21207,128,0,22037:0:0:0:0:
64,192,21207,128,0,22470:0:0:0:0:
320,192,21857,128,0,22903:0:0:0:0:
448,192,22073,128,0,22903:0:0:0:0:
192,192,22073,128,0,23554:0:0:0:0:
64,192,22506,128,0,23770:0:0:0:0:
448,192,22940,128,0,23770:0:0:0:0:
320,192,22940,128,0,23987:0:0:0:0:
192,192,23590,128,0,24312:0:0:0:0:
64,192,23806,128,0,24203:0:0:0:0:
448,192,23806,128,0,24528:0:0:0:0:
320,192,24023,128,0,24420:0:0:0:0:
64,192,24239,128,0,24637:0:0:0:0:
192,192,24348,128,0,24637:0:0:0:0:
320,192,24457,128,0,25503:0:0:0:0:
448,192,24565,128,0,25287:0:0:0:0:
64,192,24673,128,0,25503:0:0:0:0:
192,192,24673,128,0,25937:0:0:0:0:
448,192,25323,128,0,26370:0:0:0:0:
320,192,25539,128,0,26370:0:0:0:0:
64,192,25539,128,0,27670:0:0:0:0:
192,192,25973,128,0,27237:0:0:0:0:
320,192,26406,128,0,27399:0:0:0:0:
448,192,26406,128,0,27561:0:0:0:0:
192,192,27272,128,0,28212:0:0:0:0:
320,192,27435,128,0,27832:0:0:0:0:
448,192,27598,128,0,28103:0:0:0:0:
64,192,27706,128,0,28103:0:0:0:0:
320,192,27868,128,0,27994:0:0:0:0:
320,192,28031,128,0,28157:0:0:0:0:
448,192,28139,128,0,28320:0:0:0:0:
64,192,28139,128,0,28266:0:0:0:0:
320,192,28193,128,0,28916:0:0:0:0:
192,192,28248,128,0,28428:0:0:0:0:
64,192,28302,128,0,28645:0:0:0:0:
448,192,28356,128,0,28537:0:0:0:0:
192,192,28464,128,0,28861:0:0:0:0:
448,192,28572,128,0,28753:0:0:0:0:
64,192,28681,128,0,28970:0:0:0:0:
448,192,28789,128,0,28970:0:0:0:0:
192,192,28897,128,0,29024:0:0:0:0:
320,192,28952,128,0,29078:0:0:0:0:
448,192,29006,128,0,29132:0:0:0:0:
64,192,29006,128,0,29186:0:0:0:0:
192,192,29060,128,0,29837:0:0:0:0:
320,192,29114,128,0,29294:0:0:0:0:
448,192,29168,128,0,29511:0:0:0:0:
64,192,29223,128,0,29403:0:0:0:0:
320,192,29331,128,0,29728:0:0:0:0:
64,192,29439,128,0,29620:0:0:0:0:
448,192,29548,128,0,29837:0:0:0:0:
64,192,29656,128,0,30161:0:0:0:0:
320,192,29764,128,0,29999:0:0:0:0:
192,192,29872,128,0,29999:0:0:0:0:
448,192,29872,128,0,30270:0:0:0:0:
320,192,30035,128,0,30161:0:0:0:0:
192,192,30035,128,0,30270:0:0:0:0:
320,192,30197,128,0,30432:0:0:0:0:
64,192,30197,128,0,30703:0:0:0:0:
448,192,30306,128,0,30432:0:0:0:0:
192,192,30306,128,0,30703:0:0:0:0:
320,192,30468,128,0,30594:0:0:0:0:
448,192,30468,128,0,30594:0:0:0:0:
320,192,30630,128,0,30866:0:0:0:0:
448,192,30630,128,0,31028:0:0:0:0:
192,192,30739,128,0,30866:0:0:0:0:
64,192,30739,128,0,31136:0:0:0:0:
192,192,30901,128,0,31136:0:0:0:0:
320,192,30901,128,0,31028:0:0:0:0:
320,192,31064,128,0,31299:0:0:0:0:
448,192,31064,128,0,31570:0:0:0:0:
192,192,31172,128,0,31299:0:0:0:0:
64,192,31172,128,0,31570:0:0:0:0:
320,192,31334,128,0,31461:0:0:0:0:
192,192,31334,128,0,31461:0:0:0:0:
320,192,31497,128,0,31623:0:0:0:0:
192,192,31497,128,0,31678:0:0:0:0:
448,192,31606,128,0,31786:0:0:0:0:
64,192,31606,128,0,31732:0:0:0:0:
320,192,31660,128,0,32382:0:0:0:0:
192,192,31714,128,0,31894:0:0:0:0:
64,192,31768,128,0,32111:0:0:0:0:
448,192,31822,128,0,32003:0:0:0:0:
192,192,31930,128,0,32328:0:0:0:0:
448,192,32039,128,0,32219:0:0:0:0:
64,192,32147,128,0,32436:0:0:0:0:
448,192,32256,128,0,32436:0:0:0:0:
192,192,32364,128,0,32490:0:0:0:0:
320,192,32418,128,0,32544:0:0:0:0:
448,192,32472,128,0,32599:0:0:0:0:
64,192,32472,128,0,32652:0:0:0:0:
192,192,32526,128,0,33303:0:0:0:0:
320,192,32581,128,0,32761:0:0:0:0:
448,192,32634,128,0,32978:0:0:0:0:
64,192,32689,128,0,32870:0:0:0:0:
320,192,32797,128,0,33194:0:0:0:0:
64,192,32906,128,0,33086:0:0:0:0:
448,192,33014,128,0,33465:0:0:0:0:
64,192,33122,128,0,33303:0:0:0:0:
320,192,33230,128,0,33628:0:0:0:0:
192,192,33339,128,0,33465:0:0:0:0:
64,192,33339,128,0,33736:0:0:0:0:
448,192,33501,128,0,33628:0:0:0:0:
192,192,33501,128,0,33736:0:0:0:0:
320,192,33663,128,0,33899:0:0:0:0:
448,192,33663,128,0,34169:0:0:0:0:
192,192,33772,128,0,34169:0:0:0:0:
64,192,33772,128,0,33899:0:0:0:0:
320,192,33934,128,0,34061:0:0:0:0:
64,192,33934,128,0,34061:0:0:0:0:
320,192,34097,128,0,34332:0:0:0:0:
64,192,34097,128,0,34494:0:0:0:0:
448,192,34206,128,0,34332:0:0:0:0:
192,192,34206,128,0,34603:0:0:0:0:
320,192,34368,128,0,34494:0:0:0:0:
448,192,34368,128,0,34603:0:0:0:0:
320,192,34530,128,0,34711:0:0:0:0:
64,192,34530,128,0,34765:0:0:0:0:
448,192,34639,128,0,34819:0:0:0:0:
192,192,34639,128,0,34765:0:0:0:0:
320,192,34747,128,0,34928:0:0:0:0:
192,192,34801,128,0,34981:0:0:0:0:
64,192,34801,128,0,34873:0:0:0:0:
448,192,34855,128,0,34928:0:0:0:0:
64,192,34910,128,0,35090:0:0:0:0:
448,192,34963,128,0,35036:0:0:0:0:
320,192,34963,128,0,35036:0:0:0:0:
192,192,35018,128,0,35144:0:0:0:0:
320,192,35072,128,0,35199:0:0:0:0:
448,192,35072,128,0,35252:0:0:0:0:
64,192,35126,128,0,35252:0:0:0:0:
192,192,35180,128,0,35361:0:0:0:0:
320,192,35234,128,0,35577:0:0:0:0:
448,192,35288,128,0,35469:0:0:0:0:
64,192,35288,128,0,35469:0:0:0:0:
192,192,35397,128,0,35686:0:0:0:0:
64,192,35506,128,0,35686:0:0:0:0:
448,192,35506,128,0,35794:0:0:0:0:
320,192,35614,128,0,35848:0:0:0:0:
192,192,35722,128,0,35902:0:0:0:0:
64,192,35722,128,0,35902:0:0:0:0:
448,192,35830,128,0,35957:0:0:0:0:
320,192,35884,128,0,36011:0:0:0:0:
192,192,35939,128,0,36065:0:0:0:0:
64,192,35939,128,0,36119:0:0:0:0:
448,192,35992,128,0,36119:0:0:0:0:
320,192,36047,128,0,36228:0:0:0:0:
192,192,36101,128,0,36444:0:0:0:0:
448,192,36155,128,0,36336:0:0:0:0:
64,192,36155,128,0,36336:0:0:0:0:
320,192,36263,128,0,36552:0:0:0:0:
448,192,36372,128,0,36552:0:0:0:0:
64,192,36372,128,0,36769:0:0:0:0:
192,192,36480,128,0,36661:0:0:0:0:
320,192,36588,128,0,36932:0:0:0:0:
448,192,36588,128,0,36769:0:0:0:0:
192,192,36697,128,0,36986:0:0:0:0:
448,192,36805,128,0,37202:0:0:0:0:
64,192,36805,128,0,36986:0:0:0:0:
320,192,36968,128,0,37094:0:0:0:0:
192,192,37022,128,0,37202:0:0:0:0:
64,192,37022,128,0,37365:0:0:0:0:
320,192,37130,128,0,37419:0:0:0:0:
448,192,37239,128,0,37419:0:0:0:0:
192,192,37239,128,0,37527:0:0:0:0:
64,192,37401,128,0,37636:0:0:0:0:
320,192,37455,128,0,37636:0:0:0:0:
448,192,37455,128,0,37852:0:0:0:0:
192,192,37563,128,0,37852:0:0:0:0:
320,192,37672,128,0,37798:0:0:0:0:
64,192,37672,128,0,37961:0:0:0:0:
320,192,37834,128,0,38069:0:0:0:0:
448,192,37888,128,0,38069:0:0:0:0:
192,192,37888,128,0,38123:0:0:0:0:
64,192,37997,128,0,38123:0:0:0:0:
320,192,38105,128,0,38195:0:0:0:0:
448,192,38105,128,0,38177:0:0:0:0:
192,192,38159,128,0,38231:0:0:0:0:
64,192,38159,128,0,38250:0:0:0:0:
448,192,38213,128,0,38286:0:0:0:0:
320,192,38231,128,0,38394:0:0:0:0:
192,192,38268,128,0,38339:0:0:0:0:
64,192,38286,128,0,38448:0:0:0:0:
448,192,38321,128,0,38502:0:0:0:0:
192,192,38376,128,0,38557:0:0:0:0:
320,192,38430,128,0,38502:0:0:0:0:
64,192,38484,128,0,38610:0:0:0:0:
320,192,38538,128,0,38665:0:0:0:0:
448,192,38538,128,0,38719:0:0:0:0:
192,192,38592,128,0,38719:0:0:0:0:
64,192,38647,128,0,38773:0:0:0:0:
320,192,38701,128,0,38827:0:0:0:0:
448,192,38755,128,0,38935:0:0:0:0:
192,192,38755,128,0,38881:0:0:0:0:
64,192,38809,128,0,38935:0:0:0:0:
320,192,38863,128,0,38990:0:0:0:0:
192,192,38917,128,0,39043:0:0:0:0:
448,192,38972,128,0,39152:0:0:0:0:
64,192,38972,128,0,39098:0:0:0:0:
320,192,39026,128,0,39152:0:0:0:0:
192,192,39080,128,0,39206:0:0:0:0:
64,192,39134,128,0,39261:0:0:0:0:
320,192,39188,128,0,39423:0:0:0:0:
448,192,39188,128,0,39314:0:0:0:0:
192,192,39242,128,0,39369:0:0:0:0:
64,192,39297,128,0,39369:0:0:0:0:
448,192,39350,128,0,39477:0:0:0:0:
192,192,39405,128,0,39531:0:0:0:0:
64,192,39405,128,0,39586:0:0:0:0:
320,192,39459,128,0,39586:0:0:0:0:
448,192,39513,128,0,39639:0:0:0:0:
192,192,39568,128,0,39694:0:0:0:0:
320,192,39621,128,0,39748:0:0:0:0:
64,192,39621,128,0,39802:0:0:0:0:
448,192,39676,128,0,39802:0:0:0:0:
192,192,39730,128,0,39856:0:0:0:0:
320,192,39784,128,0,39910:0:0:0:0:
448,192,39838,128,0,39965:0:0:0:0:
64,192,39838,128,0,40019:0:0:0:0:
192,192,39892,128,0,40019:0:0:0:0:
320,192,39946,128,0,40073:0:0:0:0:
448,192,40001,128,0,40127:0:0:0:0:
64,192,40054,128,0,40290:0:0:0:0:
192,192,40054,128,0,40181:0:0:0:0:
320,192,40109,128,0,40235:0:0:0:0:
448,192,40163,128,0,40235:0:0:0:0:
192,192,40217,128,0,40343:0:0:0:0:
320,192,40272,128,0,40398:0:0:0:0:
448,192,40272,128,0,40343:0:0:0:0:
64,192,40326,128,0,40452:0:0:0:0:
192,192,40380,128,0,40452:0:0:0:0:
448,192,40380,128,0,40506:0:0:0:0:
320,192,40434,128,0,40560:0:0:0:0:
192,192,40488,128,0,40614:0:0:0:0:
64,192,40488,128,0,40560:0:0:0:0:
448,192,40542,128,0,40668:0:0:0:0:
320,192,40597,128,0,40668:0:0:0:0:
64,192,40597,128,0,40723:0:0:0:0:
192,192,40650,128,0,40723:0:0:0:0:
448,192,40705,128,0,40777:0:0:0:0:
320,192,40705,128,0,40777:0:0:0:0:
192,192,40759,128,0,40831:0:0:0:0:
64,192,40759,128,0,40831:0:0:0:0:
320,192,40813,128,0,40886:0:0:0:0:
448,192,40813,128,0,40886:0:0:0:0:
192,192,40867,128,0,40939:0:0:0:0:
64,192,40867,128,0,40939:0:0:0:0:
448,192,40921,128,0,40994:0:0:0:0:
320,192,40921,128,0,40994:0:0:0:0:
192,192,40975,128,0,41048:0:0:0:0:
64,192,40975,128,0,41048:0:0:0:0:
320,192,41030,128,0,41102:0:0:0:0:
448,192,41030,128,0,41102:0:0:0:0:
192,192,41084,128,0,41319:0:0:0:0:
64,192,41084,128,0,41319:0:0:0:0:
320,192,41138,128,0,41535:0:0:0:0:
448,192,41138,128,0,41319:0:0:0:0:
192,192,41354,128,0,41752:0:0:0:0:
64,192,41354,128,0,41752:0:0:0:0:
448,192,41354,128,0,41535:0:0:0:0:
448,192,41571,128,0,41643:0:0:0:0:
320,192,41571,128,0,41643:0:0:0:0:
448,192,41679,128,0,41752:0:0:0:0:
320,192,41679,128,0,41752:0:0:0:0:
64,192,41788,128,0,41968:0:0:0:0:
192,192,41788,128,0,42023:0:0:0:0:
320,192,41788,128,0,42023:0:0:0:0:
448,192,41788,128,0,41968:0:0:0:0:
64,192,42005,128,0,42077:0:0:0:0:
448,192,42005,128,0,42077:0:0:0:0:
320,192,42059,128,0,42131:0:0:0:0:
192,192,42059,128,0,42131:0:0:0:0:
64,192,42113,128,0,42185:0:0:0:0:
448,192,42113,128,0,42185:0:0:0:0:
320,192,42167,128,0,42293:0:0:0:0:
192,192,42167,128,0,42239:0:0:0:0:
64,192,42221,128,0,42348:0:0:0:0:
448,192,42221,128,0,42293:0:0:0:0:
192,192,42275,128,0,42402:0:0:0:0:
320,192,42330,128,0,42402:0:0:0:0:
448,192,42330,128,0,42456:0:0:0:0:
64,192,42383,128,0,42510:0:0:0:0:
192,192,42438,128,0,42510:0:0:0:0:
320,192,42438,128,0,42564:0:0:0:0:
448,192,42492,128,0,42619:0:0:0:0:
192,192,42546,128,0,42619:0:0:0:0:
64,192,42546,128,0,42672:0:0:0:0:
320,192,42601,128,0,42727:0:0:0:0:
448,192,42654,128,0,42727:0:0:0:0:
192,192,42654,128,0,42781:0:0:0:0:
64,192,42709,128,0,42889:0:0:0:0:
320,192,42763,128,0,42835:0:0:0:0:
448,192,42763,128,0,42835:0:0:0:0:
192,192,42817,128,0,42889:0:0:0:0:
448,192,42871,128,0,42943:0:0:0:0:
320,192,42871,128,0,42943:0:0:0:0:
192,192,42926,128,0,42997:0:0:0:0:
64,192,42926,128,0,42997:0:0:0:0:
320,192,42979,128,0,43052:0:0:0:0:
448,192,42979,128,0,43052:0:0:0:0:
192,192,43034,128,0,43106:0:0:0:0:
64,192,43034,128,0,43160:0:0:0:0:
320,192,43088,128,0,43214:0:0:0:0:
448,192,43088,128,0,43160:0:0:0:0:
192,192,43142,128,0,43268:0:0:0:0:
64,192,43196,128,0,43268:0:0:0:0:
448,192,43196,128,0,43323:0:0:0:0:
320,192,43250,128,0,43377:0:0:0:0:
192,192,43304,128,0,43431:0:0:0:0:
64,192,43304,128,0,43377:0:0:0:0:
448,192,43359,128,0,43485:0:0:0:0:
320,192,43413,128,0,43485:0:0:0:0:
64,192,43413,128,0,43539:0:0:0:0:
192,192,43467,128,0,43593:0:0:0:0:
320,192,43521,128,0,43648:0:0:0:0:
448,192,43521,128,0,43593:0:0:0:0:
64,192,43575,128,0,43701:0:0:0:0:
448,192,43630,128,0,43756:0:0:0:0:
192,192,43630,128,0,43701:0:0:0:0:
320,192,43683,128,0,43810:0:0:0:0:
192,192,43738,128,0,43864:0:0:0:0:
64,192,43738,128,0,43919:0:0:0:0:
448,192,43792,128,0,43864:0:0:0:0:
320,192,43846,128,0,43972:0:0:0:0:
448,192,43900,128,0,44081:0:0:0:0:
192,192,43900,128,0,44027:0:0:0:0:
64,192,43954,128,0,44027:0:0:0:0:
320,192,44008,128,0,44135:0:0:0:0:
192,192,44063,128,0,44189:0:0:0:0:
64,192,44063,128,0,44135:0:0:0:0:
448,192,44117,128,0,44297:0:0:0:0:
320,192,44171,128,0,44243:0:0:0:0:
64,192,44171,128,0,44297:0:0:0:0:
192,192,44226,128,0,44352:0:0:0:0:
320,192,44279,128,0,44406:0:0:0:0:
448,192,44334,128,0,44460:0:0:0:0:
64,192,44334,128,0,44460:0:0:0:0:
192,192,44388,128,0,44514:0:0:0:0:
320,192,44442,128,0,44568:0:0:0:0:
448,192,44496,128,0,44568:0:0:0:0:
64,192,44496,128,0,44622:0:0:0:0:
192,192,44550,128,0,44731:0:0:0:0:
320,192,44604,128,0,44731:0:0:0:0:
448,192,44604,128,0,44677:0:0:0:0:
64,192,44659,128,0,44785:0:0:0:0:
448,192,44712,128,0,44893:0:0:0:0:
320,192,44767,128,0,44839:0:0:0:0:
192,192,44767,128,0,44893:0:0:0:0:
64,192,44821,128,0,44948:0:0:0:0:
320,192,44875,128,0,45001:0:0:0:0:
448,192,44929,128,0,45001:0:0:0:0:
192,192,44929,128,0,45056:0:0:0:0:
64,192,44983,128,0,45056:0:0:0:0:
320,192,45038,128,0,45110:0:0:0:0:
448,192,45038,128,0,45110:0:0:0:0:
192,192,45092,128,0,45164:0:0:0:0:
64,192,45092,128,0,45218:0:0:0:0:
320,192,45146,128,0,45272:0:0:0:0:
448,192,45146,128,0,45218:0:0:0:0:
192,192,45200,128,0,45272:0:0:0:0:
64,192,45254,128,0,45326:0:0:0:0:
448,192,45254,128,0,45326:0:0:0:0:
192,192,45308,128,0,45381:0:0:0:0:
320,192,45308,128,0,45434:0:0:0:0:
448,192,45363,128,0,45434:0:0:0:0:
64,192,45363,128,0,45489:0:0:0:0:
192,192,45417,128,0,45489:0:0:0:0:
320,192,45471,128,0,45543:0:0:0:0:
448,192,45471,128,0,45543:0:0:0:0:
192,192,45525,128,0,45597:0:0:0:0:
64,192,45525,128,0,45597:0:0:0:0:
320,192,45579,128,0,45652:0:0:0:0:
448,192,45579,128,0,45652:0:0:0:0:
192,192,45633,128,0,45706:0:0:0:0:
64,192,45633,128,0,45760:0:0:0:0:
320,192,45688,128,0,45814:0:0:0:0:
448,192,45688,128,0,45760:0:0:0:0:
192,192,45741,128,0,45868:0:0:0:0:
64,192,45796,128,0,45868:0:0:0:0:
448,192,45796,128,0,45922:0:0:0:0:
320,192,45850,128,0,45977:0:0:0:0:
192,192,45904,128,0,46030:0:0:0:0:
64,192,45904,128,0,45977:0:0:0:0:
448,192,45959,128,0,46085:0:0:0:0:
320,192,46012,128,0,46085:0:0:0:0:
64,192,46012,128,0,46139:0:0:0:0:
192,192,46067,128,0,46193:0:0:0:0:
320,192,46121,128,0,46247:0:0:0:0:
448,192,46121,128,0,46193:0:0:0:0:
64,192,46175,128,0,46301:0:0:0:0:
192,192,46229,128,0,46356:0:0:0:0:
448,192,46229,128,0,46301:0:0:0:0:
320,192,46283,128,0,46356:0:0:0:0:
448,192,46337,128,0,46410:0:0:0:0:
64,192,46337,128,0,46410:0:0:0:0:
320,192,46392,128,0,46464:0:0:0:0:
192,192,46392,128,0,46464:0:0:0:0:
64,192,46446,128,0,46518:0:0:0:0:
448,192,46446,128,0,46518:0:0:0:0:
192,192,46500,128,0,46572:0:0:0:0:
320,192,46500,128,0,46626:0:0:0:0:
448,192,46554,128,0,46626:0:0:0:0:
64,192,46554,128,0,46681:0:0:0:0:
192,192,46608,128,0,46734:0:0:0:0:
320,192,46663,128,0,46789:0:0:0:0:
448,192,46663,128,0,46734:0:0:0:0:
64,192,46717,128,0,46843:0:0:0:0:
192,192,46771,128,0,46843:0:0:0:0:
448,192,46771,128,0,46897:0:0:0:0:
320,192,46825,128,0,46951:0:0:0:0:
192,192,46879,128,0,46951:0:0:0:0:
64,192,46879,128,0,47006:0:0:0:0:
448,192,46933,128,0,47059:0:0:0:0:
320,192,46988,128,0,47059:0:0:0:0:
192,192,46988,128,0,47114:0:0:0:0:
64,192,47041,128,0,47168:0:0:0:0:
320,192,47096,128,0,47168:0:0:0:0:
448,192,47096,128,0,47222:0:0:0:0:
192,192,47150,128,0,47277:0:0:0:0:
64,192,47204,128,0,47385:0:0:0:0:
320,192,47204,128,0,47330:0:0:0:0:
448,192,47258,128,0,47330:0:0:0:0:
192,192,47312,128,0,47439:0:0:0:0:
320,192,47367,128,0,47493:0:0:0:0:
448,192,47367,128,0,47547:0:0:0:0:
64,192,47421,128,0,47493:0:0:0:0:
192,192,47475,128,0,47601:0:0:0:0:
64,192,47529,128,0,47601:0:0:0:0:
320,192,47529,128,0,47655:0:0:0:0:
448,192,47583,128,0,47763:0:0:0:0:
64,192,47637,128,0,47763:0:0:0:0:
192,192,47637,128,0,47710:0:0:0:0:
320,192,47692,128,0,47818:0:0:0:0:
192,192,47746,128,0,47872:0:0:0:0:
64,192,47800,128,0,47926:0:0:0:0:
448,192,47800,128,0,47926:0:0:0:0:
320,192,47854,128,0,47981:0:0:0:0:
192,192,47908,128,0,48034:0:0:0:0:
64,192,47962,128,0,48034:0:0:0:0:
448,192,47962,128,0,48089:0:0:0:0:
320,192,48017,128,0,48197:0:0:0:0:
192,192,48070,128,0,48143:0:0:0:0:
64,192,48070,128,0,48197:0:0:0:0:
448,192,48125,128,0,48251:0:0:0:0:
192,192,48179,128,0,48359:0:0:0:0:
64,192,48233,128,0,48306:0:0:0:0:
320,192,48233,128,0,48414:0:0:0:0:
448,192,48288,128,0,48359:0:0:0:0:
64,192,48341,128,0,48468:0:0:0:0:
192,192,48396,128,0,48468:0:0:0:0:
448,192,48396,128,0,48522:0:0:0:0:
320,192,48450,128,0,48576:0:0:0:0:
192,192,48504,128,0,48630:0:0:0:0:
64,192,48504,128,0,48684:0:0:0:0:
448,192,48558,128,0,48684:0:0:0:0:
320,192,48612,128,0,48739:0:0:0:0:
192,192,48666,128,0,48793:0:0:0:0:
64,192,48721,128,0,48901:0:0:0:0:
448,192,48721,128,0,48901:0:0:0:0:
320,192,48774,128,0,48847:0:0:0:0:
192,192,48829,128,0,48955:0:0:0:0:
320,192,48883,128,0,48955:0:0:0:0:
448,192,48937,128,0,49010:0:0:0:0:
64,192,48937,128,0,49010:0:0:0:0:
320,192,48992,128,0,49063:0:0:0:0:
192,192,48992,128,0,49063:0:0:0:0:
64,192,49046,128,0,49118:0:0:0:0:
448,192,49046,128,0,49118:0:0:0:0:
320,192,49100,128,0,49172:0:0:0:0:
192,192,49100,128,0,49226:0:0:0:0:
64,192,49154,128,0,49226:0:0:0:0:
448,192,49154,128,0,49280:0:0:0:0:
320,192,49208,128,0,49334:0:0:0:0:
192,192,49262,128,0,49334:0:0:0:0:
64,192,49262,128,0,49388:0:0:0:0:
448,192,49317,128,0,49443:0:0:0:0:
320,192,49370,128,0,49443:0:0:0:0:
192,192,49370,128,0,49497:0:0:0:0:
64,192,49425,128,0,49551:0:0:0:0:
448,192,49479,128,0,49606:0:0:0:0:
320,192,49479,128,0,49551:0:0:0:0:
192,192,49533,128,0,49659:0:0:0:0:
64,192,49587,128,0,49659:0:0:0:0:
320,192,49587,128,0,49714:0:0:0:0:
448,192,49641,128,0,49822:0:0:0:0:
192,192,49695,128,0,49768:0:0:0:0:
64,192,49695,128,0,49768:0:0:0:0:
320,192,49750,128,0,49822:0:0:0:0:
192,192,49804,128,0,49876:0:0:0:0:
64,192,49804,128,0,49876:0:0:0:0:
448,192,49858,128,0,49930:0:0:0:0:
320,192,49858,128,0,49930:0:0:0:0:
64,192,49912,128,0,49984:0:0:0:0:
192,192,49912,128,0,49984:0:0:0:0:
320,192,49966,128,0,50039:0:0:0:0:
448,192,49966,128,0,50092:0:0:0:0:
192,192,50021,128,0,50147:0:0:0:0:
64,192,50021,128,0,50092:0:0:0:0:
320,192,50074,128,0,50201:0:0:0:0:
448,192,50129,128,0,50201:0:0:0:0:
64,192,50129,128,0,50255:0:0:0:0:
192,192,50183,128,0,50310:0:0:0:0:
320,192,50237,128,0,50363:0:0:0:0:
448,192,50237,128,0,50310:0:0:0:0:
64,192,50291,128,0,50418:0:0:0:0:
192,192,50346,128,0,50418:0:0:0:0:
448,192,50346,128,0,50526:0:0:0:0:
320,192,50399,128,0,50472:0:0:0:0:
192,192,50454,128,0,50526:0:0:0:0:
64,192,50454,128,0,50580:0:0:0:0:
320,192,50508,128,0,50634:0:0:0:0:
448,192,50562,128,0,50634:0:0:0:0:
192,192,50562,128,0,50688:0:0:0:0:
64,192,50617,128,0,50797:0:0:0:0:
320,192,50670,128,0,50743:0:0:0:0:
448,192,50670,128,0,50797:0:0:0:0:
192,192,50725,128,0,50851:0:0:0:0:
320,192,50779,128,0,50905:0:0:0:0:
448,192,50833,128,0,51013:0:0:0:0:
64,192,50833,128,0,50959:0:0:0:0:
192,192,50887,128,0,50959:0:0:0:0:
320,192,50941,128,0,51068:0:0:0:0:
192,192,50995,128,0,51122:0:0:0:0:
64,192,50995,128,0,51068:0:0:0:0:
448,192,51050,128,0,51230:0:0:0:0:
320,192,51103,128,0,51176:0:0:0:0:
64,192,51103,128,0,51230:0:0:0:0:
192,192,51158,128,0,51284:0:0:0:0:
320,192,51212,128,0,51339:0:0:0:0:
448,192,51266,128,0,51392:0:0:0:0:
64,192,51266,128,0,51392:0:0:0:0:
192,192,51320,128,0,51447:0:0:0:0:
320,192,51374,128,0,51501:0:0:0:0:
448,192,51429,128,0,51501:0:0:0:0:
64,192,51429,128,0,51555:0:0:0:0:
192,192,51483,128,0,51663:0:0:0:0:
320,192,51537,128,0,51663:0:0:0:0:
448,192,51537,128,0,51609:0:0:0:0:
64,192,51591,128,0,51717:0:0:0:0:
448,192,51646,128,0,51772:0:0:0:0:
320,192,51699,128,0,51880:0:0:0:0:
192,192,51699,128,0,51826:0:0:0:0:
64,192,51754,128,0,51826:0:0:0:0:
448,192,51808,128,0,51934:0:0:0:0:
64,192,51862,128,0,51988:0:0:0:0:
192,192,51862,128,0,51934:0:0:0:0:
320,192,51916,128,0,52043:0:0:0:0:
192,192,51970,128,0,52097:0:0:0:0:
448,192,51970,128,0,52151:0:0:0:0:
64,192,52024,128,0,52097:0:0:0:0:
320,192,52079,128,0,52205:0:0:0:0:
192,192,52132,128,0,52259:0:0:0:0:
64,192,52132,128,0,52259:0:0:0:0:
448,192,52187,128,0,52313:0:0:0:0:
320,192,52241,128,0,52421:0:0:0:0:
192,192,52295,128,0,52368:0:0:0:0:
64,192,52295,128,0,52368:0:0:0:0:
448,192,52350,128,0,52421:0:0:0:0:
192,192,52403,128,0,52476:0:0:0:0:
64,192,52403,128,0,52476:0:0:0:0:
320,192,52458,128,0,52530:0:0:0:0:
448,192,52458,128,0,52530:0:0:0:0:
192,192,52512,128,0,52584:0:0:0:0:
64,192,52512,128,0,52584:0:0:0:0:
320,192,52566,128,0,52692:0:0:0:0:
448,192,52566,128,0,52638:0:0:0:0:
192,192,52620,128,0,52747:0:0:0:0:
64,192,52620,128,0,52692:0:0:0:0:
448,192,52674,128,0,52801:0:0:0:0:
320,192,52728,128,0,52801:0:0:0:0:
64,192,52728,128,0,52855:0:0:0:0:
192,192,52783,128,0,52909:0:0:0:0:
320,192,52837,128,0,52963:0:0:0:0:
448,192,52837,128,0,52909:0:0:0:0:
64,192,52891,128,0,53017:0:0:0:0:
192,192,52946,128,0,53017:0:0:0:0:
448,192,52946,128,0,53072:0:0:0:0:
320,192,52999,128,0,53126:0:0:0:0:
64,192,53054,128,0,53126:0:0:0:0:
192,192,53054,128,0,53180:0:0:0:0:
448,192,53108,128,0,53234:0:0:0:0:
320,192,53162,128,0,53288:0:0:0:0:
64,192,53162,128,0,53234:0:0:0:0:
192,192,53216,128,0,53288:0:0:0:0:
64,192,53270,128,0,53342:0:0:0:0:
448,192,53270,128,0,53342:0:0:0:0:
320,192,53324,128,0,53397:0:0:0:0:
192,192,53324,128,0,53397:0:0:0:0:
64,192,53379,128,0,53450:0:0:0:0:
448,192,53379,128,0,53450:0:0:0:0:
320,192,53432,128,0,53559:0:0:0:0:
192,192,53432,128,0,53505:0:0:0:0:
448,192,53487,128,0,53559:0:0:0:0:
64,192,53487,128,0,53613:0:0:0:0:
192,192,53541,128,0,53668:0:0:0:0:
320,192,53595,128,0,53668:0:0:0:0:
448,192,53595,128,0,53721:0:0:0:0:
64,192,53649,128,0,53776:0:0:0:0:
320,192,53703,128,0,53830:0:0:0:0:
192,192,53703,128,0,53776:0:0:0:0:
448,192,53758,128,0,53884:0:0:0:0:
64,192,53812,128,0,53938:0:0:0:0:
192,192,53812,128,0,53884:0:0:0:0:
320,192,53866,128,0,53992:0:0:0:0:
448,192,53920,128,0,53992:0:0:0:0:
192,192,53920,128,0,54046:0:0:0:0:
64,192,53974,128,0,54101:0:0:0:0:
320,192,54028,128,0,54101:0:0:0:0:
448,192,54028,128,0,54154:0:0:0:0:
192,192,54083,128,0,54209:0:0:0:0:
320,192,54137,128,0,54263:0:0:0:0:
64,192,54137,128,0,54317:0:0:0:0:
448,192,54191,128,0,54263:0:0:0:0:
192,192,54245,128,0,54372:0:0:0:0:
320,192,54299,128,0,54426:0:0:0:0:
448,192,54299,128,0,54480:0:0:0:0:
64,192,54353,128,0,54426:0:0:0:0:
192,192,54408,128,0,54534:0:0:0:0:
320,192,54461,128,0,54588:0:0:0:0:
64,192,54461,128,0,54534:0:0:0:0:
448,192,54516,128,0,54642:0:0:0:0:
192,192,54570,128,0,54697:0:0:0:0:
64,192,54570,128,0,54697:0:0:0:0:
320,192,54624,128,0,54750:0:0:0:0:
448,192,54679,128,0,54913:0:0:0:0:
192,192,54732,128,0,54805:0:0:0:0:
64,192,54732,128,0,54859:0:0:0:0:
320,192,54787,128,0,54859:0:0:0:0:
192,192,54841,128,0,54967:0:0:0:0:
64,192,54895,128,0,54967:0:0:0:0:
320,192,54895,128,0,55076:0:0:0:0:
448,192,54949,128,0,55184:0:0:0:0:
192,192,55003,128,0,55130:0:0:0:0:
64,192,55003,128,0,55401:0:0:0:0:
320,192,55112,128,0,55346:0:0:0:0:
192,192,55166,128,0,55292:0:0:0:0:
448,192,55220,128,0,55509:0:0:0:0:
192,192,55328,128,0,55401:0:0:0:0:
320,192,55383,128,0,55509:0:0:0:0:
192,192,55437,128,0,55617:0:0:0:0:
64,192,55437,128,0,55834:0:0:0:0:
320,192,55545,128,0,55671:0:0:0:0:
448,192,55545,128,0,55834:0:0:0:0:
192,192,55653,128,0,55726:0:0:0:0:
320,192,55708,128,0,55779:0:0:0:0:
192,192,55761,128,0,55834:0:0:0:0:
320,192,55816,128,0,55888:0:0:0:0:
448,192,55870,128,0,55997:0:0:0:0:
192,192,55870,128,0,56050:0:0:0:0:
64,192,55870,128,0,55942:0:0:0:0:
320,192,55924,128,0,56105:0:0:0:0:
64,192,55978,128,0,56050:0:0:0:0:
448,192,56032,128,0,56159:0:0:0:0:
192,192,56086,128,0,56213:0:0:0:0:
64,192,56086,128,0,56267:0:0:0:0:
320,192,56141,128,0,56321:0:0:0:0:
448,192,56195,128,0,56267:0:0:0:0:
192,192,56249,128,0,56375:0:0:0:0:
64,192,56303,128,0,56483:0:0:0:0:
448,192,56303,128,0,56430:0:0:0:0:
320,192,56357,128,0,56538:0:0:0:0:
192,192,56412,128,0,56483:0:0:0:0:
448,192,56466,128,0,56592:0:0:0:0:
64,192,56520,128,0,56701:0:0:0:0:
192,192,56520,128,0,56646:0:0:0:0:
320,192,56574,128,0,56701:0:0:0:0:
448,192,56628,128,0,56754:0:0:0:0:
192,192,56682,128,0,56809:0:0:0:0:
320,192,56737,128,0,56917:0:0:0:0:
64,192,56737,128,0,56863:0:0:0:0:
448,192,56790,128,0,56917:0:0:0:0:
192,192,56845,128,0,56971:0:0:0:0:
64,192,56899,128,0,57134:0:0:0:0:
320,192,56953,128,0,57079:0:0:0:0:
448,192,56953,128,0,57026:0:0:0:0:
192,192,57008,128,0,57134:0:0:0:0:
448,192,57061,128,0,57350:0:0:0:0:
320,192,57116,128,0,57188:0:0:0:0:
192,192,57170,128,0,57296:0:0:0:0:
64,192,57170,128,0,57242:0:0:0:0:
320,192,57224,128,0,57350:0:0:0:0:
64,192,57278,128,0,57404:0:0:0:0:
192,192,57332,128,0,57513:0:0:0:0:
448,192,57386,128,0,57567:0:0:0:0:
320,192,57386,128,0,57459:0:0:0:0:
64,192,57441,128,0,57567:0:0:0:0:
320,192,57494,128,0,57621:0:0:0:0:
192,192,57549,128,0,57675:0:0:0:0:
448,192,57603,128,0,57730:0:0:0:0:
64,192,57603,128,0,57783:0:0:0:0:
320,192,57657,128,0,57783:0:0:0:0:
192,192,57712,128,0,57838:0:0:0:0:
448,192,57766,128,0,57892:0:0:0:0:
320,192,57820,128,0,57946:0:0:0:0:
64,192,57820,128,0,58000:0:0:0:0:
192,192,57874,128,0,58000:0:0:0:0:
448,192,57928,128,0,58054:0:0:0:0:
320,192,57982,128,0,58163:0:0:0:0:
192,192,58037,128,0,58108:0:0:0:0:
64,192,58037,128,0,58217:0:0:0:0:
448,192,58090,128,0,58271:0:0:0:0:
192,192,58145,128,0,58217:0:0:0:0:
320,192,58199,128,0,58326:0:0:0:0:
192,192,58253,128,0,58379:0:0:0:0:
64,192,58253,128,0,58434:0:0:0:0:
448,192,58307,128,0,58434:0:0:0:0:
320,192,58361,128,0,58488:0:0:0:0:
192,192,58415,128,0,58704:0:0:0:0:
64,192,58470,128,0,58542:0:0:0:0:
448,192,58470,128,0,58596:0:0:0:0:
320,192,58524,128,0,58650:0:0:0:0:
64,192,58578,128,0,58650:0:0:0:0:
448,192,58632,128,0,58921:0:0:0:0:
64,192,58686,128,0,58812:0:0:0:0:
320,192,58686,128,0,58759:0:0:0:0:
192,192,58741,128,0,58867:0:0:0:0:
320,192,58794,128,0,58867:0:0:0:0:
64,192,58849,128,0,59083:0:0:0:0:
192,192,58903,128,0,58975:0:0:0:0:
320,192,58903,128,0,59029:0:0:0:0:
448,192,58957,128,0,59138:0:0:0:0:
192,192,59011,128,0,59083:0:0:0:0:
320,192,59066,128,0,59192:0:0:0:0:
64,192,59119,128,0,59246:0:0:0:0:
192,192,59119,128,0,59300:0:0:0:0:
448,192,59174,128,0,59300:0:0:0:0:
320,192,59228,128,0,59300:0:0:0:0:
64,192,59282,128,0,59354:0:0:0:0:
192,192,59337,128,0,59463:0:0:0:0:
320,192,59337,128,0,59408:0:0:0:0:
448,192,59337,128,0,59517:0:0:0:0:
64,192,59390,128,0,59517:0:0:0:0:
320,192,59445,128,0,59679:0:0:0:0:
192,192,59499,128,0,59571:0:0:0:0:
448,192,59553,128,0,59625:0:0:0:0:
64,192,59553,128,0,59733:0:0:0:0:
192,192,59607,128,0,59733:0:0:0:0:
448,192,59661,128,0,59788:0:0:0:0:
320,192,59715,128,0,59842:0:0:0:0:
192,192,59770,128,0,59950:0:0:0:0:
64,192,59770,128,0,59896:0:0:0:0:
448,192,59823,128,0,59950:0:0:0:0:
320,192,59878,128,0,60004:0:0:0:0:
64,192,59932,128,0,60059:0:0:0:0:
192,192,59986,128,0,60112:0:0:0:0:
448,192,59986,128,0,60167:0:0:0:0:
320,192,60040,128,0,60167:0:0:0:0:
64,192,60094,128,0,60383:0:0:0:0:
192,192,60149,128,0,60221:0:0:0:0:
320,192,60203,128,0,60329:0:0:0:0:
448,192,60203,128,0,60275:0:0:0:0:
192,192,60257,128,0,60383:0:0:0:0:
448,192,60311,128,0,60437:0:0:0:0:
320,192,60366,128,0,60546:0:0:0:0:
192,192,60419,128,0,60600:0:0:0:0:
64,192,60419,128,0,60492:0:0:0:0:
448,192,60474,128,0,60600:0:0:0:0:
64,192,60528,128,0,60654:0:0:0:0:
320,192,60582,128,0,60708:0:0:0:0:
448,192,60636,128,0,60817:0:0:0:0:
192,192,60636,128,0,60763:0:0:0:0:
64,192,60690,128,0,60817:0:0:0:0:
320,192,60744,128,0,60871:0:0:0:0:
192,192,60799,128,0,60925:0:0:0:0:
64,192,60852,128,0,61033:0:0:0:0:
448,192,60852,128,0,60979:0:0:0:0:
320,192,60907,128,0,61033:0:0:0:0:
192,192,60961,128,0,61088:0:0:0:0:
448,192,61015,128,0,61141:0:0:0:0:
320,192,61070,128,0,61304:0:0:0:0:
64,192,61070,128,0,61196:0:0:0:0:
192,192,61123,128,0,61250:0:0:0:0:
448,192,61178,128,0,61250:0:0:0:0:
64,192,61232,128,0,61358:0:0:0:0:
448,192,61286,128,0,61467:0:0:0:0:
192,192,61286,128,0,61412:0:0:0:0:
320,192,61340,128,0,61467:0:0:0:0:
64,192,61394,128,0,61521:0:0:0:0:
192,192,61448,128,0,61629:0:0:0:0:
320,192,61503,128,0,61575:0:0:0:0:
448,192,61503,128,0,61683:0:0:0:0:
64,192,61557,128,0,61683:0:0:0:0:
320,192,61611,128,0,61737:0:0:0:0:
192,192,61665,128,0,61792:0:0:0:0:
448,192,61719,128,0,61846:0:0:0:0:
64,192,61719,128,0,61900:0:0:0:0:
320,192,61774,128,0,61954:0:0:0:0:
192,192,61828,128,0,61900:0:0:0:0:
448,192,61882,128,0,62008:0:0:0:0:
192,192,61936,128,0,62062:0:0:0:0:
64,192,61936,128,0,62117:0:0:0:0:
320,192,61990,128,0,62117:0:0:0:0:
448,192,62044,128,0,62170:0:0:0:0:
192,192,62099,128,0,62225:0:0:0:0:
64,192,62152,128,0,62333:0:0:0:0:
320,192,62152,128,0,62279:0:0:0:0:
448,192,62207,128,0,62333:0:0:0:0:
192,192,62261,128,0,62388:0:0:0:0:
320,192,62315,128,0,62441:0:0:0:0:
448,192,62369,128,0,62550:0:0:0:0:
64,192,62369,128,0,62496:0:0:0:0:
192,192,62423,128,0,62766:0:0:0:0:
320,192,62477,128,0,62550:0:0:0:0:
64,192,62532,128,0,62604:0:0:0:0:
320,192,62586,128,0,62658:0:0:0:0:
448,192,62586,128,0,62766:0:0:0:0:
64,192,62640,128,0,62712:0:0:0:0:
320,192,62694,128,0,62766:0:0:0:0:
64,192,62748,128,0,62821:0:0:0:0:
192,192,62803,128,0,62929:0:0:0:0:
320,192,62803,128,0,62983:0:0:0:0:
448,192,62803,128,0,62874:0:0:0:0:
64,192,62857,128,0,62983:0:0:0:0:
448,192,62911,128,0,63037:0:0:0:0:
192,192,62965,128,0,63092:0:0:0:0:
320,192,63019,128,0,63146:0:0:0:0:
64,192,63019,128,0,63200:0:0:0:0:
448,192,63073,128,0,63200:0:0:0:0:
192,192,63128,128,0,63254:0:0:0:0:
320,192,63181,128,0,63308:0:0:0:0:
448,192,63236,128,0,63417:0:0:0:0:
64,192,63236,128,0,63362:0:0:0:0:
192,192,63290,128,0,63417:0:0:0:0:
320,192,63344,128,0,63470:0:0:0:0:
64,192,63399,128,0,63633:0:0:0:0:
448,192,63452,128,0,63579:0:0:0:0:
192,192,63452,128,0,63525:0:0:0:0:
320,192,63507,128,0,63633:0:0:0:0:
192,192,63561,128,0,63687:0:0:0:0:
448,192,63615,128,0,63741:0:0:0:0:
320,192,63669,128,0,63850:0:0:0:0:
64,192,63669,128,0,63904:0:0:0:0:
192,192,63723,128,0,63795:0:0:0:0:
448,192,63777,128,0,63850:0:0:0:0:
192,192,63832,128,0,63958:0:0:0:0:
320,192,63886,128,0,64066:0:0:0:0:
448,192,63886,128,0,64012:0:0:0:0:
64,192,63940,128,0,64066:0:0:0:0:
192,192,63994,128,0,64121:0:0:0:0:
448,192,64048,128,0,64174:0:0:0:0:
320,192,64103,128,0,64283:0:0:0:0:
64,192,64103,128,0,64229:0:0:0:0:
192,192,64157,128,0,64283:0:0:0:0:
448,192,64211,128,0,64337:0:0:0:0:
64,192,64265,128,0,64391:0:0:0:0:
192,192,64319,128,0,64499:0:0:0:0:
320,192,64319,128,0,64446:0:0:0:0:
448,192,64373,128,0,64554:0:0:0:0:
64,192,64428,128,0,64499:0:0:0:0:
320,192,64481,128,0,64608:0:0:0:0:
192,192,64536,128,0,64662:0:0:0:0:
64,192,64536,128,0,64717:0:0:0:0:
448,192,64590,128,0,64717:0:0:0:0:
320,192,64644,128,0,64770:0:0:0:0:
192,192,64698,128,0,64879:0:0:0:0:
64,192,64752,128,0,64825:0:0:0:0:
448,192,64752,128,0,64933:0:0:0:0:
320,192,64806,128,0,64933:0:0:0:0:
64,192,64861,128,0,65095:0:0:0:0:
192,192,64915,128,0,64987:0:0:0:0:
320,192,64969,128,0,65041:0:0:0:0:
448,192,64969,128,0,65203:0:0:0:0:
192,192,65023,128,0,65150:0:0:0:0:
320,192,65077,128,0,65150:0:0:0:0:
64,192,65132,128,0,65366:0:0:0:0:
192,192,65186,128,0,65258:0:0:0:0:
320,192,65186,128,0,65312:0:0:0:0:
448,192,65240,128,0,65366:0:0:0:0:
192,192,65294,128,0,65421:0:0:0:0:
320,192,65348,128,0,65474:0:0:0:0:
64,192,65402,128,0,65583:0:0:0:0:
448,192,65402,128,0,65583:0:0:0:0:
192,192,65457,128,0,65529:0:0:0:0:
320,192,65510,128,0,65637:0:0:0:0:
192,192,65565,128,0,65691:0:0:0:0:
448,192,65619,128,0,65746:0:0:0:0:
64,192,65619,128,0,65799:0:0:0:0:
320,192,65673,128,0,65799:0:0:0:0:
192,192,65728,128,0,65854:0:0:0:0:
448,192,65781,128,0,65908:0:0:0:0:
64,192,65836,128,0,65962:0:0:0:0:
320,192,65836,128,0,66016:0:0:0:0:
192,192,65890,128,0,66016:0:0:0:0:
448,192,65944,128,0,66070:0:0:0:0:
64,192,65998,128,0,66124:0:0:0:0:
192,192,66052,128,0,66233:0:0:0:0:
320,192,66052,128,0,66233:0:0:0:0:
448,192,66106,128,0,66179:0:0:0:0:
64,192,66161,128,0,66233:0:0:0:0:
448,192,66214,128,0,66287:0:0:0:0:
320,192,66269,128,0,66395:0:0:0:0:
192,192,66269,128,0,66341:0:0:0:0:
64,192,66269,128,0,66450:0:0:0:0:
448,192,66323,128,0,66450:0:0:0:0:
192,192,66377,128,0,66503:0:0:0:0:
320,192,66431,128,0,66558:0:0:0:0:
448,192,66486,128,0,66666:0:0:0:0:
64,192,66486,128,0,66612:0:0:0:0:
192,192,66540,128,0,66666:0:0:0:0:
320,192,66594,128,0,66720:0:0:0:0:
64,192,66648,128,0,66774:0:0:0:0:
192,192,66702,128,0,66883:0:0:0:0:
448,192,66702,128,0,66883:0:0:0:0:
320,192,66757,128,0,66828:0:0:0:0:
64,192,66810,128,0,66937:0:0:0:0:
320,192,66865,128,0,66991:0:0:0:0:
192,192,66919,128,0,67046:0:0:0:0:
448,192,66919,128,0,67154:0:0:0:0:
64,192,66973,128,0,67099:0:0:0:0:
320,192,67027,128,0,67099:0:0:0:0:
192,192,67081,128,0,67208:0:0:0:0:
320,192,67135,128,0,67262:0:0:0:0:
64,192,67135,128,0,67316:0:0:0:0:
448,192,67190,128,0,67370:0:0:0:0:
192,192,67243,128,0,67316:0:0:0:0:
320,192,67298,128,0,67479:0:0:0:0:
64,192,67352,128,0,67532:0:0:0:0:
192,192,67352,128,0,67424:0:0:0:0:
448,192,67406,128,0,67532:0:0:0:0:
192,192,67461,128,0,67587:0:0:0:0:
320,192,67514,128,0,67641:0:0:0:0:
448,192,67569,128,0,67749:0:0:0:0:
64,192,67569,128,0,67695:0:0:0:0:
192,192,67623,128,0,67749:0:0:0:0:
320,192,67677,128,0,67803:0:0:0:0:
64,192,67731,128,0,67966:0:0:0:0:
192,192,67786,128,0,67858:0:0:0:0:
448,192,67786,128,0,67912:0:0:0:0:
320,192,67839,128,0,68020:0:0:0:0:
192,192,67894,128,0,67966:0:0:0:0:
448,192,67948,128,0,68183:0:0:0:0:
64,192,68002,128,0,68074:0:0:0:0:
192,192,68002,128,0,68128:0:0:0:0:
320,192,68057,128,0,68183:0:0:0:0:
64,192,68110,128,0,68291:0:0:0:0:
192,192,68165,128,0,68237:0:0:0:0:
320,192,68219,128,0,68345:0:0:0:0:
448,192,68219,128,0,68399:0:0:0:0:
192,192,68273,128,0,68399:0:0:0:0:
64,192,68327,128,0,68453:0:0:0:0:
320,192,68381,128,0,68508:0:0:0:0:
448,192,68435,128,0,68670:0:0:0:0:
192,192,68435,128,0,68561:0:0:0:0:
64,192,68490,128,0,68616:0:0:0:0:
320,192,68543,128,0,68616:0:0:0:0:
192,192,68598,128,0,68724:0:0:0:0:
64,192,68652,128,0,68832:0:0:0:0:
320,192,68652,128,0,68779:0:0:0:0:
448,192,68706,128,0,68832:0:0:0:0:
192,192,68760,128,0,68995:0:0:0:0:
320,192,68814,128,0,68941:0:0:0:0:
64,192,68869,128,0,69049:0:0:0:0:
448,192,68869,128,0,69212:0:0:0:0:
320,192,68977,128,0,69103:0:0:0:0:
192,192,69031,128,0,69157:0:0:0:0:
64,192,69086,128,0,69157:0:0:0:0:
320,192,69139,128,0,69320:0:0:0:0:
192,192,69194,128,0,69266:0:0:0:0:
64,192,69194,128,0,69266:0:0:0:0:
448,192,69248,128,0,69320:0:0:0:0:
64,192,69302,128,0,69374:0:0:0:0:
192,192,69302,128,0,69392:0:0:0:0:
320,192,69356,128,0,69428:0:0:0:0:
448,192,69356,128,0,69446:0:0:0:0:
64,192,69410,128,0,69483:0:0:0:0:
192,192,69428,128,0,69537:0:0:0:0:
320,192,69464,128,0,69645:0:0:0:0:
448,192,69483,128,0,69591:0:0:0:0:
64,192,69519,128,0,69699:0:0:0:0:
192,192,69572,128,0,69699:0:0:0:0:
448,192,69627,128,0,71432:0:0:0:0:
320,192,69681,128,0,70566:0:0:0:0:
192,192,69735,128,0,70566:0:0:0:0:
64,192,69735,128,0,70349:0:0:0:0:
64,192,70385,128,0,72299:0:0:0:0:
192,192,70602,128,0,72082:0:0:0:0:
320,192,70602,128,0,71432:0:0:0:0:
320,192,71468,128,0,72299:0:0:0:0:
448,192,71468,128,0,72949:0:0:0:0:
192,192,72119,128,0,72732:0:0:0:0:
320,192,72335,128,0,72841:0:0:0:0:
64,192,72335,128,0,73166:0:0:0:0:
192,192,72768,128,0,73057:0:0:0:0:
320,192,72877,128,0,73166:0:0:0:0:
448,192,72985,128,0,74032:0:0:0:0:
192,192,73093,128,0,74899:0:0:0:0:
320,192,73201,128,0,73815:0:0:0:0:
64,192,73201,128,0,74032:0:0:0:0:
320,192,73852,128,0,75115:0:0:0:0:
448,192,74068,128,0,74466:0:0:0:0:
64,192,74068,128,0,74899:0:0:0:0:
448,192,74501,128,0,75332:0:0:0:0:
192,192,74934,128,0,75548:0:0:0:0:
64,192,74934,128,0,75766:0:0:0:0:
320,192,75151,128,0,75766:0:0:0:0:
448,192,75368,128,0,76199:0:0:0:0:
192,192,75585,128,0,76469:0:0:0:0:
64,192,75801,128,0,76252:0:0:0:0:
320,192,75801,128,0,76415:0:0:0:0:
448,192,76234,128,0,76307:0:0:0:0:
64,192,76289,128,0,76361:0:0:0:0:
448,192,76343,128,0,76632:0:0:0:0:
64,192,76397,128,0,76632:0:0:0:0:
320,192,76451,128,0,76523:0:0:0:0:
192,192,76506,128,0,76578:0:0:0:0:
320,192,76559,128,0,76632:0:0:0:0:
192,192,76614,128,0,77499:0:0:0:0:
320,192,76668,128,0,76848:0:0:0:0:
448,192,76668,128,0,77499:0:0:0:0:
64,192,76668,128,0,76848:0:0:0:0:
320,192,76885,128,0,77065:0:0:0:0:
64,192,76885,128,0,77065:0:0:0:0:
320,192,77101,128,0,77281:0:0:0:0:
64,192,77101,128,0,77281:0:0:0:0:
320,192,77318,128,0,79232:0:0:0:0:
64,192,77318,128,0,77499:0:0:0:0:
448,192,77534,128,0,77715:0:0:0:0:
192,192,77534,128,0,77715:0:0:0:0:
64,192,77534,128,0,78365:0:0:0:0:
192,192,77751,128,0,77932:0:0:0:0:
448,192,77751,128,0,77932:0:0:0:0:
448,192,77968,128,0,78148:0:0:0:0:
192,192,77968,128,0,78148:0:0:0:0:
448,192,78184,128,0,78365:0:0:0:0:
192,192,78184,128,0,78365:0:0:0:0:
448,192,78401,128,0,79232:0:0:0:0:
192,192,78401,128,0,78581:0:0:0:0:
64,192,78401,128,0,78581:0:0:0:0:
64,192,78618,128,0,78798:0:0:0:0:
192,192,78618,128,0,78798:0:0:0:0:
192,192,78834,128,0,79015:0:0:0:0:
64,192,78834,128,0,79015:0:0:0:0:
64,192,79051,128,0,79232:0:0:0:0:
192,192,79051,128,0,79773:0:0:0:0:
320,192,79268,128,0,79448:0:0:0:0:
448,192,79268,128,0,79448:0:0:0:0:
64,192,79268,128,0,79881:0:0:0:0:
320,192,79484,128,0,79665:0:0:0:0:
448,192,79484,128,0,79665:0:0:0:0:
448,192,79701,128,0,79881:0:0:0:0:
320,192,79701,128,0,79990:0:0:0:0:
192,192,79809,128,0,80044:0:0:0:0:
448,192,79917,128,0,80098:0:0:0:0:
64,192,79917,128,0,80098:0:0:0:0:
320,192,80026,128,0,80152:0:0:0:0:
192,192,80080,128,0,80206:0:0:0:0:
448,192,80134,128,0,80314:0:0:0:0:
64,192,80134,128,0,80261:0:0:0:0:
320,192,80188,128,0,80314:0:0:0:0:
192,192,80243,128,0,80351:0:0:0:0:
64,192,80297,128,0,80423:0:0:0:0:
320,192,80351,128,0,80477:0:0:0:0:
448,192,80351,128,0,80532:0:0:0:0:
192,192,80387,128,0,80532:0:0:0:0:
64,192,80459,128,0,80586:0:0:0:0:
320,192,80513,128,0,80640:0:0:0:0:
448,192,80568,128,0,80748:0:0:0:0:
192,192,80568,128,0,80694:0:0:0:0:
64,192,80621,128,0,80748:0:0:0:0:
320,192,80676,128,0,80802:0:0:0:0:
192,192,80730,128,0,80857:0:0:0:0:
448,192,80784,128,0,80910:0:0:0:0:
64,192,80784,128,0,80965:0:0:0:0:
320,192,80839,128,0,81019:0:0:0:0:
192,192,80892,128,0,80965:0:0:0:0:
448,192,80947,128,0,81073:0:0:0:0:
64,192,81001,128,0,81181:0:0:0:0:
192,192,81001,128,0,81127:0:0:0:0:
320,192,81055,128,0,81181:0:0:0:0:
448,192,81109,128,0,81235:0:0:0:0:
192,192,81163,128,0,81290:0:0:0:0:
320,192,81217,128,0,81344:0:0:0:0:
64,192,81217,128,0,81398:0:0:0:0:
448,192,81272,128,0,81398:0:0:0:0:
192,192,81326,128,0,81452:0:0:0:0:
320,192,81380,128,0,81506:0:0:0:0:
64,192,81434,128,0,81614:0:0:0:0:
448,192,81434,128,0,81561:0:0:0:0:
192,192,81488,128,0,81614:0:0:0:0:
320,192,81542,128,0,81669:0:0:0:0:
448,192,81597,128,0,81723:0:0:0:0:
192,192,81651,128,0,81886:0:0:0:0:
64,192,81651,128,0,81777:0:0:0:0:
320,192,81705,128,0,81831:0:0:0:0:
448,192,81759,128,0,81831:0:0:0:0:
64,192,81813,128,0,81939:0:0:0:0:
320,192,81868,128,0,81939:0:0:0:0:
448,192,81868,128,0,81994:0:0:0:0:
192,192,81921,128,0,82048:0:0:0:0:
64,192,81976,128,0,82048:0:0:0:0:
320,192,81976,128,0,82102:0:0:0:0:
448,192,82030,128,0,82157:0:0:0:0:
192,192,82084,128,0,82157:0:0:0:0:
64,192,82084,128,0,82210:0:0:0:0:
320,192,82138,128,0,82265:0:0:0:0:
448,192,82192,128,0,82265:0:0:0:0:
192,192,82192,128,0,82319:0:0:0:0:
64,192,82246,128,0,82319:0:0:0:0:
320,192,82301,128,0,82373:0:0:0:0:
448,192,82301,128,0,82373:0:0:0:0:
192,192,82354,128,0,82427:0:0:0:0:
64,192,82354,128,0,82427:0:0:0:0:
320,192,82409,128,0,82481:0:0:0:0:
448,192,82409,128,0,82481:0:0:0:0:
192,192,82463,128,0,82535:0:0:0:0:
64,192,82463,128,0,82535:0:0:0:0:
320,192,82517,128,0,82590:0:0:0:0:
448,192,82517,128,0,82590:0:0:0:0:
192,192,82572,128,0,82643:0:0:0:0:
64,192,82572,128,0,82643:0:0:0:0:
320,192,82626,128,0,82698:0:0:0:0:
448,192,82626,128,0,82698:0:0:0:0:
192,192,82680,128,0,82914:0:0:0:0:
64,192,82680,128,0,82914:0:0:0:0:
320,192,82734,128,0,83131:0:0:0:0:
448,192,82734,128,0,82914:0:0:0:0:
448,192,82950,128,0,83131:0:0:0:0:
192,192,82950,128,0,83348:0:0:0:0:
64,192,82950,128,0,83348:0:0:0:0:
320,192,83167,128,0,83239:0:0:0:0:
448,192,83167,128,0,83239:0:0:0:0:
320,192,83276,128,0,83348:0:0:0:0:
448,192,83276,128,0,83348:0:0:0:0:
64,192,83384,128,0,83564:0:0:0:0:
192,192,83384,128,0,83564:0:0:0:0:
320,192,83384,128,0,83781:0:0:0:0:
448,192,83384,128,0,83564:0:0:0:0:
64,192,83601,128,0,83672:0:0:0:0:
192,192,83601,128,0,83672:0:0:0:0:
448,192,83601,128,0,83672:0:0:0:0:
448,192,83709,128,0,83835:0:0:0:0:
192,192,83709,128,0,83890:0:0:0:0:
64,192,83709,128,0,83998:0:0:0:0:
320,192,83817,128,0,83943:0:0:0:0:
448,192,83871,128,0,83998:0:0:0:0:
192,192,83926,128,0,84305:0:0:0:0:
320,192,83980,128,0,84160:0:0:0:0:
448,192,84034,128,0,84305:0:0:0:0:
64,192,84034,128,0,84124:0:0:0:0:
64,192,84160,128,0,84431:0:0:0:0:
320,192,84197,128,0,84431:0:0:0:0:
192,192,84341,128,0,84648:0:0:0:0:
448,192,84341,128,0,84431:0:0:0:0:
64,192,84467,128,0,84539:0:0:0:0:
320,192,84467,128,0,84539:0:0:0:0:
448,192,84467,128,0,84539:0:0:0:0:
320,192,84575,128,0,84756:0:0:0:0:
448,192,84575,128,0,84864:0:0:0:0:
64,192,84575,128,0,84702:0:0:0:0:
192,192,84683,128,0,84810:0:0:0:0:
64,192,84738,128,0,84864:0:0:0:0:
320,192,84792,128,0,85153:0:0:0:0:
192,192,84846,128,0,85009:0:0:0:0:
448,192,84901,128,0,85009:0:0:0:0:
64,192,84901,128,0,85171:0:0:0:0:
192,192,85045,128,0,85298:0:0:0:0:
448,192,85045,128,0,85298:0:0:0:0:
320,192,85189,128,0,85298:0:0:0:0:
64,192,85208,128,0,85514:0:0:0:0:
192,192,85334,128,0,85406:0:0:0:0:
320,192,85334,128,0,85406:0:0:0:0:
448,192,85334,128,0,85406:0:0:0:0:
192,192,85442,128,0,85568:0:0:0:0:
320,192,85442,128,0,85623:0:0:0:0:
448,192,85442,128,0,85677:0:0:0:0:
64,192,85550,128,0,85731:0:0:0:0:
192,192,85605,128,0,85731:0:0:0:0:
320,192,85659,128,0,85893:0:0:0:0:
448,192,85713,128,0,86038:0:0:0:0:
64,192,85767,128,0,85857:0:0:0:0:
192,192,85767,128,0,86020:0:0:0:0:
64,192,85893,128,0,86164:0:0:0:0:
320,192,85930,128,0,86164:0:0:0:0:
192,192,86056,128,0,86164:0:0:0:0:
448,192,86074,128,0,86308:0:0:0:0:
320,192,86200,128,0,86471:0:0:0:0:
192,192,86200,128,0,86308:0:0:0:0:
64,192,86200,128,0,86308:0:0:0:0:
448,192,86345,128,0,86471:0:0:0:0:
192,192,86345,128,0,86471:0:0:0:0:
64,192,86345,128,0,86597:0:0:0:0:
192,192,86507,128,0,86742:0:0:0:0:
320,192,86507,128,0,86597:0:0:0:0:
448,192,86507,128,0,86597:0:0:0:0:
320,192,86634,128,0,86742:0:0:0:0:
448,192,86634,128,0,86742:0:0:0:0:
64,192,86634,128,0,86904:0:0:0:0:
192,192,86778,128,0,86904:0:0:0:0:
448,192,86778,128,0,86904:0:0:0:0:
320,192,86778,128,0,87031:0:0:0:0:
448,192,86941,128,0,87248:0:0:0:0:
192,192,86941,128,0,87031:0:0:0:0:
64,192,86941,128,0,87031:0:0:0:0:
320,192,87067,128,0,87139:0:0:0:0:
192,192,87067,128,0,87139:0:0:0:0:
64,192,87067,128,0,87139:0:0:0:0:
320,192,87175,128,0,87301:0:0:0:0:
192,192,87175,128,0,87356:0:0:0:0:
64,192,87175,128,0,87410:0:0:0:0:
448,192,87283,128,0,87464:0:0:0:0:
320,192,87338,128,0,87464:0:0:0:0:
192,192,87392,128,0,87771:0:0:0:0:
64,192,87446,128,0,87608:0:0:0:0:
320,192,87500,128,0,87771:0:0:0:0:
448,192,87500,128,0,87608:0:0:0:0:
448,192,87645,128,0,87897:0:0:0:0:
64,192,87645,128,0,87897:0:0:0:0:
320,192,87807,128,0,87897:0:0:0:0:
192,192,87807,128,0,88114:0:0:0:0:
320,192,87933,128,0,88006:0:0:0:0:
448,192,87933,128,0,88006:0:0:0:0:
64,192,87933,128,0,88006:0:0:0:0:
320,192,88042,128,0,88222:0:0:0:0:
448,192,88042,128,0,88330:0:0:0:0:
64,192,88042,128,0,88168:0:0:0:0:
192,192,88150,128,0,88277:0:0:0:0:
64,192,88204,128,0,88330:0:0:0:0:
320,192,88259,128,0,88637:0:0:0:0:
192,192,88312,128,0,88475:0:0:0:0:
448,192,88367,128,0,88475:0:0:0:0:
64,192,88367,128,0,88637:0:0:0:0:
448,192,88511,128,0,88764:0:0:0:0:
192,192,88511,128,0,88764:0:0:0:0:
64,192,88674,128,0,88764:0:0:0:0:
320,192,88674,128,0,88981:0:0:0:0:
448,192,88800,128,0,88872:0:0:0:0:
192,192,88800,128,0,88872:0:0:0:0:
64,192,88800,128,0,88872:0:0:0:0:
448,192,88908,128,0,89034:0:0:0:0:
192,192,88908,128,0,89089:0:0:0:0:
64,192,88908,128,0,89197:0:0:0:0:
320,192,89017,128,0,89143:0:0:0:0:
448,192,89071,128,0,89197:0:0:0:0:
192,192,89125,128,0,89504:0:0:0:0:
320,192,89179,128,0,89341:0:0:0:0:
448,192,89233,128,0,89504:0:0:0:0:
64,192,89233,128,0,89341:0:0:0:0:
320,192,89378,128,0,89630:0:0:0:0:
64,192,89378,128,0,89630:0:0:0:0:
448,192,89540,128,0,89630:0:0:0:0:
192,192,89540,128,0,89775:0:0:0:0:
64,192,89667,128,0,89775:0:0:0:0:
320,192,89667,128,0,89775:0:0:0:0:
448,192,89667,128,0,89937:0:0:0:0:
320,192,89811,128,0,89937:0:0:0:0:
64,192,89811,128,0,89937:0:0:0:0:
192,192,89811,128,0,90063:0:0:0:0:
320,192,89974,128,0,90063:0:0:0:0:
448,192,89974,128,0,90063:0:0:0:0:
64,192,89974,128,0,90208:0:0:0:0:
448,192,90100,128,0,90208:0:0:0:0:
320,192,90100,128,0,90371:0:0:0:0:
192,192,90100,128,0,90208:0:0:0:0:
64,192,90244,128,0,90497:0:0:0:0:
192,192,90244,128,0,90371:0:0:0:0:
448,192,90244,128,0,90371:0:0:0:0:
320,192,90407,128,0,91201:0:0:0:0:
192,192,90407,128,0,90497:0:0:0:0:
448,192,90407,128,0,90497:0:0:0:0:
192,192,90533,128,0,90714:0:0:0:0:
64,192,90533,128,0,90714:0:0:0:0:
448,192,90533,128,0,90714:0:0:0:0:
448,192,90750,128,0,91147:0:0:0:0:
192,192,90750,128,0,91255:0:0:0:0:
64,192,90750,128,0,91310:0:0:0:0:
448,192,91183,128,0,91363:0:0:0:0:
320,192,91237,128,0,91363:0:0:0:0:
192,192,91292,128,0,91363:0:0:0:0:
64,192,91346,128,0,92014:0:0:0:0:
192,192,91400,128,0,91580:0:0:0:0:
320,192,91400,128,0,91580:0:0:0:0:
448,192,91400,128,0,91580:0:0:0:0:
448,192,91617,128,0,92176:0:0:0:0:
320,192,91617,128,0,92122:0:0:0:0:
192,192,91617,128,0,92068:0:0:0:0:
64,192,92050,128,0,92230:0:0:0:0:
192,192,92104,128,0,92230:0:0:0:0:
320,192,92158,128,0,92230:0:0:0:0:
448,192,92212,128,0,92880:0:0:0:0:
320,192,92266,128,0,92447:0:0:0:0:
192,192,92266,128,0,92447:0:0:0:0:
64,192,92266,128,0,92447:0:0:0:0:
64,192,92483,128,0,92934:0:0:0:0:
192,192,92483,128,0,92988:0:0:0:0:
320,192,92483,128,0,93043:0:0:0:0:
448,192,92917,128,0,93097:0:0:0:0:
64,192,92970,128,0,93097:0:0:0:0:
192,192,93025,128,0,93097:0:0:0:0:
320,192,93079,128,0,93241:0:0:0:0:
448,192,93133,128,0,93241:0:0:0:0:
192,192,93133,128,0,93403:0:0:0:0:
64,192,93133,128,0,93241:0:0:0:0:
320,192,93277,128,0,93403:0:0:0:0:
448,192,93277,128,0,93530:0:0:0:0:
64,192,93277,128,0,93403:0:0:0:0:
192,192,93440,128,0,93530:0:0:0:0:
320,192,93440,128,0,93530:0:0:0:0:
64,192,93440,128,0,93674:0:0:0:0:
192,192,93566,128,0,93674:0:0:0:0:
448,192,93566,128,0,93674:0:0:0:0:
320,192,93566,128,0,93837:0:0:0:0:
64,192,93710,128,0,93837:0:0:0:0:
192,192,93710,128,0,93963:0:0:0:0:
448,192,93710,128,0,93837:0:0:0:0:
64,192,93873,128,0,93963:0:0:0:0:
320,192,93873,128,0,93963:0:0:0:0:
448,192,93873,128,0,94613:0:0:0:0:
320,192,93999,128,0,94180:0:0:0:0:
192,192,93999,128,0,94180:0:0:0:0:
64,192,93999,128,0,94180:0:0:0:0:
64,192,94216,128,0,94668:0:0:0:0:
192,192,94216,128,0,94721:0:0:0:0:
320,192,94216,128,0,94776:0:0:0:0:
448,192,94650,128,0,94830:0:0:0:0:
64,192,94703,128,0,94830:0:0:0:0:
192,192,94758,128,0,94830:0:0:0:0:
320,192,94812,128,0,95588:0:0:0:0:
448,192,94866,128,0,95047:0:0:0:0:
192,192,94866,128,0,95047:0:0:0:0:
64,192,94866,128,0,95047:0:0:0:0:
448,192,95083,128,0,95534:0:0:0:0:
192,192,95083,128,0,95643:0:0:0:0:
64,192,95083,128,0,95480:0:0:0:0:
64,192,95516,128,0,95697:0:0:0:0:
448,192,95570,128,0,95697:0:0:0:0:
320,192,95624,128,0,95697:0:0:0:0:
192,192,95679,128,0,96130:0:0:0:0:
320,192,95732,128,0,95913:0:0:0:0:
448,192,95732,128,0,95913:0:0:0:0:
64,192,95732,128,0,95913:0:0:0:0:
320,192,95950,128,0,96130:0:0:0:0:
448,192,95950,128,0,96274:0:0:0:0:
64,192,95950,128,0,96130:0:0:0:0:
64,192,96166,128,0,96437:0:0:0:0:
192,192,96166,128,0,96274:0:0:0:0:
320,192,96166,128,0,96274:0:0:0:0:
448,192,96310,128,0,96437:0:0:0:0:
192,192,96310,128,0,96437:0:0:0:0:
320,192,96310,128,0,96563:0:0:0:0:
192,192,96473,128,0,96708:0:0:0:0:
448,192,96473,128,0,96563:0:0:0:0:
64,192,96473,128,0,96563:0:0:0:0:
64,192,96599,128,0,96708:0:0:0:0:
320,192,96599,128,0,96708:0:0:0:0:
448,192,96599,128,0,96870:0:0:0:0:
320,192,96743,128,0,96870:0:0:0:0:
192,192,96743,128,0,96870:0:0:0:0:
64,192,96743,128,0,96997:0:0:0:0:
192,192,96906,128,0,96997:0:0:0:0:
320,192,96906,128,0,97141:0:0:0:0:
448,192,96906,128,0,96997:0:0:0:0:
448,192,97032,128,0,97141:0:0:0:0:
192,192,97032,128,0,97141:0:0:0:0:
64,192,97032,128,0,97303:0:0:0:0:
192,192,97177,128,0,97303:0:0:0:0:
320,192,97177,128,0,97303:0:0:0:0:
448,192,97177,128,0,97430:0:0:0:0:
64,192,97339,128,0,97430:0:0:0:0:
192,192,97339,128,0,97646:0:0:0:0:
320,192,97339,128,0,97430:0:0:0:0:
64,192,97466,128,0,97646:0:0:0:0:
320,192,97466,128,0,98134:0:0:0:0:
448,192,97466,128,0,97646:0:0:0:0:
192,192,97683,128,0,97863:0:0:0:0:
64,192,97683,128,0,97863:0:0:0:0:
448,192,97683,128,0,98188:0:0:0:0:
192,192,97899,128,0,98080:0:0:0:0:
64,192,97899,128,0,98080:0:0:0:0:
64,192,98116,128,0,98297:0:0:0:0:
192,192,98116,128,0,98242:0:0:0:0:
320,192,98170,128,0,98297:0:0:0:0:
448,192,98224,128,0,98297:0:0:0:0:
192,192,98278,128,0,99001:0:0:0:0:
320,192,98332,128,0,98513:0:0:0:0:
448,192,98332,128,0,98513:0:0:0:0:
64,192,98332,128,0,98513:0:0:0:0:
320,192,98549,128,0,98730:0:0:0:0:
448,192,98549,128,0,98730:0:0:0:0:
64,192,98549,128,0,99054:0:0:0:0:
320,192,98766,128,0,98946:0:0:0:0:
448,192,98766,128,0,98946:0:0:0:0:
448,192,98982,128,0,99163:0:0:0:0:
320,192,98982,128,0,99109:0:0:0:0:
192,192,99037,128,0,99163:0:0:0:0:
64,192,99091,128,0,99163:0:0:0:0:
320,192,99145,128,0,99867:0:0:0:0:
448,192,99199,128,0,99379:0:0:0:0:
192,192,99199,128,0,99379:0:0:0:0:
64,192,99199,128,0,99379:0:0:0:0:
64,192,99416,128,0,99921:0:0:0:0:
192,192,99416,128,0,99596:0:0:0:0:
448,192,99416,128,0,99596:0:0:0:0:
448,192,99632,128,0,99813:0:0:0:0:
192,192,99632,128,0,99813:0:0:0:0:
192,192,99849,128,0,99975:0:0:0:0:
448,192,99849,128,0,100030:0:0:0:0:
320,192,99903,128,0,100030:0:0:0:0:
64,192,99957,128,0,100030:0:0:0:0:
192,192,100012,128,0,100174:0:0:0:0:
320,192,100066,128,0,100246:0:0:0:0:
448,192,100066,128,0,100337:0:0:0:0:
64,192,100066,128,0,100246:0:0:0:0:
192,192,100210,128,0,100463:0:0:0:0:
320,192,100282,128,0,100607:0:0:0:0:
64,192,100282,128,0,100463:0:0:0:0:
448,192,100372,128,0,100679:0:0:0:0:
192,192,100499,128,0,100770:0:0:0:0:
64,192,100499,128,0,100679:0:0:0:0:
320,192,100643,128,0,100896:0:0:0:0:
448,192,100716,128,0,100896:0:0:0:0:
64,192,100716,128,0,100896:0:0:0:0:
192,192,100806,128,0,100950:0:0:0:0:
448,192,100932,128,0,101004:0:0:0:0:
320,192,100932,128,0,101059:0:0:0:0:
64,192,100932,128,0,101112:0:0:0:0:
192,192,100986,128,0,101112:0:0:0:0:
448,192,101041,128,0,101112:0:0:0:0:
320,192,101094,128,0,101167:0:0:0:0:
448,192,101149,128,0,101330:0:0:0:0:
192,192,101149,128,0,101221:0:0:0:0:
64,192,101149,128,0,101275:0:0:0:0:
320,192,101203,128,0,101330:0:0:0:0:
192,192,101257,128,0,101383:0:0:0:0:
64,192,101311,128,0,101438:0:0:0:0:
320,192,101366,128,0,101492:0:0:0:0:
448,192,101366,128,0,101546:0:0:0:0:
192,192,101419,128,0,101546:0:0:0:0:
64,192,101474,128,0,101600:0:0:0:0:
320,192,101528,128,0,101654:0:0:0:0:
448,192,101582,128,0,101763:0:0:0:0:
192,192,101582,128,0,101708:0:0:0:0:
64,192,101637,128,0,101763:0:0:0:0:
320,192,101690,128,0,101763:0:0:0:0:
192,192,101745,128,0,101817:0:0:0:0:
320,192,101799,128,0,101925:0:0:0:0:
448,192,101799,128,0,101979:0:0:0:0:
64,192,101799,128,0,101871:0:0:0:0:
192,192,101853,128,0,101979:0:0:0:0:
64,192,101907,128,0,101979:0:0:0:0:
320,192,101961,128,0,102034:0:0:0:0:
448,192,102015,128,0,102088:0:0:0:0:
192,192,102015,128,0,102142:0:0:0:0:
64,192,102015,128,0,102196:0:0:0:0:
320,192,102070,128,0,102196:0:0:0:0:
448,192,102123,128,0,102250:0:0:0:0:
192,192,102178,128,0,102304:0:0:0:0:
320,192,102232,128,0,102359:0:0:0:0:
64,192,102232,128,0,102412:0:0:0:0:
448,192,102286,128,0,102412:0:0:0:0:
192,192,102341,128,0,102467:0:0:0:0:
320,192,102394,128,0,102521:0:0:0:0:
448,192,102449,128,0,102575:0:0:0:0:
64,192,102449,128,0,102629:0:0:0:0:
192,192,102503,128,0,102629:0:0:0:0:
320,192,102557,128,0,102683:0:0:0:0:
448,192,102611,128,0,102737:0:0:0:0:
64,192,102666,128,0,102737:0:0:0:0:
192,192,102666,128,0,102792:0:0:0:0:
320,192,102719,128,0,102846:0:0:0:0:
448,192,102774,128,0,102846:0:0:0:0:
64,192,102774,128,0,102900:0:0:0:0:
192,192,102828,128,0,102954:0:0:0:0:
320,192,102882,128,0,102954:0:0:0:0:
448,192,102882,128,0,103008:0:0:0:0:
64,192,102936,128,0,103063:0:0:0:0:
192,192,102990,128,0,103063:0:0:0:0:
320,192,102990,128,0,103117:0:0:0:0:
448,192,103044,128,0,103117:0:0:0:0:
64,192,103099,128,0,103171:0:0:0:0:
192,192,103099,128,0,103171:0:0:0:0:
320,192,103153,128,0,103225:0:0:0:0:
448,192,103153,128,0,103225:0:0:0:0:
64,192,103207,128,0,103279:0:0:0:0:
192,192,103207,128,0,103279:0:0:0:0:
320,192,103261,128,0,103333:0:0:0:0:
448,192,103261,128,0,103333:0:0:0:0:
192,192,103315,128,0,103388:0:0:0:0:
64,192,103315,128,0,103388:0:0:0:0:
320,192,103370,128,0,103441:0:0:0:0:
448,192,103370,128,0,103441:0:0:0:0:
192,192,103423,128,0,103496:0:0:0:0:
64,192,103423,128,0,103496:0:0:0:0:
320,192,103478,128,0,103712:0:0:0:0:
448,192,103478,128,0,103712:0:0:0:0:
192,192,103532,128,0,103929:0:0:0:0:
64,192,103532,128,0,103712:0:0:0:0:
64,192,103748,128,0,103929:0:0:0:0:
320,192,103748,128,0,104146:0:0:0:0:
448,192,103748,128,0,104146:0:0:0:0:
192,192,103966,128,0,104037:0:0:0:0:
64,192,103966,128,0,104037:0:0:0:0:
64,192,104074,128,0,104146:0:0:0:0:
192,192,104074,128,0,104146:0:0:0:0:
64,192,104182,128,0,104362:0:0:0:0:
192,192,104182,128,0,104362:0:0:0:0:
320,192,104182,128,0,104362:0:0:0:0:
448,192,104182,128,0,104579:0:0:0:0:
320,192,104399,128,0,104471:0:0:0:0:
192,192,104399,128,0,104471:0:0:0:0:
64,192,104399,128,0,104471:0:0:0:0:
64,192,104507,128,0,104579:0:0:0:0:
192,192,104507,128,0,104633:0:0:0:0:
320,192,104507,128,0,104633:0:0:0:0:
448,192,104615,128,0,104688:0:0:0:0:
64,192,104615,128,0,104688:0:0:0:0:
320,192,104670,128,0,104741:0:0:0:0:
192,192,104670,128,0,104741:0:0:0:0:
448,192,104723,128,0,104796:0:0:0:0:
64,192,104723,128,0,104796:0:0:0:0:
192,192,104778,128,0,104850:0:0:0:0:
320,192,104778,128,0,104904:0:0:0:0:
448,192,104832,128,0,104904:0:0:0:0:
64,192,104832,128,0,104958:0:0:0:0:
192,192,104886,128,0,105012:0:0:0:0:
320,192,104940,128,0,105066:0:0:0:0:
448,192,104940,128,0,105012:0:0:0:0:
64,192,104994,128,0,105121:0:0:0:0:
192,192,105048,128,0,105121:0:0:0:0:
448,192,105048,128,0,105174:0:0:0:0:
320,192,105103,128,0,105229:0:0:0:0:
192,192,105157,128,0,105229:0:0:0:0:
64,192,105157,128,0,105229:0:0:0:0:
448,192,105211,128,0,105446:0:0:0:0:
320,192,105265,128,0,105337:0:0:0:0:
192,192,105265,128,0,105337:0:0:0:0:
64,192,105265,128,0,105337:0:0:0:0:
64,192,105373,128,0,105500:0:0:0:0:
192,192,105373,128,0,105500:0:0:0:0:
320,192,105373,128,0,105446:0:0:0:0:
448,192,105482,128,0,105554:0:0:0:0:
320,192,105482,128,0,105554:0:0:0:0:
192,192,105536,128,0,105608:0:0:0:0:
64,192,105536,128,0,105608:0:0:0:0:
320,192,105590,128,0,105662:0:0:0:0:
448,192,105590,128,0,105662:0:0:0:0:
192,192,105644,128,0,105717:0:0:0:0:
64,192,105644,128,0,105770:0:0:0:0:
448,192,105699,128,0,105770:0:0:0:0:
320,192,105699,128,0,105825:0:0:0:0:
192,192,105752,128,0,105879:0:0:0:0:
64,192,105807,128,0,105879:0:0:0:0:
448,192,105807,128,0,105933:0:0:0:0:
320,192,105861,128,0,105988:0:0:0:0:
192,192,105915,128,0,105988:0:0:0:0:
64,192,105915,128,0,106041:0:0:0:0:
448,192,105969,128,0,106096:0:0:0:0:
320,192,106023,128,0,106096:0:0:0:0:
192,192,106023,128,0,106096:0:0:0:0:
64,192,106077,128,0,106312:0:0:0:0:
192,192,106132,128,0,106204:0:0:0:0:
320,192,106132,128,0,106204:0:0:0:0:
448,192,106132,128,0,106204:0:0:0:0:
448,192,106240,128,0,106312:0:0:0:0:
320,192,106240,128,0,106366:0:0:0:0:
192,192,106240,128,0,106366:0:0:0:0:
448,192,106348,128,0,106421:0:0:0:0:
64,192,106348,128,0,106421:0:0:0:0:
192,192,106403,128,0,106474:0:0:0:0:
320,192,106403,128,0,106474:0:0:0:0:
448,192,106457,128,0,106529:0:0:0:0:
64,192,106457,128,0,106529:0:0:0:0:
192,192,106511,128,0,106583:0:0:0:0:
320,192,106511,128,0,106637:0:0:0:0:
448,192,106565,128,0,106637:0:0:0:0:
64,192,106565,128,0,106691:0:0:0:0:
192,192,106619,128,0,106746:0:0:0:0:
320,192,106673,128,0,106800:0:0:0:0:
448,192,106673,128,0,106746:0:0:0:0:
64,192,106728,128,0,106854:0:0:0:0:
192,192,106781,128,0,106854:0:0:0:0:
448,192,106781,128,0,106962:0:0:0:0:
320,192,106836,128,0,106908:0:0:0:0:
64,192,106890,128,0,106962:0:0:0:0:
192,192,106890,128,0,107017:0:0:0:0:
320,192,106944,128,0,107070:0:0:0:0:
448,192,106998,128,0,107070:0:0:0:0:
64,192,106998,128,0,107125:0:0:0:0:
192,192,107052,128,0,107179:0:0:0:0:
320,192,107107,128,0,107233:0:0:0:0:
448,192,107107,128,0,107179:0:0:0:0:
64,192,107161,128,0,107287:0:0:0:0:
192,192,107215,128,0,107287:0:0:0:0:
448,192,107215,128,0,107341:0:0:0:0:
320,192,107269,128,0,107450:0:0:0:0:
192,192,107323,128,0,107395:0:0:0:0:
64,192,107323,128,0,107395:0:0:0:0:
448,192,107377,128,0,107450:0:0:0:0:
192,192,107432,128,0,107503:0:0:0:0:
64,192,107432,128,0,107503:0:0:0:0:
320,192,107486,128,0,107558:0:0:0:0:
448,192,107486,128,0,107612:0:0:0:0:
192,192,107540,128,0,107666:0:0:0:0:
64,192,107540,128,0,107612:0:0:0:0:
320,192,107594,128,0,107666:0:0:0:0:
448,192,107648,128,0,107721:0:0:0:0:
64,192,107648,128,0,107721:0:0:0:0:
192,192,107702,128,0,107829:0:0:0:0:
320,192,107702,128,0,107774:0:0:0:0:
448,192,107757,128,0,107829:0:0:0:0:
64,192,107757,128,0,107829:0:0:0:0:
320,192,107810,128,0,108046:0:0:0:0:
448,192,107865,128,0,107937:0:0:0:0:
192,192,107865,128,0,107937:0:0:0:0:
64,192,107865,128,0,107937:0:0:0:0:
448,192,107973,128,0,108046:0:0:0:0:
192,192,107973,128,0,108099:0:0:0:0:
64,192,107973,128,0,108099:0:0:0:0:
320,192,108081,128,0,108154:0:0:0:0:
448,192,108081,128,0,108154:0:0:0:0:
192,192,108136,128,0,108208:0:0:0:0:
64,192,108136,128,0,108208:0:0:0:0:
320,192,108190,128,0,108262:0:0:0:0:
448,192,108190,128,0,108262:0:0:0:0:
192,192,108244,128,0,108316:0:0:0:0:
64,192,108244,128,0,108370:0:0:0:0:
320,192,108298,128,0,108425:0:0:0:0:
448,192,108298,128,0,108370:0:0:0:0:
192,192,108352,128,0,108479:0:0:0:0:
448,192,108406,128,0,108533:0:0:0:0:
64,192,108406,128,0,108479:0:0:0:0:
320,192,108461,128,0,108587:0:0:0:0:
192,192,108514,128,0,108587:0:0:0:0:
64,192,108514,128,0,108641:0:0:0:0:
448,192,108569,128,0,108695:0:0:0:0:
192,192,108623,128,0,108695:0:0:0:0:
320,192,108623,128,0,108695:0:0:0:0:
64,192,108677,128,0,108912:0:0:0:0:
192,192,108732,128,0,108803:0:0:0:0:
320,192,108732,128,0,108803:0:0:0:0:
448,192,108732,128,0,108803:0:0:0:0:
448,192,108840,128,0,108912:0:0:0:0:
320,192,108840,128,0,108966:0:0:0:0:
192,192,108840,128,0,108966:0:0:0:0:
64,192,108948,128,0,109020:0:0:0:0:
448,192,108948,128,0,109020:0:0:0:0:
320,192,109002,128,0,109074:0:0:0:0:
192,192,109002,128,0,109074:0:0:0:0:
448,192,109057,128,0,109128:0:0:0:0:
64,192,109057,128,0,109128:0:0:0:0:
320,192,109110,128,0,109183:0:0:0:0:
192,192,109110,128,0,109237:0:0:0:0:
64,192,109165,128,0,109237:0:0:0:0:
448,192,109165,128,0,109291:0:0:0:0:
320,192,109219,128,0,109346:0:0:0:0:
192,192,109273,128,0,109399:0:0:0:0:
64,192,109273,128,0,109346:0:0:0:0:
448,192,109327,128,0,109454:0:0:0:0:
320,192,109381,128,0,109508:0:0:0:0:
64,192,109381,128,0,109454:0:0:0:0:
192,192,109436,128,0,109562:0:0:0:0:
64,192,109490,128,0,109562:0:0:0:0:
448,192,109490,128,0,109562:0:0:0:0:
320,192,109544,128,0,109779:0:0:0:0:
448,192,109598,128,0,109670:0:0:0:0:
192,192,109598,128,0,109670:0:0:0:0:
64,192,109598,128,0,109670:0:0:0:0:
64,192,109706,128,0,109832:0:0:0:0:
192,192,109706,128,0,109832:0:0:0:0:
448,192,109706,128,0,109779:0:0:0:0:
320,192,109814,128,0,109887:0:0:0:0:
448,192,109814,128,0,109887:0:0:0:0:
192,192,109869,128,0,109941:0:0:0:0:
64,192,109869,128,0,109941:0:0:0:0:
320,192,109923,128,0,109995:0:0:0:0:
448,192,109923,128,0,109995:0:0:0:0:
192,192,109977,128,0,110050:0:0:0:0:
64,192,109977,128,0,110103:0:0:0:0:
320,192,110031,128,0,110103:0:0:0:0:
448,192,110031,128,0,110158:0:0:0:0:
192,192,110086,128,0,110212:0:0:0:0:
64,192,110139,128,0,110212:0:0:0:0:
320,192,110139,128,0,110266:0:0:0:0:
448,192,110194,128,0,110320:0:0:0:0:
64,192,110248,128,0,110320:0:0:0:0:
192,192,110248,128,0,110374:0:0:0:0:
320,192,110302,128,0,110428:0:0:0:0:
448,192,110357,128,0,110483:0:0:0:0:
64,192,110357,128,0,110428:0:0:0:0:
192,192,110410,128,0,110537:0:0:0:0:
320,192,110465,128,0,110591:0:0:0:0:
64,192,110465,128,0,110537:0:0:0:0:
448,192,110519,128,0,110645:0:0:0:0:
192,192,110573,128,0,110699:0:0:0:0:
64,192,110573,128,0,110699:0:0:0:0:
320,192,110627,128,0,110753:0:0:0:0:
448,192,110681,128,0,110753:0:0:0:0:
192,192,110735,128,0,110808:0:0:0:0:
64,192,110735,128,0,110862:0:0:0:0:
448,192,110790,128,0,110916:0:0:0:0:
320,192,110790,128,0,110862:0:0:0:0:
192,192,110843,128,0,110970:0:0:0:0:
64,192,110898,128,0,110970:0:0:0:0:
320,192,110898,128,0,111024:0:0:0:0:
448,192,110952,128,0,111079:0:0:0:0:
192,192,111006,128,0,111132:0:0:0:0:
64,192,111006,128,0,111079:0:0:0:0:
320,192,111061,128,0,111187:0:0:0:0:
448,192,111114,128,0,111187:0:0:0:0:
64,192,111114,128,0,111241:0:0:0:0:
192,192,111169,128,0,111295:0:0:0:0:
320,192,111223,128,0,111295:0:0:0:0:
448,192,111223,128,0,111295:0:0:0:0:
64,192,111277,128,0,111512:0:0:0:0:
192,192,111331,128,0,111403:0:0:0:0:
320,192,111331,128,0,111403:0:0:0:0:
448,192,111331,128,0,111403:0:0:0:0:
448,192,111439,128,0,111512:0:0:0:0:
320,192,111439,128,0,111566:0:0:0:0:
192,192,111439,128,0,111566:0:0:0:0:
64,192,111548,128,0,111620:0:0:0:0:
448,192,111548,128,0,111620:0:0:0:0:
320,192,111602,128,0,111674:0:0:0:0:
192,192,111602,128,0,111674:0:0:0:0:
64,192,111656,128,0,111728:0:0:0:0:
448,192,111656,128,0,111728:0:0:0:0:
192,192,111710,128,0,111783:0:0:0:0:
320,192,111710,128,0,111837:0:0:0:0:
448,192,111764,128,0,111837:0:0:0:0:
64,192,111764,128,0,111891:0:0:0:0:
192,192,111819,128,0,111945:0:0:0:0:
320,192,111873,128,0,111999:0:0:0:0:
448,192,111873,128,0,111945:0:0:0:0:
64,192,111927,128,0,112053:0:0:0:0:
192,192,111981,128,0,112053:0:0:0:0:
448,192,111981,128,0,112108:0:0:0:0:
320,192,112035,128,0,112161:0:0:0:0:
192,192,112090,128,0,112161:0:0:0:0:
64,192,112090,128,0,112161:0:0:0:0:
448,192,112143,128,0,112379:0:0:0:0:
320,192,112198,128,0,112270:0:0:0:0:
192,192,112198,128,0,112270:0:0:0:0:
64,192,112198,128,0,112270:0:0:0:0:
64,192,112306,128,0,112432:0:0:0:0:
192,192,112306,128,0,112432:0:0:0:0:
320,192,112306,128,0,112379:0:0:0:0:
448,192,112414,128,0,112487:0:0:0:0:
320,192,112414,128,0,112487:0:0:0:0:
192,192,112468,128,0,112541:0:0:0:0:
64,192,112468,128,0,112541:0:0:0:0:
320,192,112523,128,0,112595:0:0:0:0:
448,192,112523,128,0,112595:0:0:0:0:
192,192,112577,128,0,112649:0:0:0:0:
64,192,112577,128,0,112703:0:0:0:0:
320,192,112631,128,0,112757:0:0:0:0:
448,192,112631,128,0,112703:0:0:0:0:
192,192,112686,128,0,112812:0:0:0:0:
64,192,112739,128,0,112812:0:0:0:0:
448,192,112739,128,0,112866:0:0:0:0:
320,192,112794,128,0,112920:0:0:0:0:
192,192,112848,128,0,112920:0:0:0:0:
64,192,112848,128,0,112974:0:0:0:0:
448,192,112902,128,0,113028:0:0:0:0:
320,192,112956,128,0,113028:0:0:0:0:
192,192,112956,128,0,113028:0:0:0:0:
64,192,113010,128,0,113245:0:0:0:0:
192,192,113064,128,0,113137:0:0:0:0:
320,192,113064,128,0,113137:0:0:0:0:
448,192,113064,128,0,113137:0:0:0:0:
448,192,113172,128,0,113245:0:0:0:0:
320,192,113172,128,0,113299:0:0:0:0:
192,192,113172,128,0,113299:0:0:0:0:
64,192,113281,128,0,113353:0:0:0:0:
448,192,113281,128,0,113353:0:0:0:0:
320,192,113335,128,0,113408:0:0:0:0:
192,192,113335,128,0,113408:0:0:0:0:
448,192,113389,128,0,113461:0:0:0:0:
64,192,113389,128,0,113461:0:0:0:0:
192,192,113443,128,0,113570:0:0:0:0:
320,192,113443,128,0,113516:0:0:0:0:
448,192,113498,128,0,113624:0:0:0:0:
64,192,113498,128,0,113570:0:0:0:0:
320,192,113552,128,0,113678:0:0:0:0:
192,192,113606,128,0,113732:0:0:0:0:
64,192,113606,128,0,113678:0:0:0:0:
448,192,113660,128,0,113786:0:0:0:0:
320,192,113714,128,0,113786:0:0:0:0:
64,192,113714,128,0,113894:0:0:0:0:
192,192,113768,128,0,113841:0:0:0:0:
320,192,113823,128,0,113949:0:0:0:0:
448,192,113823,128,0,113894:0:0:0:0:
192,192,113877,128,0,114003:0:0:0:0:
64,192,113931,128,0,114003:0:0:0:0:
448,192,113931,128,0,114057:0:0:0:0:
320,192,113985,128,0,114112:0:0:0:0:
192,192,114039,128,0,114166:0:0:0:0:
64,192,114039,128,0,114112:0:0:0:0:
448,192,114093,128,0,114220:0:0:0:0:
320,192,114148,128,0,114220:0:0:0:0:
64,192,114148,128,0,114328:0:0:0:0:
192,192,114201,128,0,114274:0:0:0:0:
320,192,114256,128,0,114328:0:0:0:0:
448,192,114256,128,0,114382:0:0:0:0:
192,192,114310,128,0,114437:0:0:0:0:
320,192,114364,128,0,114490:0:0:0:0:
64,192,114364,128,0,114437:0:0:0:0:
448,192,114419,128,0,114545:0:0:0:0:
64,192,114472,128,0,114545:0:0:0:0:
192,192,114472,128,0,114599:0:0:0:0:
320,192,114527,128,0,114653:0:0:0:0:
448,192,114581,128,0,114653:0:0:0:0:
64,192,114581,128,0,114707:0:0:0:0:
192,192,114635,128,0,114761:0:0:0:0:
320,192,114689,128,0,114761:0:0:0:0:
448,192,114689,128,0,114761:0:0:0:0:
64,192,114743,128,0,114978:0:0:0:0:
192,192,114797,128,0,114870:0:0:0:0:
320,192,114797,128,0,114870:0:0:0:0:
448,192,114797,128,0,114870:0:0:0:0:
448,192,114906,128,0,115032:0:0:0:0:
320,192,114906,128,0,115032:0:0:0:0:
192,192,114906,128,0,114978:0:0:0:0:
64,192,115014,128,0,115086:0:0:0:0:
192,192,115014,128,0,115086:0:0:0:0:
320,192,115068,128,0,115141:0:0:0:0:
448,192,115068,128,0,115141:0:0:0:0:
64,192,115123,128,0,115194:0:0:0:0:
192,192,115123,128,0,115194:0:0:0:0:
320,192,115177,128,0,115249:0:0:0:0:
448,192,115177,128,0,115303:0:0:0:0:
192,192,115231,128,0,115357:0:0:0:0:
64,192,115231,128,0,115303:0:0:0:0:
320,192,115285,128,0,115411:0:0:0:0:
64,192,115339,128,0,115466:0:0:0:0:
448,192,115339,128,0,115411:0:0:0:0:
192,192,115393,128,0,115519:0:0:0:0:
320,192,115448,128,0,115519:0:0:0:0:
448,192,115448,128,0,115574:0:0:0:0:
64,192,115501,128,0,115628:0:0:0:0:
192,192,115556,128,0,115628:0:0:0:0:
320,192,115556,128,0,115628:0:0:0:0:
448,192,115610,128,0,115845:0:0:0:0:
320,192,115664,128,0,115737:0:0:0:0:
192,192,115664,128,0,115737:0:0:0:0:
64,192,115664,128,0,115737:0:0:0:0:
320,192,115772,128,0,115899:0:0:0:0:
64,192,115772,128,0,115845:0:0:0:0:
192,192,115772,128,0,115899:0:0:0:0:
64,192,115881,128,0,115953:0:0:0:0:
448,192,115881,128,0,115953:0:0:0:0:
320,192,115935,128,0,116007:0:0:0:0:
192,192,115935,128,0,116007:0:0:0:0:
64,192,115989,128,0,116061:0:0:0:0:
448,192,115989,128,0,116061:0:0:0:0:
192,192,116043,128,0,116170:0:0:0:0:
320,192,116043,128,0,116115:0:0:0:0:
64,192,116097,128,0,116170:0:0:0:0:
448,192,116097,128,0,116223:0:0:0:0:
320,192,116152,128,0,116278:0:0:0:0:
192,192,116206,128,0,116278:0:0:0:0:
64,192,116206,128,0,116332:0:0:0:0:
448,192,116260,128,0,116386:0:0:0:0:
320,192,116314,128,0,116386:0:0:0:0:
192,192,116314,128,0,116441:0:0:0:0:
64,192,116368,128,0,116494:0:0:0:0:
448,192,116422,128,0,116494:0:0:0:0:
320,192,116422,128,0,116494:0:0:0:0:
192,192,116477,128,0,116711:0:0:0:0:
64,192,116530,128,0,116603:0:0:0:0:
320,192,116530,128,0,116603:0:0:0:0:
448,192,116530,128,0,116603:0:0:0:0:
64,192,116639,128,0,116711:0:0:0:0:
448,192,116639,128,0,116766:0:0:0:0:
320,192,116639,128,0,116766:0:0:0:0:
192,192,116748,128,0,116819:0:0:0:0:
64,192,116748,128,0,116819:0:0:0:0:
320,192,116801,128,0,116874:0:0:0:0:
448,192,116801,128,0,116874:0:0:0:0:
192,192,116856,128,0,116928:0:0:0:0:
64,192,116856,128,0,116928:0:0:0:0:
320,192,116910,128,0,116982:0:0:0:0:
448,192,116910,128,0,117036:0:0:0:0:
192,192,116964,128,0,117090:0:0:0:0:
64,192,116964,128,0,117036:0:0:0:0:
320,192,117018,128,0,117145:0:0:0:0:
448,192,117072,128,0,117145:0:0:0:0:
64,192,117072,128,0,117199:0:0:0:0:
192,192,117126,128,0,117253:0:0:0:0:
320,192,117181,128,0,117307:0:0:0:0:
448,192,117181,128,0,117234:0:0:0:0:
64,192,117234,128,0,117361:0:0:0:0:
192,192,117289,128,0,117361:0:0:0:0:
448,192,117289,128,0,117361:0:0:0:0:
320,192,117343,128,0,117506:0:0:0:0:
64,192,117397,128,0,117506:0:0:0:0:
448,192,117397,128,0,117506:0:0:0:0:
192,192,117397,128,0,117668:0:0:0:0:
64,192,117541,128,0,117668:0:0:0:0:
320,192,117541,128,0,117668:0:0:0:0:
448,192,117541,128,0,117794:0:0:0:0:
320,192,117704,128,0,117794:0:0:0:0:
192,192,117704,128,0,117794:0:0:0:0:
64,192,117704,128,0,117939:0:0:0:0:
192,192,117830,128,0,117939:0:0:0:0:
320,192,117830,128,0,118101:0:0:0:0:
448,192,117830,128,0,117939:0:0:0:0:
64,192,117975,128,0,118101:0:0:0:0:
192,192,117975,128,0,118101:0:0:0:0:
448,192,117975,128,0,118228:0:0:0:0:
64,192,118137,128,0,118228:0:0:0:0:
320,192,118137,128,0,118282:0:0:0:0:
192,192,118137,128,0,118282:0:0:0:0:
64,192,118264,128,0,118336:0:0:0:0:
448,192,118264,128,0,118336:0:0:0:0:
192,192,118318,128,0,118390:0:0:0:0:
320,192,118318,128,0,118390:0:0:0:0:
448,192,118372,128,0,118444:0:0:0:0:
64,192,118372,128,0,118444:0:0:0:0:
320,192,118426,128,0,118552:0:0:0:0:
192,192,118426,128,0,118499:0:0:0:0:
448,192,118481,128,0,118552:0:0:0:0:
64,192,118481,128,0,118607:0:0:0:0:
192,192,118534,128,0,118661:0:0:0:0:
320,192,118589,128,0,118715:0:0:0:0:
448,192,118589,128,0,118661:0:0:0:0:
64,192,118643,128,0,118770:0:0:0:0:
192,192,118697,128,0,118770:0:0:0:0:
448,192,118697,128,0,118823:0:0:0:0:
320,192,118751,128,0,118878:0:0:0:0:
192,192,118806,128,0,118878:0:0:0:0:
64,192,118806,128,0,118932:0:0:0:0:
448,192,118859,128,0,118986:0:0:0:0:
320,192,118914,128,0,118986:0:0:0:0:
192,192,118914,128,0,119040:0:0:0:0:
64,192,118968,128,0,119148:0:0:0:0:
320,192,119022,128,0,119094:0:0:0:0:
448,192,119022,128,0,119094:0:0:0:0:
192,192,119077,128,0,119148:0:0:0:0:
448,192,119130,128,0,119203:0:0:0:0:
320,192,119130,128,0,119203:0:0:0:0:
192,192,119185,128,0,119257:0:0:0:0:
64,192,119185,128,0,119257:0:0:0:0:
320,192,119239,128,0,119311:0:0:0:0:
448,192,119239,128,0,119311:0:0:0:0:
192,192,119293,128,0,119365:0:0:0:0:
64,192,119293,128,0,119419:0:0:0:0:
320,192,119347,128,0,119473:0:0:0:0:
448,192,119347,128,0,119419:0:0:0:0:
192,192,119401,128,0,119528:0:0:0:0:
64,192,119455,128,0,119528:0:0:0:0:
448,192,119455,128,0,119582:0:0:0:0:
320,192,119510,128,0,119636:0:0:0:0:
192,192,119563,128,0,119690:0:0:0:0:
64,192,119563,128,0,119636:0:0:0:0:
448,192,119618,128,0,119744:0:0:0:0:
320,192,119672,128,0,119744:0:0:0:0:
64,192,119672,128,0,119852:0:0:0:0:
192,192,119726,128,0,119799:0:0:0:0:
320,192,119781,128,0,119852:0:0:0:0:
448,192,119781,128,0,119907:0:0:0:0:
192,192,119834,128,0,119961:0:0:0:0:
64,192,119889,128,0,119961:0:0:0:0:
320,192,119889,128,0,120015:0:0:0:0:
448,192,119943,128,0,120123:0:0:0:0:
192,192,119997,128,0,120069:0:0:0:0:
64,192,119997,128,0,120123:0:0:0:0:
320,192,120051,128,0,120177:0:0:0:0:
192,192,120106,128,0,120232:0:0:0:0:
448,192,120159,128,0,120340:0:0:0:0:
64,192,120159,128,0,120286:0:0:0:0:
320,192,120214,128,0,120286:0:0:0:0:
192,192,120268,128,0,120394:0:0:0:0:
64,192,120322,128,0,120394:0:0:0:0:
320,192,120322,128,0,120503:0:0:0:0:
448,192,120376,128,0,120448:0:0:0:0:
192,192,120430,128,0,120557:0:0:0:0:
64,192,120430,128,0,120611:0:0:0:0:
448,192,120484,128,0,120557:0:0:0:0:
320,192,120539,128,0,120665:0:0:0:0:
448,192,120593,128,0,120719:0:0:0:0:
192,192,120593,128,0,120719:0:0:0:0:
64,192,120647,128,0,120773:0:0:0:0:
320,192,120701,128,0,120828:0:0:0:0:
448,192,120755,128,0,120828:0:0:0:0:
192,192,120755,128,0,120881:0:0:0:0:
64,192,120810,128,0,120990:0:0:0:0:
448,192,120863,128,0,120936:0:0:0:0:
320,192,120863,128,0,120990:0:0:0:0:
192,192,120918,128,0,121044:0:0:0:0:
448,192,120972,128,0,121098:0:0:0:0:
64,192,121026,128,0,121152:0:0:0:0:
320,192,121026,128,0,121207:0:0:0:0:
192,192,121080,128,0,121152:0:0:0:0:
448,192,121134,128,0,121261:0:0:0:0:
192,192,121188,128,0,121261:0:0:0:0:
64,192,121188,128,0,121315:0:0:0:0:
320,192,121243,128,0,121369:0:0:0:0:
192,192,121297,128,0,121423:0:0:0:0:
448,192,121297,128,0,121477:0:0:0:0:
64,192,121351,128,0,121423:0:0:0:0:
320,192,121406,128,0,121532:0:0:0:0:
192,192,121459,128,0,121586:0:0:0:0:
64,192,121459,128,0,121586:0:0:0:0:
448,192,121514,128,0,121640:0:0:0:0:
320,192,121568,128,0,121748:0:0:0:0:
64,192,121622,128,0,121694:0:0:0:0:
192,192,121622,128,0,121694:0:0:0:0:
448,192,121676,128,0,121748:0:0:0:0:
64,192,121730,128,0,121802:0:0:0:0:
192,192,121730,128,0,121802:0:0:0:0:
320,192,121784,128,0,121857:0:0:0:0:
448,192,121784,128,0,121857:0:0:0:0:
192,192,121839,128,0,121911:0:0:0:0:
64,192,121839,128,0,121911:0:0:0:0:
320,192,121892,128,0,122019:0:0:0:0:
448,192,121892,128,0,121965:0:0:0:0:
192,192,121947,128,0,122073:0:0:0:0:
64,192,121947,128,0,122019:0:0:0:0:
448,192,122001,128,0,122128:0:0:0:0:
64,192,122055,128,0,122181:0:0:0:0:
320,192,122055,128,0,122128:0:0:0:0:
192,192,122109,128,0,122236:0:0:0:0:
320,192,122163,128,0,122290:0:0:0:0:
448,192,122163,128,0,122236:0:0:0:0:
64,192,122218,128,0,122344:0:0:0:0:
192,192,122272,128,0,122344:0:0:0:0:
448,192,122272,128,0,122398:0:0:0:0:
320,192,122326,128,0,122452:0:0:0:0:
192,192,122380,128,0,122506:0:0:0:0:
64,192,122380,128,0,122452:0:0:0:0:
448,192,122434,128,0,122561:0:0:0:0:
320,192,122488,128,0,122614:0:0:0:0:
64,192,122488,128,0,122561:0:0:0:0:
192,192,122543,128,0,122614:0:0:0:0:
64,192,122597,128,0,122669:0:0:0:0:
448,192,122597,128,0,122669:0:0:0:0:
192,192,122651,128,0,122723:0:0:0:0:
320,192,122651,128,0,122723:0:0:0:0:
64,192,122705,128,0,122777:0:0:0:0:
448,192,122705,128,0,122777:0:0:0:0:
320,192,122759,128,0,122832:0:0:0:0:
192,192,122759,128,0,122886:0:0:0:0:
64,192,122813,128,0,122940:0:0:0:0:
448,192,122813,128,0,122886:0:0:0:0:
320,192,122868,128,0,122994:0:0:0:0:
448,192,122921,128,0,122994:0:0:0:0:
192,192,122921,128,0,123048:0:0:0:0:
64,192,122976,128,0,123102:0:0:0:0:
448,192,123030,128,0,123102:0:0:0:0:
320,192,123030,128,0,123157:0:0:0:0:
192,192,123084,128,0,123210:0:0:0:0:
64,192,123139,128,0,123210:0:0:0:0:
448,192,123139,128,0,123265:0:0:0:0:
320,192,123192,128,0,123319:0:0:0:0:
192,192,123247,128,0,123319:0:0:0:0:
64,192,123247,128,0,123373:0:0:0:0:
448,192,123301,128,0,123427:0:0:0:0:
320,192,123355,128,0,123427:0:0:0:0:
192,192,123355,128,0,123481:0:0:0:0:
64,192,123409,128,0,123590:0:0:0:0:
448,192,123463,128,0,123590:0:0:0:0:
320,192,123463,128,0,123536:0:0:0:0:
192,192,123517,128,0,123644:0:0:0:0:
320,192,123572,128,0,123698:0:0:0:0:
448,192,123626,128,0,123752:0:0:0:0:
64,192,123626,128,0,123806:0:0:0:0:
192,192,123680,128,0,123752:0:0:0:0:
320,192,123734,128,0,123861:0:0:0:0:
448,192,123788,128,0,123861:0:0:0:0:
192,192,123788,128,0,123914:0:0:0:0:
64,192,123843,128,0,124023:0:0:0:0:
320,192,123897,128,0,124023:0:0:0:0:
448,192,123897,128,0,123969:0:0:0:0:
192,192,123951,128,0,124077:0:0:0:0:
448,192,124005,128,0,124131:0:0:0:0:
320,192,124059,128,0,124186:0:0:0:0:
64,192,124059,128,0,124186:0:0:0:0:
192,192,124113,128,0,124239:0:0:0:0:
448,192,124168,128,0,124294:0:0:0:0:
320,192,124221,128,0,124294:0:0:0:0:
64,192,124221,128,0,124457:0:0:0:0:
192,192,124276,128,0,124348:0:0:0:0:
448,192,124330,128,0,124457:0:0:0:0:
320,192,124330,128,0,124402:0:0:0:0:
192,192,124384,128,0,124510:0:0:0:0:
320,192,124438,128,0,124565:0:0:0:0:
448,192,124492,128,0,124673:0:0:0:0:
64,192,124492,128,0,124619:0:0:0:0:
192,192,124546,128,0,124619:0:0:0:0:
320,192,124601,128,0,124727:0:0:0:0:
64,192,124655,128,0,124727:0:0:0:0:
192,192,124655,128,0,124781:0:0:0:0:
448,192,124709,128,0,124835:0:0:0:0:
320,192,124763,128,0,124890:0:0:0:0:
64,192,124763,128,0,124943:0:0:0:0:
192,192,124817,128,0,124943:0:0:0:0:
448,192,124872,128,0,125161:0:0:0:0:
320,192,124926,128,0,124998:0:0:0:0:
64,192,124980,128,0,125052:0:0:0:0:
192,192,124980,128,0,125214:0:0:0:0:
320,192,125034,128,0,125106:0:0:0:0:
64,192,125088,128,0,125161:0:0:0:0:
320,192,125142,128,0,125214:0:0:0:0:
448,192,125197,128,0,125269:0:0:0:0:
64,192,125197,128,0,125269:0:0:0:0:
192,192,125250,128,0,125323:0:0:0:0:
320,192,125250,128,0,125323:0:0:0:0:
448,192,125305,128,0,125377:0:0:0:0:
64,192,125305,128,0,125377:0:0:0:0:
192,192,125359,128,0,125486:0:0:0:0:
320,192,125359,128,0,125431:0:0:0:0:
448,192,125413,128,0,125594:0:0:0:0:
64,192,125413,128,0,125486:0:0:0:0:
320,192,125468,128,0,125539:0:0:0:0:
192,192,125521,128,0,125594:0:0:0:0:
64,192,125521,128,0,125648:0:0:0:0:
320,192,125576,128,0,125702:0:0:0:0:
448,192,125630,128,0,125702:0:0:0:0:
192,192,125630,128,0,125756:0:0:0:0:
64,192,125684,128,0,125810:0:0:0:0:
448,192,125738,128,0,125810:0:0:0:0:
320,192,125738,128,0,125864:0:0:0:0:
192,192,125792,128,0,125919:0:0:0:0:
64,192,125846,128,0,125919:0:0:0:0:
448,192,125846,128,0,125973:0:0:0:0:
320,192,125901,128,0,126081:0:0:0:0:
192,192,125954,128,0,126027:0:0:0:0:
64,192,125954,128,0,126027:0:0:0:0:
448,192,126009,128,0,126081:0:0:0:0:
192,192,126063,128,0,126135:0:0:0:0:
64,192,126063,128,0,126135:0:0:0:0:
320,192,126117,128,0,126190:0:0:0:0:
448,192,126117,128,0,126190:0:0:0:0:
192,192,126172,128,0,126243:0:0:0:0:
64,192,126172,128,0,126243:0:0:0:0:
320,192,126226,128,0,126298:0:0:0:0:
448,192,126226,128,0,126352:0:0:0:0:
192,192,126280,128,0,126352:0:0:0:0:
64,192,126280,128,0,126406:0:0:0:0:
320,192,126334,128,0,126460:0:0:0:0:
448,192,126388,128,0,126460:0:0:0:0:
192,192,126388,128,0,126514:0:0:0:0:
64,192,126442,128,0,126568:0:0:0:0:
320,192,126497,128,0,126623:0:0:0:0:
448,192,126497,128,0,126568:0:0:0:0:
192,192,126550,128,0,126677:0:0:0:0:
64,192,126605,128,0,126677:0:0:0:0:
448,192,126605,128,0,126731:0:0:0:0:
320,192,126659,128,0,126786:0:0:0:0:
192,192,126713,128,0,126786:0:0:0:0:
64,192,126713,128,0,126839:0:0:0:0:
448,192,126767,128,0,126894:0:0:0:0:
320,192,126821,128,0,126894:0:0:0:0:
192,192,126821,128,0,126948:0:0:0:0:
64,192,126875,128,0,127002:0:0:0:0:
448,192,126930,128,0,127056:0:0:0:0:
320,192,126930,128,0,127056:0:0:0:0:
192,192,126984,128,0,127164:0:0:0:0:
64,192,127038,128,0,127110:0:0:0:0:
320,192,127092,128,0,127219:0:0:0:0:
448,192,127092,128,0,127272:0:0:0:0:
64,192,127146,128,0,127219:0:0:0:0:
192,192,127201,128,0,127327:0:0:0:0:
320,192,127254,128,0,127381:0:0:0:0:
64,192,127254,128,0,127327:0:0:0:0:
448,192,127309,128,0,127490:0:0:0:0:
64,192,127363,128,0,127490:0:0:0:0:
192,192,127363,128,0,127435:0:0:0:0:
320,192,127417,128,0,127543:0:0:0:0:
192,192,127471,128,0,127598:0:0:0:0:
448,192,127526,128,0,127652:0:0:0:0:
64,192,127526,128,0,127652:0:0:0:0:
320,192,127579,128,0,127706:0:0:0:0:
192,192,127634,128,0,127760:0:0:0:0:
64,192,127688,128,0,127760:0:0:0:0:
448,192,127688,128,0,127814:0:0:0:0:
320,192,127742,128,0,127977:0:0:0:0:
192,192,127797,128,0,127923:0:0:0:0:
64,192,127797,128,0,127868:0:0:0:0:
448,192,127850,128,0,127923:0:0:0:0:
64,192,127905,128,0,128085:0:0:0:0:
192,192,127959,128,0,128031:0:0:0:0:
448,192,127959,128,0,128085:0:0:0:0:
320,192,128013,128,0,128139:0:0:0:0:
192,192,128067,128,0,128193:0:0:0:0:
64,192,128121,128,0,128193:0:0:0:0:
448,192,128121,128,0,128248:0:0:0:0:
320,192,128175,128,0,128302:0:0:0:0:
192,192,128230,128,0,128356:0:0:0:0:
64,192,128230,128,0,128410:0:0:0:0:
448,192,128283,128,0,128356:0:0:0:0:
320,192,128338,128,0,128464:0:0:0:0:
192,192,128392,128,0,128519:0:0:0:0:
448,192,128392,128,0,128519:0:0:0:0:
64,192,128446,128,0,128572:0:0:0:0:
320,192,128500,128,0,128627:0:0:0:0:
448,192,128554,128,0,128627:0:0:0:0:
192,192,128554,128,0,128681:0:0:0:0:
64,192,128609,128,0,128681:0:0:0:0:
320,192,128663,128,0,128735:0:0:0:0:
448,192,128663,128,0,128735:0:0:0:0:
192,192,128717,128,0,128789:0:0:0:0:
64,192,128717,128,0,128789:0:0:0:0:
320,192,128771,128,0,128843:0:0:0:0:
448,192,128771,128,0,128843:0:0:0:0:
192,192,128826,128,0,128897:0:0:0:0:
64,192,128826,128,0,128952:0:0:0:0:
320,192,128879,128,0,129006:0:0:0:0:
448,192,128879,128,0,128952:0:0:0:0:
192,192,128934,128,0,129060:0:0:0:0:
64,192,128988,128,0,129060:0:0:0:0:
448,192,128988,128,0,129114:0:0:0:0:
320,192,129042,128,0,129168:0:0:0:0:
192,192,129096,128,0,129223:0:0:0:0:
64,192,129096,128,0,129168:0:0:0:0:
448,192,129150,128,0,129277:0:0:0:0:
320,192,129204,128,0,129277:0:0:0:0:
64,192,129204,128,0,129331:0:0:0:0:
192,192,129259,128,0,129385:0:0:0:0:
320,192,129312,128,0,129439:0:0:0:0:
448,192,129312,128,0,129385:0:0:0:0:
64,192,129367,128,0,129493:0:0:0:0:
192,192,129421,128,0,129548:0:0:0:0:
448,192,129421,128,0,129493:0:0:0:0:
320,192,129475,128,0,129548:0:0:0:0:
64,192,129530,128,0,129601:0:0:0:0:
448,192,129530,128,0,129601:0:0:0:0:
192,192,129583,128,0,129656:0:0:0:0:
320,192,129583,128,0,129656:0:0:0:0:
64,192,129638,128,0,129710:0:0:0:0:
448,192,129638,128,0,129710:0:0:0:0:
320,192,129692,128,0,129818:0:0:0:0:
192,192,129692,128,0,129764:0:0:0:0:
64,192,129746,128,0,129872:0:0:0:0:
448,192,129746,128,0,129818:0:0:0:0:
192,192,129800,128,0,129927:0:0:0:0:
320,192,129854,128,0,129981:0:0:0:0:
448,192,129854,128,0,129927:0:0:0:0:
64,192,129908,128,0,130035:0:0:0:0:
192,192,129963,128,0,130035:0:0:0:0:
448,192,129963,128,0,130143:0:0:0:0:
320,192,130017,128,0,130089:0:0:0:0:
192,192,130071,128,0,130143:0:0:0:0:
64,192,130071,128,0,130197:0:0:0:0:
320,192,130126,128,0,130252:0:0:0:0:
192,192,130179,128,0,130306:0:0:0:0:
448,192,130179,128,0,130252:0:0:0:0:
64,192,130234,128,0,130360:0:0:0:0:
448,192,130288,128,0,130414:0:0:0:0:
320,192,130288,128,0,130360:0:0:0:0:
192,192,130342,128,0,130468:0:0:0:0:
64,192,130396,128,0,130577:0:0:0:0:
320,192,130396,128,0,130522:0:0:0:0:
448,192,130450,128,0,130522:0:0:0:0:
192,192,130504,128,0,130630:0:0:0:0:
320,192,130559,128,0,130685:0:0:0:0:
448,192,130559,128,0,130685:0:0:0:0:
64,192,130612,128,0,130793:0:0:0:0:
192,192,130667,128,0,130739:0:0:0:0:
320,192,130721,128,0,130848:0:0:0:0:
448,192,130721,128,0,130793:0:0:0:0:
192,192,130775,128,0,130901:0:0:0:0:
64,192,130829,128,0,130956:0:0:0:0:
448,192,130829,128,0,131010:0:0:0:0:
320,192,130883,128,0,130956:0:0:0:0:
192,192,130938,128,0,131064:0:0:0:0:
64,192,130992,128,0,131118:0:0:0:0:
320,192,130992,128,0,131118:0:0:0:0:
448,192,131046,128,0,131172:0:0:0:0:
192,192,131100,128,0,131226:0:0:0:0:
64,192,131154,128,0,131226:0:0:0:0:
320,192,131154,128,0,131334:0:0:0:0:
448,192,131208,128,0,131443:0:0:0:0:
192,192,131263,128,0,131389:0:0:0:0:
64,192,131263,128,0,131552:0:0:0:0:
320,192,131371,128,0,131660:0:0:0:0:
192,192,131425,128,0,131606:0:0:0:0:
448,192,131479,128,0,131660:0:0:0:0:
64,192,131588,128,0,131714:0:0:0:0:
192,192,131641,128,0,131714:0:0:0:0:
320,192,131696,128,0,131804:0:0:0:0:
448,192,131696,128,0,131768:0:0:0:0:
192,192,131750,128,0,131822:0:0:0:0:
64,192,131750,128,0,131859:0:0:0:0:
448,192,131804,128,0,131877:0:0:0:0:
320,192,131840,128,0,131985:0:0:0:0:
192,192,131859,128,0,131930:0:0:0:0:
64,192,131894,128,0,132039:0:0:0:0:
448,192,131912,128,0,132093:0:0:0:0:
192,192,131967,128,0,132093:0:0:0:0:
320,192,132021,128,0,133393:0:0:0:0:
64,192,132075,128,0,132743:0:0:0:0:
192,192,132129,128,0,132959:0:0:0:0:
448,192,132129,128,0,132959:0:0:0:0:
64,192,132779,128,0,133826:0:0:0:0:
192,192,132996,128,0,133826:0:0:0:0:
448,192,132996,128,0,134476:0:0:0:0:
320,192,133429,128,0,134693:0:0:0:0:
64,192,133862,128,0,134693:0:0:0:0:
192,192,133862,128,0,135126:0:0:0:0:
448,192,134512,128,0,135559:0:0:0:0:
320,192,134729,128,0,135234:0:0:0:0:
64,192,134729,128,0,135343:0:0:0:0:
192,192,135162,128,0,135451:0:0:0:0:
320,192,135270,128,0,135559:0:0:0:0:
64,192,135379,128,0,136859:0:0:0:0:
192,192,135487,128,0,136426:0:0:0:0:
320,192,135595,128,0,136209:0:0:0:0:
448,192,135595,128,0,136426:0:0:0:0:
320,192,136246,128,0,136859:0:0:0:0:
192,192,136462,128,0,137292:0:0:0:0:
448,192,136462,128,0,137292:0:0:0:0:
320,192,136895,128,0,137509:0:0:0:0:
64,192,136895,128,0,137726:0:0:0:0:
192,192,137329,128,0,137943:0:0:0:0:
448,192,137329,128,0,138159:0:0:0:0:
320,192,137546,128,0,138159:0:0:0:0:
64,192,137762,128,0,139026:0:0:0:0:
192,192,137979,128,0,138592:0:0:0:0:
320,192,138195,128,0,139676:0:0:0:0:
448,192,138195,128,0,139026:0:0:0:0:
192,192,138628,128,0,139892:0:0:0:0:
64,192,139062,128,0,139892:0:0:0:0:
448,192,139062,128,0,140759:0:0:0:0:
320,192,139712,128,0,140326:0:0:0:0:
192,192,139928,128,0,141409:0:0:0:0:
64,192,139928,128,0,140759:0:0:0:0:
320,192,140361,128,0,141626:0:0:0:0:
448,192,140795,128,0,142492:0:0:0:0:
64,192,140795,128,0,141626:0:0:0:0:
192,192,141445,128,0,142059:0:0:0:0:
320,192,141661,128,0,142167:0:0:0:0:
64,192,141661,128,0,142275:0:0:0:0:
192,192,142095,128,0,142383:0:0:0:0:
320,192,142203,128,0,142492:0:0:0:0:
64,192,142312,128,0,143359:0:0:0:0:
192,192,142420,128,0,143359:0:0:0:0:
320,192,142528,128,0,143142:0:0:0:0:
448,192,142528,128,0,144226:0:0:0:0:
320,192,143178,128,0,144226:0:0:0:0:
64,192,143394,128,0,145994:0:0:0:0:
192,192,143394,128,0,145994:0:0:0:0:
448,192,144261,128,0,145994:0:0:0:0:
320,192,144261,128,0,145994:0:0:0:0:
