osu file format v14

[General]
AudioFilename: audio135.mp3
AudioLeadIn: 0
PreviewTime: -1
Countdown: 0
SampleSet: None
StackLeniency: 0.7
Mode: 3
LetterboxInBreaks: 0
SpecialStyle: 0
WidescreenStoryboard: 0

[Editor]
DistanceSpacing: 0.8
BeatDivisor: 12
GridSize: 32
TimelineZoom: 2.2

[Metadata]
Title:AO-INFINITY
TitleUnicode:AO-∞
Artist:Seiryu
ArtistUnicode:青龍
Creator:Affinityy
Version:Reflection [1.35x Rate]
Source:REFLEC BEAT plus
Tags:
BeatmapID:2458401
BeatmapSetID:1177420

[Difficulty]
HPDrainRate:6
CircleSize:4
OverallDifficulty:0
ApproachRate:5
SliderMultiplier:1.4
SliderTickRate:1

[Events]
//Background and Video events
0,0,"bg.png",0,0
//Break Periods
//Storyboard Layer 0 (Background)
//Storyboard Layer 1 (Fail)
//Storyboard Layer 2 (Pass)
//Storyboard Layer 3 (Foreground)
//Storyboard Layer 4 (Overlay)
//Storyboard Sound Samples

[TimingPoints]
436,232.693426410704,4,2,1,30,1,0
45093,-100,4,2,1,30,0,1
59986,-100,4,2,1,30,0,0
111877,-100,4,2,1,30,0,1
141953,-100,4,2,1,30,0,0

[HitObjects]
320,192,436,128,0,1793:0:0:0:0:
64,192,436,128,0,1328:0:0:0:0:
192,192,1134,128,0,2259:0:0:0:0:
448,192,1367,128,0,4004:0:0:0:0:
64,192,1367,128,0,2259:0:0:0:0:
320,192,1832,128,0,3190:0:0:0:0:
64,192,2298,128,0,3190:0:0:0:0:
192,192,2298,128,0,2957:0:0:0:0:
192,192,2996,128,0,3771:0:0:0:0:
64,192,3228,128,0,3655:0:0:0:0:
320,192,3228,128,0,3887:0:0:0:0:
64,192,3693,128,0,4120:0:0:0:0:
192,192,3810,128,0,4120:0:0:0:0:
320,192,3927,128,0,5051:0:0:0:0:
448,192,4043,128,0,5516:0:0:0:0:
64,192,4159,128,0,5051:0:0:0:0:
192,192,4159,128,0,4819:0:0:0:0:
192,192,4857,128,0,5981:0:0:0:0:
64,192,5090,128,0,5981:0:0:0:0:
320,192,5090,128,0,6215:0:0:0:0:
448,192,5555,128,0,6447:0:0:0:0:
64,192,6021,128,0,6913:0:0:0:0:
192,192,6021,128,0,6680:0:0:0:0:
320,192,6253,128,0,6913:0:0:0:0:
448,192,6486,128,0,7378:0:0:0:0:
192,192,6719,128,0,8774:0:0:0:0:
64,192,6951,128,0,9239:0:0:0:0:
320,192,6951,128,0,7843:0:0:0:0:
448,192,7417,128,0,7843:0:0:0:0:
320,192,7882,128,0,8541:0:0:0:0:
448,192,7882,128,0,8774:0:0:0:0:
320,192,8580,128,0,10868:0:0:0:0:
192,192,8813,128,0,9705:0:0:0:0:
448,192,8813,128,0,10636:0:0:0:0:
64,192,9279,128,0,9705:0:0:0:0:
192,192,9744,128,0,10403:0:0:0:0:
64,192,9744,128,0,10636:0:0:0:0:
192,192,10441,128,0,11217:0:0:0:0:
64,192,10674,128,0,11101:0:0:0:0:
448,192,10674,128,0,11450:0:0:0:0:
320,192,10907,128,0,11334:0:0:0:0:
64,192,11140,128,0,11567:0:0:0:0:
192,192,11256,128,0,11567:0:0:0:0:
320,192,11373,128,0,12264:0:0:0:0:
448,192,11489,128,0,12497:0:0:0:0:
192,192,11605,128,0,12962:0:0:0:0:
64,192,11605,128,0,12497:0:0:0:0:
320,192,12303,128,0,13428:0:0:0:0:
448,192,12536,128,0,13428:0:0:0:0:
64,192,12536,128,0,15290:0:0:0:0:
192,192,13001,128,0,15987:0:0:0:0:
320,192,13467,128,0,16220:0:0:0:0:
448,192,13467,128,0,15290:0:0:0:0:
64,192,15328,128,0,16686:0:0:0:0:
448,192,15328,128,0,16220:0:0:0:0:
192,192,16027,128,0,17151:0:0:0:0:
320,192,16259,128,0,17849:0:0:0:0:
448,192,16259,128,0,17151:0:0:0:0:
64,192,16724,128,0,18081:0:0:0:0:
192,192,17190,128,0,18664:0:0:0:0:
448,192,17190,128,0,18081:0:0:0:0:
320,192,17888,128,0,18780:0:0:0:0:
64,192,18121,128,0,18547:0:0:0:0:
448,192,18121,128,0,18896:0:0:0:0:
64,192,18586,128,0,19013:0:0:0:0:
192,192,18702,128,0,19013:0:0:0:0:
320,192,18819,128,0,19710:0:0:0:0:
448,192,18935,128,0,19944:0:0:0:0:
192,192,19051,128,0,19944:0:0:0:0:
64,192,19051,128,0,20874:0:0:0:0:
320,192,19750,128,0,20409:0:0:0:0:
192,192,19982,128,0,21339:0:0:0:0:
448,192,19982,128,0,20874:0:0:0:0:
320,192,20447,128,0,21107:0:0:0:0:
64,192,20913,128,0,21573:0:0:0:0:
448,192,20913,128,0,21805:0:0:0:0:
320,192,21146,128,0,21805:0:0:0:0:
192,192,21379,128,0,22270:0:0:0:0:
64,192,21611,128,0,22736:0:0:0:0:
320,192,21844,128,0,23434:0:0:0:0:
448,192,21844,128,0,22736:0:0:0:0:
192,192,22309,128,0,23667:0:0:0:0:
448,192,22775,128,0,23667:0:0:0:0:
64,192,22775,128,0,24132:0:0:0:0:
320,192,23473,128,0,24597:0:0:0:0:
448,192,23705,128,0,24597:0:0:0:0:
192,192,23705,128,0,25296:0:0:0:0:
64,192,24170,128,0,25528:0:0:0:0:
448,192,24636,128,0,25528:0:0:0:0:
320,192,24636,128,0,25761:0:0:0:0:
192,192,25334,128,0,26110:0:0:0:0:
64,192,25567,128,0,25993:0:0:0:0:
448,192,25567,128,0,26342:0:0:0:0:
320,192,25799,128,0,26226:0:0:0:0:
64,192,26032,128,0,26459:0:0:0:0:
192,192,26149,128,0,26459:0:0:0:0:
320,192,26265,128,0,27390:0:0:0:0:
448,192,26381,128,0,27157:0:0:0:0:
64,192,26498,128,0,27390:0:0:0:0:
192,192,26498,128,0,27855:0:0:0:0:
448,192,27196,128,0,28320:0:0:0:0:
320,192,27428,128,0,28320:0:0:0:0:
64,192,27428,128,0,29716:0:0:0:0:
192,192,27894,128,0,29251:0:0:0:0:
320,192,28359,128,0,29426:0:0:0:0:
448,192,28359,128,0,29600:0:0:0:0:
192,192,29290,128,0,30299:0:0:0:0:
320,192,29464,128,0,29891:0:0:0:0:
448,192,29639,128,0,30182:0:0:0:0:
64,192,29756,128,0,30182:0:0:0:0:
320,192,29930,128,0,30065:0:0:0:0:
320,192,30104,128,0,30240:0:0:0:0:
448,192,30221,128,0,30415:0:0:0:0:
64,192,30221,128,0,30356:0:0:0:0:
320,192,30279,128,0,31055:0:0:0:0:
192,192,30337,128,0,30531:0:0:0:0:
64,192,30396,128,0,30764:0:0:0:0:
448,192,30453,128,0,30647:0:0:0:0:
192,192,30570,128,0,30996:0:0:0:0:
448,192,30686,128,0,30880:0:0:0:0:
64,192,30802,128,0,31113:0:0:0:0:
448,192,30919,128,0,31113:0:0:0:0:
192,192,31035,128,0,31171:0:0:0:0:
320,192,31093,128,0,31229:0:0:0:0:
448,192,31151,128,0,31287:0:0:0:0:
64,192,31151,128,0,31345:0:0:0:0:
192,192,31210,128,0,32044:0:0:0:0:
320,192,31268,128,0,31461:0:0:0:0:
448,192,31326,128,0,31694:0:0:0:0:
64,192,31384,128,0,31578:0:0:0:0:
320,192,31501,128,0,31927:0:0:0:0:
64,192,31617,128,0,31811:0:0:0:0:
448,192,31733,128,0,32044:0:0:0:0:
64,192,31850,128,0,32393:0:0:0:0:
320,192,31966,128,0,32218:0:0:0:0:
192,192,32082,128,0,32218:0:0:0:0:
448,192,32082,128,0,32509:0:0:0:0:
320,192,32257,128,0,32393:0:0:0:0:
192,192,32257,128,0,32509:0:0:0:0:
320,192,32431,128,0,32684:0:0:0:0:
64,192,32431,128,0,32974:0:0:0:0:
448,192,32547,128,0,32684:0:0:0:0:
192,192,32547,128,0,32974:0:0:0:0:
320,192,32722,128,0,32858:0:0:0:0:
448,192,32722,128,0,32858:0:0:0:0:
320,192,32896,128,0,33149:0:0:0:0:
448,192,32896,128,0,33323:0:0:0:0:
192,192,33013,128,0,33149:0:0:0:0:
64,192,33013,128,0,33439:0:0:0:0:
192,192,33187,128,0,33439:0:0:0:0:
320,192,33187,128,0,33323:0:0:0:0:
320,192,33362,128,0,33614:0:0:0:0:
448,192,33362,128,0,33905:0:0:0:0:
192,192,33479,128,0,33614:0:0:0:0:
64,192,33479,128,0,33905:0:0:0:0:
320,192,33653,128,0,33789:0:0:0:0:
192,192,33653,128,0,33789:0:0:0:0:
320,192,33827,128,0,33963:0:0:0:0:
192,192,33827,128,0,34021:0:0:0:0:
448,192,33944,128,0,34138:0:0:0:0:
64,192,33944,128,0,34079:0:0:0:0:
320,192,34002,128,0,34778:0:0:0:0:
192,192,34060,128,0,34254:0:0:0:0:
64,192,34119,128,0,34487:0:0:0:0:
448,192,34176,128,0,34370:0:0:0:0:
192,192,34293,128,0,34719:0:0:0:0:
448,192,34409,128,0,34603:0:0:0:0:
64,192,34525,128,0,34836:0:0:0:0:
448,192,34642,128,0,34836:0:0:0:0:
192,192,34759,128,0,34894:0:0:0:0:
320,192,34816,128,0,34952:0:0:0:0:
448,192,34875,128,0,35010:0:0:0:0:
64,192,34875,128,0,35068:0:0:0:0:
192,192,34933,128,0,35767:0:0:0:0:
320,192,34991,128,0,35184:0:0:0:0:
448,192,35049,128,0,35418:0:0:0:0:
64,192,35107,128,0,35301:0:0:0:0:
320,192,35224,128,0,35650:0:0:0:0:
64,192,35340,128,0,35534:0:0:0:0:
448,192,35456,128,0,35941:0:0:0:0:
64,192,35573,128,0,35767:0:0:0:0:
320,192,35689,128,0,36116:0:0:0:0:
192,192,35805,128,0,35941:0:0:0:0:
64,192,35805,128,0,36232:0:0:0:0:
448,192,35980,128,0,36116:0:0:0:0:
192,192,35980,128,0,36232:0:0:0:0:
320,192,36154,128,0,36407:0:0:0:0:
448,192,36154,128,0,36697:0:0:0:0:
192,192,36270,128,0,36697:0:0:0:0:
64,192,36270,128,0,36407:0:0:0:0:
320,192,36445,128,0,36581:0:0:0:0:
64,192,36445,128,0,36581:0:0:0:0:
320,192,36620,128,0,36872:0:0:0:0:
64,192,36620,128,0,37047:0:0:0:0:
448,192,36736,128,0,36872:0:0:0:0:
192,192,36736,128,0,37163:0:0:0:0:
320,192,36910,128,0,37047:0:0:0:0:
448,192,36910,128,0,37163:0:0:0:0:
320,192,37085,128,0,37279:0:0:0:0:
64,192,37085,128,0,37337:0:0:0:0:
448,192,37201,128,0,37396:0:0:0:0:
192,192,37201,128,0,37337:0:0:0:0:
320,192,37318,128,0,37512:0:0:0:0:
192,192,37376,128,0,37570:0:0:0:0:
64,192,37376,128,0,37453:0:0:0:0:
448,192,37434,128,0,37512:0:0:0:0:
64,192,37493,128,0,37686:0:0:0:0:
448,192,37550,128,0,37628:0:0:0:0:
320,192,37550,128,0,37628:0:0:0:0:
192,192,37609,128,0,37744:0:0:0:0:
320,192,37667,128,0,37803:0:0:0:0:
448,192,37667,128,0,37861:0:0:0:0:
64,192,37725,128,0,37861:0:0:0:0:
192,192,37783,128,0,37977:0:0:0:0:
320,192,37841,128,0,38210:0:0:0:0:
448,192,37899,128,0,38093:0:0:0:0:
64,192,37899,128,0,38093:0:0:0:0:
192,192,38016,128,0,38326:0:0:0:0:
64,192,38133,128,0,38326:0:0:0:0:
448,192,38133,128,0,38442:0:0:0:0:
320,192,38249,128,0,38501:0:0:0:0:
192,192,38365,128,0,38559:0:0:0:0:
64,192,38365,128,0,38559:0:0:0:0:
448,192,38481,128,0,38617:0:0:0:0:
320,192,38539,128,0,38676:0:0:0:0:
192,192,38598,128,0,38733:0:0:0:0:
64,192,38598,128,0,38792:0:0:0:0:
448,192,38656,128,0,38792:0:0:0:0:
320,192,38714,128,0,38908:0:0:0:0:
192,192,38772,128,0,39141:0:0:0:0:
448,192,38830,128,0,39024:0:0:0:0:
64,192,38830,128,0,39024:0:0:0:0:
320,192,38947,128,0,39257:0:0:0:0:
448,192,39063,128,0,39257:0:0:0:0:
64,192,39063,128,0,39490:0:0:0:0:
192,192,39179,128,0,39373:0:0:0:0:
320,192,39296,128,0,39664:0:0:0:0:
448,192,39296,128,0,39490:0:0:0:0:
192,192,39412,128,0,39722:0:0:0:0:
448,192,39528,128,0,39955:0:0:0:0:
64,192,39528,128,0,39722:0:0:0:0:
320,192,39703,128,0,39839:0:0:0:0:
192,192,39761,128,0,39955:0:0:0:0:
64,192,39761,128,0,40130:0:0:0:0:
320,192,39878,128,0,40187:0:0:0:0:
448,192,39994,128,0,40187:0:0:0:0:
192,192,39994,128,0,40304:0:0:0:0:
64,192,40168,128,0,40421:0:0:0:0:
320,192,40227,128,0,40421:0:0:0:0:
448,192,40227,128,0,40653:0:0:0:0:
192,192,40343,128,0,40653:0:0:0:0:
320,192,40459,128,0,40595:0:0:0:0:
64,192,40459,128,0,40770:0:0:0:0:
320,192,40634,128,0,40886:0:0:0:0:
448,192,40692,128,0,40886:0:0:0:0:
192,192,40692,128,0,40944:0:0:0:0:
64,192,40808,128,0,40944:0:0:0:0:
320,192,40924,128,0,41021:0:0:0:0:
448,192,40924,128,0,41002:0:0:0:0:
192,192,40983,128,0,41060:0:0:0:0:
64,192,40983,128,0,41080:0:0:0:0:
448,192,41041,128,0,41119:0:0:0:0:
320,192,41060,128,0,41235:0:0:0:0:
192,192,41099,128,0,41176:0:0:0:0:
64,192,41119,128,0,41293:0:0:0:0:
448,192,41157,128,0,41351:0:0:0:0:
192,192,41216,128,0,41410:0:0:0:0:
320,192,41273,128,0,41351:0:0:0:0:
64,192,41332,128,0,41467:0:0:0:0:
320,192,41390,128,0,41526:0:0:0:0:
448,192,41390,128,0,41584:0:0:0:0:
192,192,41448,128,0,41584:0:0:0:0:
64,192,41507,128,0,41642:0:0:0:0:
320,192,41564,128,0,41700:0:0:0:0:
448,192,41623,128,0,41816:0:0:0:0:
192,192,41623,128,0,41759:0:0:0:0:
64,192,41681,128,0,41816:0:0:0:0:
320,192,41739,128,0,41875:0:0:0:0:
192,192,41797,128,0,41933:0:0:0:0:
448,192,41856,128,0,42050:0:0:0:0:
64,192,41856,128,0,41991:0:0:0:0:
320,192,41913,128,0,42050:0:0:0:0:
192,192,41972,128,0,42107:0:0:0:0:
64,192,42030,128,0,42166:0:0:0:0:
320,192,42088,128,0,42340:0:0:0:0:
448,192,42088,128,0,42224:0:0:0:0:
192,192,42146,128,0,42282:0:0:0:0:
64,192,42204,128,0,42282:0:0:0:0:
448,192,42262,128,0,42399:0:0:0:0:
192,192,42321,128,0,42456:0:0:0:0:
64,192,42321,128,0,42515:0:0:0:0:
320,192,42379,128,0,42515:0:0:0:0:
448,192,42437,128,0,42573:0:0:0:0:
192,192,42496,128,0,42631:0:0:0:0:
320,192,42553,128,0,42689:0:0:0:0:
64,192,42553,128,0,42747:0:0:0:0:
448,192,42612,128,0,42747:0:0:0:0:
192,192,42670,128,0,42805:0:0:0:0:
320,192,42728,128,0,42864:0:0:0:0:
448,192,42786,128,0,42922:0:0:0:0:
64,192,42786,128,0,42980:0:0:0:0:
192,192,42844,128,0,42980:0:0:0:0:
320,192,42902,128,0,43039:0:0:0:0:
448,192,42961,128,0,43096:0:0:0:0:
64,192,43019,128,0,43271:0:0:0:0:
192,192,43019,128,0,43155:0:0:0:0:
320,192,43077,128,0,43213:0:0:0:0:
448,192,43135,128,0,43213:0:0:0:0:
192,192,43193,128,0,43329:0:0:0:0:
320,192,43252,128,0,43387:0:0:0:0:
448,192,43252,128,0,43329:0:0:0:0:
64,192,43310,128,0,43445:0:0:0:0:
192,192,43368,128,0,43445:0:0:0:0:
448,192,43368,128,0,43504:0:0:0:0:
320,192,43426,128,0,43561:0:0:0:0:
192,192,43484,128,0,43620:0:0:0:0:
64,192,43484,128,0,43561:0:0:0:0:
448,192,43542,128,0,43678:0:0:0:0:
320,192,43601,128,0,43678:0:0:0:0:
64,192,43601,128,0,43736:0:0:0:0:
192,192,43659,128,0,43736:0:0:0:0:
448,192,43717,128,0,43795:0:0:0:0:
320,192,43717,128,0,43795:0:0:0:0:
192,192,43775,128,0,43853:0:0:0:0:
64,192,43775,128,0,43853:0:0:0:0:
320,192,43833,128,0,43911:0:0:0:0:
448,192,43833,128,0,43911:0:0:0:0:
192,192,43891,128,0,43969:0:0:0:0:
64,192,43891,128,0,43969:0:0:0:0:
448,192,43950,128,0,44027:0:0:0:0:
320,192,43950,128,0,44027:0:0:0:0:
192,192,44007,128,0,44085:0:0:0:0:
64,192,44007,128,0,44085:0:0:0:0:
320,192,44066,128,0,44144:0:0:0:0:
448,192,44066,128,0,44144:0:0:0:0:
192,192,44124,128,0,44376:0:0:0:0:
64,192,44124,128,0,44376:0:0:0:0:
320,192,44182,128,0,44609:0:0:0:0:
448,192,44182,128,0,44376:0:0:0:0:
192,192,44415,128,0,44841:0:0:0:0:
64,192,44415,128,0,44841:0:0:0:0:
448,192,44415,128,0,44609:0:0:0:0:
448,192,44647,128,0,44725:0:0:0:0:
320,192,44647,128,0,44725:0:0:0:0:
448,192,44764,128,0,44841:0:0:0:0:
320,192,44764,128,0,44841:0:0:0:0:
64,192,44880,128,0,45074:0:0:0:0:
192,192,44880,128,0,45133:0:0:0:0:
320,192,44880,128,0,45133:0:0:0:0:
448,192,44880,128,0,45074:0:0:0:0:
64,192,45113,128,0,45190:0:0:0:0:
448,192,45113,128,0,45190:0:0:0:0:
320,192,45171,128,0,45249:0:0:0:0:
192,192,45171,128,0,45249:0:0:0:0:
64,192,45230,128,0,45307:0:0:0:0:
448,192,45230,128,0,45307:0:0:0:0:
320,192,45287,128,0,45423:0:0:0:0:
192,192,45287,128,0,45365:0:0:0:0:
64,192,45346,128,0,45481:0:0:0:0:
448,192,45346,128,0,45423:0:0:0:0:
192,192,45404,128,0,45540:0:0:0:0:
320,192,45462,128,0,45540:0:0:0:0:
448,192,45462,128,0,45598:0:0:0:0:
64,192,45520,128,0,45656:0:0:0:0:
192,192,45579,128,0,45656:0:0:0:0:
320,192,45579,128,0,45714:0:0:0:0:
448,192,45636,128,0,45773:0:0:0:0:
192,192,45695,128,0,45773:0:0:0:0:
64,192,45695,128,0,45830:0:0:0:0:
320,192,45753,128,0,45889:0:0:0:0:
448,192,45811,128,0,45889:0:0:0:0:
192,192,45811,128,0,45947:0:0:0:0:
64,192,45870,128,0,46063:0:0:0:0:
320,192,45927,128,0,46005:0:0:0:0:
448,192,45927,128,0,46005:0:0:0:0:
192,192,45986,128,0,46063:0:0:0:0:
448,192,46044,128,0,46121:0:0:0:0:
320,192,46044,128,0,46121:0:0:0:0:
192,192,46102,128,0,46179:0:0:0:0:
64,192,46102,128,0,46179:0:0:0:0:
320,192,46160,128,0,46238:0:0:0:0:
448,192,46160,128,0,46238:0:0:0:0:
192,192,46219,128,0,46296:0:0:0:0:
64,192,46219,128,0,46354:0:0:0:0:
320,192,46276,128,0,46413:0:0:0:0:
448,192,46276,128,0,46354:0:0:0:0:
192,192,46335,128,0,46470:0:0:0:0:
64,192,46393,128,0,46470:0:0:0:0:
448,192,46393,128,0,46529:0:0:0:0:
320,192,46451,128,0,46587:0:0:0:0:
192,192,46509,128,0,46645:0:0:0:0:
64,192,46509,128,0,46587:0:0:0:0:
448,192,46567,128,0,46703:0:0:0:0:
320,192,46626,128,0,46703:0:0:0:0:
64,192,46626,128,0,46761:0:0:0:0:
192,192,46684,128,0,46819:0:0:0:0:
320,192,46742,128,0,46878:0:0:0:0:
448,192,46742,128,0,46819:0:0:0:0:
64,192,46800,128,0,46936:0:0:0:0:
448,192,46859,128,0,46994:0:0:0:0:
192,192,46859,128,0,46936:0:0:0:0:
320,192,46916,128,0,47052:0:0:0:0:
192,192,46975,128,0,47110:0:0:0:0:
64,192,46975,128,0,47169:0:0:0:0:
448,192,47033,128,0,47110:0:0:0:0:
320,192,47091,128,0,47227:0:0:0:0:
448,192,47149,128,0,47343:0:0:0:0:
192,192,47149,128,0,47285:0:0:0:0:
64,192,47207,128,0,47285:0:0:0:0:
320,192,47265,128,0,47401:0:0:0:0:
192,192,47324,128,0,47459:0:0:0:0:
64,192,47324,128,0,47401:0:0:0:0:
448,192,47381,128,0,47576:0:0:0:0:
320,192,47440,128,0,47518:0:0:0:0:
64,192,47440,128,0,47576:0:0:0:0:
192,192,47499,128,0,47634:0:0:0:0:
320,192,47556,128,0,47692:0:0:0:0:
448,192,47615,128,0,47750:0:0:0:0:
64,192,47615,128,0,47750:0:0:0:0:
192,192,47673,128,0,47808:0:0:0:0:
320,192,47731,128,0,47867:0:0:0:0:
448,192,47789,128,0,47867:0:0:0:0:
64,192,47789,128,0,47924:0:0:0:0:
192,192,47847,128,0,48041:0:0:0:0:
320,192,47905,128,0,48041:0:0:0:0:
448,192,47905,128,0,47983:0:0:0:0:
64,192,47964,128,0,48099:0:0:0:0:
448,192,48021,128,0,48216:0:0:0:0:
320,192,48080,128,0,48158:0:0:0:0:
192,192,48080,128,0,48216:0:0:0:0:
64,192,48138,128,0,48274:0:0:0:0:
320,192,48196,128,0,48332:0:0:0:0:
448,192,48254,128,0,48332:0:0:0:0:
192,192,48254,128,0,48390:0:0:0:0:
64,192,48313,128,0,48390:0:0:0:0:
320,192,48371,128,0,48448:0:0:0:0:
448,192,48371,128,0,48448:0:0:0:0:
192,192,48429,128,0,48507:0:0:0:0:
64,192,48429,128,0,48564:0:0:0:0:
320,192,48487,128,0,48623:0:0:0:0:
448,192,48487,128,0,48564:0:0:0:0:
192,192,48545,128,0,48623:0:0:0:0:
64,192,48604,128,0,48681:0:0:0:0:
448,192,48604,128,0,48681:0:0:0:0:
192,192,48661,128,0,48739:0:0:0:0:
320,192,48661,128,0,48797:0:0:0:0:
448,192,48720,128,0,48797:0:0:0:0:
64,192,48720,128,0,48856:0:0:0:0:
192,192,48778,128,0,48856:0:0:0:0:
320,192,48836,128,0,48914:0:0:0:0:
448,192,48836,128,0,48914:0:0:0:0:
192,192,48894,128,0,48972:0:0:0:0:
64,192,48894,128,0,48972:0:0:0:0:
320,192,48953,128,0,49030:0:0:0:0:
448,192,48953,128,0,49030:0:0:0:0:
192,192,49010,128,0,49088:0:0:0:0:
64,192,49010,128,0,49147:0:0:0:0:
320,192,49069,128,0,49204:0:0:0:0:
448,192,49069,128,0,49147:0:0:0:0:
192,192,49127,128,0,49263:0:0:0:0:
64,192,49185,128,0,49263:0:0:0:0:
448,192,49185,128,0,49321:0:0:0:0:
320,192,49244,128,0,49379:0:0:0:0:
192,192,49301,128,0,49437:0:0:0:0:
64,192,49301,128,0,49379:0:0:0:0:
448,192,49360,128,0,49496:0:0:0:0:
320,192,49418,128,0,49496:0:0:0:0:
64,192,49418,128,0,49553:0:0:0:0:
192,192,49476,128,0,49612:0:0:0:0:
320,192,49534,128,0,49670:0:0:0:0:
448,192,49534,128,0,49612:0:0:0:0:
64,192,49593,128,0,49728:0:0:0:0:
192,192,49650,128,0,49787:0:0:0:0:
448,192,49650,128,0,49728:0:0:0:0:
320,192,49709,128,0,49787:0:0:0:0:
448,192,49767,128,0,49844:0:0:0:0:
64,192,49767,128,0,49844:0:0:0:0:
320,192,49825,128,0,49903:0:0:0:0:
192,192,49825,128,0,49903:0:0:0:0:
64,192,49883,128,0,49961:0:0:0:0:
448,192,49883,128,0,49961:0:0:0:0:
192,192,49941,128,0,50019:0:0:0:0:
320,192,49941,128,0,50077:0:0:0:0:
448,192,49999,128,0,50077:0:0:0:0:
64,192,49999,128,0,50136:0:0:0:0:
192,192,50058,128,0,50193:0:0:0:0:
320,192,50116,128,0,50252:0:0:0:0:
448,192,50116,128,0,50193:0:0:0:0:
64,192,50174,128,0,50310:0:0:0:0:
192,192,50233,128,0,50310:0:0:0:0:
448,192,50233,128,0,50368:0:0:0:0:
320,192,50290,128,0,50426:0:0:0:0:
192,192,50349,128,0,50426:0:0:0:0:
64,192,50349,128,0,50484:0:0:0:0:
448,192,50407,128,0,50542:0:0:0:0:
320,192,50465,128,0,50542:0:0:0:0:
192,192,50465,128,0,50601:0:0:0:0:
64,192,50523,128,0,50659:0:0:0:0:
320,192,50581,128,0,50659:0:0:0:0:
448,192,50581,128,0,50717:0:0:0:0:
192,192,50639,128,0,50776:0:0:0:0:
64,192,50698,128,0,50892:0:0:0:0:
320,192,50698,128,0,50833:0:0:0:0:
448,192,50756,128,0,50833:0:0:0:0:
192,192,50814,128,0,50950:0:0:0:0:
320,192,50873,128,0,51008:0:0:0:0:
448,192,50873,128,0,51066:0:0:0:0:
64,192,50930,128,0,51008:0:0:0:0:
192,192,50989,128,0,51124:0:0:0:0:
64,192,51047,128,0,51124:0:0:0:0:
320,192,51047,128,0,51182:0:0:0:0:
448,192,51105,128,0,51299:0:0:0:0:
64,192,51163,128,0,51299:0:0:0:0:
192,192,51163,128,0,51241:0:0:0:0:
320,192,51221,128,0,51357:0:0:0:0:
192,192,51279,128,0,51415:0:0:0:0:
64,192,51338,128,0,51473:0:0:0:0:
448,192,51338,128,0,51473:0:0:0:0:
320,192,51396,128,0,51532:0:0:0:0:
192,192,51454,128,0,51590:0:0:0:0:
64,192,51512,128,0,51590:0:0:0:0:
448,192,51512,128,0,51648:0:0:0:0:
320,192,51570,128,0,51764:0:0:0:0:
192,192,51628,128,0,51706:0:0:0:0:
64,192,51628,128,0,51764:0:0:0:0:
448,192,51687,128,0,51822:0:0:0:0:
192,192,51745,128,0,51939:0:0:0:0:
64,192,51803,128,0,51881:0:0:0:0:
320,192,51803,128,0,51997:0:0:0:0:
448,192,51861,128,0,51939:0:0:0:0:
64,192,51919,128,0,52055:0:0:0:0:
192,192,51978,128,0,52055:0:0:0:0:
448,192,51978,128,0,52113:0:0:0:0:
320,192,52036,128,0,52171:0:0:0:0:
192,192,52094,128,0,52230:0:0:0:0:
64,192,52094,128,0,52287:0:0:0:0:
448,192,52152,128,0,52287:0:0:0:0:
320,192,52210,128,0,52346:0:0:0:0:
192,192,52268,128,0,52404:0:0:0:0:
64,192,52327,128,0,52521:0:0:0:0:
448,192,52327,128,0,52521:0:0:0:0:
320,192,52384,128,0,52462:0:0:0:0:
192,192,52443,128,0,52579:0:0:0:0:
320,192,52501,128,0,52579:0:0:0:0:
448,192,52559,128,0,52637:0:0:0:0:
64,192,52559,128,0,52637:0:0:0:0:
320,192,52618,128,0,52695:0:0:0:0:
192,192,52618,128,0,52695:0:0:0:0:
64,192,52676,128,0,52753:0:0:0:0:
448,192,52676,128,0,52753:0:0:0:0:
320,192,52734,128,0,52811:0:0:0:0:
192,192,52734,128,0,52870:0:0:0:0:
64,192,52792,128,0,52870:0:0:0:0:
448,192,52792,128,0,52927:0:0:0:0:
320,192,52850,128,0,52986:0:0:0:0:
192,192,52908,128,0,52986:0:0:0:0:
64,192,52908,128,0,53044:0:0:0:0:
448,192,52967,128,0,53102:0:0:0:0:
320,192,53024,128,0,53102:0:0:0:0:
192,192,53024,128,0,53161:0:0:0:0:
64,192,53083,128,0,53219:0:0:0:0:
448,192,53141,128,0,53277:0:0:0:0:
320,192,53141,128,0,53219:0:0:0:0:
192,192,53199,128,0,53335:0:0:0:0:
64,192,53257,128,0,53335:0:0:0:0:
320,192,53257,128,0,53393:0:0:0:0:
448,192,53316,128,0,53510:0:0:0:0:
192,192,53373,128,0,53451:0:0:0:0:
64,192,53373,128,0,53451:0:0:0:0:
320,192,53432,128,0,53510:0:0:0:0:
192,192,53490,128,0,53567:0:0:0:0:
64,192,53490,128,0,53567:0:0:0:0:
448,192,53548,128,0,53626:0:0:0:0:
320,192,53548,128,0,53626:0:0:0:0:
64,192,53607,128,0,53684:0:0:0:0:
192,192,53607,128,0,53684:0:0:0:0:
320,192,53664,128,0,53742:0:0:0:0:
448,192,53664,128,0,53800:0:0:0:0:
192,192,53723,128,0,53859:0:0:0:0:
64,192,53723,128,0,53800:0:0:0:0:
320,192,53781,128,0,53916:0:0:0:0:
448,192,53839,128,0,53916:0:0:0:0:
64,192,53839,128,0,53975:0:0:0:0:
192,192,53897,128,0,54033:0:0:0:0:
320,192,53956,128,0,54091:0:0:0:0:
448,192,53956,128,0,54033:0:0:0:0:
64,192,54013,128,0,54150:0:0:0:0:
192,192,54072,128,0,54150:0:0:0:0:
448,192,54072,128,0,54266:0:0:0:0:
320,192,54130,128,0,54207:0:0:0:0:
192,192,54188,128,0,54266:0:0:0:0:
64,192,54188,128,0,54324:0:0:0:0:
320,192,54246,128,0,54382:0:0:0:0:
448,192,54304,128,0,54382:0:0:0:0:
192,192,54304,128,0,54440:0:0:0:0:
64,192,54363,128,0,54556:0:0:0:0:
320,192,54421,128,0,54499:0:0:0:0:
448,192,54421,128,0,54556:0:0:0:0:
192,192,54479,128,0,54615:0:0:0:0:
320,192,54537,128,0,54673:0:0:0:0:
448,192,54596,128,0,54789:0:0:0:0:
64,192,54596,128,0,54731:0:0:0:0:
192,192,54653,128,0,54731:0:0:0:0:
320,192,54712,128,0,54847:0:0:0:0:
192,192,54770,128,0,54906:0:0:0:0:
64,192,54770,128,0,54847:0:0:0:0:
448,192,54828,128,0,55022:0:0:0:0:
320,192,54886,128,0,54964:0:0:0:0:
64,192,54886,128,0,55022:0:0:0:0:
192,192,54944,128,0,55080:0:0:0:0:
320,192,55002,128,0,55139:0:0:0:0:
448,192,55061,128,0,55196:0:0:0:0:
64,192,55061,128,0,55196:0:0:0:0:
192,192,55119,128,0,55255:0:0:0:0:
320,192,55177,128,0,55313:0:0:0:0:
448,192,55236,128,0,55313:0:0:0:0:
64,192,55236,128,0,55371:0:0:0:0:
192,192,55293,128,0,55487:0:0:0:0:
320,192,55352,128,0,55487:0:0:0:0:
448,192,55352,128,0,55429:0:0:0:0:
64,192,55410,128,0,55545:0:0:0:0:
448,192,55468,128,0,55604:0:0:0:0:
320,192,55526,128,0,55720:0:0:0:0:
192,192,55526,128,0,55661:0:0:0:0:
64,192,55584,128,0,55661:0:0:0:0:
448,192,55642,128,0,55779:0:0:0:0:
64,192,55701,128,0,55836:0:0:0:0:
192,192,55701,128,0,55779:0:0:0:0:
320,192,55759,128,0,55895:0:0:0:0:
192,192,55817,128,0,55953:0:0:0:0:
448,192,55817,128,0,56011:0:0:0:0:
64,192,55875,128,0,55953:0:0:0:0:
320,192,55933,128,0,56069:0:0:0:0:
192,192,55991,128,0,56127:0:0:0:0:
64,192,55991,128,0,56127:0:0:0:0:
448,192,56050,128,0,56185:0:0:0:0:
320,192,56108,128,0,56301:0:0:0:0:
192,192,56166,128,0,56244:0:0:0:0:
64,192,56166,128,0,56244:0:0:0:0:
448,192,56224,128,0,56301:0:0:0:0:
192,192,56282,128,0,56360:0:0:0:0:
64,192,56282,128,0,56360:0:0:0:0:
320,192,56341,128,0,56418:0:0:0:0:
448,192,56341,128,0,56418:0:0:0:0:
192,192,56399,128,0,56476:0:0:0:0:
64,192,56399,128,0,56476:0:0:0:0:
320,192,56457,128,0,56593:0:0:0:0:
448,192,56457,128,0,56534:0:0:0:0:
192,192,56515,128,0,56651:0:0:0:0:
64,192,56515,128,0,56593:0:0:0:0:
448,192,56573,128,0,56709:0:0:0:0:
320,192,56631,128,0,56709:0:0:0:0:
64,192,56631,128,0,56767:0:0:0:0:
192,192,56690,128,0,56825:0:0:0:0:
320,192,56747,128,0,56884:0:0:0:0:
448,192,56747,128,0,56825:0:0:0:0:
64,192,56806,128,0,56941:0:0:0:0:
192,192,56864,128,0,56941:0:0:0:0:
448,192,56864,128,0,57000:0:0:0:0:
320,192,56922,128,0,57058:0:0:0:0:
64,192,56981,128,0,57058:0:0:0:0:
192,192,56981,128,0,57116:0:0:0:0:
448,192,57039,128,0,57174:0:0:0:0:
320,192,57097,128,0,57233:0:0:0:0:
64,192,57097,128,0,57174:0:0:0:0:
192,192,57155,128,0,57233:0:0:0:0:
64,192,57213,128,0,57290:0:0:0:0:
448,192,57213,128,0,57290:0:0:0:0:
320,192,57271,128,0,57349:0:0:0:0:
192,192,57271,128,0,57349:0:0:0:0:
64,192,57330,128,0,57407:0:0:0:0:
448,192,57330,128,0,57407:0:0:0:0:
320,192,57387,128,0,57524:0:0:0:0:
192,192,57387,128,0,57465:0:0:0:0:
448,192,57446,128,0,57524:0:0:0:0:
64,192,57446,128,0,57581:0:0:0:0:
192,192,57504,128,0,57640:0:0:0:0:
320,192,57562,128,0,57640:0:0:0:0:
448,192,57562,128,0,57698:0:0:0:0:
64,192,57620,128,0,57756:0:0:0:0:
320,192,57679,128,0,57814:0:0:0:0:
192,192,57679,128,0,57756:0:0:0:0:
448,192,57737,128,0,57873:0:0:0:0:
64,192,57795,128,0,57930:0:0:0:0:
192,192,57795,128,0,57873:0:0:0:0:
320,192,57853,128,0,57989:0:0:0:0:
448,192,57911,128,0,57989:0:0:0:0:
192,192,57911,128,0,58047:0:0:0:0:
64,192,57970,128,0,58105:0:0:0:0:
320,192,58027,128,0,58105:0:0:0:0:
448,192,58027,128,0,58163:0:0:0:0:
192,192,58086,128,0,58221:0:0:0:0:
320,192,58144,128,0,58280:0:0:0:0:
64,192,58144,128,0,58338:0:0:0:0:
448,192,58202,128,0,58280:0:0:0:0:
192,192,58260,128,0,58396:0:0:0:0:
320,192,58319,128,0,58454:0:0:0:0:
448,192,58319,128,0,58513:0:0:0:0:
64,192,58376,128,0,58454:0:0:0:0:
192,192,58435,128,0,58570:0:0:0:0:
320,192,58493,128,0,58629:0:0:0:0:
64,192,58493,128,0,58570:0:0:0:0:
448,192,58551,128,0,58687:0:0:0:0:
192,192,58610,128,0,58745:0:0:0:0:
64,192,58610,128,0,58745:0:0:0:0:
320,192,58667,128,0,58803:0:0:0:0:
448,192,58726,128,0,58978:0:0:0:0:
192,192,58784,128,0,58861:0:0:0:0:
64,192,58784,128,0,58919:0:0:0:0:
320,192,58842,128,0,58919:0:0:0:0:
192,192,58900,128,0,59036:0:0:0:0:
64,192,58959,128,0,59036:0:0:0:0:
320,192,58959,128,0,59153:0:0:0:0:
448,192,59016,128,0,59269:0:0:0:0:
192,192,59075,128,0,59210:0:0:0:0:
64,192,59075,128,0,59501:0:0:0:0:
320,192,59191,128,0,59443:0:0:0:0:
192,192,59249,128,0,59385:0:0:0:0:
448,192,59307,128,0,59618:0:0:0:0:
192,192,59424,128,0,59501:0:0:0:0:
320,192,59482,128,0,59618:0:0:0:0:
192,192,59540,128,0,59734:0:0:0:0:
64,192,59540,128,0,59967:0:0:0:0:
320,192,59656,128,0,59792:0:0:0:0:
448,192,59656,128,0,59967:0:0:0:0:
192,192,59773,128,0,59850:0:0:0:0:
320,192,59831,128,0,59908:0:0:0:0:
192,192,59889,128,0,59967:0:0:0:0:
320,192,59947,128,0,60025:0:0:0:0:
448,192,60005,128,0,60141:0:0:0:0:
192,192,60005,128,0,60199:0:0:0:0:
64,192,60005,128,0,60083:0:0:0:0:
320,192,60064,128,0,60258:0:0:0:0:
64,192,60121,128,0,60199:0:0:0:0:
448,192,60180,128,0,60316:0:0:0:0:
192,192,60238,128,0,60374:0:0:0:0:
64,192,60238,128,0,60432:0:0:0:0:
320,192,60296,128,0,60490:0:0:0:0:
448,192,60355,128,0,60432:0:0:0:0:
192,192,60413,128,0,60548:0:0:0:0:
64,192,60471,128,0,60664:0:0:0:0:
448,192,60471,128,0,60607:0:0:0:0:
320,192,60529,128,0,60723:0:0:0:0:
192,192,60587,128,0,60664:0:0:0:0:
448,192,60645,128,0,60781:0:0:0:0:
64,192,60704,128,0,60898:0:0:0:0:
192,192,60704,128,0,60839:0:0:0:0:
320,192,60761,128,0,60898:0:0:0:0:
448,192,60820,128,0,60956:0:0:0:0:
192,192,60878,128,0,61014:0:0:0:0:
320,192,60936,128,0,61130:0:0:0:0:
64,192,60936,128,0,61072:0:0:0:0:
448,192,60994,128,0,61130:0:0:0:0:
192,192,61053,128,0,61188:0:0:0:0:
64,192,61110,128,0,61363:0:0:0:0:
320,192,61169,128,0,61304:0:0:0:0:
448,192,61169,128,0,61247:0:0:0:0:
192,192,61227,128,0,61363:0:0:0:0:
448,192,61285,128,0,61596:0:0:0:0:
320,192,61344,128,0,61421:0:0:0:0:
192,192,61401,128,0,61537:0:0:0:0:
64,192,61401,128,0,61479:0:0:0:0:
320,192,61460,128,0,61596:0:0:0:0:
64,192,61518,128,0,61653:0:0:0:0:
192,192,61576,128,0,61770:0:0:0:0:
448,192,61634,128,0,61828:0:0:0:0:
320,192,61634,128,0,61712:0:0:0:0:
64,192,61693,128,0,61828:0:0:0:0:
320,192,61750,128,0,61887:0:0:0:0:
192,192,61809,128,0,61944:0:0:0:0:
448,192,61867,128,0,62003:0:0:0:0:
64,192,61867,128,0,62061:0:0:0:0:
320,192,61925,128,0,62061:0:0:0:0:
192,192,61984,128,0,62119:0:0:0:0:
448,192,62041,128,0,62177:0:0:0:0:
320,192,62100,128,0,62236:0:0:0:0:
64,192,62100,128,0,62293:0:0:0:0:
192,192,62158,128,0,62293:0:0:0:0:
448,192,62216,128,0,62352:0:0:0:0:
320,192,62274,128,0,62468:0:0:0:0:
192,192,62333,128,0,62410:0:0:0:0:
64,192,62333,128,0,62526:0:0:0:0:
448,192,62390,128,0,62584:0:0:0:0:
192,192,62449,128,0,62526:0:0:0:0:
320,192,62507,128,0,62643:0:0:0:0:
192,192,62565,128,0,62701:0:0:0:0:
64,192,62565,128,0,62759:0:0:0:0:
448,192,62623,128,0,62759:0:0:0:0:
320,192,62681,128,0,62817:0:0:0:0:
192,192,62739,128,0,63050:0:0:0:0:
64,192,62798,128,0,62876:0:0:0:0:
448,192,62798,128,0,62933:0:0:0:0:
320,192,62856,128,0,62992:0:0:0:0:
64,192,62914,128,0,62992:0:0:0:0:
448,192,62973,128,0,63282:0:0:0:0:
64,192,63030,128,0,63166:0:0:0:0:
320,192,63030,128,0,63108:0:0:0:0:
192,192,63089,128,0,63224:0:0:0:0:
320,192,63147,128,0,63224:0:0:0:0:
64,192,63205,128,0,63457:0:0:0:0:
192,192,63263,128,0,63341:0:0:0:0:
320,192,63263,128,0,63399:0:0:0:0:
448,192,63321,128,0,63516:0:0:0:0:
192,192,63379,128,0,63457:0:0:0:0:
320,192,63438,128,0,63573:0:0:0:0:
64,192,63496,128,0,63632:0:0:0:0:
192,192,63496,128,0,63690:0:0:0:0:
448,192,63554,128,0,63690:0:0:0:0:
320,192,63612,128,0,63690:0:0:0:0:
64,192,63670,128,0,63748:0:0:0:0:
192,192,63729,128,0,63864:0:0:0:0:
320,192,63729,128,0,63806:0:0:0:0:
448,192,63729,128,0,63922:0:0:0:0:
64,192,63787,128,0,63922:0:0:0:0:
320,192,63845,128,0,64097:0:0:0:0:
192,192,63903,128,0,63981:0:0:0:0:
448,192,63961,128,0,64039:0:0:0:0:
64,192,63961,128,0,64155:0:0:0:0:
192,192,64019,128,0,64155:0:0:0:0:
448,192,64078,128,0,64213:0:0:0:0:
320,192,64136,128,0,64272:0:0:0:0:
192,192,64194,128,0,64388:0:0:0:0:
64,192,64194,128,0,64330:0:0:0:0:
448,192,64252,128,0,64388:0:0:0:0:
320,192,64310,128,0,64446:0:0:0:0:
64,192,64368,128,0,64504:0:0:0:0:
192,192,64427,128,0,64562:0:0:0:0:
448,192,64427,128,0,64621:0:0:0:0:
320,192,64484,128,0,64621:0:0:0:0:
64,192,64543,128,0,64853:0:0:0:0:
192,192,64601,128,0,64679:0:0:0:0:
320,192,64659,128,0,64795:0:0:0:0:
448,192,64659,128,0,64737:0:0:0:0:
192,192,64718,128,0,64853:0:0:0:0:
448,192,64776,128,0,64911:0:0:0:0:
320,192,64834,128,0,65027:0:0:0:0:
192,192,64892,128,0,65086:0:0:0:0:
64,192,64892,128,0,64970:0:0:0:0:
448,192,64950,128,0,65086:0:0:0:0:
64,192,65008,128,0,65144:0:0:0:0:
320,192,65067,128,0,65202:0:0:0:0:
448,192,65124,128,0,65319:0:0:0:0:
192,192,65124,128,0,65261:0:0:0:0:
64,192,65183,128,0,65319:0:0:0:0:
320,192,65241,128,0,65377:0:0:0:0:
192,192,65299,128,0,65435:0:0:0:0:
64,192,65357,128,0,65551:0:0:0:0:
448,192,65357,128,0,65493:0:0:0:0:
320,192,65416,128,0,65551:0:0:0:0:
192,192,65474,128,0,65610:0:0:0:0:
448,192,65532,128,0,65667:0:0:0:0:
320,192,65590,128,0,65842:0:0:0:0:
64,192,65590,128,0,65726:0:0:0:0:
192,192,65648,128,0,65784:0:0:0:0:
448,192,65707,128,0,65784:0:0:0:0:
64,192,65764,128,0,65900:0:0:0:0:
448,192,65823,128,0,66017:0:0:0:0:
192,192,65823,128,0,65959:0:0:0:0:
320,192,65881,128,0,66017:0:0:0:0:
64,192,65939,128,0,66075:0:0:0:0:
192,192,65997,128,0,66191:0:0:0:0:
320,192,66056,128,0,66133:0:0:0:0:
448,192,66056,128,0,66250:0:0:0:0:
64,192,66113,128,0,66250:0:0:0:0:
320,192,66172,128,0,66307:0:0:0:0:
192,192,66230,128,0,66366:0:0:0:0:
448,192,66288,128,0,66424:0:0:0:0:
64,192,66288,128,0,66482:0:0:0:0:
320,192,66347,128,0,66540:0:0:0:0:
192,192,66404,128,0,66482:0:0:0:0:
448,192,66463,128,0,66599:0:0:0:0:
192,192,66521,128,0,66656:0:0:0:0:
64,192,66521,128,0,66715:0:0:0:0:
320,192,66579,128,0,66715:0:0:0:0:
448,192,66637,128,0,66773:0:0:0:0:
192,192,66696,128,0,66831:0:0:0:0:
64,192,66753,128,0,66947:0:0:0:0:
320,192,66753,128,0,66890:0:0:0:0:
448,192,66812,128,0,66947:0:0:0:0:
192,192,66870,128,0,67006:0:0:0:0:
320,192,66928,128,0,67064:0:0:0:0:
448,192,66986,128,0,67180:0:0:0:0:
64,192,66986,128,0,67122:0:0:0:0:
192,192,67044,128,0,67413:0:0:0:0:
320,192,67102,128,0,67180:0:0:0:0:
64,192,67161,128,0,67239:0:0:0:0:
320,192,67219,128,0,67296:0:0:0:0:
448,192,67219,128,0,67413:0:0:0:0:
64,192,67277,128,0,67355:0:0:0:0:
320,192,67336,128,0,67413:0:0:0:0:
64,192,67393,128,0,67471:0:0:0:0:
192,192,67452,128,0,67587:0:0:0:0:
320,192,67452,128,0,67645:0:0:0:0:
448,192,67452,128,0,67529:0:0:0:0:
64,192,67510,128,0,67645:0:0:0:0:
448,192,67568,128,0,67704:0:0:0:0:
192,192,67626,128,0,67762:0:0:0:0:
320,192,67684,128,0,67820:0:0:0:0:
64,192,67684,128,0,67879:0:0:0:0:
448,192,67742,128,0,67879:0:0:0:0:
192,192,67801,128,0,67936:0:0:0:0:
320,192,67859,128,0,67995:0:0:0:0:
448,192,67917,128,0,68111:0:0:0:0:
64,192,67917,128,0,68053:0:0:0:0:
192,192,67976,128,0,68111:0:0:0:0:
320,192,68033,128,0,68169:0:0:0:0:
64,192,68092,128,0,68344:0:0:0:0:
448,192,68150,128,0,68285:0:0:0:0:
192,192,68150,128,0,68227:0:0:0:0:
320,192,68208,128,0,68344:0:0:0:0:
192,192,68266,128,0,68401:0:0:0:0:
448,192,68324,128,0,68460:0:0:0:0:
320,192,68382,128,0,68576:0:0:0:0:
64,192,68382,128,0,68635:0:0:0:0:
192,192,68441,128,0,68518:0:0:0:0:
448,192,68499,128,0,68576:0:0:0:0:
192,192,68557,128,0,68693:0:0:0:0:
320,192,68615,128,0,68809:0:0:0:0:
448,192,68615,128,0,68751:0:0:0:0:
64,192,68673,128,0,68809:0:0:0:0:
192,192,68731,128,0,68867:0:0:0:0:
448,192,68790,128,0,68925:0:0:0:0:
320,192,68848,128,0,69041:0:0:0:0:
64,192,68848,128,0,68984:0:0:0:0:
192,192,68906,128,0,69041:0:0:0:0:
448,192,68964,128,0,69100:0:0:0:0:
64,192,69022,128,0,69158:0:0:0:0:
192,192,69081,128,0,69274:0:0:0:0:
320,192,69081,128,0,69216:0:0:0:0:
448,192,69139,128,0,69333:0:0:0:0:
64,192,69197,128,0,69274:0:0:0:0:
320,192,69255,128,0,69391:0:0:0:0:
192,192,69313,128,0,69449:0:0:0:0:
64,192,69313,128,0,69507:0:0:0:0:
448,192,69371,128,0,69507:0:0:0:0:
320,192,69430,128,0,69565:0:0:0:0:
192,192,69487,128,0,69681:0:0:0:0:
64,192,69546,128,0,69624:0:0:0:0:
448,192,69546,128,0,69740:0:0:0:0:
320,192,69604,128,0,69740:0:0:0:0:
64,192,69662,128,0,69914:0:0:0:0:
192,192,69721,128,0,69798:0:0:0:0:
320,192,69779,128,0,69856:0:0:0:0:
448,192,69779,128,0,70030:0:0:0:0:
192,192,69837,128,0,69973:0:0:0:0:
320,192,69895,128,0,69973:0:0:0:0:
64,192,69953,128,0,70205:0:0:0:0:
192,192,70011,128,0,70089:0:0:0:0:
320,192,70011,128,0,70147:0:0:0:0:
448,192,70070,128,0,70205:0:0:0:0:
192,192,70127,128,0,70264:0:0:0:0:
320,192,70186,128,0,70321:0:0:0:0:
64,192,70244,128,0,70438:0:0:0:0:
448,192,70244,128,0,70438:0:0:0:0:
192,192,70302,128,0,70380:0:0:0:0:
320,192,70360,128,0,70496:0:0:0:0:
192,192,70419,128,0,70554:0:0:0:0:
448,192,70476,128,0,70613:0:0:0:0:
64,192,70476,128,0,70670:0:0:0:0:
320,192,70535,128,0,70670:0:0:0:0:
192,192,70593,128,0,70729:0:0:0:0:
448,192,70651,128,0,70787:0:0:0:0:
64,192,70710,128,0,70845:0:0:0:0:
320,192,70710,128,0,70903:0:0:0:0:
192,192,70767,128,0,70903:0:0:0:0:
448,192,70826,128,0,70961:0:0:0:0:
64,192,70884,128,0,71019:0:0:0:0:
192,192,70942,128,0,71136:0:0:0:0:
320,192,70942,128,0,71136:0:0:0:0:
448,192,71000,128,0,71078:0:0:0:0:
64,192,71059,128,0,71136:0:0:0:0:
448,192,71116,128,0,71194:0:0:0:0:
320,192,71175,128,0,71310:0:0:0:0:
192,192,71175,128,0,71253:0:0:0:0:
64,192,71175,128,0,71369:0:0:0:0:
448,192,71233,128,0,71369:0:0:0:0:
192,192,71291,128,0,71427:0:0:0:0:
320,192,71349,128,0,71485:0:0:0:0:
448,192,71407,128,0,71601:0:0:0:0:
64,192,71407,128,0,71543:0:0:0:0:
192,192,71466,128,0,71601:0:0:0:0:
320,192,71524,128,0,71659:0:0:0:0:
64,192,71582,128,0,71718:0:0:0:0:
192,192,71640,128,0,71834:0:0:0:0:
448,192,71640,128,0,71834:0:0:0:0:
320,192,71699,128,0,71776:0:0:0:0:
64,192,71756,128,0,71892:0:0:0:0:
320,192,71815,128,0,71950:0:0:0:0:
192,192,71873,128,0,72009:0:0:0:0:
448,192,71873,128,0,72125:0:0:0:0:
64,192,71931,128,0,72067:0:0:0:0:
320,192,71989,128,0,72067:0:0:0:0:
192,192,72047,128,0,72183:0:0:0:0:
320,192,72105,128,0,72241:0:0:0:0:
64,192,72105,128,0,72299:0:0:0:0:
448,192,72164,128,0,72358:0:0:0:0:
192,192,72221,128,0,72299:0:0:0:0:
320,192,72280,128,0,72474:0:0:0:0:
64,192,72339,128,0,72532:0:0:0:0:
192,192,72339,128,0,72416:0:0:0:0:
448,192,72396,128,0,72532:0:0:0:0:
192,192,72455,128,0,72590:0:0:0:0:
320,192,72513,128,0,72648:0:0:0:0:
448,192,72571,128,0,72764:0:0:0:0:
64,192,72571,128,0,72707:0:0:0:0:
192,192,72629,128,0,72764:0:0:0:0:
320,192,72687,128,0,72823:0:0:0:0:
64,192,72745,128,0,72998:0:0:0:0:
192,192,72804,128,0,72881:0:0:0:0:
448,192,72804,128,0,72939:0:0:0:0:
320,192,72861,128,0,73056:0:0:0:0:
192,192,72920,128,0,72998:0:0:0:0:
448,192,72978,128,0,73230:0:0:0:0:
64,192,73036,128,0,73114:0:0:0:0:
192,192,73036,128,0,73172:0:0:0:0:
320,192,73095,128,0,73230:0:0:0:0:
64,192,73153,128,0,73347:0:0:0:0:
192,192,73211,128,0,73288:0:0:0:0:
320,192,73269,128,0,73404:0:0:0:0:
448,192,73269,128,0,73463:0:0:0:0:
192,192,73327,128,0,73463:0:0:0:0:
64,192,73385,128,0,73521:0:0:0:0:
320,192,73444,128,0,73579:0:0:0:0:
448,192,73501,128,0,73754:0:0:0:0:
192,192,73501,128,0,73637:0:0:0:0:
64,192,73560,128,0,73696:0:0:0:0:
320,192,73618,128,0,73696:0:0:0:0:
192,192,73676,128,0,73812:0:0:0:0:
64,192,73734,128,0,73928:0:0:0:0:
320,192,73734,128,0,73870:0:0:0:0:
448,192,73793,128,0,73928:0:0:0:0:
192,192,73850,128,0,74103:0:0:0:0:
320,192,73909,128,0,74044:0:0:0:0:
64,192,73967,128,0,74161:0:0:0:0:
448,192,73967,128,0,74336:0:0:0:0:
320,192,74084,128,0,74219:0:0:0:0:
192,192,74141,128,0,74277:0:0:0:0:
64,192,74200,128,0,74277:0:0:0:0:
320,192,74258,128,0,74452:0:0:0:0:
192,192,74316,128,0,74393:0:0:0:0:
64,192,74316,128,0,74393:0:0:0:0:
448,192,74374,128,0,74452:0:0:0:0:
64,192,74433,128,0,74510:0:0:0:0:
192,192,74433,128,0,74530:0:0:0:0:
320,192,74490,128,0,74568:0:0:0:0:
448,192,74490,128,0,74587:0:0:0:0:
64,192,74549,128,0,74627:0:0:0:0:
192,192,74568,128,0,74684:0:0:0:0:
320,192,74607,128,0,74801:0:0:0:0:
448,192,74627,128,0,74743:0:0:0:0:
64,192,74665,128,0,74859:0:0:0:0:
192,192,74723,128,0,74859:0:0:0:0:
448,192,74781,128,0,76721:0:0:0:0:
320,192,74840,128,0,75790:0:0:0:0:
192,192,74898,128,0,75790:0:0:0:0:
64,192,74898,128,0,75557:0:0:0:0:
64,192,75596,128,0,77651:0:0:0:0:
192,192,75829,128,0,77419:0:0:0:0:
320,192,75829,128,0,76721:0:0:0:0:
320,192,76759,128,0,77651:0:0:0:0:
448,192,76759,128,0,78350:0:0:0:0:
192,192,77458,128,0,78117:0:0:0:0:
320,192,77690,128,0,78233:0:0:0:0:
64,192,77690,128,0,78582:0:0:0:0:
192,192,78156,128,0,78466:0:0:0:0:
320,192,78272,128,0,78582:0:0:0:0:
448,192,78388,128,0,79513:0:0:0:0:
192,192,78504,128,0,80444:0:0:0:0:
320,192,78621,128,0,79280:0:0:0:0:
64,192,78621,128,0,79513:0:0:0:0:
320,192,79319,128,0,80676:0:0:0:0:
448,192,79552,128,0,79979:0:0:0:0:
64,192,79552,128,0,80444:0:0:0:0:
448,192,80017,128,0,80909:0:0:0:0:
192,192,80482,128,0,81141:0:0:0:0:
64,192,80482,128,0,81375:0:0:0:0:
320,192,80715,128,0,81375:0:0:0:0:
448,192,80948,128,0,81840:0:0:0:0:
192,192,81181,128,0,82130:0:0:0:0:
64,192,81413,128,0,81898:0:0:0:0:
320,192,81413,128,0,82073:0:0:0:0:
448,192,81879,128,0,81956:0:0:0:0:
64,192,81937,128,0,82014:0:0:0:0:
448,192,81995,128,0,82305:0:0:0:0:
64,192,82053,128,0,82305:0:0:0:0:
320,192,82111,128,0,82189:0:0:0:0:
192,192,82170,128,0,82247:0:0:0:0:
320,192,82227,128,0,82305:0:0:0:0:
192,192,82286,128,0,83236:0:0:0:0:
320,192,82344,128,0,82538:0:0:0:0:
448,192,82344,128,0,83236:0:0:0:0:
64,192,82344,128,0,82538:0:0:0:0:
320,192,82577,128,0,82770:0:0:0:0:
64,192,82577,128,0,82770:0:0:0:0:
320,192,82810,128,0,83003:0:0:0:0:
64,192,82810,128,0,83003:0:0:0:0:
320,192,83042,128,0,85098:0:0:0:0:
64,192,83042,128,0,83236:0:0:0:0:
448,192,83275,128,0,83469:0:0:0:0:
192,192,83275,128,0,83469:0:0:0:0:
64,192,83275,128,0,84167:0:0:0:0:
192,192,83507,128,0,83701:0:0:0:0:
448,192,83507,128,0,83701:0:0:0:0:
448,192,83740,128,0,83934:0:0:0:0:
192,192,83740,128,0,83934:0:0:0:0:
448,192,83973,128,0,84167:0:0:0:0:
192,192,83973,128,0,84167:0:0:0:0:
448,192,84206,128,0,85098:0:0:0:0:
192,192,84206,128,0,84399:0:0:0:0:
64,192,84206,128,0,84399:0:0:0:0:
64,192,84439,128,0,84632:0:0:0:0:
192,192,84439,128,0,84632:0:0:0:0:
192,192,84671,128,0,84865:0:0:0:0:
64,192,84671,128,0,84865:0:0:0:0:
64,192,84904,128,0,85098:0:0:0:0:
192,192,84904,128,0,85679:0:0:0:0:
320,192,85136,128,0,85330:0:0:0:0:
448,192,85136,128,0,85330:0:0:0:0:
64,192,85136,128,0,85796:0:0:0:0:
320,192,85369,128,0,85563:0:0:0:0:
448,192,85369,128,0,85563:0:0:0:0:
448,192,85601,128,0,85796:0:0:0:0:
320,192,85601,128,0,85912:0:0:0:0:
192,192,85718,128,0,85970:0:0:0:0:
448,192,85834,128,0,86028:0:0:0:0:
64,192,85834,128,0,86028:0:0:0:0:
320,192,85951,128,0,86087:0:0:0:0:
192,192,86009,128,0,86144:0:0:0:0:
448,192,86067,128,0,86261:0:0:0:0:
64,192,86067,128,0,86203:0:0:0:0:
320,192,86125,128,0,86261:0:0:0:0:
192,192,86184,128,0,86300:0:0:0:0:
64,192,86241,128,0,86377:0:0:0:0:
320,192,86300,128,0,86436:0:0:0:0:
448,192,86300,128,0,86494:0:0:0:0:
192,192,86339,128,0,86494:0:0:0:0:
64,192,86416,128,0,86552:0:0:0:0:
320,192,86474,128,0,86610:0:0:0:0:
448,192,86533,128,0,86727:0:0:0:0:
192,192,86533,128,0,86668:0:0:0:0:
64,192,86590,128,0,86727:0:0:0:0:
320,192,86649,128,0,86784:0:0:0:0:
192,192,86707,128,0,86843:0:0:0:0:
448,192,86765,128,0,86901:0:0:0:0:
64,192,86765,128,0,86959:0:0:0:0:
320,192,86824,128,0,87017:0:0:0:0:
192,192,86881,128,0,86959:0:0:0:0:
448,192,86940,128,0,87076:0:0:0:0:
64,192,86998,128,0,87192:0:0:0:0:
192,192,86998,128,0,87133:0:0:0:0:
320,192,87056,128,0,87192:0:0:0:0:
448,192,87114,128,0,87250:0:0:0:0:
192,192,87173,128,0,87308:0:0:0:0:
320,192,87230,128,0,87367:0:0:0:0:
64,192,87230,128,0,87424:0:0:0:0:
448,192,87289,128,0,87424:0:0:0:0:
192,192,87347,128,0,87483:0:0:0:0:
320,192,87405,128,0,87541:0:0:0:0:
64,192,87463,128,0,87657:0:0:0:0:
448,192,87463,128,0,87599:0:0:0:0:
192,192,87521,128,0,87657:0:0:0:0:
320,192,87579,128,0,87716:0:0:0:0:
448,192,87638,128,0,87773:0:0:0:0:
192,192,87696,128,0,87948:0:0:0:0:
64,192,87696,128,0,87832:0:0:0:0:
320,192,87754,128,0,87890:0:0:0:0:
448,192,87813,128,0,87890:0:0:0:0:
64,192,87870,128,0,88006:0:0:0:0:
320,192,87929,128,0,88006:0:0:0:0:
448,192,87929,128,0,88064:0:0:0:0:
192,192,87987,128,0,88122:0:0:0:0:
64,192,88045,128,0,88122:0:0:0:0:
320,192,88045,128,0,88181:0:0:0:0:
448,192,88103,128,0,88239:0:0:0:0:
192,192,88161,128,0,88239:0:0:0:0:
64,192,88161,128,0,88297:0:0:0:0:
320,192,88219,128,0,88356:0:0:0:0:
448,192,88278,128,0,88356:0:0:0:0:
192,192,88278,128,0,88413:0:0:0:0:
64,192,88336,128,0,88413:0:0:0:0:
320,192,88394,128,0,88472:0:0:0:0:
448,192,88394,128,0,88472:0:0:0:0:
192,192,88452,128,0,88530:0:0:0:0:
64,192,88452,128,0,88530:0:0:0:0:
320,192,88510,128,0,88588:0:0:0:0:
448,192,88510,128,0,88588:0:0:0:0:
192,192,88569,128,0,88646:0:0:0:0:
64,192,88569,128,0,88646:0:0:0:0:
320,192,88627,128,0,88704:0:0:0:0:
448,192,88627,128,0,88704:0:0:0:0:
192,192,88685,128,0,88762:0:0:0:0:
64,192,88685,128,0,88762:0:0:0:0:
320,192,88743,128,0,88821:0:0:0:0:
448,192,88743,128,0,88821:0:0:0:0:
192,192,88801,128,0,89053:0:0:0:0:
64,192,88801,128,0,89053:0:0:0:0:
320,192,88859,128,0,89286:0:0:0:0:
448,192,88859,128,0,89053:0:0:0:0:
448,192,89092,128,0,89286:0:0:0:0:
192,192,89092,128,0,89519:0:0:0:0:
64,192,89092,128,0,89519:0:0:0:0:
320,192,89324,128,0,89402:0:0:0:0:
448,192,89324,128,0,89402:0:0:0:0:
320,192,89441,128,0,89519:0:0:0:0:
448,192,89441,128,0,89519:0:0:0:0:
64,192,89558,128,0,89751:0:0:0:0:
192,192,89558,128,0,89751:0:0:0:0:
320,192,89558,128,0,89984:0:0:0:0:
448,192,89558,128,0,89751:0:0:0:0:
64,192,89790,128,0,89867:0:0:0:0:
192,192,89790,128,0,89867:0:0:0:0:
448,192,89790,128,0,89867:0:0:0:0:
448,192,89907,128,0,90042:0:0:0:0:
192,192,89907,128,0,90101:0:0:0:0:
64,192,89907,128,0,90217:0:0:0:0:
320,192,90023,128,0,90159:0:0:0:0:
448,192,90081,128,0,90217:0:0:0:0:
192,192,90139,128,0,90547:0:0:0:0:
320,192,90198,128,0,90391:0:0:0:0:
448,192,90256,128,0,90547:0:0:0:0:
64,192,90256,128,0,90353:0:0:0:0:
64,192,90391,128,0,90682:0:0:0:0:
320,192,90430,128,0,90682:0:0:0:0:
192,192,90585,128,0,90915:0:0:0:0:
448,192,90585,128,0,90682:0:0:0:0:
64,192,90721,128,0,90799:0:0:0:0:
320,192,90721,128,0,90799:0:0:0:0:
448,192,90721,128,0,90799:0:0:0:0:
320,192,90837,128,0,91031:0:0:0:0:
448,192,90837,128,0,91147:0:0:0:0:
64,192,90837,128,0,90973:0:0:0:0:
192,192,90953,128,0,91090:0:0:0:0:
64,192,91012,128,0,91147:0:0:0:0:
320,192,91070,128,0,91458:0:0:0:0:
192,192,91128,128,0,91303:0:0:0:0:
448,192,91187,128,0,91303:0:0:0:0:
64,192,91187,128,0,91477:0:0:0:0:
192,192,91341,128,0,91613:0:0:0:0:
448,192,91341,128,0,91613:0:0:0:0:
320,192,91496,128,0,91613:0:0:0:0:
64,192,91516,128,0,91846:0:0:0:0:
192,192,91652,128,0,91730:0:0:0:0:
320,192,91652,128,0,91730:0:0:0:0:
448,192,91652,128,0,91730:0:0:0:0:
192,192,91768,128,0,91904:0:0:0:0:
320,192,91768,128,0,91962:0:0:0:0:
448,192,91768,128,0,92020:0:0:0:0:
64,192,91884,128,0,92079:0:0:0:0:
192,192,91943,128,0,92079:0:0:0:0:
320,192,92001,128,0,92253:0:0:0:0:
448,192,92059,128,0,92408:0:0:0:0:
64,192,92117,128,0,92214:0:0:0:0:
192,192,92117,128,0,92389:0:0:0:0:
64,192,92253,128,0,92544:0:0:0:0:
320,192,92292,128,0,92544:0:0:0:0:
192,192,92427,128,0,92544:0:0:0:0:
448,192,92447,128,0,92699:0:0:0:0:
320,192,92582,128,0,92873:0:0:0:0:
192,192,92582,128,0,92699:0:0:0:0:
64,192,92582,128,0,92699:0:0:0:0:
448,192,92738,128,0,92873:0:0:0:0:
192,192,92738,128,0,92873:0:0:0:0:
64,192,92738,128,0,93009:0:0:0:0:
192,192,92912,128,0,93164:0:0:0:0:
320,192,92912,128,0,93009:0:0:0:0:
448,192,92912,128,0,93009:0:0:0:0:
320,192,93048,128,0,93164:0:0:0:0:
448,192,93048,128,0,93164:0:0:0:0:
64,192,93048,128,0,93339:0:0:0:0:
192,192,93203,128,0,93339:0:0:0:0:
448,192,93203,128,0,93339:0:0:0:0:
320,192,93203,128,0,93475:0:0:0:0:
448,192,93378,128,0,93707:0:0:0:0:
192,192,93378,128,0,93475:0:0:0:0:
64,192,93378,128,0,93475:0:0:0:0:
320,192,93513,128,0,93591:0:0:0:0:
192,192,93513,128,0,93591:0:0:0:0:
64,192,93513,128,0,93591:0:0:0:0:
320,192,93630,128,0,93765:0:0:0:0:
192,192,93630,128,0,93824:0:0:0:0:
64,192,93630,128,0,93881:0:0:0:0:
448,192,93746,128,0,93940:0:0:0:0:
320,192,93804,128,0,93940:0:0:0:0:
192,192,93862,128,0,94270:0:0:0:0:
64,192,93921,128,0,94095:0:0:0:0:
320,192,93979,128,0,94270:0:0:0:0:
448,192,93979,128,0,94095:0:0:0:0:
448,192,94134,128,0,94405:0:0:0:0:
64,192,94134,128,0,94405:0:0:0:0:
320,192,94308,128,0,94405:0:0:0:0:
192,192,94308,128,0,94638:0:0:0:0:
320,192,94444,128,0,94521:0:0:0:0:
448,192,94444,128,0,94521:0:0:0:0:
64,192,94444,128,0,94521:0:0:0:0:
320,192,94561,128,0,94754:0:0:0:0:
448,192,94561,128,0,94870:0:0:0:0:
64,192,94561,128,0,94696:0:0:0:0:
192,192,94677,128,0,94813:0:0:0:0:
64,192,94735,128,0,94870:0:0:0:0:
320,192,94793,128,0,95200:0:0:0:0:
192,192,94851,128,0,95026:0:0:0:0:
448,192,94910,128,0,95026:0:0:0:0:
64,192,94910,128,0,95200:0:0:0:0:
448,192,95064,128,0,95336:0:0:0:0:
192,192,95064,128,0,95336:0:0:0:0:
64,192,95239,128,0,95336:0:0:0:0:
320,192,95239,128,0,95569:0:0:0:0:
448,192,95375,128,0,95453:0:0:0:0:
192,192,95375,128,0,95453:0:0:0:0:
64,192,95375,128,0,95453:0:0:0:0:
448,192,95491,128,0,95627:0:0:0:0:
192,192,95491,128,0,95685:0:0:0:0:
64,192,95491,128,0,95801:0:0:0:0:
320,192,95607,128,0,95743:0:0:0:0:
448,192,95666,128,0,95801:0:0:0:0:
192,192,95724,128,0,96131:0:0:0:0:
320,192,95782,128,0,95956:0:0:0:0:
448,192,95840,128,0,96131:0:0:0:0:
64,192,95840,128,0,95956:0:0:0:0:
320,192,95996,128,0,96267:0:0:0:0:
64,192,95996,128,0,96267:0:0:0:0:
448,192,96170,128,0,96267:0:0:0:0:
192,192,96170,128,0,96422:0:0:0:0:
64,192,96306,128,0,96422:0:0:0:0:
320,192,96306,128,0,96422:0:0:0:0:
448,192,96306,128,0,96596:0:0:0:0:
320,192,96461,128,0,96596:0:0:0:0:
64,192,96461,128,0,96596:0:0:0:0:
192,192,96461,128,0,96732:0:0:0:0:
320,192,96636,128,0,96732:0:0:0:0:
448,192,96636,128,0,96732:0:0:0:0:
64,192,96636,128,0,96887:0:0:0:0:
448,192,96771,128,0,96887:0:0:0:0:
320,192,96771,128,0,97062:0:0:0:0:
192,192,96771,128,0,96887:0:0:0:0:
64,192,96926,128,0,97198:0:0:0:0:
192,192,96926,128,0,97062:0:0:0:0:
448,192,96926,128,0,97062:0:0:0:0:
320,192,97101,128,0,97954:0:0:0:0:
192,192,97101,128,0,97198:0:0:0:0:
448,192,97101,128,0,97198:0:0:0:0:
192,192,97236,128,0,97430:0:0:0:0:
64,192,97236,128,0,97430:0:0:0:0:
448,192,97236,128,0,97430:0:0:0:0:
448,192,97469,128,0,97896:0:0:0:0:
192,192,97469,128,0,98012:0:0:0:0:
64,192,97469,128,0,98070:0:0:0:0:
448,192,97935,128,0,98128:0:0:0:0:
320,192,97993,128,0,98128:0:0:0:0:
192,192,98051,128,0,98128:0:0:0:0:
64,192,98109,128,0,98827:0:0:0:0:
192,192,98167,128,0,98361:0:0:0:0:
320,192,98167,128,0,98361:0:0:0:0:
448,192,98167,128,0,98361:0:0:0:0:
448,192,98400,128,0,99001:0:0:0:0:
320,192,98400,128,0,98943:0:0:0:0:
192,192,98400,128,0,98884:0:0:0:0:
64,192,98865,128,0,99059:0:0:0:0:
192,192,98924,128,0,99059:0:0:0:0:
320,192,98981,128,0,99059:0:0:0:0:
448,192,99040,128,0,99757:0:0:0:0:
320,192,99098,128,0,99292:0:0:0:0:
192,192,99098,128,0,99292:0:0:0:0:
64,192,99098,128,0,99292:0:0:0:0:
64,192,99330,128,0,99816:0:0:0:0:
192,192,99330,128,0,99873:0:0:0:0:
320,192,99330,128,0,99932:0:0:0:0:
448,192,99796,128,0,99990:0:0:0:0:
64,192,99854,128,0,99990:0:0:0:0:
192,192,99913,128,0,99990:0:0:0:0:
320,192,99970,128,0,100145:0:0:0:0:
448,192,100029,128,0,100145:0:0:0:0:
192,192,100029,128,0,100319:0:0:0:0:
64,192,100029,128,0,100145:0:0:0:0:
320,192,100184,128,0,100319:0:0:0:0:
448,192,100184,128,0,100456:0:0:0:0:
64,192,100184,128,0,100319:0:0:0:0:
192,192,100359,128,0,100456:0:0:0:0:
320,192,100359,128,0,100456:0:0:0:0:
64,192,100359,128,0,100610:0:0:0:0:
192,192,100494,128,0,100610:0:0:0:0:
448,192,100494,128,0,100610:0:0:0:0:
320,192,100494,128,0,100785:0:0:0:0:
64,192,100649,128,0,100785:0:0:0:0:
192,192,100649,128,0,100921:0:0:0:0:
448,192,100649,128,0,100785:0:0:0:0:
64,192,100824,128,0,100921:0:0:0:0:
320,192,100824,128,0,100921:0:0:0:0:
448,192,100824,128,0,101619:0:0:0:0:
320,192,100959,128,0,101153:0:0:0:0:
192,192,100959,128,0,101153:0:0:0:0:
64,192,100959,128,0,101153:0:0:0:0:
64,192,101192,128,0,101677:0:0:0:0:
192,192,101192,128,0,101735:0:0:0:0:
320,192,101192,128,0,101793:0:0:0:0:
448,192,101658,128,0,101851:0:0:0:0:
64,192,101716,128,0,101851:0:0:0:0:
192,192,101774,128,0,101851:0:0:0:0:
320,192,101832,128,0,102666:0:0:0:0:
448,192,101890,128,0,102084:0:0:0:0:
192,192,101890,128,0,102084:0:0:0:0:
64,192,101890,128,0,102084:0:0:0:0:
448,192,102123,128,0,102607:0:0:0:0:
192,192,102123,128,0,102724:0:0:0:0:
64,192,102123,128,0,102550:0:0:0:0:
64,192,102588,128,0,102782:0:0:0:0:
448,192,102647,128,0,102782:0:0:0:0:
320,192,102704,128,0,102782:0:0:0:0:
192,192,102763,128,0,103247:0:0:0:0:
320,192,102821,128,0,103015:0:0:0:0:
448,192,102821,128,0,103015:0:0:0:0:
64,192,102821,128,0,103015:0:0:0:0:
320,192,103054,128,0,103247:0:0:0:0:
448,192,103054,128,0,103403:0:0:0:0:
64,192,103054,128,0,103247:0:0:0:0:
64,192,103287,128,0,103577:0:0:0:0:
192,192,103287,128,0,103403:0:0:0:0:
320,192,103287,128,0,103403:0:0:0:0:
448,192,103441,128,0,103577:0:0:0:0:
192,192,103441,128,0,103577:0:0:0:0:
320,192,103441,128,0,103713:0:0:0:0:
192,192,103616,128,0,103868:0:0:0:0:
448,192,103616,128,0,103713:0:0:0:0:
64,192,103616,128,0,103713:0:0:0:0:
64,192,103752,128,0,103868:0:0:0:0:
320,192,103752,128,0,103868:0:0:0:0:
448,192,103752,128,0,104043:0:0:0:0:
320,192,103907,128,0,104043:0:0:0:0:
192,192,103907,128,0,104043:0:0:0:0:
64,192,103907,128,0,104179:0:0:0:0:
192,192,104081,128,0,104179:0:0:0:0:
320,192,104081,128,0,104333:0:0:0:0:
448,192,104081,128,0,104179:0:0:0:0:
448,192,104217,128,0,104333:0:0:0:0:
192,192,104217,128,0,104333:0:0:0:0:
64,192,104217,128,0,104508:0:0:0:0:
192,192,104373,128,0,104508:0:0:0:0:
320,192,104373,128,0,104508:0:0:0:0:
448,192,104373,128,0,104644:0:0:0:0:
64,192,104547,128,0,104644:0:0:0:0:
192,192,104547,128,0,104876:0:0:0:0:
320,192,104547,128,0,104644:0:0:0:0:
64,192,104682,128,0,104876:0:0:0:0:
320,192,104682,128,0,105400:0:0:0:0:
448,192,104682,128,0,104876:0:0:0:0:
192,192,104916,128,0,105109:0:0:0:0:
64,192,104916,128,0,105109:0:0:0:0:
448,192,104916,128,0,105459:0:0:0:0:
192,192,105148,128,0,105342:0:0:0:0:
64,192,105148,128,0,105342:0:0:0:0:
64,192,105381,128,0,105575:0:0:0:0:
192,192,105381,128,0,105516:0:0:0:0:
320,192,105439,128,0,105575:0:0:0:0:
448,192,105497,128,0,105575:0:0:0:0:
192,192,105555,128,0,106331:0:0:0:0:
320,192,105613,128,0,105807:0:0:0:0:
448,192,105613,128,0,105807:0:0:0:0:
64,192,105613,128,0,105807:0:0:0:0:
320,192,105846,128,0,106040:0:0:0:0:
448,192,105846,128,0,106040:0:0:0:0:
64,192,105846,128,0,106389:0:0:0:0:
320,192,106079,128,0,106273:0:0:0:0:
448,192,106079,128,0,106273:0:0:0:0:
448,192,106311,128,0,106505:0:0:0:0:
320,192,106311,128,0,106447:0:0:0:0:
192,192,106370,128,0,106505:0:0:0:0:
64,192,106428,128,0,106505:0:0:0:0:
320,192,106486,128,0,107261:0:0:0:0:
448,192,106544,128,0,106738:0:0:0:0:
192,192,106544,128,0,106738:0:0:0:0:
64,192,106544,128,0,106738:0:0:0:0:
64,192,106777,128,0,107320:0:0:0:0:
192,192,106777,128,0,106970:0:0:0:0:
448,192,106777,128,0,106970:0:0:0:0:
448,192,107010,128,0,107204:0:0:0:0:
192,192,107010,128,0,107204:0:0:0:0:
192,192,107242,128,0,107378:0:0:0:0:
448,192,107242,128,0,107436:0:0:0:0:
320,192,107301,128,0,107436:0:0:0:0:
64,192,107359,128,0,107436:0:0:0:0:
192,192,107417,128,0,107591:0:0:0:0:
320,192,107475,128,0,107669:0:0:0:0:
448,192,107475,128,0,107766:0:0:0:0:
64,192,107475,128,0,107669:0:0:0:0:
192,192,107630,128,0,107901:0:0:0:0:
320,192,107707,128,0,108056:0:0:0:0:
64,192,107707,128,0,107901:0:0:0:0:
448,192,107804,128,0,108134:0:0:0:0:
192,192,107940,128,0,108231:0:0:0:0:
64,192,107940,128,0,108134:0:0:0:0:
320,192,108096,128,0,108367:0:0:0:0:
448,192,108173,128,0,108367:0:0:0:0:
64,192,108173,128,0,108367:0:0:0:0:
192,192,108270,128,0,108425:0:0:0:0:
448,192,108406,128,0,108483:0:0:0:0:
320,192,108406,128,0,108541:0:0:0:0:
64,192,108406,128,0,108599:0:0:0:0:
192,192,108464,128,0,108599:0:0:0:0:
448,192,108522,128,0,108599:0:0:0:0:
320,192,108580,128,0,108658:0:0:0:0:
448,192,108639,128,0,108833:0:0:0:0:
192,192,108639,128,0,108716:0:0:0:0:
64,192,108639,128,0,108774:0:0:0:0:
320,192,108696,128,0,108833:0:0:0:0:
192,192,108755,128,0,108890:0:0:0:0:
64,192,108813,128,0,108949:0:0:0:0:
320,192,108871,128,0,109007:0:0:0:0:
448,192,108871,128,0,109065:0:0:0:0:
192,192,108929,128,0,109065:0:0:0:0:
64,192,108987,128,0,109123:0:0:0:0:
320,192,109046,128,0,109181:0:0:0:0:
448,192,109104,128,0,109298:0:0:0:0:
192,192,109104,128,0,109239:0:0:0:0:
64,192,109162,128,0,109298:0:0:0:0:
320,192,109220,128,0,109298:0:0:0:0:
192,192,109279,128,0,109356:0:0:0:0:
320,192,109336,128,0,109472:0:0:0:0:
448,192,109336,128,0,109530:0:0:0:0:
64,192,109336,128,0,109414:0:0:0:0:
192,192,109395,128,0,109530:0:0:0:0:
64,192,109453,128,0,109530:0:0:0:0:
320,192,109511,128,0,109589:0:0:0:0:
448,192,109569,128,0,109647:0:0:0:0:
192,192,109569,128,0,109705:0:0:0:0:
64,192,109569,128,0,109763:0:0:0:0:
320,192,109627,128,0,109763:0:0:0:0:
448,192,109685,128,0,109821:0:0:0:0:
192,192,109744,128,0,109879:0:0:0:0:
320,192,109801,128,0,109938:0:0:0:0:
64,192,109801,128,0,109996:0:0:0:0:
448,192,109860,128,0,109996:0:0:0:0:
192,192,109919,128,0,110054:0:0:0:0:
320,192,109976,128,0,110112:0:0:0:0:
448,192,110035,128,0,110170:0:0:0:0:
64,192,110035,128,0,110228:0:0:0:0:
192,192,110093,128,0,110228:0:0:0:0:
320,192,110151,128,0,110287:0:0:0:0:
448,192,110209,128,0,110344:0:0:0:0:
64,192,110267,128,0,110344:0:0:0:0:
192,192,110267,128,0,110403:0:0:0:0:
320,192,110325,128,0,110461:0:0:0:0:
448,192,110384,128,0,110461:0:0:0:0:
64,192,110384,128,0,110519:0:0:0:0:
192,192,110441,128,0,110578:0:0:0:0:
320,192,110500,128,0,110578:0:0:0:0:
448,192,110500,128,0,110636:0:0:0:0:
64,192,110558,128,0,110694:0:0:0:0:
192,192,110616,128,0,110694:0:0:0:0:
320,192,110616,128,0,110752:0:0:0:0:
448,192,110674,128,0,110752:0:0:0:0:
64,192,110733,128,0,110810:0:0:0:0:
192,192,110733,128,0,110810:0:0:0:0:
320,192,110791,128,0,110868:0:0:0:0:
448,192,110791,128,0,110868:0:0:0:0:
64,192,110849,128,0,110927:0:0:0:0:
192,192,110849,128,0,110927:0:0:0:0:
320,192,110907,128,0,110984:0:0:0:0:
448,192,110907,128,0,110984:0:0:0:0:
192,192,110965,128,0,111043:0:0:0:0:
64,192,110965,128,0,111043:0:0:0:0:
320,192,111024,128,0,111101:0:0:0:0:
448,192,111024,128,0,111101:0:0:0:0:
192,192,111081,128,0,111159:0:0:0:0:
64,192,111081,128,0,111159:0:0:0:0:
320,192,111140,128,0,111392:0:0:0:0:
448,192,111140,128,0,111392:0:0:0:0:
192,192,111198,128,0,111624:0:0:0:0:
64,192,111198,128,0,111392:0:0:0:0:
64,192,111430,128,0,111624:0:0:0:0:
320,192,111430,128,0,111857:0:0:0:0:
448,192,111430,128,0,111857:0:0:0:0:
192,192,111664,128,0,111741:0:0:0:0:
64,192,111664,128,0,111741:0:0:0:0:
64,192,111780,128,0,111857:0:0:0:0:
192,192,111780,128,0,111857:0:0:0:0:
64,192,111896,128,0,112090:0:0:0:0:
192,192,111896,128,0,112090:0:0:0:0:
320,192,111896,128,0,112090:0:0:0:0:
448,192,111896,128,0,112323:0:0:0:0:
320,192,112129,128,0,112207:0:0:0:0:
192,192,112129,128,0,112207:0:0:0:0:
64,192,112129,128,0,112207:0:0:0:0:
64,192,112245,128,0,112323:0:0:0:0:
192,192,112245,128,0,112381:0:0:0:0:
320,192,112245,128,0,112381:0:0:0:0:
448,192,112361,128,0,112439:0:0:0:0:
64,192,112361,128,0,112439:0:0:0:0:
320,192,112420,128,0,112497:0:0:0:0:
192,192,112420,128,0,112497:0:0:0:0:
448,192,112478,128,0,112556:0:0:0:0:
64,192,112478,128,0,112556:0:0:0:0:
192,192,112536,128,0,112613:0:0:0:0:
320,192,112536,128,0,112672:0:0:0:0:
448,192,112594,128,0,112672:0:0:0:0:
64,192,112594,128,0,112730:0:0:0:0:
192,192,112653,128,0,112788:0:0:0:0:
320,192,112710,128,0,112846:0:0:0:0:
448,192,112710,128,0,112788:0:0:0:0:
64,192,112769,128,0,112904:0:0:0:0:
192,192,112827,128,0,112904:0:0:0:0:
448,192,112827,128,0,112962:0:0:0:0:
320,192,112885,128,0,113021:0:0:0:0:
192,192,112943,128,0,113021:0:0:0:0:
64,192,112943,128,0,113021:0:0:0:0:
448,192,113001,128,0,113253:0:0:0:0:
320,192,113059,128,0,113137:0:0:0:0:
192,192,113059,128,0,113137:0:0:0:0:
64,192,113059,128,0,113137:0:0:0:0:
64,192,113176,128,0,113312:0:0:0:0:
192,192,113176,128,0,113312:0:0:0:0:
320,192,113176,128,0,113253:0:0:0:0:
448,192,113293,128,0,113370:0:0:0:0:
320,192,113293,128,0,113370:0:0:0:0:
192,192,113350,128,0,113428:0:0:0:0:
64,192,113350,128,0,113428:0:0:0:0:
320,192,113409,128,0,113486:0:0:0:0:
448,192,113409,128,0,113486:0:0:0:0:
192,192,113467,128,0,113544:0:0:0:0:
64,192,113467,128,0,113602:0:0:0:0:
448,192,113525,128,0,113602:0:0:0:0:
320,192,113525,128,0,113661:0:0:0:0:
192,192,113583,128,0,113719:0:0:0:0:
64,192,113641,128,0,113719:0:0:0:0:
448,192,113641,128,0,113777:0:0:0:0:
320,192,113699,128,0,113836:0:0:0:0:
192,192,113758,128,0,113836:0:0:0:0:
64,192,113758,128,0,113893:0:0:0:0:
448,192,113816,128,0,113952:0:0:0:0:
320,192,113874,128,0,113952:0:0:0:0:
192,192,113874,128,0,113952:0:0:0:0:
64,192,113932,128,0,114184:0:0:0:0:
192,192,113990,128,0,114068:0:0:0:0:
320,192,113990,128,0,114068:0:0:0:0:
448,192,113990,128,0,114068:0:0:0:0:
448,192,114107,128,0,114184:0:0:0:0:
320,192,114107,128,0,114242:0:0:0:0:
192,192,114107,128,0,114242:0:0:0:0:
448,192,114223,128,0,114301:0:0:0:0:
64,192,114223,128,0,114301:0:0:0:0:
192,192,114281,128,0,114359:0:0:0:0:
320,192,114281,128,0,114359:0:0:0:0:
448,192,114339,128,0,114417:0:0:0:0:
64,192,114339,128,0,114417:0:0:0:0:
192,192,114398,128,0,114475:0:0:0:0:
320,192,114398,128,0,114533:0:0:0:0:
448,192,114456,128,0,114533:0:0:0:0:
64,192,114456,128,0,114591:0:0:0:0:
192,192,114514,128,0,114650:0:0:0:0:
320,192,114572,128,0,114708:0:0:0:0:
448,192,114572,128,0,114650:0:0:0:0:
64,192,114630,128,0,114766:0:0:0:0:
192,192,114688,128,0,114766:0:0:0:0:
448,192,114688,128,0,114882:0:0:0:0:
320,192,114747,128,0,114824:0:0:0:0:
64,192,114804,128,0,114882:0:0:0:0:
192,192,114804,128,0,114941:0:0:0:0:
320,192,114863,128,0,114999:0:0:0:0:
448,192,114921,128,0,114999:0:0:0:0:
64,192,114921,128,0,115057:0:0:0:0:
192,192,114979,128,0,115115:0:0:0:0:
320,192,115038,128,0,115173:0:0:0:0:
448,192,115038,128,0,115115:0:0:0:0:
64,192,115096,128,0,115231:0:0:0:0:
192,192,115154,128,0,115231:0:0:0:0:
448,192,115154,128,0,115290:0:0:0:0:
320,192,115212,128,0,115406:0:0:0:0:
192,192,115270,128,0,115347:0:0:0:0:
64,192,115270,128,0,115347:0:0:0:0:
448,192,115328,128,0,115406:0:0:0:0:
192,192,115387,128,0,115464:0:0:0:0:
64,192,115387,128,0,115464:0:0:0:0:
320,192,115444,128,0,115522:0:0:0:0:
448,192,115444,128,0,115581:0:0:0:0:
192,192,115503,128,0,115639:0:0:0:0:
64,192,115503,128,0,115581:0:0:0:0:
320,192,115561,128,0,115639:0:0:0:0:
448,192,115619,128,0,115697:0:0:0:0:
64,192,115619,128,0,115697:0:0:0:0:
192,192,115677,128,0,115813:0:0:0:0:
320,192,115677,128,0,115755:0:0:0:0:
448,192,115736,128,0,115813:0:0:0:0:
64,192,115736,128,0,115813:0:0:0:0:
320,192,115793,128,0,116046:0:0:0:0:
448,192,115852,128,0,115930:0:0:0:0:
192,192,115852,128,0,115930:0:0:0:0:
64,192,115852,128,0,115930:0:0:0:0:
448,192,115968,128,0,116046:0:0:0:0:
192,192,115968,128,0,116104:0:0:0:0:
64,192,115968,128,0,116104:0:0:0:0:
320,192,116084,128,0,116162:0:0:0:0:
448,192,116084,128,0,116162:0:0:0:0:
192,192,116143,128,0,116220:0:0:0:0:
64,192,116143,128,0,116220:0:0:0:0:
320,192,116201,128,0,116279:0:0:0:0:
448,192,116201,128,0,116279:0:0:0:0:
192,192,116259,128,0,116336:0:0:0:0:
64,192,116259,128,0,116395:0:0:0:0:
320,192,116317,128,0,116453:0:0:0:0:
448,192,116317,128,0,116395:0:0:0:0:
192,192,116376,128,0,116511:0:0:0:0:
448,192,116433,128,0,116570:0:0:0:0:
64,192,116433,128,0,116511:0:0:0:0:
320,192,116492,128,0,116627:0:0:0:0:
192,192,116550,128,0,116627:0:0:0:0:
64,192,116550,128,0,116686:0:0:0:0:
448,192,116608,128,0,116744:0:0:0:0:
192,192,116666,128,0,116744:0:0:0:0:
320,192,116666,128,0,116744:0:0:0:0:
64,192,116724,128,0,116976:0:0:0:0:
192,192,116783,128,0,116860:0:0:0:0:
320,192,116783,128,0,116860:0:0:0:0:
448,192,116783,128,0,116860:0:0:0:0:
448,192,116899,128,0,116976:0:0:0:0:
320,192,116899,128,0,117035:0:0:0:0:
192,192,116899,128,0,117035:0:0:0:0:
64,192,117016,128,0,117093:0:0:0:0:
448,192,117016,128,0,117093:0:0:0:0:
320,192,117073,128,0,117151:0:0:0:0:
192,192,117073,128,0,117151:0:0:0:0:
448,192,117132,128,0,117209:0:0:0:0:
64,192,117132,128,0,117209:0:0:0:0:
320,192,117190,128,0,117267:0:0:0:0:
192,192,117190,128,0,117326:0:0:0:0:
64,192,117248,128,0,117326:0:0:0:0:
448,192,117248,128,0,117384:0:0:0:0:
320,192,117306,128,0,117442:0:0:0:0:
192,192,117364,128,0,117500:0:0:0:0:
64,192,117364,128,0,117442:0:0:0:0:
448,192,117422,128,0,117559:0:0:0:0:
320,192,117481,128,0,117616:0:0:0:0:
64,192,117481,128,0,117559:0:0:0:0:
192,192,117539,128,0,117675:0:0:0:0:
64,192,117597,128,0,117675:0:0:0:0:
448,192,117597,128,0,117675:0:0:0:0:
320,192,117656,128,0,117907:0:0:0:0:
448,192,117713,128,0,117791:0:0:0:0:
192,192,117713,128,0,117791:0:0:0:0:
64,192,117713,128,0,117791:0:0:0:0:
64,192,117830,128,0,117965:0:0:0:0:
192,192,117830,128,0,117965:0:0:0:0:
448,192,117830,128,0,117907:0:0:0:0:
320,192,117946,128,0,118024:0:0:0:0:
448,192,117946,128,0,118024:0:0:0:0:
192,192,118004,128,0,118081:0:0:0:0:
64,192,118004,128,0,118081:0:0:0:0:
320,192,118062,128,0,118140:0:0:0:0:
448,192,118062,128,0,118140:0:0:0:0:
192,192,118121,128,0,118199:0:0:0:0:
64,192,118121,128,0,118256:0:0:0:0:
320,192,118179,128,0,118256:0:0:0:0:
448,192,118179,128,0,118315:0:0:0:0:
192,192,118237,128,0,118373:0:0:0:0:
64,192,118295,128,0,118373:0:0:0:0:
320,192,118295,128,0,118431:0:0:0:0:
448,192,118353,128,0,118489:0:0:0:0:
64,192,118412,128,0,118489:0:0:0:0:
192,192,118412,128,0,118547:0:0:0:0:
320,192,118470,128,0,118605:0:0:0:0:
448,192,118528,128,0,118664:0:0:0:0:
64,192,118528,128,0,118605:0:0:0:0:
192,192,118586,128,0,118721:0:0:0:0:
320,192,118644,128,0,118780:0:0:0:0:
64,192,118644,128,0,118721:0:0:0:0:
448,192,118702,128,0,118838:0:0:0:0:
192,192,118761,128,0,118896:0:0:0:0:
64,192,118761,128,0,118896:0:0:0:0:
320,192,118819,128,0,118954:0:0:0:0:
448,192,118877,128,0,118954:0:0:0:0:
192,192,118935,128,0,119013:0:0:0:0:
64,192,118935,128,0,119071:0:0:0:0:
448,192,118993,128,0,119129:0:0:0:0:
320,192,118993,128,0,119071:0:0:0:0:
192,192,119051,128,0,119187:0:0:0:0:
64,192,119110,128,0,119187:0:0:0:0:
320,192,119110,128,0,119245:0:0:0:0:
448,192,119167,128,0,119304:0:0:0:0:
192,192,119226,128,0,119361:0:0:0:0:
64,192,119226,128,0,119304:0:0:0:0:
320,192,119284,128,0,119420:0:0:0:0:
448,192,119342,128,0,119420:0:0:0:0:
64,192,119342,128,0,119478:0:0:0:0:
192,192,119401,128,0,119536:0:0:0:0:
320,192,119459,128,0,119536:0:0:0:0:
448,192,119459,128,0,119536:0:0:0:0:
64,192,119517,128,0,119769:0:0:0:0:
192,192,119575,128,0,119653:0:0:0:0:
320,192,119575,128,0,119653:0:0:0:0:
448,192,119575,128,0,119653:0:0:0:0:
448,192,119691,128,0,119769:0:0:0:0:
320,192,119691,128,0,119827:0:0:0:0:
192,192,119691,128,0,119827:0:0:0:0:
64,192,119807,128,0,119885:0:0:0:0:
448,192,119807,128,0,119885:0:0:0:0:
320,192,119866,128,0,119944:0:0:0:0:
192,192,119866,128,0,119944:0:0:0:0:
64,192,119924,128,0,120001:0:0:0:0:
448,192,119924,128,0,120001:0:0:0:0:
192,192,119982,128,0,120060:0:0:0:0:
320,192,119982,128,0,120118:0:0:0:0:
448,192,120040,128,0,120118:0:0:0:0:
64,192,120040,128,0,120176:0:0:0:0:
192,192,120099,128,0,120234:0:0:0:0:
320,192,120157,128,0,120293:0:0:0:0:
448,192,120157,128,0,120234:0:0:0:0:
64,192,120215,128,0,120350:0:0:0:0:
192,192,120273,128,0,120350:0:0:0:0:
448,192,120273,128,0,120409:0:0:0:0:
320,192,120331,128,0,120467:0:0:0:0:
192,192,120390,128,0,120467:0:0:0:0:
64,192,120390,128,0,120467:0:0:0:0:
448,192,120447,128,0,120700:0:0:0:0:
320,192,120506,128,0,120583:0:0:0:0:
192,192,120506,128,0,120583:0:0:0:0:
64,192,120506,128,0,120583:0:0:0:0:
64,192,120622,128,0,120758:0:0:0:0:
192,192,120622,128,0,120758:0:0:0:0:
320,192,120622,128,0,120700:0:0:0:0:
448,192,120739,128,0,120816:0:0:0:0:
320,192,120739,128,0,120816:0:0:0:0:
192,192,120796,128,0,120874:0:0:0:0:
64,192,120796,128,0,120874:0:0:0:0:
320,192,120855,128,0,120933:0:0:0:0:
448,192,120855,128,0,120933:0:0:0:0:
192,192,120913,128,0,120990:0:0:0:0:
64,192,120913,128,0,121049:0:0:0:0:
320,192,120971,128,0,121107:0:0:0:0:
448,192,120971,128,0,121049:0:0:0:0:
192,192,121030,128,0,121165:0:0:0:0:
64,192,121087,128,0,121165:0:0:0:0:
448,192,121087,128,0,121223:0:0:0:0:
320,192,121146,128,0,121281:0:0:0:0:
192,192,121204,128,0,121281:0:0:0:0:
64,192,121204,128,0,121339:0:0:0:0:
448,192,121262,128,0,121398:0:0:0:0:
320,192,121320,128,0,121398:0:0:0:0:
192,192,121320,128,0,121398:0:0:0:0:
64,192,121379,128,0,121630:0:0:0:0:
192,192,121436,128,0,121514:0:0:0:0:
320,192,121436,128,0,121514:0:0:0:0:
448,192,121436,128,0,121514:0:0:0:0:
448,192,121553,128,0,121630:0:0:0:0:
320,192,121553,128,0,121689:0:0:0:0:
192,192,121553,128,0,121689:0:0:0:0:
64,192,121669,128,0,121747:0:0:0:0:
448,192,121669,128,0,121747:0:0:0:0:
320,192,121727,128,0,121805:0:0:0:0:
192,192,121727,128,0,121805:0:0:0:0:
448,192,121785,128,0,121863:0:0:0:0:
64,192,121785,128,0,121863:0:0:0:0:
192,192,121844,128,0,121979:0:0:0:0:
320,192,121844,128,0,121921:0:0:0:0:
448,192,121902,128,0,122038:0:0:0:0:
64,192,121902,128,0,121979:0:0:0:0:
320,192,121960,128,0,122096:0:0:0:0:
192,192,122019,128,0,122154:0:0:0:0:
64,192,122019,128,0,122096:0:0:0:0:
448,192,122076,128,0,122212:0:0:0:0:
320,192,122135,128,0,122212:0:0:0:0:
64,192,122135,128,0,122328:0:0:0:0:
192,192,122193,128,0,122270:0:0:0:0:
320,192,122251,128,0,122387:0:0:0:0:
448,192,122251,128,0,122328:0:0:0:0:
192,192,122309,128,0,122445:0:0:0:0:
64,192,122367,128,0,122445:0:0:0:0:
448,192,122367,128,0,122503:0:0:0:0:
320,192,122425,128,0,122561:0:0:0:0:
192,192,122484,128,0,122619:0:0:0:0:
64,192,122484,128,0,122561:0:0:0:0:
448,192,122541,128,0,122678:0:0:0:0:
320,192,122600,128,0,122678:0:0:0:0:
64,192,122600,128,0,122794:0:0:0:0:
192,192,122658,128,0,122736:0:0:0:0:
320,192,122716,128,0,122794:0:0:0:0:
448,192,122716,128,0,122852:0:0:0:0:
192,192,122775,128,0,122910:0:0:0:0:
320,192,122833,128,0,122968:0:0:0:0:
64,192,122833,128,0,122910:0:0:0:0:
448,192,122891,128,0,123027:0:0:0:0:
64,192,122949,128,0,123027:0:0:0:0:
192,192,122949,128,0,123084:0:0:0:0:
320,192,123007,128,0,123143:0:0:0:0:
448,192,123065,128,0,123143:0:0:0:0:
64,192,123065,128,0,123201:0:0:0:0:
192,192,123124,128,0,123259:0:0:0:0:
320,192,123181,128,0,123259:0:0:0:0:
448,192,123181,128,0,123259:0:0:0:0:
64,192,123240,128,0,123492:0:0:0:0:
192,192,123298,128,0,123376:0:0:0:0:
320,192,123298,128,0,123376:0:0:0:0:
448,192,123298,128,0,123376:0:0:0:0:
448,192,123414,128,0,123550:0:0:0:0:
320,192,123414,128,0,123550:0:0:0:0:
192,192,123414,128,0,123492:0:0:0:0:
64,192,123531,128,0,123608:0:0:0:0:
192,192,123531,128,0,123608:0:0:0:0:
320,192,123589,128,0,123667:0:0:0:0:
448,192,123589,128,0,123667:0:0:0:0:
64,192,123647,128,0,123724:0:0:0:0:
192,192,123647,128,0,123724:0:0:0:0:
320,192,123705,128,0,123783:0:0:0:0:
448,192,123705,128,0,123841:0:0:0:0:
192,192,123764,128,0,123899:0:0:0:0:
64,192,123764,128,0,123841:0:0:0:0:
320,192,123821,128,0,123957:0:0:0:0:
64,192,123880,128,0,124016:0:0:0:0:
448,192,123880,128,0,123957:0:0:0:0:
192,192,123938,128,0,124073:0:0:0:0:
320,192,123996,128,0,124073:0:0:0:0:
448,192,123996,128,0,124132:0:0:0:0:
64,192,124054,128,0,124190:0:0:0:0:
192,192,124113,128,0,124190:0:0:0:0:
320,192,124113,128,0,124190:0:0:0:0:
448,192,124170,128,0,124423:0:0:0:0:
320,192,124229,128,0,124307:0:0:0:0:
192,192,124229,128,0,124307:0:0:0:0:
64,192,124229,128,0,124307:0:0:0:0:
320,192,124345,128,0,124481:0:0:0:0:
64,192,124345,128,0,124423:0:0:0:0:
192,192,124345,128,0,124481:0:0:0:0:
64,192,124461,128,0,124539:0:0:0:0:
448,192,124461,128,0,124539:0:0:0:0:
320,192,124520,128,0,124597:0:0:0:0:
192,192,124520,128,0,124597:0:0:0:0:
64,192,124578,128,0,124656:0:0:0:0:
448,192,124578,128,0,124656:0:0:0:0:
192,192,124636,128,0,124772:0:0:0:0:
320,192,124636,128,0,124713:0:0:0:0:
64,192,124694,128,0,124772:0:0:0:0:
448,192,124694,128,0,124830:0:0:0:0:
320,192,124753,128,0,124888:0:0:0:0:
192,192,124810,128,0,124888:0:0:0:0:
64,192,124810,128,0,124947:0:0:0:0:
448,192,124869,128,0,125004:0:0:0:0:
320,192,124927,128,0,125004:0:0:0:0:
192,192,124927,128,0,125063:0:0:0:0:
64,192,124985,128,0,125121:0:0:0:0:
448,192,125043,128,0,125121:0:0:0:0:
320,192,125043,128,0,125121:0:0:0:0:
192,192,125101,128,0,125353:0:0:0:0:
64,192,125159,128,0,125237:0:0:0:0:
320,192,125159,128,0,125237:0:0:0:0:
448,192,125159,128,0,125237:0:0:0:0:
64,192,125276,128,0,125353:0:0:0:0:
448,192,125276,128,0,125412:0:0:0:0:
320,192,125276,128,0,125412:0:0:0:0:
192,192,125393,128,0,125470:0:0:0:0:
64,192,125393,128,0,125470:0:0:0:0:
320,192,125450,128,0,125528:0:0:0:0:
448,192,125450,128,0,125528:0:0:0:0:
192,192,125509,128,0,125586:0:0:0:0:
64,192,125509,128,0,125586:0:0:0:0:
320,192,125567,128,0,125644:0:0:0:0:
448,192,125567,128,0,125702:0:0:0:0:
192,192,125625,128,0,125761:0:0:0:0:
64,192,125625,128,0,125702:0:0:0:0:
320,192,125683,128,0,125819:0:0:0:0:
448,192,125741,128,0,125819:0:0:0:0:
64,192,125741,128,0,125877:0:0:0:0:
192,192,125799,128,0,125936:0:0:0:0:
320,192,125858,128,0,125993:0:0:0:0:
448,192,125858,128,0,125916:0:0:0:0:
64,192,125916,128,0,126052:0:0:0:0:
192,192,125974,128,0,126052:0:0:0:0:
448,192,125974,128,0,126052:0:0:0:0:
320,192,126032,128,0,126207:0:0:0:0:
64,192,126090,128,0,126207:0:0:0:0:
448,192,126090,128,0,126207:0:0:0:0:
192,192,126090,128,0,126381:0:0:0:0:
64,192,126245,128,0,126381:0:0:0:0:
320,192,126245,128,0,126381:0:0:0:0:
448,192,126245,128,0,126517:0:0:0:0:
320,192,126420,128,0,126517:0:0:0:0:
192,192,126420,128,0,126517:0:0:0:0:
64,192,126420,128,0,126672:0:0:0:0:
192,192,126556,128,0,126672:0:0:0:0:
320,192,126556,128,0,126847:0:0:0:0:
448,192,126556,128,0,126672:0:0:0:0:
64,192,126711,128,0,126847:0:0:0:0:
192,192,126711,128,0,126847:0:0:0:0:
448,192,126711,128,0,126982:0:0:0:0:
64,192,126885,128,0,126982:0:0:0:0:
320,192,126885,128,0,127041:0:0:0:0:
192,192,126885,128,0,127041:0:0:0:0:
64,192,127021,128,0,127099:0:0:0:0:
448,192,127021,128,0,127099:0:0:0:0:
192,192,127079,128,0,127157:0:0:0:0:
320,192,127079,128,0,127157:0:0:0:0:
448,192,127138,128,0,127215:0:0:0:0:
64,192,127138,128,0,127215:0:0:0:0:
320,192,127196,128,0,127331:0:0:0:0:
192,192,127196,128,0,127273:0:0:0:0:
448,192,127254,128,0,127331:0:0:0:0:
64,192,127254,128,0,127390:0:0:0:0:
192,192,127312,128,0,127447:0:0:0:0:
320,192,127370,128,0,127506:0:0:0:0:
448,192,127370,128,0,127447:0:0:0:0:
64,192,127428,128,0,127564:0:0:0:0:
192,192,127487,128,0,127564:0:0:0:0:
448,192,127487,128,0,127622:0:0:0:0:
320,192,127544,128,0,127681:0:0:0:0:
192,192,127603,128,0,127681:0:0:0:0:
64,192,127603,128,0,127739:0:0:0:0:
448,192,127661,128,0,127797:0:0:0:0:
320,192,127719,128,0,127797:0:0:0:0:
192,192,127719,128,0,127855:0:0:0:0:
64,192,127777,128,0,127971:0:0:0:0:
320,192,127836,128,0,127913:0:0:0:0:
448,192,127836,128,0,127913:0:0:0:0:
192,192,127894,128,0,127971:0:0:0:0:
448,192,127952,128,0,128030:0:0:0:0:
320,192,127952,128,0,128030:0:0:0:0:
192,192,128010,128,0,128087:0:0:0:0:
64,192,128010,128,0,128087:0:0:0:0:
320,192,128068,128,0,128146:0:0:0:0:
448,192,128068,128,0,128146:0:0:0:0:
192,192,128127,128,0,128204:0:0:0:0:
64,192,128127,128,0,128262:0:0:0:0:
320,192,128184,128,0,128320:0:0:0:0:
448,192,128184,128,0,128262:0:0:0:0:
192,192,128243,128,0,128379:0:0:0:0:
64,192,128301,128,0,128379:0:0:0:0:
448,192,128301,128,0,128437:0:0:0:0:
320,192,128359,128,0,128495:0:0:0:0:
192,192,128417,128,0,128553:0:0:0:0:
64,192,128417,128,0,128495:0:0:0:0:
448,192,128476,128,0,128611:0:0:0:0:
320,192,128533,128,0,128611:0:0:0:0:
64,192,128533,128,0,128727:0:0:0:0:
192,192,128592,128,0,128670:0:0:0:0:
320,192,128650,128,0,128727:0:0:0:0:
448,192,128650,128,0,128786:0:0:0:0:
192,192,128708,128,0,128844:0:0:0:0:
64,192,128767,128,0,128844:0:0:0:0:
320,192,128767,128,0,128902:0:0:0:0:
448,192,128824,128,0,129019:0:0:0:0:
192,192,128883,128,0,128960:0:0:0:0:
64,192,128883,128,0,129019:0:0:0:0:
320,192,128941,128,0,129076:0:0:0:0:
192,192,128999,128,0,129135:0:0:0:0:
448,192,129057,128,0,129251:0:0:0:0:
64,192,129057,128,0,129193:0:0:0:0:
320,192,129116,128,0,129193:0:0:0:0:
192,192,129173,128,0,129310:0:0:0:0:
64,192,129232,128,0,129310:0:0:0:0:
320,192,129232,128,0,129426:0:0:0:0:
448,192,129290,128,0,129367:0:0:0:0:
192,192,129348,128,0,129484:0:0:0:0:
64,192,129348,128,0,129542:0:0:0:0:
448,192,129406,128,0,129484:0:0:0:0:
320,192,129464,128,0,129600:0:0:0:0:
448,192,129523,128,0,129659:0:0:0:0:
192,192,129523,128,0,129659:0:0:0:0:
64,192,129581,128,0,129716:0:0:0:0:
320,192,129639,128,0,129775:0:0:0:0:
448,192,129697,128,0,129775:0:0:0:0:
192,192,129697,128,0,129833:0:0:0:0:
64,192,129756,128,0,129949:0:0:0:0:
448,192,129813,128,0,129891:0:0:0:0:
320,192,129813,128,0,129949:0:0:0:0:
192,192,129872,128,0,130007:0:0:0:0:
448,192,129930,128,0,130065:0:0:0:0:
64,192,129988,128,0,130124:0:0:0:0:
320,192,129988,128,0,130182:0:0:0:0:
192,192,130046,128,0,130124:0:0:0:0:
448,192,130104,128,0,130240:0:0:0:0:
192,192,130162,128,0,130240:0:0:0:0:
64,192,130162,128,0,130299:0:0:0:0:
320,192,130221,128,0,130356:0:0:0:0:
192,192,130279,128,0,130415:0:0:0:0:
448,192,130279,128,0,130473:0:0:0:0:
64,192,130337,128,0,130415:0:0:0:0:
320,192,130396,128,0,130531:0:0:0:0:
192,192,130453,128,0,130589:0:0:0:0:
64,192,130453,128,0,130589:0:0:0:0:
448,192,130512,128,0,130647:0:0:0:0:
320,192,130570,128,0,130764:0:0:0:0:
64,192,130628,128,0,130705:0:0:0:0:
192,192,130628,128,0,130705:0:0:0:0:
448,192,130686,128,0,130764:0:0:0:0:
64,192,130744,128,0,130821:0:0:0:0:
192,192,130744,128,0,130821:0:0:0:0:
320,192,130802,128,0,130880:0:0:0:0:
448,192,130802,128,0,130880:0:0:0:0:
192,192,130861,128,0,130939:0:0:0:0:
64,192,130861,128,0,130939:0:0:0:0:
320,192,130919,128,0,131055:0:0:0:0:
448,192,130919,128,0,130996:0:0:0:0:
192,192,130977,128,0,131113:0:0:0:0:
64,192,130977,128,0,131055:0:0:0:0:
448,192,131035,128,0,131171:0:0:0:0:
64,192,131093,128,0,131229:0:0:0:0:
320,192,131093,128,0,131171:0:0:0:0:
192,192,131151,128,0,131287:0:0:0:0:
320,192,131210,128,0,131345:0:0:0:0:
448,192,131210,128,0,131287:0:0:0:0:
64,192,131268,128,0,131404:0:0:0:0:
192,192,131326,128,0,131404:0:0:0:0:
448,192,131326,128,0,131461:0:0:0:0:
320,192,131384,128,0,131520:0:0:0:0:
192,192,131442,128,0,131578:0:0:0:0:
64,192,131442,128,0,131520:0:0:0:0:
448,192,131501,128,0,131636:0:0:0:0:
320,192,131559,128,0,131694:0:0:0:0:
64,192,131559,128,0,131636:0:0:0:0:
192,192,131617,128,0,131694:0:0:0:0:
64,192,131675,128,0,131753:0:0:0:0:
448,192,131675,128,0,131753:0:0:0:0:
192,192,131733,128,0,131811:0:0:0:0:
320,192,131733,128,0,131811:0:0:0:0:
64,192,131791,128,0,131869:0:0:0:0:
448,192,131791,128,0,131869:0:0:0:0:
320,192,131850,128,0,131927:0:0:0:0:
192,192,131850,128,0,131985:0:0:0:0:
64,192,131907,128,0,132044:0:0:0:0:
448,192,131907,128,0,131985:0:0:0:0:
320,192,131966,128,0,132101:0:0:0:0:
448,192,132024,128,0,132101:0:0:0:0:
192,192,132024,128,0,132160:0:0:0:0:
64,192,132082,128,0,132218:0:0:0:0:
448,192,132141,128,0,132218:0:0:0:0:
320,192,132141,128,0,132276:0:0:0:0:
192,192,132199,128,0,132334:0:0:0:0:
64,192,132257,128,0,132334:0:0:0:0:
448,192,132257,128,0,132393:0:0:0:0:
320,192,132315,128,0,132450:0:0:0:0:
192,192,132373,128,0,132450:0:0:0:0:
64,192,132373,128,0,132509:0:0:0:0:
448,192,132431,128,0,132567:0:0:0:0:
320,192,132490,128,0,132567:0:0:0:0:
192,192,132490,128,0,132625:0:0:0:0:
64,192,132547,128,0,132741:0:0:0:0:
448,192,132606,128,0,132741:0:0:0:0:
320,192,132606,128,0,132684:0:0:0:0:
192,192,132664,128,0,132800:0:0:0:0:
320,192,132722,128,0,132858:0:0:0:0:
448,192,132780,128,0,132916:0:0:0:0:
64,192,132780,128,0,132974:0:0:0:0:
192,192,132839,128,0,132916:0:0:0:0:
320,192,132896,128,0,133033:0:0:0:0:
448,192,132955,128,0,133033:0:0:0:0:
192,192,132955,128,0,133090:0:0:0:0:
64,192,133013,128,0,133207:0:0:0:0:
320,192,133071,128,0,133207:0:0:0:0:
448,192,133071,128,0,133149:0:0:0:0:
192,192,133130,128,0,133265:0:0:0:0:
448,192,133187,128,0,133323:0:0:0:0:
320,192,133246,128,0,133381:0:0:0:0:
64,192,133246,128,0,133381:0:0:0:0:
192,192,133304,128,0,133439:0:0:0:0:
448,192,133362,128,0,133498:0:0:0:0:
320,192,133420,128,0,133498:0:0:0:0:
64,192,133420,128,0,133673:0:0:0:0:
192,192,133479,128,0,133556:0:0:0:0:
448,192,133536,128,0,133673:0:0:0:0:
320,192,133536,128,0,133614:0:0:0:0:
192,192,133595,128,0,133730:0:0:0:0:
320,192,133653,128,0,133789:0:0:0:0:
448,192,133711,128,0,133905:0:0:0:0:
64,192,133711,128,0,133847:0:0:0:0:
192,192,133769,128,0,133847:0:0:0:0:
320,192,133827,128,0,133963:0:0:0:0:
64,192,133886,128,0,133963:0:0:0:0:
192,192,133886,128,0,134021:0:0:0:0:
448,192,133944,128,0,134079:0:0:0:0:
320,192,134002,128,0,134138:0:0:0:0:
64,192,134002,128,0,134196:0:0:0:0:
192,192,134060,128,0,134196:0:0:0:0:
448,192,134119,128,0,134429:0:0:0:0:
320,192,134176,128,0,134254:0:0:0:0:
64,192,134235,128,0,134312:0:0:0:0:
192,192,134235,128,0,134487:0:0:0:0:
320,192,134293,128,0,134370:0:0:0:0:
64,192,134351,128,0,134429:0:0:0:0:
320,192,134409,128,0,134487:0:0:0:0:
448,192,134467,128,0,134545:0:0:0:0:
64,192,134467,128,0,134545:0:0:0:0:
192,192,134525,128,0,134603:0:0:0:0:
320,192,134525,128,0,134603:0:0:0:0:
448,192,134584,128,0,134661:0:0:0:0:
64,192,134584,128,0,134661:0:0:0:0:
192,192,134642,128,0,134778:0:0:0:0:
320,192,134642,128,0,134719:0:0:0:0:
448,192,134700,128,0,134894:0:0:0:0:
64,192,134700,128,0,134778:0:0:0:0:
320,192,134759,128,0,134836:0:0:0:0:
192,192,134816,128,0,134894:0:0:0:0:
64,192,134816,128,0,134952:0:0:0:0:
320,192,134875,128,0,135010:0:0:0:0:
448,192,134933,128,0,135010:0:0:0:0:
192,192,134933,128,0,135068:0:0:0:0:
64,192,134991,128,0,135127:0:0:0:0:
448,192,135049,128,0,135127:0:0:0:0:
320,192,135049,128,0,135184:0:0:0:0:
192,192,135107,128,0,135243:0:0:0:0:
64,192,135165,128,0,135243:0:0:0:0:
448,192,135165,128,0,135301:0:0:0:0:
320,192,135224,128,0,135418:0:0:0:0:
192,192,135281,128,0,135359:0:0:0:0:
64,192,135281,128,0,135359:0:0:0:0:
448,192,135340,128,0,135418:0:0:0:0:
192,192,135398,128,0,135476:0:0:0:0:
64,192,135398,128,0,135476:0:0:0:0:
320,192,135456,128,0,135534:0:0:0:0:
448,192,135456,128,0,135534:0:0:0:0:
192,192,135515,128,0,135592:0:0:0:0:
64,192,135515,128,0,135592:0:0:0:0:
320,192,135573,128,0,135650:0:0:0:0:
448,192,135573,128,0,135708:0:0:0:0:
192,192,135631,128,0,135708:0:0:0:0:
64,192,135631,128,0,135767:0:0:0:0:
320,192,135689,128,0,135824:0:0:0:0:
448,192,135747,128,0,135824:0:0:0:0:
192,192,135747,128,0,135883:0:0:0:0:
64,192,135805,128,0,135941:0:0:0:0:
320,192,135864,128,0,135999:0:0:0:0:
448,192,135864,128,0,135941:0:0:0:0:
192,192,135921,128,0,136058:0:0:0:0:
64,192,135980,128,0,136058:0:0:0:0:
448,192,135980,128,0,136116:0:0:0:0:
320,192,136038,128,0,136174:0:0:0:0:
192,192,136096,128,0,136174:0:0:0:0:
64,192,136096,128,0,136232:0:0:0:0:
448,192,136154,128,0,136290:0:0:0:0:
320,192,136213,128,0,136290:0:0:0:0:
192,192,136213,128,0,136348:0:0:0:0:
64,192,136270,128,0,136407:0:0:0:0:
448,192,136329,128,0,136464:0:0:0:0:
320,192,136329,128,0,136464:0:0:0:0:
192,192,136387,128,0,136581:0:0:0:0:
64,192,136445,128,0,136523:0:0:0:0:
320,192,136504,128,0,136639:0:0:0:0:
448,192,136504,128,0,136697:0:0:0:0:
64,192,136561,128,0,136639:0:0:0:0:
192,192,136620,128,0,136756:0:0:0:0:
320,192,136678,128,0,136813:0:0:0:0:
64,192,136678,128,0,136756:0:0:0:0:
448,192,136736,128,0,136930:0:0:0:0:
64,192,136794,128,0,136930:0:0:0:0:
192,192,136794,128,0,136872:0:0:0:0:
320,192,136853,128,0,136988:0:0:0:0:
192,192,136910,128,0,137047:0:0:0:0:
448,192,136969,128,0,137104:0:0:0:0:
64,192,136969,128,0,137104:0:0:0:0:
320,192,137027,128,0,137163:0:0:0:0:
192,192,137085,128,0,137221:0:0:0:0:
64,192,137143,128,0,137221:0:0:0:0:
448,192,137143,128,0,137279:0:0:0:0:
320,192,137201,128,0,137453:0:0:0:0:
192,192,137260,128,0,137396:0:0:0:0:
64,192,137260,128,0,137337:0:0:0:0:
448,192,137318,128,0,137396:0:0:0:0:
64,192,137376,128,0,137570:0:0:0:0:
192,192,137434,128,0,137512:0:0:0:0:
448,192,137434,128,0,137570:0:0:0:0:
320,192,137493,128,0,137628:0:0:0:0:
192,192,137550,128,0,137686:0:0:0:0:
64,192,137609,128,0,137686:0:0:0:0:
448,192,137609,128,0,137744:0:0:0:0:
320,192,137667,128,0,137803:0:0:0:0:
192,192,137725,128,0,137861:0:0:0:0:
64,192,137725,128,0,137919:0:0:0:0:
448,192,137783,128,0,137861:0:0:0:0:
320,192,137841,128,0,137977:0:0:0:0:
192,192,137899,128,0,138036:0:0:0:0:
448,192,137899,128,0,138036:0:0:0:0:
64,192,137958,128,0,138093:0:0:0:0:
320,192,138016,128,0,138152:0:0:0:0:
448,192,138074,128,0,138152:0:0:0:0:
192,192,138074,128,0,138210:0:0:0:0:
64,192,138133,128,0,138210:0:0:0:0:
320,192,138190,128,0,138268:0:0:0:0:
448,192,138190,128,0,138268:0:0:0:0:
192,192,138249,128,0,138326:0:0:0:0:
64,192,138249,128,0,138326:0:0:0:0:
320,192,138307,128,0,138384:0:0:0:0:
448,192,138307,128,0,138384:0:0:0:0:
192,192,138365,128,0,138442:0:0:0:0:
64,192,138365,128,0,138501:0:0:0:0:
320,192,138423,128,0,138559:0:0:0:0:
448,192,138423,128,0,138501:0:0:0:0:
192,192,138481,128,0,138617:0:0:0:0:
64,192,138539,128,0,138617:0:0:0:0:
448,192,138539,128,0,138676:0:0:0:0:
320,192,138598,128,0,138733:0:0:0:0:
192,192,138656,128,0,138792:0:0:0:0:
64,192,138656,128,0,138733:0:0:0:0:
448,192,138714,128,0,138850:0:0:0:0:
320,192,138772,128,0,138850:0:0:0:0:
64,192,138772,128,0,138908:0:0:0:0:
192,192,138830,128,0,138966:0:0:0:0:
320,192,138888,128,0,139024:0:0:0:0:
448,192,138888,128,0,138966:0:0:0:0:
64,192,138947,128,0,139082:0:0:0:0:
192,192,139005,128,0,139141:0:0:0:0:
448,192,139005,128,0,139082:0:0:0:0:
320,192,139063,128,0,139141:0:0:0:0:
64,192,139121,128,0,139199:0:0:0:0:
448,192,139121,128,0,139199:0:0:0:0:
192,192,139179,128,0,139257:0:0:0:0:
320,192,139179,128,0,139257:0:0:0:0:
64,192,139238,128,0,139315:0:0:0:0:
448,192,139238,128,0,139315:0:0:0:0:
320,192,139296,128,0,139431:0:0:0:0:
192,192,139296,128,0,139373:0:0:0:0:
64,192,139354,128,0,139490:0:0:0:0:
448,192,139354,128,0,139431:0:0:0:0:
192,192,139412,128,0,139548:0:0:0:0:
320,192,139470,128,0,139606:0:0:0:0:
448,192,139470,128,0,139548:0:0:0:0:
64,192,139528,128,0,139664:0:0:0:0:
192,192,139587,128,0,139664:0:0:0:0:
448,192,139587,128,0,139781:0:0:0:0:
320,192,139644,128,0,139722:0:0:0:0:
192,192,139703,128,0,139781:0:0:0:0:
64,192,139703,128,0,139839:0:0:0:0:
320,192,139761,128,0,139897:0:0:0:0:
192,192,139819,128,0,139955:0:0:0:0:
448,192,139819,128,0,139897:0:0:0:0:
64,192,139878,128,0,140013:0:0:0:0:
448,192,139936,128,0,140071:0:0:0:0:
320,192,139936,128,0,140013:0:0:0:0:
192,192,139994,128,0,140130:0:0:0:0:
64,192,140052,128,0,140246:0:0:0:0:
320,192,140052,128,0,140187:0:0:0:0:
448,192,140110,128,0,140187:0:0:0:0:
192,192,140168,128,0,140304:0:0:0:0:
320,192,140227,128,0,140362:0:0:0:0:
448,192,140227,128,0,140362:0:0:0:0:
64,192,140284,128,0,140479:0:0:0:0:
192,192,140343,128,0,140421:0:0:0:0:
320,192,140401,128,0,140537:0:0:0:0:
448,192,140401,128,0,140479:0:0:0:0:
192,192,140459,128,0,140595:0:0:0:0:
64,192,140517,128,0,140653:0:0:0:0:
448,192,140517,128,0,140711:0:0:0:0:
320,192,140576,128,0,140653:0:0:0:0:
192,192,140634,128,0,140770:0:0:0:0:
64,192,140692,128,0,140827:0:0:0:0:
320,192,140692,128,0,140827:0:0:0:0:
448,192,140750,128,0,140886:0:0:0:0:
192,192,140808,128,0,140944:0:0:0:0:
64,192,140867,128,0,140944:0:0:0:0:
320,192,140867,128,0,141060:0:0:0:0:
448,192,140924,128,0,141176:0:0:0:0:
192,192,140983,128,0,141119:0:0:0:0:
64,192,140983,128,0,141293:0:0:0:0:
320,192,141099,128,0,141410:0:0:0:0:
192,192,141157,128,0,141351:0:0:0:0:
448,192,141216,128,0,141410:0:0:0:0:
64,192,141332,128,0,141467:0:0:0:0:
192,192,141390,128,0,141467:0:0:0:0:
320,192,141448,128,0,141564:0:0:0:0:
448,192,141448,128,0,141526:0:0:0:0:
192,192,141507,128,0,141584:0:0:0:0:
64,192,141507,128,0,141623:0:0:0:0:
448,192,141564,128,0,141642:0:0:0:0:
320,192,141603,128,0,141759:0:0:0:0:
192,192,141623,128,0,141700:0:0:0:0:
64,192,141661,128,0,141816:0:0:0:0:
448,192,141681,128,0,141875:0:0:0:0:
192,192,141739,128,0,141875:0:0:0:0:
320,192,141797,128,0,143271:0:0:0:0:
64,192,141856,128,0,142573:0:0:0:0:
192,192,141913,128,0,142805:0:0:0:0:
448,192,141913,128,0,142805:0:0:0:0:
64,192,142612,128,0,143736:0:0:0:0:
192,192,142844,128,0,143736:0:0:0:0:
448,192,142844,128,0,144434:0:0:0:0:
320,192,143310,128,0,144667:0:0:0:0:
64,192,143775,128,0,144667:0:0:0:0:
192,192,143775,128,0,145133:0:0:0:0:
448,192,144473,128,0,145598:0:0:0:0:
320,192,144706,128,0,145249:0:0:0:0:
64,192,144706,128,0,145365:0:0:0:0:
192,192,145171,128,0,145481:0:0:0:0:
320,192,145287,128,0,145598:0:0:0:0:
64,192,145404,128,0,146994:0:0:0:0:
192,192,145520,128,0,146529:0:0:0:0:
320,192,145636,128,0,146296:0:0:0:0:
448,192,145636,128,0,146529:0:0:0:0:
320,192,146335,128,0,146994:0:0:0:0:
192,192,146567,128,0,147459:0:0:0:0:
448,192,146567,128,0,147459:0:0:0:0:
320,192,147033,128,0,147692:0:0:0:0:
64,192,147033,128,0,147924:0:0:0:0:
192,192,147499,128,0,148158:0:0:0:0:
448,192,147499,128,0,148390:0:0:0:0:
320,192,147731,128,0,148390:0:0:0:0:
64,192,147964,128,0,149321:0:0:0:0:
192,192,148196,128,0,148856:0:0:0:0:
320,192,148429,128,0,150019:0:0:0:0:
448,192,148429,128,0,149321:0:0:0:0:
192,192,148894,128,0,150252:0:0:0:0:
64,192,149360,128,0,150252:0:0:0:0:
448,192,149360,128,0,151182:0:0:0:0:
320,192,150058,128,0,150717:0:0:0:0:
192,192,150290,128,0,151881:0:0:0:0:
64,192,150290,128,0,151182:0:0:0:0:
320,192,150756,128,0,152113:0:0:0:0:
448,192,151221,128,0,153044:0:0:0:0:
64,192,151221,128,0,152113:0:0:0:0:
192,192,151919,128,0,152579:0:0:0:0:
320,192,152152,128,0,152695:0:0:0:0:
64,192,152152,128,0,152811:0:0:0:0:
192,192,152618,128,0,152927:0:0:0:0:
320,192,152734,128,0,153044:0:0:0:0:
64,192,152850,128,0,153975:0:0:0:0:
192,192,152967,128,0,153975:0:0:0:0:
320,192,153083,128,0,153742:0:0:0:0:
448,192,153083,128,0,154906:0:0:0:0:
320,192,153781,128,0,154906:0:0:0:0:
64,192,154013,128,0,156806:0:0:0:0:
192,192,154013,128,0,156806:0:0:0:0:
448,192,154944,128,0,156806:0:0:0:0:
320,192,154944,128,0,156806:0:0:0:0:
