osu file format v14

[General]
AudioFilename: audio125.mp3
AudioLeadIn: 0
PreviewTime: -1
Countdown: 0
SampleSet: None
StackLeniency: 0.7
Mode: 3
LetterboxInBreaks: 0
SpecialStyle: 0
WidescreenStoryboard: 0

[Editor]
DistanceSpacing: 0.8
BeatDivisor: 12
GridSize: 32
TimelineZoom: 2.2

[Metadata]
Title:AO-INFINITY
TitleUnicode:AO-∞
Artist:Seiryu
ArtistUnicode:青龍
Creator:Affinityy
Version:Reflection [1.25x Rate]
Source:REFLEC BEAT plus
Tags:
BeatmapID:2458399
BeatmapSetID:1177420

[Difficulty]
HPDrainRate:6
CircleSize:4
OverallDifficulty:0
ApproachRate:5
SliderMultiplier:1.4
SliderTickRate:1

[Events]
//Background and Video events
0,0,"bg.png",0,0
//Break Periods
//Storyboard Layer 0 (Background)
//Storyboard Layer 1 (Fail)
//Storyboard Layer 2 (Pass)
//Storyboard Layer 3 (Foreground)
//Storyboard Layer 4 (Overlay)
//Storyboard Sound Samples

[TimingPoints]
468,251.30890052356,4,2,1,30,1,0
48698,-100,4,2,1,30,0,1
64782,-100,4,2,1,30,0,0
120824,-100,4,2,1,30,0,1
153306,-100,4,2,1,30,0,0

[HitObjects]
320,192,468,128,0,1934:0:0:0:0:
64,192,468,128,0,1431:0:0:0:0:
192,192,1222,128,0,2436:0:0:0:0:
448,192,1473,128,0,4321:0:0:0:0:
64,192,1473,128,0,2436:0:0:0:0:
320,192,1975,128,0,3442:0:0:0:0:
64,192,2478,128,0,3442:0:0:0:0:
192,192,2478,128,0,3190:0:0:0:0:
192,192,3232,128,0,4070:0:0:0:0:
64,192,3483,128,0,3944:0:0:0:0:
320,192,3483,128,0,4195:0:0:0:0:
64,192,3986,128,0,4446:0:0:0:0:
192,192,4111,128,0,4446:0:0:0:0:
320,192,4238,128,0,5452:0:0:0:0:
448,192,4363,128,0,5954:0:0:0:0:
64,192,4489,128,0,5452:0:0:0:0:
192,192,4489,128,0,5201:0:0:0:0:
192,192,5242,128,0,6457:0:0:0:0:
64,192,5494,128,0,6457:0:0:0:0:
320,192,5494,128,0,6709:0:0:0:0:
448,192,5996,128,0,6960:0:0:0:0:
64,192,6499,128,0,7462:0:0:0:0:
192,192,6499,128,0,7211:0:0:0:0:
320,192,6750,128,0,7462:0:0:0:0:
448,192,7002,128,0,7965:0:0:0:0:
192,192,7253,128,0,9473:0:0:0:0:
64,192,7504,128,0,9975:0:0:0:0:
320,192,7504,128,0,8467:0:0:0:0:
448,192,8007,128,0,8467:0:0:0:0:
320,192,8510,128,0,9222:0:0:0:0:
448,192,8510,128,0,9473:0:0:0:0:
320,192,9263,128,0,11734:0:0:0:0:
192,192,9514,128,0,10478:0:0:0:0:
448,192,9514,128,0,11483:0:0:0:0:
64,192,10018,128,0,10478:0:0:0:0:
192,192,10520,128,0,11232:0:0:0:0:
64,192,10520,128,0,11483:0:0:0:0:
192,192,11274,128,0,12111:0:0:0:0:
64,192,11525,128,0,11986:0:0:0:0:
448,192,11525,128,0,12363:0:0:0:0:
320,192,11777,128,0,12238:0:0:0:0:
64,192,12028,128,0,12489:0:0:0:0:
192,192,12154,128,0,12489:0:0:0:0:
320,192,12279,128,0,13242:0:0:0:0:
448,192,12405,128,0,13494:0:0:0:0:
192,192,12530,128,0,13996:0:0:0:0:
64,192,12530,128,0,13494:0:0:0:0:
320,192,13284,128,0,14499:0:0:0:0:
448,192,13536,128,0,14499:0:0:0:0:
64,192,13536,128,0,16510:0:0:0:0:
192,192,14038,128,0,17263:0:0:0:0:
320,192,14541,128,0,17514:0:0:0:0:
448,192,14541,128,0,16510:0:0:0:0:
64,192,16551,128,0,18018:0:0:0:0:
448,192,16551,128,0,17514:0:0:0:0:
192,192,17306,128,0,18520:0:0:0:0:
320,192,17557,128,0,19274:0:0:0:0:
448,192,17557,128,0,18520:0:0:0:0:
64,192,18059,128,0,19525:0:0:0:0:
192,192,18562,128,0,20154:0:0:0:0:
448,192,18562,128,0,19525:0:0:0:0:
320,192,19316,128,0,20279:0:0:0:0:
64,192,19567,128,0,20028:0:0:0:0:
448,192,19567,128,0,20405:0:0:0:0:
64,192,20070,128,0,20530:0:0:0:0:
192,192,20195,128,0,20530:0:0:0:0:
320,192,20321,128,0,21284:0:0:0:0:
448,192,20446,128,0,21536:0:0:0:0:
192,192,20572,128,0,21536:0:0:0:0:
64,192,20572,128,0,22541:0:0:0:0:
320,192,21326,128,0,22038:0:0:0:0:
192,192,21578,128,0,23043:0:0:0:0:
448,192,21578,128,0,22541:0:0:0:0:
320,192,22080,128,0,22792:0:0:0:0:
64,192,22582,128,0,23295:0:0:0:0:
448,192,22582,128,0,23546:0:0:0:0:
320,192,22834,128,0,23546:0:0:0:0:
192,192,23086,128,0,24049:0:0:0:0:
64,192,23337,128,0,24551:0:0:0:0:
320,192,23588,128,0,25306:0:0:0:0:
448,192,23588,128,0,24551:0:0:0:0:
192,192,24090,128,0,25557:0:0:0:0:
448,192,24594,128,0,25557:0:0:0:0:
64,192,24594,128,0,26059:0:0:0:0:
320,192,25347,128,0,26562:0:0:0:0:
448,192,25598,128,0,26562:0:0:0:0:
192,192,25598,128,0,27316:0:0:0:0:
64,192,26101,128,0,27567:0:0:0:0:
448,192,26604,128,0,27567:0:0:0:0:
320,192,26604,128,0,27818:0:0:0:0:
192,192,27358,128,0,28195:0:0:0:0:
64,192,27609,128,0,28070:0:0:0:0:
448,192,27609,128,0,28446:0:0:0:0:
320,192,27860,128,0,28321:0:0:0:0:
64,192,28111,128,0,28572:0:0:0:0:
192,192,28238,128,0,28572:0:0:0:0:
320,192,28363,128,0,29578:0:0:0:0:
448,192,28489,128,0,29326:0:0:0:0:
64,192,28614,128,0,29578:0:0:0:0:
192,192,28614,128,0,30080:0:0:0:0:
448,192,29368,128,0,30582:0:0:0:0:
320,192,29619,128,0,30582:0:0:0:0:
64,192,29619,128,0,32090:0:0:0:0:
192,192,30122,128,0,31588:0:0:0:0:
320,192,30625,128,0,31777:0:0:0:0:
448,192,30625,128,0,31965:0:0:0:0:
192,192,31630,128,0,32719:0:0:0:0:
320,192,31818,128,0,32279:0:0:0:0:
448,192,32007,128,0,32594:0:0:0:0:
64,192,32133,128,0,32594:0:0:0:0:
320,192,32321,128,0,32467:0:0:0:0:
320,192,32510,128,0,32656:0:0:0:0:
448,192,32635,128,0,32845:0:0:0:0:
64,192,32635,128,0,32782:0:0:0:0:
320,192,32698,128,0,33536:0:0:0:0:
192,192,32761,128,0,32970:0:0:0:0:
64,192,32824,128,0,33222:0:0:0:0:
448,192,32886,128,0,33096:0:0:0:0:
192,192,33012,128,0,33473:0:0:0:0:
448,192,33138,128,0,33347:0:0:0:0:
64,192,33263,128,0,33598:0:0:0:0:
448,192,33389,128,0,33598:0:0:0:0:
192,192,33514,128,0,33662:0:0:0:0:
320,192,33578,128,0,33724:0:0:0:0:
448,192,33640,128,0,33787:0:0:0:0:
64,192,33640,128,0,33850:0:0:0:0:
192,192,33703,128,0,34604:0:0:0:0:
320,192,33766,128,0,33975:0:0:0:0:
448,192,33829,128,0,34226:0:0:0:0:
64,192,33892,128,0,34101:0:0:0:0:
320,192,34018,128,0,34478:0:0:0:0:
64,192,34143,128,0,34353:0:0:0:0:
448,192,34269,128,0,34604:0:0:0:0:
64,192,34394,128,0,34981:0:0:0:0:
320,192,34520,128,0,34792:0:0:0:0:
192,192,34646,128,0,34792:0:0:0:0:
448,192,34646,128,0,35106:0:0:0:0:
320,192,34834,128,0,34981:0:0:0:0:
192,192,34834,128,0,35106:0:0:0:0:
320,192,35022,128,0,35295:0:0:0:0:
64,192,35022,128,0,35609:0:0:0:0:
448,192,35148,128,0,35295:0:0:0:0:
192,192,35148,128,0,35609:0:0:0:0:
320,192,35337,128,0,35483:0:0:0:0:
448,192,35337,128,0,35483:0:0:0:0:
320,192,35525,128,0,35798:0:0:0:0:
448,192,35525,128,0,35986:0:0:0:0:
192,192,35651,128,0,35798:0:0:0:0:
64,192,35651,128,0,36111:0:0:0:0:
192,192,35839,128,0,36111:0:0:0:0:
320,192,35839,128,0,35986:0:0:0:0:
320,192,36028,128,0,36300:0:0:0:0:
448,192,36028,128,0,36614:0:0:0:0:
192,192,36154,128,0,36300:0:0:0:0:
64,192,36154,128,0,36614:0:0:0:0:
320,192,36342,128,0,36489:0:0:0:0:
192,192,36342,128,0,36489:0:0:0:0:
320,192,36530,128,0,36677:0:0:0:0:
192,192,36530,128,0,36740:0:0:0:0:
448,192,36656,128,0,36866:0:0:0:0:
64,192,36656,128,0,36802:0:0:0:0:
320,192,36719,128,0,37557:0:0:0:0:
192,192,36782,128,0,36991:0:0:0:0:
64,192,36845,128,0,37242:0:0:0:0:
448,192,36907,128,0,37117:0:0:0:0:
192,192,37033,128,0,37494:0:0:0:0:
448,192,37158,128,0,37368:0:0:0:0:
64,192,37284,128,0,37619:0:0:0:0:
448,192,37410,128,0,37619:0:0:0:0:
192,192,37536,128,0,37682:0:0:0:0:
320,192,37598,128,0,37745:0:0:0:0:
448,192,37662,128,0,37808:0:0:0:0:
64,192,37662,128,0,37870:0:0:0:0:
192,192,37724,128,0,38625:0:0:0:0:
320,192,37787,128,0,37996:0:0:0:0:
448,192,37850,128,0,38248:0:0:0:0:
64,192,37913,128,0,38122:0:0:0:0:
320,192,38038,128,0,38499:0:0:0:0:
64,192,38164,128,0,38374:0:0:0:0:
448,192,38290,128,0,38813:0:0:0:0:
64,192,38415,128,0,38625:0:0:0:0:
320,192,38541,128,0,39002:0:0:0:0:
192,192,38666,128,0,38813:0:0:0:0:
64,192,38666,128,0,39127:0:0:0:0:
448,192,38855,128,0,39002:0:0:0:0:
192,192,38855,128,0,39127:0:0:0:0:
320,192,39043,128,0,39316:0:0:0:0:
448,192,39043,128,0,39630:0:0:0:0:
192,192,39169,128,0,39630:0:0:0:0:
64,192,39169,128,0,39316:0:0:0:0:
320,192,39358,128,0,39504:0:0:0:0:
64,192,39358,128,0,39504:0:0:0:0:
320,192,39546,128,0,39818:0:0:0:0:
64,192,39546,128,0,40007:0:0:0:0:
448,192,39672,128,0,39818:0:0:0:0:
192,192,39672,128,0,40133:0:0:0:0:
320,192,39860,128,0,40007:0:0:0:0:
448,192,39860,128,0,40133:0:0:0:0:
320,192,40049,128,0,40258:0:0:0:0:
64,192,40049,128,0,40321:0:0:0:0:
448,192,40174,128,0,40384:0:0:0:0:
192,192,40174,128,0,40321:0:0:0:0:
320,192,40300,128,0,40510:0:0:0:0:
192,192,40363,128,0,40572:0:0:0:0:
64,192,40363,128,0,40446:0:0:0:0:
448,192,40426,128,0,40510:0:0:0:0:
64,192,40489,128,0,40698:0:0:0:0:
448,192,40551,128,0,40635:0:0:0:0:
320,192,40551,128,0,40635:0:0:0:0:
192,192,40614,128,0,40761:0:0:0:0:
320,192,40677,128,0,40824:0:0:0:0:
448,192,40677,128,0,40886:0:0:0:0:
64,192,40740,128,0,40886:0:0:0:0:
192,192,40802,128,0,41012:0:0:0:0:
320,192,40866,128,0,41263:0:0:0:0:
448,192,40928,128,0,41138:0:0:0:0:
64,192,40928,128,0,41138:0:0:0:0:
192,192,41054,128,0,41389:0:0:0:0:
64,192,41180,128,0,41389:0:0:0:0:
448,192,41180,128,0,41514:0:0:0:0:
320,192,41306,128,0,41578:0:0:0:0:
192,192,41431,128,0,41640:0:0:0:0:
64,192,41431,128,0,41640:0:0:0:0:
448,192,41557,128,0,41703:0:0:0:0:
320,192,41619,128,0,41766:0:0:0:0:
192,192,41682,128,0,41829:0:0:0:0:
64,192,41682,128,0,41892:0:0:0:0:
448,192,41745,128,0,41892:0:0:0:0:
320,192,41808,128,0,42018:0:0:0:0:
192,192,41870,128,0,42269:0:0:0:0:
448,192,41934,128,0,42143:0:0:0:0:
64,192,41934,128,0,42143:0:0:0:0:
320,192,42059,128,0,42394:0:0:0:0:
448,192,42185,128,0,42394:0:0:0:0:
64,192,42185,128,0,42646:0:0:0:0:
192,192,42310,128,0,42520:0:0:0:0:
320,192,42436,128,0,42834:0:0:0:0:
448,192,42436,128,0,42646:0:0:0:0:
192,192,42562,128,0,42897:0:0:0:0:
448,192,42687,128,0,43148:0:0:0:0:
64,192,42687,128,0,42897:0:0:0:0:
320,192,42876,128,0,43022:0:0:0:0:
192,192,42939,128,0,43148:0:0:0:0:
64,192,42939,128,0,43337:0:0:0:0:
320,192,43065,128,0,43399:0:0:0:0:
448,192,43190,128,0,43399:0:0:0:0:
192,192,43190,128,0,43525:0:0:0:0:
64,192,43378,128,0,43651:0:0:0:0:
320,192,43442,128,0,43651:0:0:0:0:
448,192,43442,128,0,43902:0:0:0:0:
192,192,43567,128,0,43902:0:0:0:0:
320,192,43693,128,0,43839:0:0:0:0:
64,192,43693,128,0,44028:0:0:0:0:
320,192,43882,128,0,44154:0:0:0:0:
448,192,43944,128,0,44154:0:0:0:0:
192,192,43944,128,0,44216:0:0:0:0:
64,192,44070,128,0,44216:0:0:0:0:
320,192,44195,128,0,44300:0:0:0:0:
448,192,44195,128,0,44279:0:0:0:0:
192,192,44258,128,0,44342:0:0:0:0:
64,192,44258,128,0,44363:0:0:0:0:
448,192,44321,128,0,44405:0:0:0:0:
320,192,44342,128,0,44530:0:0:0:0:
192,192,44384,128,0,44467:0:0:0:0:
64,192,44405,128,0,44594:0:0:0:0:
448,192,44446,128,0,44656:0:0:0:0:
192,192,44510,128,0,44719:0:0:0:0:
320,192,44572,128,0,44656:0:0:0:0:
64,192,44635,128,0,44782:0:0:0:0:
320,192,44698,128,0,44845:0:0:0:0:
448,192,44698,128,0,44907:0:0:0:0:
192,192,44761,128,0,44907:0:0:0:0:
64,192,44824,128,0,44970:0:0:0:0:
320,192,44886,128,0,45033:0:0:0:0:
448,192,44950,128,0,45158:0:0:0:0:
192,192,44950,128,0,45096:0:0:0:0:
64,192,45012,128,0,45158:0:0:0:0:
320,192,45075,128,0,45222:0:0:0:0:
192,192,45138,128,0,45284:0:0:0:0:
448,192,45201,128,0,45410:0:0:0:0:
64,192,45201,128,0,45347:0:0:0:0:
320,192,45263,128,0,45410:0:0:0:0:
192,192,45326,128,0,45473:0:0:0:0:
64,192,45389,128,0,45536:0:0:0:0:
320,192,45452,128,0,45724:0:0:0:0:
448,192,45452,128,0,45598:0:0:0:0:
192,192,45514,128,0,45662:0:0:0:0:
64,192,45578,128,0,45662:0:0:0:0:
448,192,45640,128,0,45787:0:0:0:0:
192,192,45703,128,0,45850:0:0:0:0:
64,192,45703,128,0,45913:0:0:0:0:
320,192,45766,128,0,45913:0:0:0:0:
448,192,45829,128,0,45975:0:0:0:0:
192,192,45892,128,0,46038:0:0:0:0:
320,192,45954,128,0,46101:0:0:0:0:
64,192,45954,128,0,46164:0:0:0:0:
448,192,46018,128,0,46164:0:0:0:0:
192,192,46080,128,0,46226:0:0:0:0:
320,192,46143,128,0,46290:0:0:0:0:
448,192,46206,128,0,46353:0:0:0:0:
64,192,46206,128,0,46415:0:0:0:0:
192,192,46269,128,0,46415:0:0:0:0:
320,192,46331,128,0,46478:0:0:0:0:
448,192,46394,128,0,46541:0:0:0:0:
64,192,46457,128,0,46730:0:0:0:0:
192,192,46457,128,0,46604:0:0:0:0:
320,192,46520,128,0,46666:0:0:0:0:
448,192,46582,128,0,46666:0:0:0:0:
192,192,46646,128,0,46792:0:0:0:0:
320,192,46709,128,0,46855:0:0:0:0:
448,192,46709,128,0,46792:0:0:0:0:
64,192,46771,128,0,46918:0:0:0:0:
192,192,46834,128,0,46918:0:0:0:0:
448,192,46834,128,0,46981:0:0:0:0:
320,192,46897,128,0,47043:0:0:0:0:
192,192,46960,128,0,47106:0:0:0:0:
64,192,46960,128,0,47043:0:0:0:0:
448,192,47022,128,0,47169:0:0:0:0:
320,192,47086,128,0,47169:0:0:0:0:
64,192,47086,128,0,47232:0:0:0:0:
192,192,47148,128,0,47232:0:0:0:0:
448,192,47211,128,0,47295:0:0:0:0:
320,192,47211,128,0,47295:0:0:0:0:
192,192,47274,128,0,47358:0:0:0:0:
64,192,47274,128,0,47358:0:0:0:0:
320,192,47337,128,0,47421:0:0:0:0:
448,192,47337,128,0,47421:0:0:0:0:
192,192,47399,128,0,47483:0:0:0:0:
64,192,47399,128,0,47483:0:0:0:0:
448,192,47462,128,0,47546:0:0:0:0:
320,192,47462,128,0,47546:0:0:0:0:
192,192,47525,128,0,47609:0:0:0:0:
64,192,47525,128,0,47609:0:0:0:0:
320,192,47588,128,0,47672:0:0:0:0:
448,192,47588,128,0,47672:0:0:0:0:
192,192,47651,128,0,47923:0:0:0:0:
64,192,47651,128,0,47923:0:0:0:0:
320,192,47714,128,0,48174:0:0:0:0:
448,192,47714,128,0,47923:0:0:0:0:
192,192,47965,128,0,48426:0:0:0:0:
64,192,47965,128,0,48426:0:0:0:0:
448,192,47965,128,0,48174:0:0:0:0:
448,192,48216,128,0,48300:0:0:0:0:
320,192,48216,128,0,48300:0:0:0:0:
448,192,48342,128,0,48426:0:0:0:0:
320,192,48342,128,0,48426:0:0:0:0:
64,192,48467,128,0,48677:0:0:0:0:
192,192,48467,128,0,48740:0:0:0:0:
320,192,48467,128,0,48740:0:0:0:0:
448,192,48467,128,0,48677:0:0:0:0:
64,192,48719,128,0,48802:0:0:0:0:
448,192,48719,128,0,48802:0:0:0:0:
320,192,48782,128,0,48866:0:0:0:0:
192,192,48782,128,0,48866:0:0:0:0:
64,192,48845,128,0,48928:0:0:0:0:
448,192,48845,128,0,48928:0:0:0:0:
320,192,48907,128,0,49054:0:0:0:0:
192,192,48907,128,0,48991:0:0:0:0:
64,192,48970,128,0,49117:0:0:0:0:
448,192,48970,128,0,49054:0:0:0:0:
192,192,49033,128,0,49180:0:0:0:0:
320,192,49096,128,0,49180:0:0:0:0:
448,192,49096,128,0,49242:0:0:0:0:
64,192,49158,128,0,49306:0:0:0:0:
192,192,49222,128,0,49306:0:0:0:0:
320,192,49222,128,0,49368:0:0:0:0:
448,192,49284,128,0,49431:0:0:0:0:
192,192,49347,128,0,49431:0:0:0:0:
64,192,49347,128,0,49494:0:0:0:0:
320,192,49410,128,0,49557:0:0:0:0:
448,192,49473,128,0,49557:0:0:0:0:
192,192,49473,128,0,49619:0:0:0:0:
64,192,49536,128,0,49745:0:0:0:0:
320,192,49598,128,0,49682:0:0:0:0:
448,192,49598,128,0,49682:0:0:0:0:
192,192,49662,128,0,49745:0:0:0:0:
448,192,49724,128,0,49808:0:0:0:0:
320,192,49724,128,0,49808:0:0:0:0:
192,192,49787,128,0,49870:0:0:0:0:
64,192,49787,128,0,49870:0:0:0:0:
320,192,49850,128,0,49934:0:0:0:0:
448,192,49850,128,0,49934:0:0:0:0:
192,192,49913,128,0,49996:0:0:0:0:
64,192,49913,128,0,50059:0:0:0:0:
320,192,49975,128,0,50122:0:0:0:0:
448,192,49975,128,0,50059:0:0:0:0:
192,192,50038,128,0,50185:0:0:0:0:
64,192,50101,128,0,50185:0:0:0:0:
448,192,50101,128,0,50248:0:0:0:0:
320,192,50164,128,0,50310:0:0:0:0:
192,192,50226,128,0,50374:0:0:0:0:
64,192,50226,128,0,50310:0:0:0:0:
448,192,50290,128,0,50436:0:0:0:0:
320,192,50353,128,0,50436:0:0:0:0:
64,192,50353,128,0,50499:0:0:0:0:
192,192,50415,128,0,50562:0:0:0:0:
320,192,50478,128,0,50625:0:0:0:0:
448,192,50478,128,0,50562:0:0:0:0:
64,192,50541,128,0,50687:0:0:0:0:
448,192,50604,128,0,50750:0:0:0:0:
192,192,50604,128,0,50687:0:0:0:0:
320,192,50666,128,0,50813:0:0:0:0:
192,192,50730,128,0,50876:0:0:0:0:
64,192,50730,128,0,50939:0:0:0:0:
448,192,50792,128,0,50876:0:0:0:0:
320,192,50855,128,0,51002:0:0:0:0:
448,192,50918,128,0,51127:0:0:0:0:
192,192,50918,128,0,51065:0:0:0:0:
64,192,50981,128,0,51065:0:0:0:0:
320,192,51043,128,0,51190:0:0:0:0:
192,192,51106,128,0,51253:0:0:0:0:
64,192,51106,128,0,51190:0:0:0:0:
448,192,51169,128,0,51378:0:0:0:0:
320,192,51232,128,0,51316:0:0:0:0:
64,192,51232,128,0,51378:0:0:0:0:
192,192,51295,128,0,51442:0:0:0:0:
320,192,51358,128,0,51504:0:0:0:0:
448,192,51421,128,0,51567:0:0:0:0:
64,192,51421,128,0,51567:0:0:0:0:
192,192,51483,128,0,51630:0:0:0:0:
320,192,51546,128,0,51693:0:0:0:0:
448,192,51609,128,0,51693:0:0:0:0:
64,192,51609,128,0,51755:0:0:0:0:
192,192,51672,128,0,51882:0:0:0:0:
320,192,51734,128,0,51882:0:0:0:0:
448,192,51734,128,0,51818:0:0:0:0:
64,192,51798,128,0,51944:0:0:0:0:
448,192,51860,128,0,52070:0:0:0:0:
320,192,51923,128,0,52007:0:0:0:0:
192,192,51923,128,0,52070:0:0:0:0:
64,192,51986,128,0,52133:0:0:0:0:
320,192,52049,128,0,52195:0:0:0:0:
448,192,52111,128,0,52195:0:0:0:0:
192,192,52111,128,0,52258:0:0:0:0:
64,192,52174,128,0,52258:0:0:0:0:
320,192,52238,128,0,52321:0:0:0:0:
448,192,52238,128,0,52321:0:0:0:0:
192,192,52300,128,0,52384:0:0:0:0:
64,192,52300,128,0,52446:0:0:0:0:
320,192,52363,128,0,52510:0:0:0:0:
448,192,52363,128,0,52446:0:0:0:0:
192,192,52426,128,0,52510:0:0:0:0:
64,192,52489,128,0,52572:0:0:0:0:
448,192,52489,128,0,52572:0:0:0:0:
192,192,52551,128,0,52635:0:0:0:0:
320,192,52551,128,0,52698:0:0:0:0:
448,192,52614,128,0,52698:0:0:0:0:
64,192,52614,128,0,52761:0:0:0:0:
192,192,52677,128,0,52761:0:0:0:0:
320,192,52740,128,0,52824:0:0:0:0:
448,192,52740,128,0,52824:0:0:0:0:
192,192,52802,128,0,52886:0:0:0:0:
64,192,52802,128,0,52886:0:0:0:0:
320,192,52866,128,0,52950:0:0:0:0:
448,192,52866,128,0,52950:0:0:0:0:
192,192,52928,128,0,53012:0:0:0:0:
64,192,52928,128,0,53075:0:0:0:0:
320,192,52991,128,0,53138:0:0:0:0:
448,192,52991,128,0,53075:0:0:0:0:
192,192,53054,128,0,53201:0:0:0:0:
64,192,53117,128,0,53201:0:0:0:0:
448,192,53117,128,0,53263:0:0:0:0:
320,192,53180,128,0,53326:0:0:0:0:
192,192,53242,128,0,53389:0:0:0:0:
64,192,53242,128,0,53326:0:0:0:0:
448,192,53306,128,0,53452:0:0:0:0:
320,192,53368,128,0,53452:0:0:0:0:
64,192,53368,128,0,53514:0:0:0:0:
192,192,53431,128,0,53578:0:0:0:0:
320,192,53494,128,0,53640:0:0:0:0:
448,192,53494,128,0,53578:0:0:0:0:
64,192,53557,128,0,53703:0:0:0:0:
192,192,53619,128,0,53766:0:0:0:0:
448,192,53619,128,0,53703:0:0:0:0:
320,192,53682,128,0,53766:0:0:0:0:
448,192,53745,128,0,53829:0:0:0:0:
64,192,53745,128,0,53829:0:0:0:0:
320,192,53808,128,0,53892:0:0:0:0:
192,192,53808,128,0,53892:0:0:0:0:
64,192,53870,128,0,53954:0:0:0:0:
448,192,53870,128,0,53954:0:0:0:0:
192,192,53934,128,0,54018:0:0:0:0:
320,192,53934,128,0,54080:0:0:0:0:
448,192,53996,128,0,54080:0:0:0:0:
64,192,53996,128,0,54143:0:0:0:0:
192,192,54059,128,0,54206:0:0:0:0:
320,192,54122,128,0,54269:0:0:0:0:
448,192,54122,128,0,54206:0:0:0:0:
64,192,54185,128,0,54331:0:0:0:0:
192,192,54248,128,0,54331:0:0:0:0:
448,192,54248,128,0,54394:0:0:0:0:
320,192,54310,128,0,54457:0:0:0:0:
192,192,54374,128,0,54457:0:0:0:0:
64,192,54374,128,0,54520:0:0:0:0:
448,192,54436,128,0,54582:0:0:0:0:
320,192,54499,128,0,54582:0:0:0:0:
192,192,54499,128,0,54646:0:0:0:0:
64,192,54562,128,0,54709:0:0:0:0:
320,192,54625,128,0,54709:0:0:0:0:
448,192,54625,128,0,54771:0:0:0:0:
192,192,54687,128,0,54834:0:0:0:0:
64,192,54750,128,0,54960:0:0:0:0:
320,192,54750,128,0,54897:0:0:0:0:
448,192,54813,128,0,54897:0:0:0:0:
192,192,54876,128,0,55022:0:0:0:0:
320,192,54939,128,0,55086:0:0:0:0:
448,192,54939,128,0,55148:0:0:0:0:
64,192,55002,128,0,55086:0:0:0:0:
192,192,55065,128,0,55211:0:0:0:0:
64,192,55127,128,0,55211:0:0:0:0:
320,192,55127,128,0,55274:0:0:0:0:
448,192,55190,128,0,55399:0:0:0:0:
64,192,55253,128,0,55399:0:0:0:0:
192,192,55253,128,0,55337:0:0:0:0:
320,192,55316,128,0,55462:0:0:0:0:
192,192,55378,128,0,55525:0:0:0:0:
64,192,55442,128,0,55588:0:0:0:0:
448,192,55442,128,0,55588:0:0:0:0:
320,192,55504,128,0,55651:0:0:0:0:
192,192,55567,128,0,55714:0:0:0:0:
64,192,55630,128,0,55714:0:0:0:0:
448,192,55630,128,0,55777:0:0:0:0:
320,192,55693,128,0,55902:0:0:0:0:
192,192,55755,128,0,55839:0:0:0:0:
64,192,55755,128,0,55902:0:0:0:0:
448,192,55818,128,0,55965:0:0:0:0:
192,192,55882,128,0,56090:0:0:0:0:
64,192,55944,128,0,56028:0:0:0:0:
320,192,55944,128,0,56154:0:0:0:0:
448,192,56007,128,0,56090:0:0:0:0:
64,192,56070,128,0,56216:0:0:0:0:
192,192,56133,128,0,56216:0:0:0:0:
448,192,56133,128,0,56279:0:0:0:0:
320,192,56195,128,0,56342:0:0:0:0:
192,192,56258,128,0,56405:0:0:0:0:
64,192,56258,128,0,56467:0:0:0:0:
448,192,56321,128,0,56467:0:0:0:0:
320,192,56384,128,0,56530:0:0:0:0:
192,192,56446,128,0,56594:0:0:0:0:
64,192,56510,128,0,56719:0:0:0:0:
448,192,56510,128,0,56719:0:0:0:0:
320,192,56572,128,0,56656:0:0:0:0:
192,192,56635,128,0,56782:0:0:0:0:
320,192,56698,128,0,56782:0:0:0:0:
448,192,56761,128,0,56845:0:0:0:0:
64,192,56761,128,0,56845:0:0:0:0:
320,192,56824,128,0,56907:0:0:0:0:
192,192,56824,128,0,56907:0:0:0:0:
64,192,56886,128,0,56970:0:0:0:0:
448,192,56886,128,0,56970:0:0:0:0:
320,192,56950,128,0,57033:0:0:0:0:
192,192,56950,128,0,57096:0:0:0:0:
64,192,57012,128,0,57096:0:0:0:0:
448,192,57012,128,0,57158:0:0:0:0:
320,192,57075,128,0,57222:0:0:0:0:
192,192,57138,128,0,57222:0:0:0:0:
64,192,57138,128,0,57284:0:0:0:0:
448,192,57201,128,0,57347:0:0:0:0:
320,192,57263,128,0,57347:0:0:0:0:
192,192,57263,128,0,57410:0:0:0:0:
64,192,57326,128,0,57473:0:0:0:0:
448,192,57389,128,0,57536:0:0:0:0:
320,192,57389,128,0,57473:0:0:0:0:
192,192,57452,128,0,57598:0:0:0:0:
64,192,57514,128,0,57598:0:0:0:0:
320,192,57514,128,0,57662:0:0:0:0:
448,192,57578,128,0,57787:0:0:0:0:
192,192,57640,128,0,57724:0:0:0:0:
64,192,57640,128,0,57724:0:0:0:0:
320,192,57703,128,0,57787:0:0:0:0:
192,192,57766,128,0,57850:0:0:0:0:
64,192,57766,128,0,57850:0:0:0:0:
448,192,57829,128,0,57913:0:0:0:0:
320,192,57829,128,0,57913:0:0:0:0:
64,192,57892,128,0,57975:0:0:0:0:
192,192,57892,128,0,57975:0:0:0:0:
320,192,57954,128,0,58038:0:0:0:0:
448,192,57954,128,0,58101:0:0:0:0:
192,192,58018,128,0,58164:0:0:0:0:
64,192,58018,128,0,58101:0:0:0:0:
320,192,58080,128,0,58226:0:0:0:0:
448,192,58143,128,0,58226:0:0:0:0:
64,192,58143,128,0,58290:0:0:0:0:
192,192,58206,128,0,58353:0:0:0:0:
320,192,58269,128,0,58415:0:0:0:0:
448,192,58269,128,0,58353:0:0:0:0:
64,192,58331,128,0,58478:0:0:0:0:
192,192,58394,128,0,58478:0:0:0:0:
448,192,58394,128,0,58604:0:0:0:0:
320,192,58457,128,0,58541:0:0:0:0:
192,192,58520,128,0,58604:0:0:0:0:
64,192,58520,128,0,58666:0:0:0:0:
320,192,58582,128,0,58730:0:0:0:0:
448,192,58646,128,0,58730:0:0:0:0:
192,192,58646,128,0,58792:0:0:0:0:
64,192,58709,128,0,58918:0:0:0:0:
320,192,58771,128,0,58855:0:0:0:0:
448,192,58771,128,0,58918:0:0:0:0:
192,192,58834,128,0,58981:0:0:0:0:
320,192,58897,128,0,59043:0:0:0:0:
448,192,58960,128,0,59169:0:0:0:0:
64,192,58960,128,0,59106:0:0:0:0:
192,192,59022,128,0,59106:0:0:0:0:
320,192,59086,128,0,59232:0:0:0:0:
192,192,59148,128,0,59295:0:0:0:0:
64,192,59148,128,0,59232:0:0:0:0:
448,192,59211,128,0,59421:0:0:0:0:
320,192,59274,128,0,59358:0:0:0:0:
64,192,59274,128,0,59421:0:0:0:0:
192,192,59337,128,0,59483:0:0:0:0:
320,192,59399,128,0,59546:0:0:0:0:
448,192,59462,128,0,59609:0:0:0:0:
64,192,59462,128,0,59609:0:0:0:0:
192,192,59525,128,0,59672:0:0:0:0:
320,192,59588,128,0,59734:0:0:0:0:
448,192,59651,128,0,59734:0:0:0:0:
64,192,59651,128,0,59798:0:0:0:0:
192,192,59714,128,0,59923:0:0:0:0:
320,192,59777,128,0,59923:0:0:0:0:
448,192,59777,128,0,59860:0:0:0:0:
64,192,59839,128,0,59986:0:0:0:0:
448,192,59902,128,0,60049:0:0:0:0:
320,192,59965,128,0,60174:0:0:0:0:
192,192,59965,128,0,60111:0:0:0:0:
64,192,60028,128,0,60111:0:0:0:0:
448,192,60090,128,0,60238:0:0:0:0:
64,192,60154,128,0,60300:0:0:0:0:
192,192,60154,128,0,60238:0:0:0:0:
320,192,60216,128,0,60363:0:0:0:0:
192,192,60279,128,0,60426:0:0:0:0:
448,192,60279,128,0,60489:0:0:0:0:
64,192,60342,128,0,60426:0:0:0:0:
320,192,60405,128,0,60551:0:0:0:0:
192,192,60467,128,0,60614:0:0:0:0:
64,192,60467,128,0,60614:0:0:0:0:
448,192,60530,128,0,60677:0:0:0:0:
320,192,60594,128,0,60802:0:0:0:0:
192,192,60656,128,0,60740:0:0:0:0:
64,192,60656,128,0,60740:0:0:0:0:
448,192,60719,128,0,60802:0:0:0:0:
192,192,60782,128,0,60866:0:0:0:0:
64,192,60782,128,0,60866:0:0:0:0:
320,192,60845,128,0,60928:0:0:0:0:
448,192,60845,128,0,60928:0:0:0:0:
192,192,60907,128,0,60991:0:0:0:0:
64,192,60907,128,0,60991:0:0:0:0:
320,192,60970,128,0,61117:0:0:0:0:
448,192,60970,128,0,61054:0:0:0:0:
192,192,61033,128,0,61180:0:0:0:0:
64,192,61033,128,0,61117:0:0:0:0:
448,192,61096,128,0,61242:0:0:0:0:
320,192,61158,128,0,61242:0:0:0:0:
64,192,61158,128,0,61306:0:0:0:0:
192,192,61222,128,0,61368:0:0:0:0:
320,192,61284,128,0,61431:0:0:0:0:
448,192,61284,128,0,61368:0:0:0:0:
64,192,61347,128,0,61494:0:0:0:0:
192,192,61410,128,0,61494:0:0:0:0:
448,192,61410,128,0,61557:0:0:0:0:
320,192,61473,128,0,61619:0:0:0:0:
64,192,61536,128,0,61619:0:0:0:0:
192,192,61536,128,0,61682:0:0:0:0:
448,192,61598,128,0,61745:0:0:0:0:
320,192,61662,128,0,61808:0:0:0:0:
64,192,61662,128,0,61745:0:0:0:0:
192,192,61724,128,0,61808:0:0:0:0:
64,192,61787,128,0,61870:0:0:0:0:
448,192,61787,128,0,61870:0:0:0:0:
320,192,61850,128,0,61934:0:0:0:0:
192,192,61850,128,0,61934:0:0:0:0:
64,192,61913,128,0,61996:0:0:0:0:
448,192,61913,128,0,61996:0:0:0:0:
320,192,61975,128,0,62122:0:0:0:0:
192,192,61975,128,0,62059:0:0:0:0:
448,192,62038,128,0,62122:0:0:0:0:
64,192,62038,128,0,62185:0:0:0:0:
192,192,62101,128,0,62248:0:0:0:0:
320,192,62164,128,0,62248:0:0:0:0:
448,192,62164,128,0,62310:0:0:0:0:
64,192,62226,128,0,62374:0:0:0:0:
320,192,62290,128,0,62436:0:0:0:0:
192,192,62290,128,0,62374:0:0:0:0:
448,192,62353,128,0,62499:0:0:0:0:
64,192,62415,128,0,62562:0:0:0:0:
192,192,62415,128,0,62499:0:0:0:0:
320,192,62478,128,0,62625:0:0:0:0:
448,192,62541,128,0,62625:0:0:0:0:
192,192,62541,128,0,62687:0:0:0:0:
64,192,62604,128,0,62750:0:0:0:0:
320,192,62666,128,0,62750:0:0:0:0:
448,192,62666,128,0,62813:0:0:0:0:
192,192,62730,128,0,62876:0:0:0:0:
320,192,62792,128,0,62939:0:0:0:0:
64,192,62792,128,0,63002:0:0:0:0:
448,192,62855,128,0,62939:0:0:0:0:
192,192,62918,128,0,63065:0:0:0:0:
320,192,62981,128,0,63127:0:0:0:0:
448,192,62981,128,0,63190:0:0:0:0:
64,192,63043,128,0,63127:0:0:0:0:
192,192,63106,128,0,63253:0:0:0:0:
320,192,63169,128,0,63316:0:0:0:0:
64,192,63169,128,0,63253:0:0:0:0:
448,192,63232,128,0,63378:0:0:0:0:
192,192,63295,128,0,63442:0:0:0:0:
64,192,63295,128,0,63442:0:0:0:0:
320,192,63358,128,0,63504:0:0:0:0:
448,192,63421,128,0,63693:0:0:0:0:
192,192,63483,128,0,63567:0:0:0:0:
64,192,63483,128,0,63630:0:0:0:0:
320,192,63546,128,0,63630:0:0:0:0:
192,192,63609,128,0,63755:0:0:0:0:
64,192,63672,128,0,63755:0:0:0:0:
320,192,63672,128,0,63882:0:0:0:0:
448,192,63734,128,0,64007:0:0:0:0:
192,192,63798,128,0,63944:0:0:0:0:
64,192,63798,128,0,64258:0:0:0:0:
320,192,63923,128,0,64195:0:0:0:0:
192,192,63986,128,0,64133:0:0:0:0:
448,192,64049,128,0,64384:0:0:0:0:
192,192,64174,128,0,64258:0:0:0:0:
320,192,64238,128,0,64384:0:0:0:0:
192,192,64300,128,0,64510:0:0:0:0:
64,192,64300,128,0,64761:0:0:0:0:
320,192,64426,128,0,64572:0:0:0:0:
448,192,64426,128,0,64761:0:0:0:0:
192,192,64551,128,0,64635:0:0:0:0:
320,192,64614,128,0,64698:0:0:0:0:
192,192,64677,128,0,64761:0:0:0:0:
320,192,64740,128,0,64824:0:0:0:0:
448,192,64802,128,0,64950:0:0:0:0:
192,192,64802,128,0,65012:0:0:0:0:
64,192,64802,128,0,64886:0:0:0:0:
320,192,64866,128,0,65075:0:0:0:0:
64,192,64928,128,0,65012:0:0:0:0:
448,192,64991,128,0,65138:0:0:0:0:
192,192,65054,128,0,65201:0:0:0:0:
64,192,65054,128,0,65263:0:0:0:0:
320,192,65117,128,0,65326:0:0:0:0:
448,192,65180,128,0,65263:0:0:0:0:
192,192,65242,128,0,65389:0:0:0:0:
64,192,65306,128,0,65514:0:0:0:0:
448,192,65306,128,0,65452:0:0:0:0:
320,192,65368,128,0,65578:0:0:0:0:
192,192,65431,128,0,65514:0:0:0:0:
448,192,65494,128,0,65640:0:0:0:0:
64,192,65557,128,0,65766:0:0:0:0:
192,192,65557,128,0,65703:0:0:0:0:
320,192,65619,128,0,65766:0:0:0:0:
448,192,65682,128,0,65829:0:0:0:0:
192,192,65745,128,0,65892:0:0:0:0:
320,192,65808,128,0,66018:0:0:0:0:
64,192,65808,128,0,65954:0:0:0:0:
448,192,65870,128,0,66018:0:0:0:0:
192,192,65934,128,0,66080:0:0:0:0:
64,192,65996,128,0,66269:0:0:0:0:
320,192,66059,128,0,66206:0:0:0:0:
448,192,66059,128,0,66143:0:0:0:0:
192,192,66122,128,0,66269:0:0:0:0:
448,192,66185,128,0,66520:0:0:0:0:
320,192,66248,128,0,66331:0:0:0:0:
192,192,66310,128,0,66457:0:0:0:0:
64,192,66310,128,0,66394:0:0:0:0:
320,192,66374,128,0,66520:0:0:0:0:
64,192,66436,128,0,66582:0:0:0:0:
192,192,66499,128,0,66709:0:0:0:0:
448,192,66562,128,0,66771:0:0:0:0:
320,192,66562,128,0,66646:0:0:0:0:
64,192,66625,128,0,66771:0:0:0:0:
320,192,66687,128,0,66834:0:0:0:0:
192,192,66750,128,0,66897:0:0:0:0:
448,192,66813,128,0,66960:0:0:0:0:
64,192,66813,128,0,67022:0:0:0:0:
320,192,66876,128,0,67022:0:0:0:0:
192,192,66939,128,0,67086:0:0:0:0:
448,192,67002,128,0,67148:0:0:0:0:
320,192,67065,128,0,67211:0:0:0:0:
64,192,67065,128,0,67274:0:0:0:0:
192,192,67127,128,0,67274:0:0:0:0:
448,192,67190,128,0,67337:0:0:0:0:
320,192,67253,128,0,67462:0:0:0:0:
192,192,67316,128,0,67399:0:0:0:0:
64,192,67316,128,0,67525:0:0:0:0:
448,192,67378,128,0,67588:0:0:0:0:
192,192,67442,128,0,67525:0:0:0:0:
320,192,67504,128,0,67651:0:0:0:0:
192,192,67567,128,0,67714:0:0:0:0:
64,192,67567,128,0,67777:0:0:0:0:
448,192,67630,128,0,67777:0:0:0:0:
320,192,67693,128,0,67839:0:0:0:0:
192,192,67755,128,0,68090:0:0:0:0:
64,192,67818,128,0,67902:0:0:0:0:
448,192,67818,128,0,67965:0:0:0:0:
320,192,67882,128,0,68028:0:0:0:0:
64,192,67944,128,0,68028:0:0:0:0:
448,192,68007,128,0,68342:0:0:0:0:
64,192,68070,128,0,68216:0:0:0:0:
320,192,68070,128,0,68154:0:0:0:0:
192,192,68133,128,0,68279:0:0:0:0:
320,192,68195,128,0,68279:0:0:0:0:
64,192,68258,128,0,68530:0:0:0:0:
192,192,68321,128,0,68405:0:0:0:0:
320,192,68321,128,0,68467:0:0:0:0:
448,192,68384,128,0,68594:0:0:0:0:
192,192,68446,128,0,68530:0:0:0:0:
320,192,68510,128,0,68656:0:0:0:0:
64,192,68572,128,0,68719:0:0:0:0:
192,192,68572,128,0,68782:0:0:0:0:
448,192,68635,128,0,68782:0:0:0:0:
320,192,68698,128,0,68782:0:0:0:0:
64,192,68761,128,0,68845:0:0:0:0:
192,192,68824,128,0,68970:0:0:0:0:
320,192,68824,128,0,68907:0:0:0:0:
448,192,68824,128,0,69033:0:0:0:0:
64,192,68886,128,0,69033:0:0:0:0:
320,192,68950,128,0,69222:0:0:0:0:
192,192,69012,128,0,69096:0:0:0:0:
448,192,69075,128,0,69158:0:0:0:0:
64,192,69075,128,0,69284:0:0:0:0:
192,192,69138,128,0,69284:0:0:0:0:
448,192,69201,128,0,69347:0:0:0:0:
320,192,69263,128,0,69410:0:0:0:0:
192,192,69326,128,0,69536:0:0:0:0:
64,192,69326,128,0,69473:0:0:0:0:
448,192,69389,128,0,69536:0:0:0:0:
320,192,69452,128,0,69598:0:0:0:0:
64,192,69514,128,0,69662:0:0:0:0:
192,192,69578,128,0,69724:0:0:0:0:
448,192,69578,128,0,69787:0:0:0:0:
320,192,69640,128,0,69787:0:0:0:0:
64,192,69703,128,0,70038:0:0:0:0:
192,192,69766,128,0,69850:0:0:0:0:
320,192,69829,128,0,69975:0:0:0:0:
448,192,69829,128,0,69913:0:0:0:0:
192,192,69892,128,0,70038:0:0:0:0:
448,192,69954,128,0,70101:0:0:0:0:
320,192,70018,128,0,70226:0:0:0:0:
192,192,70080,128,0,70290:0:0:0:0:
64,192,70080,128,0,70164:0:0:0:0:
448,192,70143,128,0,70290:0:0:0:0:
64,192,70206,128,0,70353:0:0:0:0:
320,192,70269,128,0,70415:0:0:0:0:
448,192,70331,128,0,70541:0:0:0:0:
192,192,70331,128,0,70478:0:0:0:0:
64,192,70394,128,0,70541:0:0:0:0:
320,192,70457,128,0,70604:0:0:0:0:
192,192,70520,128,0,70666:0:0:0:0:
64,192,70582,128,0,70792:0:0:0:0:
448,192,70582,128,0,70730:0:0:0:0:
320,192,70646,128,0,70792:0:0:0:0:
192,192,70709,128,0,70855:0:0:0:0:
448,192,70771,128,0,70918:0:0:0:0:
320,192,70834,128,0,71106:0:0:0:0:
64,192,70834,128,0,70981:0:0:0:0:
192,192,70897,128,0,71043:0:0:0:0:
448,192,70960,128,0,71043:0:0:0:0:
64,192,71022,128,0,71169:0:0:0:0:
448,192,71086,128,0,71295:0:0:0:0:
192,192,71086,128,0,71232:0:0:0:0:
320,192,71148,128,0,71295:0:0:0:0:
64,192,71211,128,0,71358:0:0:0:0:
192,192,71274,128,0,71483:0:0:0:0:
320,192,71337,128,0,71421:0:0:0:0:
448,192,71337,128,0,71546:0:0:0:0:
64,192,71399,128,0,71546:0:0:0:0:
320,192,71462,128,0,71609:0:0:0:0:
192,192,71525,128,0,71672:0:0:0:0:
448,192,71588,128,0,71734:0:0:0:0:
64,192,71588,128,0,71798:0:0:0:0:
320,192,71651,128,0,71860:0:0:0:0:
192,192,71714,128,0,71798:0:0:0:0:
448,192,71777,128,0,71923:0:0:0:0:
192,192,71839,128,0,71986:0:0:0:0:
64,192,71839,128,0,72049:0:0:0:0:
320,192,71902,128,0,72049:0:0:0:0:
448,192,71965,128,0,72111:0:0:0:0:
192,192,72028,128,0,72174:0:0:0:0:
64,192,72090,128,0,72300:0:0:0:0:
320,192,72090,128,0,72238:0:0:0:0:
448,192,72154,128,0,72300:0:0:0:0:
192,192,72216,128,0,72363:0:0:0:0:
320,192,72279,128,0,72426:0:0:0:0:
448,192,72342,128,0,72551:0:0:0:0:
64,192,72342,128,0,72489:0:0:0:0:
192,192,72405,128,0,72802:0:0:0:0:
320,192,72467,128,0,72551:0:0:0:0:
64,192,72530,128,0,72614:0:0:0:0:
320,192,72594,128,0,72677:0:0:0:0:
448,192,72594,128,0,72802:0:0:0:0:
64,192,72656,128,0,72740:0:0:0:0:
320,192,72719,128,0,72802:0:0:0:0:
64,192,72782,128,0,72866:0:0:0:0:
192,192,72845,128,0,72991:0:0:0:0:
320,192,72845,128,0,73054:0:0:0:0:
448,192,72845,128,0,72928:0:0:0:0:
64,192,72907,128,0,73054:0:0:0:0:
448,192,72970,128,0,73117:0:0:0:0:
192,192,73033,128,0,73180:0:0:0:0:
320,192,73096,128,0,73242:0:0:0:0:
64,192,73096,128,0,73306:0:0:0:0:
448,192,73158,128,0,73306:0:0:0:0:
192,192,73222,128,0,73368:0:0:0:0:
320,192,73284,128,0,73431:0:0:0:0:
448,192,73347,128,0,73557:0:0:0:0:
64,192,73347,128,0,73494:0:0:0:0:
192,192,73410,128,0,73557:0:0:0:0:
320,192,73473,128,0,73619:0:0:0:0:
64,192,73536,128,0,73808:0:0:0:0:
448,192,73598,128,0,73745:0:0:0:0:
192,192,73598,128,0,73682:0:0:0:0:
320,192,73662,128,0,73808:0:0:0:0:
192,192,73724,128,0,73870:0:0:0:0:
448,192,73787,128,0,73934:0:0:0:0:
320,192,73850,128,0,74059:0:0:0:0:
64,192,73850,128,0,74122:0:0:0:0:
192,192,73913,128,0,73996:0:0:0:0:
448,192,73975,128,0,74059:0:0:0:0:
192,192,74038,128,0,74185:0:0:0:0:
320,192,74101,128,0,74310:0:0:0:0:
448,192,74101,128,0,74248:0:0:0:0:
64,192,74164,128,0,74310:0:0:0:0:
192,192,74226,128,0,74374:0:0:0:0:
448,192,74290,128,0,74436:0:0:0:0:
320,192,74353,128,0,74562:0:0:0:0:
64,192,74353,128,0,74499:0:0:0:0:
192,192,74415,128,0,74562:0:0:0:0:
448,192,74478,128,0,74625:0:0:0:0:
64,192,74541,128,0,74687:0:0:0:0:
192,192,74604,128,0,74813:0:0:0:0:
320,192,74604,128,0,74750:0:0:0:0:
448,192,74666,128,0,74876:0:0:0:0:
64,192,74730,128,0,74813:0:0:0:0:
320,192,74792,128,0,74939:0:0:0:0:
192,192,74855,128,0,75002:0:0:0:0:
64,192,74855,128,0,75065:0:0:0:0:
448,192,74918,128,0,75065:0:0:0:0:
320,192,74981,128,0,75127:0:0:0:0:
192,192,75043,128,0,75253:0:0:0:0:
64,192,75106,128,0,75190:0:0:0:0:
448,192,75106,128,0,75316:0:0:0:0:
320,192,75169,128,0,75316:0:0:0:0:
64,192,75232,128,0,75504:0:0:0:0:
192,192,75295,128,0,75378:0:0:0:0:
320,192,75358,128,0,75442:0:0:0:0:
448,192,75358,128,0,75630:0:0:0:0:
192,192,75421,128,0,75567:0:0:0:0:
320,192,75483,128,0,75567:0:0:0:0:
64,192,75546,128,0,75818:0:0:0:0:
192,192,75609,128,0,75693:0:0:0:0:
320,192,75609,128,0,75755:0:0:0:0:
448,192,75672,128,0,75818:0:0:0:0:
192,192,75734,128,0,75882:0:0:0:0:
320,192,75798,128,0,75944:0:0:0:0:
64,192,75860,128,0,76070:0:0:0:0:
448,192,75860,128,0,76070:0:0:0:0:
192,192,75923,128,0,76007:0:0:0:0:
320,192,75986,128,0,76133:0:0:0:0:
192,192,76049,128,0,76195:0:0:0:0:
448,192,76111,128,0,76258:0:0:0:0:
64,192,76111,128,0,76321:0:0:0:0:
320,192,76174,128,0,76321:0:0:0:0:
192,192,76238,128,0,76384:0:0:0:0:
448,192,76300,128,0,76446:0:0:0:0:
64,192,76363,128,0,76510:0:0:0:0:
320,192,76363,128,0,76572:0:0:0:0:
192,192,76426,128,0,76572:0:0:0:0:
448,192,76489,128,0,76635:0:0:0:0:
64,192,76551,128,0,76698:0:0:0:0:
192,192,76614,128,0,76824:0:0:0:0:
320,192,76614,128,0,76824:0:0:0:0:
448,192,76677,128,0,76761:0:0:0:0:
64,192,76740,128,0,76824:0:0:0:0:
448,192,76802,128,0,76886:0:0:0:0:
320,192,76866,128,0,77012:0:0:0:0:
192,192,76866,128,0,76950:0:0:0:0:
64,192,76866,128,0,77075:0:0:0:0:
448,192,76928,128,0,77075:0:0:0:0:
192,192,76991,128,0,77138:0:0:0:0:
320,192,77054,128,0,77201:0:0:0:0:
448,192,77117,128,0,77326:0:0:0:0:
64,192,77117,128,0,77263:0:0:0:0:
192,192,77180,128,0,77326:0:0:0:0:
320,192,77242,128,0,77389:0:0:0:0:
64,192,77306,128,0,77452:0:0:0:0:
192,192,77368,128,0,77578:0:0:0:0:
448,192,77368,128,0,77578:0:0:0:0:
320,192,77431,128,0,77514:0:0:0:0:
64,192,77494,128,0,77640:0:0:0:0:
320,192,77557,128,0,77703:0:0:0:0:
192,192,77619,128,0,77766:0:0:0:0:
448,192,77619,128,0,77892:0:0:0:0:
64,192,77682,128,0,77829:0:0:0:0:
320,192,77745,128,0,77829:0:0:0:0:
192,192,77808,128,0,77954:0:0:0:0:
320,192,77870,128,0,78018:0:0:0:0:
64,192,77870,128,0,78080:0:0:0:0:
448,192,77934,128,0,78143:0:0:0:0:
192,192,77996,128,0,78080:0:0:0:0:
320,192,78059,128,0,78269:0:0:0:0:
64,192,78122,128,0,78331:0:0:0:0:
192,192,78122,128,0,78206:0:0:0:0:
448,192,78185,128,0,78331:0:0:0:0:
192,192,78248,128,0,78394:0:0:0:0:
320,192,78310,128,0,78457:0:0:0:0:
448,192,78374,128,0,78582:0:0:0:0:
64,192,78374,128,0,78520:0:0:0:0:
192,192,78436,128,0,78582:0:0:0:0:
320,192,78499,128,0,78646:0:0:0:0:
64,192,78562,128,0,78834:0:0:0:0:
192,192,78625,128,0,78709:0:0:0:0:
448,192,78625,128,0,78771:0:0:0:0:
320,192,78687,128,0,78897:0:0:0:0:
192,192,78750,128,0,78834:0:0:0:0:
448,192,78813,128,0,79086:0:0:0:0:
64,192,78876,128,0,78960:0:0:0:0:
192,192,78876,128,0,79022:0:0:0:0:
320,192,78939,128,0,79086:0:0:0:0:
64,192,79002,128,0,79211:0:0:0:0:
192,192,79065,128,0,79148:0:0:0:0:
320,192,79127,128,0,79274:0:0:0:0:
448,192,79127,128,0,79337:0:0:0:0:
192,192,79190,128,0,79337:0:0:0:0:
64,192,79253,128,0,79399:0:0:0:0:
320,192,79316,128,0,79462:0:0:0:0:
448,192,79378,128,0,79651:0:0:0:0:
192,192,79378,128,0,79525:0:0:0:0:
64,192,79442,128,0,79588:0:0:0:0:
320,192,79504,128,0,79588:0:0:0:0:
192,192,79567,128,0,79714:0:0:0:0:
64,192,79630,128,0,79839:0:0:0:0:
320,192,79630,128,0,79777:0:0:0:0:
448,192,79693,128,0,79839:0:0:0:0:
192,192,79755,128,0,80028:0:0:0:0:
320,192,79818,128,0,79965:0:0:0:0:
64,192,79882,128,0,80090:0:0:0:0:
448,192,79882,128,0,80279:0:0:0:0:
320,192,80007,128,0,80154:0:0:0:0:
192,192,80070,128,0,80216:0:0:0:0:
64,192,80133,128,0,80216:0:0:0:0:
320,192,80195,128,0,80405:0:0:0:0:
192,192,80258,128,0,80342:0:0:0:0:
64,192,80258,128,0,80342:0:0:0:0:
448,192,80321,128,0,80405:0:0:0:0:
64,192,80384,128,0,80467:0:0:0:0:
192,192,80384,128,0,80489:0:0:0:0:
320,192,80446,128,0,80530:0:0:0:0:
448,192,80446,128,0,80551:0:0:0:0:
64,192,80510,128,0,80594:0:0:0:0:
192,192,80530,128,0,80656:0:0:0:0:
320,192,80572,128,0,80782:0:0:0:0:
448,192,80594,128,0,80719:0:0:0:0:
64,192,80635,128,0,80845:0:0:0:0:
192,192,80698,128,0,80845:0:0:0:0:
448,192,80761,128,0,82855:0:0:0:0:
320,192,80824,128,0,81850:0:0:0:0:
192,192,80886,128,0,81850:0:0:0:0:
64,192,80886,128,0,81598:0:0:0:0:
64,192,81640,128,0,83860:0:0:0:0:
192,192,81892,128,0,83609:0:0:0:0:
320,192,81892,128,0,82855:0:0:0:0:
320,192,82897,128,0,83860:0:0:0:0:
448,192,82897,128,0,84614:0:0:0:0:
192,192,83651,128,0,84363:0:0:0:0:
320,192,83902,128,0,84489:0:0:0:0:
64,192,83902,128,0,84866:0:0:0:0:
192,192,84405,128,0,84740:0:0:0:0:
320,192,84530,128,0,84866:0:0:0:0:
448,192,84656,128,0,85870:0:0:0:0:
192,192,84782,128,0,86876:0:0:0:0:
320,192,84907,128,0,85619:0:0:0:0:
64,192,84907,128,0,85870:0:0:0:0:
320,192,85662,128,0,87127:0:0:0:0:
448,192,85913,128,0,86374:0:0:0:0:
64,192,85913,128,0,86876:0:0:0:0:
448,192,86415,128,0,87378:0:0:0:0:
192,192,86918,128,0,87630:0:0:0:0:
64,192,86918,128,0,87882:0:0:0:0:
320,192,87169,128,0,87882:0:0:0:0:
448,192,87421,128,0,88384:0:0:0:0:
192,192,87672,128,0,88698:0:0:0:0:
64,192,87923,128,0,88446:0:0:0:0:
320,192,87923,128,0,88635:0:0:0:0:
448,192,88426,128,0,88510:0:0:0:0:
64,192,88489,128,0,88572:0:0:0:0:
448,192,88551,128,0,88886:0:0:0:0:
64,192,88614,128,0,88886:0:0:0:0:
320,192,88677,128,0,88761:0:0:0:0:
192,192,88740,128,0,88824:0:0:0:0:
320,192,88802,128,0,88886:0:0:0:0:
192,192,88866,128,0,89892:0:0:0:0:
320,192,88928,128,0,89138:0:0:0:0:
448,192,88928,128,0,89892:0:0:0:0:
64,192,88928,128,0,89138:0:0:0:0:
320,192,89180,128,0,89389:0:0:0:0:
64,192,89180,128,0,89389:0:0:0:0:
320,192,89431,128,0,89640:0:0:0:0:
64,192,89431,128,0,89640:0:0:0:0:
320,192,89682,128,0,91902:0:0:0:0:
64,192,89682,128,0,89892:0:0:0:0:
448,192,89934,128,0,90143:0:0:0:0:
192,192,89934,128,0,90143:0:0:0:0:
64,192,89934,128,0,90897:0:0:0:0:
192,192,90185,128,0,90394:0:0:0:0:
448,192,90185,128,0,90394:0:0:0:0:
448,192,90436,128,0,90646:0:0:0:0:
192,192,90436,128,0,90646:0:0:0:0:
448,192,90687,128,0,90897:0:0:0:0:
192,192,90687,128,0,90897:0:0:0:0:
448,192,90939,128,0,91902:0:0:0:0:
192,192,90939,128,0,91148:0:0:0:0:
64,192,90939,128,0,91148:0:0:0:0:
64,192,91190,128,0,91399:0:0:0:0:
192,192,91190,128,0,91399:0:0:0:0:
192,192,91442,128,0,91651:0:0:0:0:
64,192,91442,128,0,91651:0:0:0:0:
64,192,91693,128,0,91902:0:0:0:0:
192,192,91693,128,0,92530:0:0:0:0:
320,192,91944,128,0,92154:0:0:0:0:
448,192,91944,128,0,92154:0:0:0:0:
64,192,91944,128,0,92656:0:0:0:0:
320,192,92195,128,0,92405:0:0:0:0:
448,192,92195,128,0,92405:0:0:0:0:
448,192,92446,128,0,92656:0:0:0:0:
320,192,92446,128,0,92782:0:0:0:0:
192,192,92572,128,0,92845:0:0:0:0:
448,192,92698,128,0,92907:0:0:0:0:
64,192,92698,128,0,92907:0:0:0:0:
320,192,92824,128,0,92970:0:0:0:0:
192,192,92886,128,0,93033:0:0:0:0:
448,192,92950,128,0,93158:0:0:0:0:
64,192,92950,128,0,93096:0:0:0:0:
320,192,93012,128,0,93158:0:0:0:0:
192,192,93075,128,0,93201:0:0:0:0:
64,192,93138,128,0,93284:0:0:0:0:
320,192,93201,128,0,93347:0:0:0:0:
448,192,93201,128,0,93410:0:0:0:0:
192,192,93242,128,0,93410:0:0:0:0:
64,192,93326,128,0,93473:0:0:0:0:
320,192,93389,128,0,93536:0:0:0:0:
448,192,93452,128,0,93662:0:0:0:0:
192,192,93452,128,0,93598:0:0:0:0:
64,192,93514,128,0,93662:0:0:0:0:
320,192,93578,128,0,93724:0:0:0:0:
192,192,93640,128,0,93787:0:0:0:0:
448,192,93703,128,0,93850:0:0:0:0:
64,192,93703,128,0,93913:0:0:0:0:
320,192,93766,128,0,93975:0:0:0:0:
192,192,93829,128,0,93913:0:0:0:0:
448,192,93892,128,0,94038:0:0:0:0:
64,192,93954,128,0,94164:0:0:0:0:
192,192,93954,128,0,94101:0:0:0:0:
320,192,94018,128,0,94164:0:0:0:0:
448,192,94080,128,0,94226:0:0:0:0:
192,192,94143,128,0,94290:0:0:0:0:
320,192,94206,128,0,94353:0:0:0:0:
64,192,94206,128,0,94415:0:0:0:0:
448,192,94269,128,0,94415:0:0:0:0:
192,192,94331,128,0,94478:0:0:0:0:
320,192,94394,128,0,94541:0:0:0:0:
64,192,94457,128,0,94666:0:0:0:0:
448,192,94457,128,0,94604:0:0:0:0:
192,192,94520,128,0,94666:0:0:0:0:
320,192,94582,128,0,94730:0:0:0:0:
448,192,94646,128,0,94792:0:0:0:0:
192,192,94709,128,0,94981:0:0:0:0:
64,192,94709,128,0,94855:0:0:0:0:
320,192,94771,128,0,94918:0:0:0:0:
448,192,94834,128,0,94918:0:0:0:0:
64,192,94897,128,0,95043:0:0:0:0:
320,192,94960,128,0,95043:0:0:0:0:
448,192,94960,128,0,95106:0:0:0:0:
192,192,95022,128,0,95169:0:0:0:0:
64,192,95086,128,0,95169:0:0:0:0:
320,192,95086,128,0,95232:0:0:0:0:
448,192,95148,128,0,95295:0:0:0:0:
192,192,95211,128,0,95295:0:0:0:0:
64,192,95211,128,0,95358:0:0:0:0:
320,192,95274,128,0,95421:0:0:0:0:
448,192,95337,128,0,95421:0:0:0:0:
192,192,95337,128,0,95483:0:0:0:0:
64,192,95399,128,0,95483:0:0:0:0:
320,192,95462,128,0,95546:0:0:0:0:
448,192,95462,128,0,95546:0:0:0:0:
192,192,95525,128,0,95609:0:0:0:0:
64,192,95525,128,0,95609:0:0:0:0:
320,192,95588,128,0,95672:0:0:0:0:
448,192,95588,128,0,95672:0:0:0:0:
192,192,95651,128,0,95734:0:0:0:0:
64,192,95651,128,0,95734:0:0:0:0:
320,192,95714,128,0,95798:0:0:0:0:
448,192,95714,128,0,95798:0:0:0:0:
192,192,95777,128,0,95860:0:0:0:0:
64,192,95777,128,0,95860:0:0:0:0:
320,192,95839,128,0,95923:0:0:0:0:
448,192,95839,128,0,95923:0:0:0:0:
192,192,95902,128,0,96174:0:0:0:0:
64,192,95902,128,0,96174:0:0:0:0:
320,192,95965,128,0,96426:0:0:0:0:
448,192,95965,128,0,96174:0:0:0:0:
448,192,96216,128,0,96426:0:0:0:0:
192,192,96216,128,0,96677:0:0:0:0:
64,192,96216,128,0,96677:0:0:0:0:
320,192,96467,128,0,96551:0:0:0:0:
448,192,96467,128,0,96551:0:0:0:0:
320,192,96594,128,0,96677:0:0:0:0:
448,192,96594,128,0,96677:0:0:0:0:
64,192,96719,128,0,96928:0:0:0:0:
192,192,96719,128,0,96928:0:0:0:0:
320,192,96719,128,0,97180:0:0:0:0:
448,192,96719,128,0,96928:0:0:0:0:
64,192,96970,128,0,97054:0:0:0:0:
192,192,96970,128,0,97054:0:0:0:0:
448,192,96970,128,0,97054:0:0:0:0:
448,192,97096,128,0,97242:0:0:0:0:
192,192,97096,128,0,97306:0:0:0:0:
64,192,97096,128,0,97431:0:0:0:0:
320,192,97222,128,0,97368:0:0:0:0:
448,192,97284,128,0,97431:0:0:0:0:
192,192,97347,128,0,97787:0:0:0:0:
320,192,97410,128,0,97619:0:0:0:0:
448,192,97473,128,0,97787:0:0:0:0:
64,192,97473,128,0,97578:0:0:0:0:
64,192,97619,128,0,97934:0:0:0:0:
320,192,97662,128,0,97934:0:0:0:0:
192,192,97829,128,0,98185:0:0:0:0:
448,192,97829,128,0,97934:0:0:0:0:
64,192,97975,128,0,98059:0:0:0:0:
320,192,97975,128,0,98059:0:0:0:0:
448,192,97975,128,0,98059:0:0:0:0:
320,192,98101,128,0,98310:0:0:0:0:
448,192,98101,128,0,98436:0:0:0:0:
64,192,98101,128,0,98248:0:0:0:0:
192,192,98226,128,0,98374:0:0:0:0:
64,192,98290,128,0,98436:0:0:0:0:
320,192,98353,128,0,98771:0:0:0:0:
192,192,98415,128,0,98604:0:0:0:0:
448,192,98478,128,0,98604:0:0:0:0:
64,192,98478,128,0,98792:0:0:0:0:
192,192,98646,128,0,98939:0:0:0:0:
448,192,98646,128,0,98939:0:0:0:0:
320,192,98813,128,0,98939:0:0:0:0:
64,192,98834,128,0,99190:0:0:0:0:
192,192,98981,128,0,99065:0:0:0:0:
320,192,98981,128,0,99065:0:0:0:0:
448,192,98981,128,0,99065:0:0:0:0:
192,192,99106,128,0,99253:0:0:0:0:
320,192,99106,128,0,99316:0:0:0:0:
448,192,99106,128,0,99378:0:0:0:0:
64,192,99232,128,0,99442:0:0:0:0:
192,192,99295,128,0,99442:0:0:0:0:
320,192,99358,128,0,99630:0:0:0:0:
448,192,99421,128,0,99798:0:0:0:0:
64,192,99483,128,0,99588:0:0:0:0:
192,192,99483,128,0,99777:0:0:0:0:
64,192,99630,128,0,99944:0:0:0:0:
320,192,99672,128,0,99944:0:0:0:0:
192,192,99818,128,0,99944:0:0:0:0:
448,192,99839,128,0,100111:0:0:0:0:
320,192,99986,128,0,100300:0:0:0:0:
192,192,99986,128,0,100111:0:0:0:0:
64,192,99986,128,0,100111:0:0:0:0:
448,192,100154,128,0,100300:0:0:0:0:
192,192,100154,128,0,100300:0:0:0:0:
64,192,100154,128,0,100446:0:0:0:0:
192,192,100342,128,0,100614:0:0:0:0:
320,192,100342,128,0,100446:0:0:0:0:
448,192,100342,128,0,100446:0:0:0:0:
320,192,100489,128,0,100614:0:0:0:0:
448,192,100489,128,0,100614:0:0:0:0:
64,192,100489,128,0,100802:0:0:0:0:
192,192,100656,128,0,100802:0:0:0:0:
448,192,100656,128,0,100802:0:0:0:0:
320,192,100656,128,0,100950:0:0:0:0:
448,192,100845,128,0,101201:0:0:0:0:
192,192,100845,128,0,100950:0:0:0:0:
64,192,100845,128,0,100950:0:0:0:0:
320,192,100991,128,0,101075:0:0:0:0:
192,192,100991,128,0,101075:0:0:0:0:
64,192,100991,128,0,101075:0:0:0:0:
320,192,101117,128,0,101263:0:0:0:0:
192,192,101117,128,0,101326:0:0:0:0:
64,192,101117,128,0,101389:0:0:0:0:
448,192,101242,128,0,101452:0:0:0:0:
320,192,101306,128,0,101452:0:0:0:0:
192,192,101368,128,0,101808:0:0:0:0:
64,192,101431,128,0,101619:0:0:0:0:
320,192,101494,128,0,101808:0:0:0:0:
448,192,101494,128,0,101619:0:0:0:0:
448,192,101662,128,0,101954:0:0:0:0:
64,192,101662,128,0,101954:0:0:0:0:
320,192,101850,128,0,101954:0:0:0:0:
192,192,101850,128,0,102206:0:0:0:0:
320,192,101996,128,0,102080:0:0:0:0:
448,192,101996,128,0,102080:0:0:0:0:
64,192,101996,128,0,102080:0:0:0:0:
320,192,102122,128,0,102331:0:0:0:0:
448,192,102122,128,0,102457:0:0:0:0:
64,192,102122,128,0,102269:0:0:0:0:
192,192,102248,128,0,102394:0:0:0:0:
64,192,102310,128,0,102457:0:0:0:0:
320,192,102374,128,0,102813:0:0:0:0:
192,192,102436,128,0,102625:0:0:0:0:
448,192,102499,128,0,102625:0:0:0:0:
64,192,102499,128,0,102813:0:0:0:0:
448,192,102666,128,0,102960:0:0:0:0:
192,192,102666,128,0,102960:0:0:0:0:
64,192,102855,128,0,102960:0:0:0:0:
320,192,102855,128,0,103211:0:0:0:0:
448,192,103002,128,0,103086:0:0:0:0:
192,192,103002,128,0,103086:0:0:0:0:
64,192,103002,128,0,103086:0:0:0:0:
448,192,103127,128,0,103274:0:0:0:0:
192,192,103127,128,0,103337:0:0:0:0:
64,192,103127,128,0,103462:0:0:0:0:
320,192,103253,128,0,103399:0:0:0:0:
448,192,103316,128,0,103462:0:0:0:0:
192,192,103378,128,0,103818:0:0:0:0:
320,192,103442,128,0,103630:0:0:0:0:
448,192,103504,128,0,103818:0:0:0:0:
64,192,103504,128,0,103630:0:0:0:0:
320,192,103672,128,0,103965:0:0:0:0:
64,192,103672,128,0,103965:0:0:0:0:
448,192,103860,128,0,103965:0:0:0:0:
192,192,103860,128,0,104133:0:0:0:0:
64,192,104007,128,0,104133:0:0:0:0:
320,192,104007,128,0,104133:0:0:0:0:
448,192,104007,128,0,104321:0:0:0:0:
320,192,104174,128,0,104321:0:0:0:0:
64,192,104174,128,0,104321:0:0:0:0:
192,192,104174,128,0,104467:0:0:0:0:
320,192,104363,128,0,104467:0:0:0:0:
448,192,104363,128,0,104467:0:0:0:0:
64,192,104363,128,0,104635:0:0:0:0:
448,192,104510,128,0,104635:0:0:0:0:
320,192,104510,128,0,104824:0:0:0:0:
192,192,104510,128,0,104635:0:0:0:0:
64,192,104677,128,0,104970:0:0:0:0:
192,192,104677,128,0,104824:0:0:0:0:
448,192,104677,128,0,104824:0:0:0:0:
320,192,104866,128,0,105787:0:0:0:0:
192,192,104866,128,0,104970:0:0:0:0:
448,192,104866,128,0,104970:0:0:0:0:
192,192,105012,128,0,105222:0:0:0:0:
64,192,105012,128,0,105222:0:0:0:0:
448,192,105012,128,0,105222:0:0:0:0:
448,192,105263,128,0,105724:0:0:0:0:
192,192,105263,128,0,105850:0:0:0:0:
64,192,105263,128,0,105913:0:0:0:0:
448,192,105766,128,0,105975:0:0:0:0:
320,192,105829,128,0,105975:0:0:0:0:
192,192,105892,128,0,105975:0:0:0:0:
64,192,105954,128,0,106730:0:0:0:0:
192,192,106018,128,0,106226:0:0:0:0:
320,192,106018,128,0,106226:0:0:0:0:
448,192,106018,128,0,106226:0:0:0:0:
448,192,106269,128,0,106918:0:0:0:0:
320,192,106269,128,0,106855:0:0:0:0:
192,192,106269,128,0,106792:0:0:0:0:
64,192,106771,128,0,106981:0:0:0:0:
192,192,106834,128,0,106981:0:0:0:0:
320,192,106897,128,0,106981:0:0:0:0:
448,192,106960,128,0,107734:0:0:0:0:
320,192,107022,128,0,107232:0:0:0:0:
192,192,107022,128,0,107232:0:0:0:0:
64,192,107022,128,0,107232:0:0:0:0:
64,192,107274,128,0,107798:0:0:0:0:
192,192,107274,128,0,107860:0:0:0:0:
320,192,107274,128,0,107923:0:0:0:0:
448,192,107777,128,0,107986:0:0:0:0:
64,192,107839,128,0,107986:0:0:0:0:
192,192,107902,128,0,107986:0:0:0:0:
320,192,107965,128,0,108154:0:0:0:0:
448,192,108028,128,0,108154:0:0:0:0:
192,192,108028,128,0,108342:0:0:0:0:
64,192,108028,128,0,108154:0:0:0:0:
320,192,108195,128,0,108342:0:0:0:0:
448,192,108195,128,0,108489:0:0:0:0:
64,192,108195,128,0,108342:0:0:0:0:
192,192,108384,128,0,108489:0:0:0:0:
320,192,108384,128,0,108489:0:0:0:0:
64,192,108384,128,0,108656:0:0:0:0:
192,192,108530,128,0,108656:0:0:0:0:
448,192,108530,128,0,108656:0:0:0:0:
320,192,108530,128,0,108845:0:0:0:0:
64,192,108698,128,0,108845:0:0:0:0:
192,192,108698,128,0,108991:0:0:0:0:
448,192,108698,128,0,108845:0:0:0:0:
64,192,108886,128,0,108991:0:0:0:0:
320,192,108886,128,0,108991:0:0:0:0:
448,192,108886,128,0,109745:0:0:0:0:
320,192,109033,128,0,109242:0:0:0:0:
192,192,109033,128,0,109242:0:0:0:0:
64,192,109033,128,0,109242:0:0:0:0:
64,192,109284,128,0,109808:0:0:0:0:
192,192,109284,128,0,109870:0:0:0:0:
320,192,109284,128,0,109934:0:0:0:0:
448,192,109787,128,0,109996:0:0:0:0:
64,192,109850,128,0,109996:0:0:0:0:
192,192,109913,128,0,109996:0:0:0:0:
320,192,109975,128,0,110876:0:0:0:0:
448,192,110038,128,0,110248:0:0:0:0:
192,192,110038,128,0,110248:0:0:0:0:
64,192,110038,128,0,110248:0:0:0:0:
448,192,110290,128,0,110813:0:0:0:0:
192,192,110290,128,0,110939:0:0:0:0:
64,192,110290,128,0,110750:0:0:0:0:
64,192,110792,128,0,111002:0:0:0:0:
448,192,110855,128,0,111002:0:0:0:0:
320,192,110918,128,0,111002:0:0:0:0:
192,192,110981,128,0,111504:0:0:0:0:
320,192,111043,128,0,111253:0:0:0:0:
448,192,111043,128,0,111253:0:0:0:0:
64,192,111043,128,0,111253:0:0:0:0:
320,192,111295,128,0,111504:0:0:0:0:
448,192,111295,128,0,111672:0:0:0:0:
64,192,111295,128,0,111504:0:0:0:0:
64,192,111546,128,0,111860:0:0:0:0:
192,192,111546,128,0,111672:0:0:0:0:
320,192,111546,128,0,111672:0:0:0:0:
448,192,111714,128,0,111860:0:0:0:0:
192,192,111714,128,0,111860:0:0:0:0:
320,192,111714,128,0,112007:0:0:0:0:
192,192,111902,128,0,112174:0:0:0:0:
448,192,111902,128,0,112007:0:0:0:0:
64,192,111902,128,0,112007:0:0:0:0:
64,192,112049,128,0,112174:0:0:0:0:
320,192,112049,128,0,112174:0:0:0:0:
448,192,112049,128,0,112363:0:0:0:0:
320,192,112216,128,0,112363:0:0:0:0:
192,192,112216,128,0,112363:0:0:0:0:
64,192,112216,128,0,112510:0:0:0:0:
192,192,112405,128,0,112510:0:0:0:0:
320,192,112405,128,0,112677:0:0:0:0:
448,192,112405,128,0,112510:0:0:0:0:
448,192,112551,128,0,112677:0:0:0:0:
192,192,112551,128,0,112677:0:0:0:0:
64,192,112551,128,0,112866:0:0:0:0:
192,192,112719,128,0,112866:0:0:0:0:
320,192,112719,128,0,112866:0:0:0:0:
448,192,112719,128,0,113012:0:0:0:0:
64,192,112907,128,0,113012:0:0:0:0:
192,192,112907,128,0,113263:0:0:0:0:
320,192,112907,128,0,113012:0:0:0:0:
64,192,113054,128,0,113263:0:0:0:0:
320,192,113054,128,0,113829:0:0:0:0:
448,192,113054,128,0,113263:0:0:0:0:
192,192,113306,128,0,113514:0:0:0:0:
64,192,113306,128,0,113514:0:0:0:0:
448,192,113306,128,0,113892:0:0:0:0:
192,192,113557,128,0,113766:0:0:0:0:
64,192,113557,128,0,113766:0:0:0:0:
64,192,113808,128,0,114018:0:0:0:0:
192,192,113808,128,0,113954:0:0:0:0:
320,192,113870,128,0,114018:0:0:0:0:
448,192,113934,128,0,114018:0:0:0:0:
192,192,113996,128,0,114834:0:0:0:0:
320,192,114059,128,0,114269:0:0:0:0:
448,192,114059,128,0,114269:0:0:0:0:
64,192,114059,128,0,114269:0:0:0:0:
320,192,114310,128,0,114520:0:0:0:0:
448,192,114310,128,0,114520:0:0:0:0:
64,192,114310,128,0,114897:0:0:0:0:
320,192,114562,128,0,114771:0:0:0:0:
448,192,114562,128,0,114771:0:0:0:0:
448,192,114813,128,0,115022:0:0:0:0:
320,192,114813,128,0,114960:0:0:0:0:
192,192,114876,128,0,115022:0:0:0:0:
64,192,114939,128,0,115022:0:0:0:0:
320,192,115002,128,0,115839:0:0:0:0:
448,192,115065,128,0,115274:0:0:0:0:
192,192,115065,128,0,115274:0:0:0:0:
64,192,115065,128,0,115274:0:0:0:0:
64,192,115316,128,0,115902:0:0:0:0:
192,192,115316,128,0,115525:0:0:0:0:
448,192,115316,128,0,115525:0:0:0:0:
448,192,115567,128,0,115777:0:0:0:0:
192,192,115567,128,0,115777:0:0:0:0:
192,192,115818,128,0,115965:0:0:0:0:
448,192,115818,128,0,116028:0:0:0:0:
320,192,115882,128,0,116028:0:0:0:0:
64,192,115944,128,0,116028:0:0:0:0:
192,192,116007,128,0,116195:0:0:0:0:
320,192,116070,128,0,116279:0:0:0:0:
448,192,116070,128,0,116384:0:0:0:0:
64,192,116070,128,0,116279:0:0:0:0:
192,192,116238,128,0,116530:0:0:0:0:
320,192,116321,128,0,116698:0:0:0:0:
64,192,116321,128,0,116530:0:0:0:0:
448,192,116426,128,0,116782:0:0:0:0:
192,192,116572,128,0,116886:0:0:0:0:
64,192,116572,128,0,116782:0:0:0:0:
320,192,116740,128,0,117033:0:0:0:0:
448,192,116824,128,0,117033:0:0:0:0:
64,192,116824,128,0,117033:0:0:0:0:
192,192,116928,128,0,117096:0:0:0:0:
448,192,117075,128,0,117158:0:0:0:0:
320,192,117075,128,0,117222:0:0:0:0:
64,192,117075,128,0,117284:0:0:0:0:
192,192,117138,128,0,117284:0:0:0:0:
448,192,117201,128,0,117284:0:0:0:0:
320,192,117263,128,0,117347:0:0:0:0:
448,192,117326,128,0,117536:0:0:0:0:
192,192,117326,128,0,117410:0:0:0:0:
64,192,117326,128,0,117473:0:0:0:0:
320,192,117389,128,0,117536:0:0:0:0:
192,192,117452,128,0,117598:0:0:0:0:
64,192,117514,128,0,117662:0:0:0:0:
320,192,117578,128,0,117724:0:0:0:0:
448,192,117578,128,0,117787:0:0:0:0:
192,192,117640,128,0,117787:0:0:0:0:
64,192,117703,128,0,117850:0:0:0:0:
320,192,117766,128,0,117913:0:0:0:0:
448,192,117829,128,0,118038:0:0:0:0:
192,192,117829,128,0,117975:0:0:0:0:
64,192,117892,128,0,118038:0:0:0:0:
320,192,117954,128,0,118038:0:0:0:0:
192,192,118018,128,0,118101:0:0:0:0:
320,192,118080,128,0,118226:0:0:0:0:
448,192,118080,128,0,118290:0:0:0:0:
64,192,118080,128,0,118164:0:0:0:0:
192,192,118143,128,0,118290:0:0:0:0:
64,192,118206,128,0,118290:0:0:0:0:
320,192,118269,128,0,118353:0:0:0:0:
448,192,118331,128,0,118415:0:0:0:0:
192,192,118331,128,0,118478:0:0:0:0:
64,192,118331,128,0,118541:0:0:0:0:
320,192,118394,128,0,118541:0:0:0:0:
448,192,118457,128,0,118604:0:0:0:0:
192,192,118520,128,0,118666:0:0:0:0:
320,192,118582,128,0,118730:0:0:0:0:
64,192,118582,128,0,118792:0:0:0:0:
448,192,118646,128,0,118792:0:0:0:0:
192,192,118709,128,0,118855:0:0:0:0:
320,192,118771,128,0,118918:0:0:0:0:
448,192,118834,128,0,118981:0:0:0:0:
64,192,118834,128,0,119043:0:0:0:0:
192,192,118897,128,0,119043:0:0:0:0:
320,192,118960,128,0,119106:0:0:0:0:
448,192,119022,128,0,119169:0:0:0:0:
64,192,119086,128,0,119169:0:0:0:0:
192,192,119086,128,0,119232:0:0:0:0:
320,192,119148,128,0,119295:0:0:0:0:
448,192,119211,128,0,119295:0:0:0:0:
64,192,119211,128,0,119358:0:0:0:0:
192,192,119274,128,0,119421:0:0:0:0:
320,192,119337,128,0,119421:0:0:0:0:
448,192,119337,128,0,119483:0:0:0:0:
64,192,119399,128,0,119546:0:0:0:0:
192,192,119462,128,0,119546:0:0:0:0:
320,192,119462,128,0,119609:0:0:0:0:
448,192,119525,128,0,119609:0:0:0:0:
64,192,119588,128,0,119672:0:0:0:0:
192,192,119588,128,0,119672:0:0:0:0:
320,192,119651,128,0,119734:0:0:0:0:
448,192,119651,128,0,119734:0:0:0:0:
64,192,119714,128,0,119798:0:0:0:0:
192,192,119714,128,0,119798:0:0:0:0:
320,192,119777,128,0,119860:0:0:0:0:
448,192,119777,128,0,119860:0:0:0:0:
192,192,119839,128,0,119923:0:0:0:0:
64,192,119839,128,0,119923:0:0:0:0:
320,192,119902,128,0,119986:0:0:0:0:
448,192,119902,128,0,119986:0:0:0:0:
192,192,119965,128,0,120049:0:0:0:0:
64,192,119965,128,0,120049:0:0:0:0:
320,192,120028,128,0,120300:0:0:0:0:
448,192,120028,128,0,120300:0:0:0:0:
192,192,120090,128,0,120551:0:0:0:0:
64,192,120090,128,0,120300:0:0:0:0:
64,192,120342,128,0,120551:0:0:0:0:
320,192,120342,128,0,120802:0:0:0:0:
448,192,120342,128,0,120802:0:0:0:0:
192,192,120594,128,0,120677:0:0:0:0:
64,192,120594,128,0,120677:0:0:0:0:
64,192,120719,128,0,120802:0:0:0:0:
192,192,120719,128,0,120802:0:0:0:0:
64,192,120845,128,0,121054:0:0:0:0:
192,192,120845,128,0,121054:0:0:0:0:
320,192,120845,128,0,121054:0:0:0:0:
448,192,120845,128,0,121306:0:0:0:0:
320,192,121096,128,0,121180:0:0:0:0:
192,192,121096,128,0,121180:0:0:0:0:
64,192,121096,128,0,121180:0:0:0:0:
64,192,121222,128,0,121306:0:0:0:0:
192,192,121222,128,0,121368:0:0:0:0:
320,192,121222,128,0,121368:0:0:0:0:
448,192,121347,128,0,121431:0:0:0:0:
64,192,121347,128,0,121431:0:0:0:0:
320,192,121410,128,0,121494:0:0:0:0:
192,192,121410,128,0,121494:0:0:0:0:
448,192,121473,128,0,121557:0:0:0:0:
64,192,121473,128,0,121557:0:0:0:0:
192,192,121536,128,0,121619:0:0:0:0:
320,192,121536,128,0,121682:0:0:0:0:
448,192,121598,128,0,121682:0:0:0:0:
64,192,121598,128,0,121745:0:0:0:0:
192,192,121662,128,0,121808:0:0:0:0:
320,192,121724,128,0,121870:0:0:0:0:
448,192,121724,128,0,121808:0:0:0:0:
64,192,121787,128,0,121934:0:0:0:0:
192,192,121850,128,0,121934:0:0:0:0:
448,192,121850,128,0,121996:0:0:0:0:
320,192,121913,128,0,122059:0:0:0:0:
192,192,121975,128,0,122059:0:0:0:0:
64,192,121975,128,0,122059:0:0:0:0:
448,192,122038,128,0,122310:0:0:0:0:
320,192,122101,128,0,122185:0:0:0:0:
192,192,122101,128,0,122185:0:0:0:0:
64,192,122101,128,0,122185:0:0:0:0:
64,192,122226,128,0,122374:0:0:0:0:
192,192,122226,128,0,122374:0:0:0:0:
320,192,122226,128,0,122310:0:0:0:0:
448,192,122353,128,0,122436:0:0:0:0:
320,192,122353,128,0,122436:0:0:0:0:
192,192,122415,128,0,122499:0:0:0:0:
64,192,122415,128,0,122499:0:0:0:0:
320,192,122478,128,0,122562:0:0:0:0:
448,192,122478,128,0,122562:0:0:0:0:
192,192,122541,128,0,122625:0:0:0:0:
64,192,122541,128,0,122687:0:0:0:0:
448,192,122604,128,0,122687:0:0:0:0:
320,192,122604,128,0,122750:0:0:0:0:
192,192,122666,128,0,122813:0:0:0:0:
64,192,122730,128,0,122813:0:0:0:0:
448,192,122730,128,0,122876:0:0:0:0:
320,192,122792,128,0,122939:0:0:0:0:
192,192,122855,128,0,122939:0:0:0:0:
64,192,122855,128,0,123002:0:0:0:0:
448,192,122918,128,0,123065:0:0:0:0:
320,192,122981,128,0,123065:0:0:0:0:
192,192,122981,128,0,123065:0:0:0:0:
64,192,123043,128,0,123316:0:0:0:0:
192,192,123106,128,0,123190:0:0:0:0:
320,192,123106,128,0,123190:0:0:0:0:
448,192,123106,128,0,123190:0:0:0:0:
448,192,123232,128,0,123316:0:0:0:0:
320,192,123232,128,0,123378:0:0:0:0:
192,192,123232,128,0,123378:0:0:0:0:
448,192,123358,128,0,123442:0:0:0:0:
64,192,123358,128,0,123442:0:0:0:0:
192,192,123421,128,0,123504:0:0:0:0:
320,192,123421,128,0,123504:0:0:0:0:
448,192,123483,128,0,123567:0:0:0:0:
64,192,123483,128,0,123567:0:0:0:0:
192,192,123546,128,0,123630:0:0:0:0:
320,192,123546,128,0,123693:0:0:0:0:
448,192,123609,128,0,123693:0:0:0:0:
64,192,123609,128,0,123755:0:0:0:0:
192,192,123672,128,0,123818:0:0:0:0:
320,192,123734,128,0,123882:0:0:0:0:
448,192,123734,128,0,123818:0:0:0:0:
64,192,123798,128,0,123944:0:0:0:0:
192,192,123860,128,0,123944:0:0:0:0:
448,192,123860,128,0,124070:0:0:0:0:
320,192,123923,128,0,124007:0:0:0:0:
64,192,123986,128,0,124070:0:0:0:0:
192,192,123986,128,0,124133:0:0:0:0:
320,192,124049,128,0,124195:0:0:0:0:
448,192,124111,128,0,124195:0:0:0:0:
64,192,124111,128,0,124258:0:0:0:0:
192,192,124174,128,0,124321:0:0:0:0:
320,192,124238,128,0,124384:0:0:0:0:
448,192,124238,128,0,124321:0:0:0:0:
64,192,124300,128,0,124446:0:0:0:0:
192,192,124363,128,0,124446:0:0:0:0:
448,192,124363,128,0,124510:0:0:0:0:
320,192,124426,128,0,124635:0:0:0:0:
192,192,124489,128,0,124572:0:0:0:0:
64,192,124489,128,0,124572:0:0:0:0:
448,192,124551,128,0,124635:0:0:0:0:
192,192,124614,128,0,124698:0:0:0:0:
64,192,124614,128,0,124698:0:0:0:0:
320,192,124677,128,0,124761:0:0:0:0:
448,192,124677,128,0,124824:0:0:0:0:
192,192,124740,128,0,124886:0:0:0:0:
64,192,124740,128,0,124824:0:0:0:0:
320,192,124802,128,0,124886:0:0:0:0:
448,192,124866,128,0,124950:0:0:0:0:
64,192,124866,128,0,124950:0:0:0:0:
192,192,124928,128,0,125075:0:0:0:0:
320,192,124928,128,0,125012:0:0:0:0:
448,192,124991,128,0,125075:0:0:0:0:
64,192,124991,128,0,125075:0:0:0:0:
320,192,125054,128,0,125326:0:0:0:0:
448,192,125117,128,0,125201:0:0:0:0:
192,192,125117,128,0,125201:0:0:0:0:
64,192,125117,128,0,125201:0:0:0:0:
448,192,125242,128,0,125326:0:0:0:0:
192,192,125242,128,0,125389:0:0:0:0:
64,192,125242,128,0,125389:0:0:0:0:
320,192,125368,128,0,125452:0:0:0:0:
448,192,125368,128,0,125452:0:0:0:0:
192,192,125431,128,0,125514:0:0:0:0:
64,192,125431,128,0,125514:0:0:0:0:
320,192,125494,128,0,125578:0:0:0:0:
448,192,125494,128,0,125578:0:0:0:0:
192,192,125557,128,0,125640:0:0:0:0:
64,192,125557,128,0,125703:0:0:0:0:
320,192,125619,128,0,125766:0:0:0:0:
448,192,125619,128,0,125703:0:0:0:0:
192,192,125682,128,0,125829:0:0:0:0:
448,192,125745,128,0,125892:0:0:0:0:
64,192,125745,128,0,125829:0:0:0:0:
320,192,125808,128,0,125954:0:0:0:0:
192,192,125870,128,0,125954:0:0:0:0:
64,192,125870,128,0,126018:0:0:0:0:
448,192,125934,128,0,126080:0:0:0:0:
192,192,125996,128,0,126080:0:0:0:0:
320,192,125996,128,0,126080:0:0:0:0:
64,192,126059,128,0,126331:0:0:0:0:
192,192,126122,128,0,126206:0:0:0:0:
320,192,126122,128,0,126206:0:0:0:0:
448,192,126122,128,0,126206:0:0:0:0:
448,192,126248,128,0,126331:0:0:0:0:
320,192,126248,128,0,126394:0:0:0:0:
192,192,126248,128,0,126394:0:0:0:0:
64,192,126374,128,0,126457:0:0:0:0:
448,192,126374,128,0,126457:0:0:0:0:
320,192,126436,128,0,126520:0:0:0:0:
192,192,126436,128,0,126520:0:0:0:0:
448,192,126499,128,0,126582:0:0:0:0:
64,192,126499,128,0,126582:0:0:0:0:
320,192,126562,128,0,126646:0:0:0:0:
192,192,126562,128,0,126709:0:0:0:0:
64,192,126625,128,0,126709:0:0:0:0:
448,192,126625,128,0,126771:0:0:0:0:
320,192,126687,128,0,126834:0:0:0:0:
192,192,126750,128,0,126897:0:0:0:0:
64,192,126750,128,0,126834:0:0:0:0:
448,192,126813,128,0,126960:0:0:0:0:
320,192,126876,128,0,127022:0:0:0:0:
64,192,126876,128,0,126960:0:0:0:0:
192,192,126939,128,0,127086:0:0:0:0:
64,192,127002,128,0,127086:0:0:0:0:
448,192,127002,128,0,127086:0:0:0:0:
320,192,127065,128,0,127337:0:0:0:0:
448,192,127127,128,0,127211:0:0:0:0:
192,192,127127,128,0,127211:0:0:0:0:
64,192,127127,128,0,127211:0:0:0:0:
64,192,127253,128,0,127399:0:0:0:0:
192,192,127253,128,0,127399:0:0:0:0:
448,192,127253,128,0,127337:0:0:0:0:
320,192,127378,128,0,127462:0:0:0:0:
448,192,127378,128,0,127462:0:0:0:0:
192,192,127442,128,0,127525:0:0:0:0:
64,192,127442,128,0,127525:0:0:0:0:
320,192,127504,128,0,127588:0:0:0:0:
448,192,127504,128,0,127588:0:0:0:0:
192,192,127567,128,0,127651:0:0:0:0:
64,192,127567,128,0,127714:0:0:0:0:
320,192,127630,128,0,127714:0:0:0:0:
448,192,127630,128,0,127777:0:0:0:0:
192,192,127693,128,0,127839:0:0:0:0:
64,192,127755,128,0,127839:0:0:0:0:
320,192,127755,128,0,127902:0:0:0:0:
448,192,127818,128,0,127965:0:0:0:0:
64,192,127882,128,0,127965:0:0:0:0:
192,192,127882,128,0,128028:0:0:0:0:
320,192,127944,128,0,128090:0:0:0:0:
448,192,128007,128,0,128154:0:0:0:0:
64,192,128007,128,0,128090:0:0:0:0:
192,192,128070,128,0,128216:0:0:0:0:
320,192,128133,128,0,128279:0:0:0:0:
64,192,128133,128,0,128216:0:0:0:0:
448,192,128195,128,0,128342:0:0:0:0:
192,192,128258,128,0,128405:0:0:0:0:
64,192,128258,128,0,128405:0:0:0:0:
320,192,128321,128,0,128467:0:0:0:0:
448,192,128384,128,0,128467:0:0:0:0:
192,192,128446,128,0,128530:0:0:0:0:
64,192,128446,128,0,128594:0:0:0:0:
448,192,128510,128,0,128656:0:0:0:0:
320,192,128510,128,0,128594:0:0:0:0:
192,192,128572,128,0,128719:0:0:0:0:
64,192,128635,128,0,128719:0:0:0:0:
320,192,128635,128,0,128782:0:0:0:0:
448,192,128698,128,0,128845:0:0:0:0:
192,192,128761,128,0,128907:0:0:0:0:
64,192,128761,128,0,128845:0:0:0:0:
320,192,128824,128,0,128970:0:0:0:0:
448,192,128886,128,0,128970:0:0:0:0:
64,192,128886,128,0,129033:0:0:0:0:
192,192,128950,128,0,129096:0:0:0:0:
320,192,129012,128,0,129096:0:0:0:0:
448,192,129012,128,0,129096:0:0:0:0:
64,192,129075,128,0,129347:0:0:0:0:
192,192,129138,128,0,129222:0:0:0:0:
320,192,129138,128,0,129222:0:0:0:0:
448,192,129138,128,0,129222:0:0:0:0:
448,192,129263,128,0,129347:0:0:0:0:
320,192,129263,128,0,129410:0:0:0:0:
192,192,129263,128,0,129410:0:0:0:0:
64,192,129389,128,0,129473:0:0:0:0:
448,192,129389,128,0,129473:0:0:0:0:
320,192,129452,128,0,129536:0:0:0:0:
192,192,129452,128,0,129536:0:0:0:0:
64,192,129514,128,0,129598:0:0:0:0:
448,192,129514,128,0,129598:0:0:0:0:
192,192,129578,128,0,129662:0:0:0:0:
320,192,129578,128,0,129724:0:0:0:0:
448,192,129640,128,0,129724:0:0:0:0:
64,192,129640,128,0,129787:0:0:0:0:
192,192,129703,128,0,129850:0:0:0:0:
320,192,129766,128,0,129913:0:0:0:0:
448,192,129766,128,0,129850:0:0:0:0:
64,192,129829,128,0,129975:0:0:0:0:
192,192,129892,128,0,129975:0:0:0:0:
448,192,129892,128,0,130038:0:0:0:0:
320,192,129954,128,0,130101:0:0:0:0:
192,192,130018,128,0,130101:0:0:0:0:
64,192,130018,128,0,130101:0:0:0:0:
448,192,130080,128,0,130353:0:0:0:0:
320,192,130143,128,0,130226:0:0:0:0:
192,192,130143,128,0,130226:0:0:0:0:
64,192,130143,128,0,130226:0:0:0:0:
64,192,130269,128,0,130415:0:0:0:0:
192,192,130269,128,0,130415:0:0:0:0:
320,192,130269,128,0,130353:0:0:0:0:
448,192,130394,128,0,130478:0:0:0:0:
320,192,130394,128,0,130478:0:0:0:0:
192,192,130457,128,0,130541:0:0:0:0:
64,192,130457,128,0,130541:0:0:0:0:
320,192,130520,128,0,130604:0:0:0:0:
448,192,130520,128,0,130604:0:0:0:0:
192,192,130582,128,0,130666:0:0:0:0:
64,192,130582,128,0,130730:0:0:0:0:
320,192,130646,128,0,130792:0:0:0:0:
448,192,130646,128,0,130730:0:0:0:0:
192,192,130709,128,0,130855:0:0:0:0:
64,192,130771,128,0,130855:0:0:0:0:
448,192,130771,128,0,130918:0:0:0:0:
320,192,130834,128,0,130981:0:0:0:0:
192,192,130897,128,0,130981:0:0:0:0:
64,192,130897,128,0,131043:0:0:0:0:
448,192,130960,128,0,131106:0:0:0:0:
320,192,131022,128,0,131106:0:0:0:0:
192,192,131022,128,0,131106:0:0:0:0:
64,192,131086,128,0,131358:0:0:0:0:
192,192,131148,128,0,131232:0:0:0:0:
320,192,131148,128,0,131232:0:0:0:0:
448,192,131148,128,0,131232:0:0:0:0:
448,192,131274,128,0,131358:0:0:0:0:
320,192,131274,128,0,131421:0:0:0:0:
192,192,131274,128,0,131421:0:0:0:0:
64,192,131399,128,0,131483:0:0:0:0:
448,192,131399,128,0,131483:0:0:0:0:
320,192,131462,128,0,131546:0:0:0:0:
192,192,131462,128,0,131546:0:0:0:0:
448,192,131525,128,0,131609:0:0:0:0:
64,192,131525,128,0,131609:0:0:0:0:
192,192,131588,128,0,131734:0:0:0:0:
320,192,131588,128,0,131672:0:0:0:0:
448,192,131651,128,0,131798:0:0:0:0:
64,192,131651,128,0,131734:0:0:0:0:
320,192,131714,128,0,131860:0:0:0:0:
192,192,131777,128,0,131923:0:0:0:0:
64,192,131777,128,0,131860:0:0:0:0:
448,192,131839,128,0,131986:0:0:0:0:
320,192,131902,128,0,131986:0:0:0:0:
64,192,131902,128,0,132111:0:0:0:0:
192,192,131965,128,0,132049:0:0:0:0:
320,192,132028,128,0,132174:0:0:0:0:
448,192,132028,128,0,132111:0:0:0:0:
192,192,132090,128,0,132238:0:0:0:0:
64,192,132154,128,0,132238:0:0:0:0:
448,192,132154,128,0,132300:0:0:0:0:
320,192,132216,128,0,132363:0:0:0:0:
192,192,132279,128,0,132426:0:0:0:0:
64,192,132279,128,0,132363:0:0:0:0:
448,192,132342,128,0,132489:0:0:0:0:
320,192,132405,128,0,132489:0:0:0:0:
64,192,132405,128,0,132614:0:0:0:0:
192,192,132467,128,0,132551:0:0:0:0:
320,192,132530,128,0,132614:0:0:0:0:
448,192,132530,128,0,132677:0:0:0:0:
192,192,132594,128,0,132740:0:0:0:0:
320,192,132656,128,0,132802:0:0:0:0:
64,192,132656,128,0,132740:0:0:0:0:
448,192,132719,128,0,132866:0:0:0:0:
64,192,132782,128,0,132866:0:0:0:0:
192,192,132782,128,0,132928:0:0:0:0:
320,192,132845,128,0,132991:0:0:0:0:
448,192,132907,128,0,132991:0:0:0:0:
64,192,132907,128,0,133054:0:0:0:0:
192,192,132970,128,0,133117:0:0:0:0:
320,192,133033,128,0,133117:0:0:0:0:
448,192,133033,128,0,133117:0:0:0:0:
64,192,133096,128,0,133368:0:0:0:0:
192,192,133158,128,0,133242:0:0:0:0:
320,192,133158,128,0,133242:0:0:0:0:
448,192,133158,128,0,133242:0:0:0:0:
448,192,133284,128,0,133431:0:0:0:0:
320,192,133284,128,0,133431:0:0:0:0:
192,192,133284,128,0,133368:0:0:0:0:
64,192,133410,128,0,133494:0:0:0:0:
192,192,133410,128,0,133494:0:0:0:0:
320,192,133473,128,0,133557:0:0:0:0:
448,192,133473,128,0,133557:0:0:0:0:
64,192,133536,128,0,133619:0:0:0:0:
192,192,133536,128,0,133619:0:0:0:0:
320,192,133598,128,0,133682:0:0:0:0:
448,192,133598,128,0,133745:0:0:0:0:
192,192,133662,128,0,133808:0:0:0:0:
64,192,133662,128,0,133745:0:0:0:0:
320,192,133724,128,0,133870:0:0:0:0:
64,192,133787,128,0,133934:0:0:0:0:
448,192,133787,128,0,133870:0:0:0:0:
192,192,133850,128,0,133996:0:0:0:0:
320,192,133913,128,0,133996:0:0:0:0:
448,192,133913,128,0,134059:0:0:0:0:
64,192,133975,128,0,134122:0:0:0:0:
192,192,134038,128,0,134122:0:0:0:0:
320,192,134038,128,0,134122:0:0:0:0:
448,192,134101,128,0,134374:0:0:0:0:
320,192,134164,128,0,134248:0:0:0:0:
192,192,134164,128,0,134248:0:0:0:0:
64,192,134164,128,0,134248:0:0:0:0:
320,192,134290,128,0,134436:0:0:0:0:
64,192,134290,128,0,134374:0:0:0:0:
192,192,134290,128,0,134436:0:0:0:0:
64,192,134415,128,0,134499:0:0:0:0:
448,192,134415,128,0,134499:0:0:0:0:
320,192,134478,128,0,134562:0:0:0:0:
192,192,134478,128,0,134562:0:0:0:0:
64,192,134541,128,0,134625:0:0:0:0:
448,192,134541,128,0,134625:0:0:0:0:
192,192,134604,128,0,134750:0:0:0:0:
320,192,134604,128,0,134687:0:0:0:0:
64,192,134666,128,0,134750:0:0:0:0:
448,192,134666,128,0,134813:0:0:0:0:
320,192,134730,128,0,134876:0:0:0:0:
192,192,134792,128,0,134876:0:0:0:0:
64,192,134792,128,0,134939:0:0:0:0:
448,192,134855,128,0,135002:0:0:0:0:
320,192,134918,128,0,135002:0:0:0:0:
192,192,134918,128,0,135065:0:0:0:0:
64,192,134981,128,0,135127:0:0:0:0:
448,192,135043,128,0,135127:0:0:0:0:
320,192,135043,128,0,135127:0:0:0:0:
192,192,135106,128,0,135378:0:0:0:0:
64,192,135169,128,0,135253:0:0:0:0:
320,192,135169,128,0,135253:0:0:0:0:
448,192,135169,128,0,135253:0:0:0:0:
64,192,135295,128,0,135378:0:0:0:0:
448,192,135295,128,0,135442:0:0:0:0:
320,192,135295,128,0,135442:0:0:0:0:
192,192,135421,128,0,135504:0:0:0:0:
64,192,135421,128,0,135504:0:0:0:0:
320,192,135483,128,0,135567:0:0:0:0:
448,192,135483,128,0,135567:0:0:0:0:
192,192,135546,128,0,135630:0:0:0:0:
64,192,135546,128,0,135630:0:0:0:0:
320,192,135609,128,0,135693:0:0:0:0:
448,192,135609,128,0,135755:0:0:0:0:
192,192,135672,128,0,135818:0:0:0:0:
64,192,135672,128,0,135755:0:0:0:0:
320,192,135734,128,0,135882:0:0:0:0:
448,192,135798,128,0,135882:0:0:0:0:
64,192,135798,128,0,135944:0:0:0:0:
192,192,135860,128,0,136007:0:0:0:0:
320,192,135923,128,0,136070:0:0:0:0:
448,192,135923,128,0,135986:0:0:0:0:
64,192,135986,128,0,136133:0:0:0:0:
192,192,136049,128,0,136133:0:0:0:0:
448,192,136049,128,0,136133:0:0:0:0:
320,192,136111,128,0,136300:0:0:0:0:
64,192,136174,128,0,136300:0:0:0:0:
448,192,136174,128,0,136300:0:0:0:0:
192,192,136174,128,0,136489:0:0:0:0:
64,192,136342,128,0,136489:0:0:0:0:
320,192,136342,128,0,136489:0:0:0:0:
448,192,136342,128,0,136635:0:0:0:0:
320,192,136530,128,0,136635:0:0:0:0:
192,192,136530,128,0,136635:0:0:0:0:
64,192,136530,128,0,136802:0:0:0:0:
192,192,136677,128,0,136802:0:0:0:0:
320,192,136677,128,0,136991:0:0:0:0:
448,192,136677,128,0,136802:0:0:0:0:
64,192,136845,128,0,136991:0:0:0:0:
192,192,136845,128,0,136991:0:0:0:0:
448,192,136845,128,0,137138:0:0:0:0:
64,192,137033,128,0,137138:0:0:0:0:
320,192,137033,128,0,137201:0:0:0:0:
192,192,137033,128,0,137201:0:0:0:0:
64,192,137180,128,0,137263:0:0:0:0:
448,192,137180,128,0,137263:0:0:0:0:
192,192,137242,128,0,137326:0:0:0:0:
320,192,137242,128,0,137326:0:0:0:0:
448,192,137306,128,0,137389:0:0:0:0:
64,192,137306,128,0,137389:0:0:0:0:
320,192,137368,128,0,137514:0:0:0:0:
192,192,137368,128,0,137452:0:0:0:0:
448,192,137431,128,0,137514:0:0:0:0:
64,192,137431,128,0,137578:0:0:0:0:
192,192,137494,128,0,137640:0:0:0:0:
320,192,137557,128,0,137703:0:0:0:0:
448,192,137557,128,0,137640:0:0:0:0:
64,192,137619,128,0,137766:0:0:0:0:
192,192,137682,128,0,137766:0:0:0:0:
448,192,137682,128,0,137829:0:0:0:0:
320,192,137745,128,0,137892:0:0:0:0:
192,192,137808,128,0,137892:0:0:0:0:
64,192,137808,128,0,137954:0:0:0:0:
448,192,137870,128,0,138018:0:0:0:0:
320,192,137934,128,0,138018:0:0:0:0:
192,192,137934,128,0,138080:0:0:0:0:
64,192,137996,128,0,138206:0:0:0:0:
320,192,138059,128,0,138143:0:0:0:0:
448,192,138059,128,0,138143:0:0:0:0:
192,192,138122,128,0,138206:0:0:0:0:
448,192,138185,128,0,138269:0:0:0:0:
320,192,138185,128,0,138269:0:0:0:0:
192,192,138248,128,0,138331:0:0:0:0:
64,192,138248,128,0,138331:0:0:0:0:
320,192,138310,128,0,138394:0:0:0:0:
448,192,138310,128,0,138394:0:0:0:0:
192,192,138374,128,0,138457:0:0:0:0:
64,192,138374,128,0,138520:0:0:0:0:
320,192,138436,128,0,138582:0:0:0:0:
448,192,138436,128,0,138520:0:0:0:0:
192,192,138499,128,0,138646:0:0:0:0:
64,192,138562,128,0,138646:0:0:0:0:
448,192,138562,128,0,138709:0:0:0:0:
320,192,138625,128,0,138771:0:0:0:0:
192,192,138687,128,0,138834:0:0:0:0:
64,192,138687,128,0,138771:0:0:0:0:
448,192,138750,128,0,138897:0:0:0:0:
320,192,138813,128,0,138897:0:0:0:0:
64,192,138813,128,0,139022:0:0:0:0:
192,192,138876,128,0,138960:0:0:0:0:
320,192,138939,128,0,139022:0:0:0:0:
448,192,138939,128,0,139086:0:0:0:0:
192,192,139002,128,0,139148:0:0:0:0:
64,192,139065,128,0,139148:0:0:0:0:
320,192,139065,128,0,139211:0:0:0:0:
448,192,139127,128,0,139337:0:0:0:0:
192,192,139190,128,0,139274:0:0:0:0:
64,192,139190,128,0,139337:0:0:0:0:
320,192,139253,128,0,139399:0:0:0:0:
192,192,139316,128,0,139462:0:0:0:0:
448,192,139378,128,0,139588:0:0:0:0:
64,192,139378,128,0,139525:0:0:0:0:
320,192,139442,128,0,139525:0:0:0:0:
192,192,139504,128,0,139651:0:0:0:0:
64,192,139567,128,0,139651:0:0:0:0:
320,192,139567,128,0,139777:0:0:0:0:
448,192,139630,128,0,139714:0:0:0:0:
192,192,139693,128,0,139839:0:0:0:0:
64,192,139693,128,0,139902:0:0:0:0:
448,192,139755,128,0,139839:0:0:0:0:
320,192,139818,128,0,139965:0:0:0:0:
448,192,139882,128,0,140028:0:0:0:0:
192,192,139882,128,0,140028:0:0:0:0:
64,192,139944,128,0,140090:0:0:0:0:
320,192,140007,128,0,140154:0:0:0:0:
448,192,140070,128,0,140154:0:0:0:0:
192,192,140070,128,0,140216:0:0:0:0:
64,192,140133,128,0,140342:0:0:0:0:
448,192,140195,128,0,140279:0:0:0:0:
320,192,140195,128,0,140342:0:0:0:0:
192,192,140258,128,0,140405:0:0:0:0:
448,192,140321,128,0,140467:0:0:0:0:
64,192,140384,128,0,140530:0:0:0:0:
320,192,140384,128,0,140594:0:0:0:0:
192,192,140446,128,0,140530:0:0:0:0:
448,192,140510,128,0,140656:0:0:0:0:
192,192,140572,128,0,140656:0:0:0:0:
64,192,140572,128,0,140719:0:0:0:0:
320,192,140635,128,0,140782:0:0:0:0:
192,192,140698,128,0,140845:0:0:0:0:
448,192,140698,128,0,140907:0:0:0:0:
64,192,140761,128,0,140845:0:0:0:0:
320,192,140824,128,0,140970:0:0:0:0:
192,192,140886,128,0,141033:0:0:0:0:
64,192,140886,128,0,141033:0:0:0:0:
448,192,140950,128,0,141096:0:0:0:0:
320,192,141012,128,0,141222:0:0:0:0:
64,192,141075,128,0,141158:0:0:0:0:
192,192,141075,128,0,141158:0:0:0:0:
448,192,141138,128,0,141222:0:0:0:0:
64,192,141201,128,0,141284:0:0:0:0:
192,192,141201,128,0,141284:0:0:0:0:
320,192,141263,128,0,141347:0:0:0:0:
448,192,141263,128,0,141347:0:0:0:0:
192,192,141326,128,0,141410:0:0:0:0:
64,192,141326,128,0,141410:0:0:0:0:
320,192,141389,128,0,141536:0:0:0:0:
448,192,141389,128,0,141473:0:0:0:0:
192,192,141452,128,0,141598:0:0:0:0:
64,192,141452,128,0,141536:0:0:0:0:
448,192,141514,128,0,141662:0:0:0:0:
64,192,141578,128,0,141724:0:0:0:0:
320,192,141578,128,0,141662:0:0:0:0:
192,192,141640,128,0,141787:0:0:0:0:
320,192,141703,128,0,141850:0:0:0:0:
448,192,141703,128,0,141787:0:0:0:0:
64,192,141766,128,0,141913:0:0:0:0:
192,192,141829,128,0,141913:0:0:0:0:
448,192,141829,128,0,141975:0:0:0:0:
320,192,141892,128,0,142038:0:0:0:0:
192,192,141954,128,0,142101:0:0:0:0:
64,192,141954,128,0,142038:0:0:0:0:
448,192,142018,128,0,142164:0:0:0:0:
320,192,142080,128,0,142226:0:0:0:0:
64,192,142080,128,0,142164:0:0:0:0:
192,192,142143,128,0,142226:0:0:0:0:
64,192,142206,128,0,142290:0:0:0:0:
448,192,142206,128,0,142290:0:0:0:0:
192,192,142269,128,0,142353:0:0:0:0:
320,192,142269,128,0,142353:0:0:0:0:
64,192,142331,128,0,142415:0:0:0:0:
448,192,142331,128,0,142415:0:0:0:0:
320,192,142394,128,0,142478:0:0:0:0:
192,192,142394,128,0,142541:0:0:0:0:
64,192,142457,128,0,142604:0:0:0:0:
448,192,142457,128,0,142541:0:0:0:0:
320,192,142520,128,0,142666:0:0:0:0:
448,192,142582,128,0,142666:0:0:0:0:
192,192,142582,128,0,142730:0:0:0:0:
64,192,142646,128,0,142792:0:0:0:0:
448,192,142709,128,0,142792:0:0:0:0:
320,192,142709,128,0,142855:0:0:0:0:
192,192,142771,128,0,142918:0:0:0:0:
64,192,142834,128,0,142918:0:0:0:0:
448,192,142834,128,0,142981:0:0:0:0:
320,192,142897,128,0,143043:0:0:0:0:
192,192,142960,128,0,143043:0:0:0:0:
64,192,142960,128,0,143106:0:0:0:0:
448,192,143022,128,0,143169:0:0:0:0:
320,192,143086,128,0,143169:0:0:0:0:
192,192,143086,128,0,143232:0:0:0:0:
64,192,143148,128,0,143358:0:0:0:0:
448,192,143211,128,0,143358:0:0:0:0:
320,192,143211,128,0,143295:0:0:0:0:
192,192,143274,128,0,143421:0:0:0:0:
320,192,143337,128,0,143483:0:0:0:0:
448,192,143399,128,0,143546:0:0:0:0:
64,192,143399,128,0,143609:0:0:0:0:
192,192,143462,128,0,143546:0:0:0:0:
320,192,143525,128,0,143672:0:0:0:0:
448,192,143588,128,0,143672:0:0:0:0:
192,192,143588,128,0,143734:0:0:0:0:
64,192,143651,128,0,143860:0:0:0:0:
320,192,143714,128,0,143860:0:0:0:0:
448,192,143714,128,0,143798:0:0:0:0:
192,192,143777,128,0,143923:0:0:0:0:
448,192,143839,128,0,143986:0:0:0:0:
320,192,143902,128,0,144049:0:0:0:0:
64,192,143902,128,0,144049:0:0:0:0:
192,192,143965,128,0,144111:0:0:0:0:
448,192,144028,128,0,144174:0:0:0:0:
320,192,144090,128,0,144174:0:0:0:0:
64,192,144090,128,0,144363:0:0:0:0:
192,192,144154,128,0,144238:0:0:0:0:
448,192,144216,128,0,144363:0:0:0:0:
320,192,144216,128,0,144300:0:0:0:0:
192,192,144279,128,0,144426:0:0:0:0:
320,192,144342,128,0,144489:0:0:0:0:
448,192,144405,128,0,144614:0:0:0:0:
64,192,144405,128,0,144551:0:0:0:0:
192,192,144467,128,0,144551:0:0:0:0:
320,192,144530,128,0,144677:0:0:0:0:
64,192,144594,128,0,144677:0:0:0:0:
192,192,144594,128,0,144740:0:0:0:0:
448,192,144656,128,0,144802:0:0:0:0:
320,192,144719,128,0,144866:0:0:0:0:
64,192,144719,128,0,144928:0:0:0:0:
192,192,144782,128,0,144928:0:0:0:0:
448,192,144845,128,0,145180:0:0:0:0:
320,192,144907,128,0,144991:0:0:0:0:
64,192,144970,128,0,145054:0:0:0:0:
192,192,144970,128,0,145242:0:0:0:0:
320,192,145033,128,0,145117:0:0:0:0:
64,192,145096,128,0,145180:0:0:0:0:
320,192,145158,128,0,145242:0:0:0:0:
448,192,145222,128,0,145306:0:0:0:0:
64,192,145222,128,0,145306:0:0:0:0:
192,192,145284,128,0,145368:0:0:0:0:
320,192,145284,128,0,145368:0:0:0:0:
448,192,145347,128,0,145431:0:0:0:0:
64,192,145347,128,0,145431:0:0:0:0:
192,192,145410,128,0,145557:0:0:0:0:
320,192,145410,128,0,145494:0:0:0:0:
448,192,145473,128,0,145682:0:0:0:0:
64,192,145473,128,0,145557:0:0:0:0:
320,192,145536,128,0,145619:0:0:0:0:
192,192,145598,128,0,145682:0:0:0:0:
64,192,145598,128,0,145745:0:0:0:0:
320,192,145662,128,0,145808:0:0:0:0:
448,192,145724,128,0,145808:0:0:0:0:
192,192,145724,128,0,145870:0:0:0:0:
64,192,145787,128,0,145934:0:0:0:0:
448,192,145850,128,0,145934:0:0:0:0:
320,192,145850,128,0,145996:0:0:0:0:
192,192,145913,128,0,146059:0:0:0:0:
64,192,145975,128,0,146059:0:0:0:0:
448,192,145975,128,0,146122:0:0:0:0:
320,192,146038,128,0,146248:0:0:0:0:
192,192,146101,128,0,146185:0:0:0:0:
64,192,146101,128,0,146185:0:0:0:0:
448,192,146164,128,0,146248:0:0:0:0:
192,192,146226,128,0,146310:0:0:0:0:
64,192,146226,128,0,146310:0:0:0:0:
320,192,146290,128,0,146374:0:0:0:0:
448,192,146290,128,0,146374:0:0:0:0:
192,192,146353,128,0,146436:0:0:0:0:
64,192,146353,128,0,146436:0:0:0:0:
320,192,146415,128,0,146499:0:0:0:0:
448,192,146415,128,0,146562:0:0:0:0:
192,192,146478,128,0,146562:0:0:0:0:
64,192,146478,128,0,146625:0:0:0:0:
320,192,146541,128,0,146687:0:0:0:0:
448,192,146604,128,0,146687:0:0:0:0:
192,192,146604,128,0,146750:0:0:0:0:
64,192,146666,128,0,146813:0:0:0:0:
320,192,146730,128,0,146876:0:0:0:0:
448,192,146730,128,0,146813:0:0:0:0:
192,192,146792,128,0,146939:0:0:0:0:
64,192,146855,128,0,146939:0:0:0:0:
448,192,146855,128,0,147002:0:0:0:0:
320,192,146918,128,0,147065:0:0:0:0:
192,192,146981,128,0,147065:0:0:0:0:
64,192,146981,128,0,147127:0:0:0:0:
448,192,147043,128,0,147190:0:0:0:0:
320,192,147106,128,0,147190:0:0:0:0:
192,192,147106,128,0,147253:0:0:0:0:
64,192,147169,128,0,147316:0:0:0:0:
448,192,147232,128,0,147378:0:0:0:0:
320,192,147232,128,0,147378:0:0:0:0:
192,192,147295,128,0,147504:0:0:0:0:
64,192,147358,128,0,147442:0:0:0:0:
320,192,147421,128,0,147567:0:0:0:0:
448,192,147421,128,0,147630:0:0:0:0:
64,192,147483,128,0,147567:0:0:0:0:
192,192,147546,128,0,147693:0:0:0:0:
320,192,147609,128,0,147755:0:0:0:0:
64,192,147609,128,0,147693:0:0:0:0:
448,192,147672,128,0,147882:0:0:0:0:
64,192,147734,128,0,147882:0:0:0:0:
192,192,147734,128,0,147818:0:0:0:0:
320,192,147798,128,0,147944:0:0:0:0:
192,192,147860,128,0,148007:0:0:0:0:
448,192,147923,128,0,148070:0:0:0:0:
64,192,147923,128,0,148070:0:0:0:0:
320,192,147986,128,0,148133:0:0:0:0:
192,192,148049,128,0,148195:0:0:0:0:
64,192,148111,128,0,148195:0:0:0:0:
448,192,148111,128,0,148258:0:0:0:0:
320,192,148174,128,0,148446:0:0:0:0:
192,192,148238,128,0,148384:0:0:0:0:
64,192,148238,128,0,148321:0:0:0:0:
448,192,148300,128,0,148384:0:0:0:0:
64,192,148363,128,0,148572:0:0:0:0:
192,192,148426,128,0,148510:0:0:0:0:
448,192,148426,128,0,148572:0:0:0:0:
320,192,148489,128,0,148635:0:0:0:0:
192,192,148551,128,0,148698:0:0:0:0:
64,192,148614,128,0,148698:0:0:0:0:
448,192,148614,128,0,148761:0:0:0:0:
320,192,148677,128,0,148824:0:0:0:0:
192,192,148740,128,0,148886:0:0:0:0:
64,192,148740,128,0,148950:0:0:0:0:
448,192,148802,128,0,148886:0:0:0:0:
320,192,148866,128,0,149012:0:0:0:0:
192,192,148928,128,0,149075:0:0:0:0:
448,192,148928,128,0,149075:0:0:0:0:
64,192,148991,128,0,149138:0:0:0:0:
320,192,149054,128,0,149201:0:0:0:0:
448,192,149117,128,0,149201:0:0:0:0:
192,192,149117,128,0,149263:0:0:0:0:
64,192,149180,128,0,149263:0:0:0:0:
320,192,149242,128,0,149326:0:0:0:0:
448,192,149242,128,0,149326:0:0:0:0:
192,192,149306,128,0,149389:0:0:0:0:
64,192,149306,128,0,149389:0:0:0:0:
320,192,149368,128,0,149452:0:0:0:0:
448,192,149368,128,0,149452:0:0:0:0:
192,192,149431,128,0,149514:0:0:0:0:
64,192,149431,128,0,149578:0:0:0:0:
320,192,149494,128,0,149640:0:0:0:0:
448,192,149494,128,0,149578:0:0:0:0:
192,192,149557,128,0,149703:0:0:0:0:
64,192,149619,128,0,149703:0:0:0:0:
448,192,149619,128,0,149766:0:0:0:0:
320,192,149682,128,0,149829:0:0:0:0:
192,192,149745,128,0,149892:0:0:0:0:
64,192,149745,128,0,149829:0:0:0:0:
448,192,149808,128,0,149954:0:0:0:0:
320,192,149870,128,0,149954:0:0:0:0:
64,192,149870,128,0,150018:0:0:0:0:
192,192,149934,128,0,150080:0:0:0:0:
320,192,149996,128,0,150143:0:0:0:0:
448,192,149996,128,0,150080:0:0:0:0:
64,192,150059,128,0,150206:0:0:0:0:
192,192,150122,128,0,150269:0:0:0:0:
448,192,150122,128,0,150206:0:0:0:0:
320,192,150185,128,0,150269:0:0:0:0:
64,192,150248,128,0,150331:0:0:0:0:
448,192,150248,128,0,150331:0:0:0:0:
192,192,150310,128,0,150394:0:0:0:0:
320,192,150310,128,0,150394:0:0:0:0:
64,192,150374,128,0,150457:0:0:0:0:
448,192,150374,128,0,150457:0:0:0:0:
320,192,150436,128,0,150582:0:0:0:0:
192,192,150436,128,0,150520:0:0:0:0:
64,192,150499,128,0,150646:0:0:0:0:
448,192,150499,128,0,150582:0:0:0:0:
192,192,150562,128,0,150709:0:0:0:0:
320,192,150625,128,0,150771:0:0:0:0:
448,192,150625,128,0,150709:0:0:0:0:
64,192,150687,128,0,150834:0:0:0:0:
192,192,150750,128,0,150834:0:0:0:0:
448,192,150750,128,0,150960:0:0:0:0:
320,192,150813,128,0,150897:0:0:0:0:
192,192,150876,128,0,150960:0:0:0:0:
64,192,150876,128,0,151022:0:0:0:0:
320,192,150939,128,0,151086:0:0:0:0:
192,192,151002,128,0,151148:0:0:0:0:
448,192,151002,128,0,151086:0:0:0:0:
64,192,151065,128,0,151211:0:0:0:0:
448,192,151127,128,0,151274:0:0:0:0:
320,192,151127,128,0,151211:0:0:0:0:
192,192,151190,128,0,151337:0:0:0:0:
64,192,151253,128,0,151462:0:0:0:0:
320,192,151253,128,0,151399:0:0:0:0:
448,192,151316,128,0,151399:0:0:0:0:
192,192,151378,128,0,151525:0:0:0:0:
320,192,151442,128,0,151588:0:0:0:0:
448,192,151442,128,0,151588:0:0:0:0:
64,192,151504,128,0,151714:0:0:0:0:
192,192,151567,128,0,151651:0:0:0:0:
320,192,151630,128,0,151777:0:0:0:0:
448,192,151630,128,0,151714:0:0:0:0:
192,192,151693,128,0,151839:0:0:0:0:
64,192,151755,128,0,151902:0:0:0:0:
448,192,151755,128,0,151965:0:0:0:0:
320,192,151818,128,0,151902:0:0:0:0:
192,192,151882,128,0,152028:0:0:0:0:
64,192,151944,128,0,152090:0:0:0:0:
320,192,151944,128,0,152090:0:0:0:0:
448,192,152007,128,0,152154:0:0:0:0:
192,192,152070,128,0,152216:0:0:0:0:
64,192,152133,128,0,152216:0:0:0:0:
320,192,152133,128,0,152342:0:0:0:0:
448,192,152195,128,0,152467:0:0:0:0:
192,192,152258,128,0,152405:0:0:0:0:
64,192,152258,128,0,152594:0:0:0:0:
320,192,152384,128,0,152719:0:0:0:0:
192,192,152446,128,0,152656:0:0:0:0:
448,192,152510,128,0,152719:0:0:0:0:
64,192,152635,128,0,152782:0:0:0:0:
192,192,152698,128,0,152782:0:0:0:0:
320,192,152761,128,0,152886:0:0:0:0:
448,192,152761,128,0,152845:0:0:0:0:
192,192,152824,128,0,152907:0:0:0:0:
64,192,152824,128,0,152950:0:0:0:0:
448,192,152886,128,0,152970:0:0:0:0:
320,192,152928,128,0,153096:0:0:0:0:
192,192,152950,128,0,153033:0:0:0:0:
64,192,152991,128,0,153158:0:0:0:0:
448,192,153012,128,0,153222:0:0:0:0:
192,192,153075,128,0,153222:0:0:0:0:
320,192,153138,128,0,154730:0:0:0:0:
64,192,153201,128,0,153975:0:0:0:0:
192,192,153263,128,0,154226:0:0:0:0:
448,192,153263,128,0,154226:0:0:0:0:
64,192,154018,128,0,155232:0:0:0:0:
192,192,154269,128,0,155232:0:0:0:0:
448,192,154269,128,0,155986:0:0:0:0:
320,192,154771,128,0,156238:0:0:0:0:
64,192,155274,128,0,156238:0:0:0:0:
192,192,155274,128,0,156740:0:0:0:0:
448,192,156028,128,0,157242:0:0:0:0:
320,192,156279,128,0,156866:0:0:0:0:
64,192,156279,128,0,156991:0:0:0:0:
192,192,156782,128,0,157117:0:0:0:0:
320,192,156907,128,0,157242:0:0:0:0:
64,192,157033,128,0,158750:0:0:0:0:
192,192,157158,128,0,158248:0:0:0:0:
320,192,157284,128,0,157996:0:0:0:0:
448,192,157284,128,0,158248:0:0:0:0:
320,192,158038,128,0,158750:0:0:0:0:
192,192,158290,128,0,159253:0:0:0:0:
448,192,158290,128,0,159253:0:0:0:0:
320,192,158792,128,0,159504:0:0:0:0:
64,192,158792,128,0,159755:0:0:0:0:
192,192,159295,128,0,160007:0:0:0:0:
448,192,159295,128,0,160258:0:0:0:0:
320,192,159546,128,0,160258:0:0:0:0:
64,192,159798,128,0,161263:0:0:0:0:
192,192,160049,128,0,160761:0:0:0:0:
320,192,160300,128,0,162018:0:0:0:0:
448,192,160300,128,0,161263:0:0:0:0:
192,192,160802,128,0,162269:0:0:0:0:
64,192,161306,128,0,162269:0:0:0:0:
448,192,161306,128,0,163274:0:0:0:0:
320,192,162059,128,0,162771:0:0:0:0:
192,192,162310,128,0,164028:0:0:0:0:
64,192,162310,128,0,163274:0:0:0:0:
320,192,162813,128,0,164279:0:0:0:0:
448,192,163316,128,0,165284:0:0:0:0:
64,192,163316,128,0,164279:0:0:0:0:
192,192,164070,128,0,164782:0:0:0:0:
320,192,164321,128,0,164907:0:0:0:0:
64,192,164321,128,0,165033:0:0:0:0:
192,192,164824,128,0,165158:0:0:0:0:
320,192,164950,128,0,165284:0:0:0:0:
64,192,165075,128,0,166290:0:0:0:0:
192,192,165201,128,0,166290:0:0:0:0:
320,192,165326,128,0,166038:0:0:0:0:
448,192,165326,128,0,167295:0:0:0:0:
320,192,166080,128,0,167295:0:0:0:0:
64,192,166331,128,0,169347:0:0:0:0:
192,192,166331,128,0,169347:0:0:0:0:
448,192,167337,128,0,169347:0:0:0:0:
320,192,167337,128,0,169347:0:0:0:0:
