osu file format v14

[General]
AudioFilename: audio110.mp3
AudioLeadIn: 0
PreviewTime: -1
Countdown: 0
SampleSet: None
StackLeniency: 0.7
Mode: 3
LetterboxInBreaks: 0
SpecialStyle: 0
WidescreenStoryboard: 0

[Editor]
DistanceSpacing: 0.8
BeatDivisor: 12
GridSize: 32
TimelineZoom: 2.2

[Metadata]
Title:AO-INFINITY
TitleUnicode:AO-∞
Artist:Seiryu
ArtistUnicode:青龍
Creator:Affinityy
Version:Reflection [1.1x Rate]
Source:REFLEC BEAT plus
Tags:
BeatmapID:2458398
BeatmapSetID:1177420

[Difficulty]
HPDrainRate:6
CircleSize:4
OverallDifficulty:0
ApproachRate:5
SliderMultiplier:1.4
SliderTickRate:1

[Events]
//Background and Video events
0,0,"bg.png",0,0
//Break Periods
//Storyboard Layer 0 (Background)
//Storyboard Layer 1 (Fail)
//Storyboard Layer 2 (Pass)
//Storyboard Layer 3 (Foreground)
//Storyboard Layer 4 (Overlay)
//Storyboard Sound Samples

[TimingPoints]
526,285.5782960495,4,2,1,30,1,0
55333,-100,4,2,1,30,0,1
73610,-100,4,2,1,30,0,0
137295,-100,4,2,1,30,0,1
174205,-100,4,2,1,30,0,0

[HitObjects]
320,192,526,128,0,2192:0:0:0:0:
64,192,526,128,0,1621:0:0:0:0:
192,192,1383,128,0,2763:0:0:0:0:
448,192,1668,128,0,4905:0:0:0:0:
64,192,1668,128,0,2763:0:0:0:0:
320,192,2239,128,0,3905:0:0:0:0:
64,192,2811,128,0,3905:0:0:0:0:
192,192,2811,128,0,3620:0:0:0:0:
192,192,3667,128,0,4619:0:0:0:0:
64,192,3953,128,0,4476:0:0:0:0:
320,192,3953,128,0,4762:0:0:0:0:
64,192,4524,128,0,5047:0:0:0:0:
192,192,4666,128,0,5047:0:0:0:0:
320,192,4810,128,0,6190:0:0:0:0:
448,192,4953,128,0,6761:0:0:0:0:
64,192,5095,128,0,6190:0:0:0:0:
192,192,5095,128,0,5905:0:0:0:0:
192,192,5952,128,0,7332:0:0:0:0:
64,192,6237,128,0,7332:0:0:0:0:
320,192,6237,128,0,7618:0:0:0:0:
448,192,6808,128,0,7904:0:0:0:0:
64,192,7380,128,0,8475:0:0:0:0:
192,192,7380,128,0,8189:0:0:0:0:
320,192,7665,128,0,8475:0:0:0:0:
448,192,7951,128,0,9045:0:0:0:0:
192,192,8236,128,0,10759:0:0:0:0:
64,192,8522,128,0,11330:0:0:0:0:
320,192,8522,128,0,9616:0:0:0:0:
448,192,9094,128,0,9616:0:0:0:0:
320,192,9665,128,0,10474:0:0:0:0:
448,192,9665,128,0,10759:0:0:0:0:
320,192,10521,128,0,13329:0:0:0:0:
192,192,10806,128,0,11902:0:0:0:0:
448,192,10806,128,0,13044:0:0:0:0:
64,192,11378,128,0,11902:0:0:0:0:
192,192,11949,128,0,12758:0:0:0:0:
64,192,11949,128,0,13044:0:0:0:0:
192,192,12805,128,0,13757:0:0:0:0:
64,192,13091,128,0,13615:0:0:0:0:
448,192,13091,128,0,14044:0:0:0:0:
320,192,13377,128,0,13901:0:0:0:0:
64,192,13663,128,0,14186:0:0:0:0:
192,192,13805,128,0,14186:0:0:0:0:
320,192,13948,128,0,15043:0:0:0:0:
448,192,14091,128,0,15328:0:0:0:0:
192,192,14234,128,0,15899:0:0:0:0:
64,192,14234,128,0,15328:0:0:0:0:
320,192,15090,128,0,16471:0:0:0:0:
448,192,15376,128,0,16471:0:0:0:0:
64,192,15376,128,0,18755:0:0:0:0:
192,192,15947,128,0,19612:0:0:0:0:
320,192,16518,128,0,19897:0:0:0:0:
448,192,16518,128,0,18755:0:0:0:0:
64,192,18803,128,0,20469:0:0:0:0:
448,192,18803,128,0,19897:0:0:0:0:
192,192,19660,128,0,21040:0:0:0:0:
320,192,19945,128,0,21896:0:0:0:0:
448,192,19945,128,0,21040:0:0:0:0:
64,192,20516,128,0,22182:0:0:0:0:
192,192,21087,128,0,22896:0:0:0:0:
448,192,21087,128,0,22182:0:0:0:0:
320,192,21945,128,0,23039:0:0:0:0:
64,192,22230,128,0,22754:0:0:0:0:
448,192,22230,128,0,23182:0:0:0:0:
64,192,22801,128,0,23325:0:0:0:0:
192,192,22944,128,0,23325:0:0:0:0:
320,192,23086,128,0,24181:0:0:0:0:
448,192,23229,128,0,24467:0:0:0:0:
192,192,23372,128,0,24467:0:0:0:0:
64,192,23372,128,0,25609:0:0:0:0:
320,192,24229,128,0,25038:0:0:0:0:
192,192,24515,128,0,26180:0:0:0:0:
448,192,24515,128,0,25609:0:0:0:0:
320,192,25085,128,0,25895:0:0:0:0:
64,192,25656,128,0,26466:0:0:0:0:
448,192,25656,128,0,26752:0:0:0:0:
320,192,25943,128,0,26752:0:0:0:0:
192,192,26228,128,0,27323:0:0:0:0:
64,192,26514,128,0,27894:0:0:0:0:
320,192,26799,128,0,28751:0:0:0:0:
448,192,26799,128,0,27894:0:0:0:0:
192,192,27370,128,0,29036:0:0:0:0:
448,192,27942,128,0,29036:0:0:0:0:
64,192,27942,128,0,29607:0:0:0:0:
320,192,28798,128,0,30178:0:0:0:0:
448,192,29084,128,0,30178:0:0:0:0:
192,192,29084,128,0,31035:0:0:0:0:
64,192,29655,128,0,31321:0:0:0:0:
448,192,30226,128,0,31321:0:0:0:0:
320,192,30226,128,0,31606:0:0:0:0:
192,192,31083,128,0,32035:0:0:0:0:
64,192,31368,128,0,31892:0:0:0:0:
448,192,31368,128,0,32320:0:0:0:0:
320,192,31654,128,0,32177:0:0:0:0:
64,192,31939,128,0,32463:0:0:0:0:
192,192,32083,128,0,32463:0:0:0:0:
320,192,32225,128,0,33605:0:0:0:0:
448,192,32368,128,0,33320:0:0:0:0:
64,192,32511,128,0,33605:0:0:0:0:
192,192,32511,128,0,34176:0:0:0:0:
448,192,33367,128,0,34747:0:0:0:0:
320,192,33653,128,0,34747:0:0:0:0:
64,192,33653,128,0,36461:0:0:0:0:
192,192,34225,128,0,35890:0:0:0:0:
320,192,34795,128,0,36105:0:0:0:0:
448,192,34795,128,0,36318:0:0:0:0:
192,192,35937,128,0,37175:0:0:0:0:
320,192,36152,128,0,36675:0:0:0:0:
448,192,36366,128,0,37033:0:0:0:0:
64,192,36509,128,0,37033:0:0:0:0:
320,192,36723,128,0,36889:0:0:0:0:
320,192,36937,128,0,37104:0:0:0:0:
448,192,37080,128,0,37318:0:0:0:0:
64,192,37080,128,0,37246:0:0:0:0:
320,192,37151,128,0,38104:0:0:0:0:
192,192,37223,128,0,37461:0:0:0:0:
64,192,37295,128,0,37746:0:0:0:0:
448,192,37365,128,0,37604:0:0:0:0:
192,192,37508,128,0,38032:0:0:0:0:
448,192,37651,128,0,37889:0:0:0:0:
64,192,37794,128,0,38175:0:0:0:0:
448,192,37936,128,0,38175:0:0:0:0:
192,192,38079,128,0,38246:0:0:0:0:
320,192,38151,128,0,38317:0:0:0:0:
448,192,38222,128,0,38389:0:0:0:0:
64,192,38222,128,0,38460:0:0:0:0:
192,192,38294,128,0,39317:0:0:0:0:
320,192,38365,128,0,38603:0:0:0:0:
448,192,38436,128,0,38888:0:0:0:0:
64,192,38508,128,0,38745:0:0:0:0:
320,192,38651,128,0,39175:0:0:0:0:
64,192,38794,128,0,39032:0:0:0:0:
448,192,38936,128,0,39317:0:0:0:0:
64,192,39079,128,0,39745:0:0:0:0:
320,192,39222,128,0,39531:0:0:0:0:
192,192,39365,128,0,39531:0:0:0:0:
448,192,39365,128,0,39888:0:0:0:0:
320,192,39579,128,0,39745:0:0:0:0:
192,192,39579,128,0,39888:0:0:0:0:
320,192,39793,128,0,40103:0:0:0:0:
64,192,39793,128,0,40459:0:0:0:0:
448,192,39935,128,0,40103:0:0:0:0:
192,192,39935,128,0,40459:0:0:0:0:
320,192,40150,128,0,40316:0:0:0:0:
448,192,40150,128,0,40316:0:0:0:0:
320,192,40364,128,0,40674:0:0:0:0:
448,192,40364,128,0,40887:0:0:0:0:
192,192,40507,128,0,40674:0:0:0:0:
64,192,40507,128,0,41030:0:0:0:0:
192,192,40721,128,0,41030:0:0:0:0:
320,192,40721,128,0,40887:0:0:0:0:
320,192,40935,128,0,41245:0:0:0:0:
448,192,40935,128,0,41602:0:0:0:0:
192,192,41078,128,0,41245:0:0:0:0:
64,192,41078,128,0,41602:0:0:0:0:
320,192,41292,128,0,41459:0:0:0:0:
192,192,41292,128,0,41459:0:0:0:0:
320,192,41506,128,0,41673:0:0:0:0:
192,192,41506,128,0,41745:0:0:0:0:
448,192,41649,128,0,41887:0:0:0:0:
64,192,41649,128,0,41815:0:0:0:0:
320,192,41721,128,0,42673:0:0:0:0:
192,192,41792,128,0,42030:0:0:0:0:
64,192,41864,128,0,42315:0:0:0:0:
448,192,41935,128,0,42173:0:0:0:0:
192,192,42077,128,0,42601:0:0:0:0:
448,192,42220,128,0,42458:0:0:0:0:
64,192,42363,128,0,42744:0:0:0:0:
448,192,42506,128,0,42744:0:0:0:0:
192,192,42649,128,0,42815:0:0:0:0:
320,192,42720,128,0,42886:0:0:0:0:
448,192,42792,128,0,42958:0:0:0:0:
64,192,42792,128,0,43029:0:0:0:0:
192,192,42863,128,0,43886:0:0:0:0:
320,192,42935,128,0,43172:0:0:0:0:
448,192,43005,128,0,43458:0:0:0:0:
64,192,43077,128,0,43315:0:0:0:0:
320,192,43220,128,0,43744:0:0:0:0:
64,192,43363,128,0,43601:0:0:0:0:
448,192,43505,128,0,44100:0:0:0:0:
64,192,43648,128,0,43886:0:0:0:0:
320,192,43791,128,0,44315:0:0:0:0:
192,192,43934,128,0,44100:0:0:0:0:
64,192,43934,128,0,44457:0:0:0:0:
448,192,44148,128,0,44315:0:0:0:0:
192,192,44148,128,0,44457:0:0:0:0:
320,192,44362,128,0,44672:0:0:0:0:
448,192,44362,128,0,45028:0:0:0:0:
192,192,44505,128,0,45028:0:0:0:0:
64,192,44505,128,0,44672:0:0:0:0:
320,192,44719,128,0,44885:0:0:0:0:
64,192,44719,128,0,44885:0:0:0:0:
320,192,44934,128,0,45243:0:0:0:0:
64,192,44934,128,0,45457:0:0:0:0:
448,192,45076,128,0,45243:0:0:0:0:
192,192,45076,128,0,45600:0:0:0:0:
320,192,45290,128,0,45457:0:0:0:0:
448,192,45290,128,0,45600:0:0:0:0:
320,192,45505,128,0,45743:0:0:0:0:
64,192,45505,128,0,45814:0:0:0:0:
448,192,45647,128,0,45885:0:0:0:0:
192,192,45647,128,0,45814:0:0:0:0:
320,192,45790,128,0,46028:0:0:0:0:
192,192,45862,128,0,46099:0:0:0:0:
64,192,45862,128,0,45956:0:0:0:0:
448,192,45933,128,0,46028:0:0:0:0:
64,192,46005,128,0,46242:0:0:0:0:
448,192,46075,128,0,46171:0:0:0:0:
320,192,46075,128,0,46171:0:0:0:0:
192,192,46147,128,0,46314:0:0:0:0:
320,192,46218,128,0,46385:0:0:0:0:
448,192,46218,128,0,46456:0:0:0:0:
64,192,46290,128,0,46456:0:0:0:0:
192,192,46361,128,0,46599:0:0:0:0:
320,192,46433,128,0,46885:0:0:0:0:
448,192,46504,128,0,46742:0:0:0:0:
64,192,46504,128,0,46742:0:0:0:0:
192,192,46646,128,0,47027:0:0:0:0:
64,192,46790,128,0,47027:0:0:0:0:
448,192,46790,128,0,47170:0:0:0:0:
320,192,46933,128,0,47242:0:0:0:0:
192,192,47075,128,0,47313:0:0:0:0:
64,192,47075,128,0,47313:0:0:0:0:
448,192,47218,128,0,47385:0:0:0:0:
320,192,47289,128,0,47456:0:0:0:0:
192,192,47361,128,0,47527:0:0:0:0:
64,192,47361,128,0,47599:0:0:0:0:
448,192,47432,128,0,47599:0:0:0:0:
320,192,47504,128,0,47742:0:0:0:0:
192,192,47575,128,0,48027:0:0:0:0:
448,192,47646,128,0,47885:0:0:0:0:
64,192,47646,128,0,47885:0:0:0:0:
320,192,47789,128,0,48170:0:0:0:0:
448,192,47932,128,0,48170:0:0:0:0:
64,192,47932,128,0,48455:0:0:0:0:
192,192,48075,128,0,48313:0:0:0:0:
320,192,48217,128,0,48670:0:0:0:0:
448,192,48217,128,0,48455:0:0:0:0:
192,192,48360,128,0,48741:0:0:0:0:
448,192,48503,128,0,49026:0:0:0:0:
64,192,48503,128,0,48741:0:0:0:0:
320,192,48717,128,0,48884:0:0:0:0:
192,192,48789,128,0,49026:0:0:0:0:
64,192,48789,128,0,49241:0:0:0:0:
320,192,48932,128,0,49312:0:0:0:0:
448,192,49075,128,0,49312:0:0:0:0:
192,192,49075,128,0,49455:0:0:0:0:
64,192,49288,128,0,49598:0:0:0:0:
320,192,49360,128,0,49598:0:0:0:0:
448,192,49360,128,0,49884:0:0:0:0:
192,192,49503,128,0,49884:0:0:0:0:
320,192,49645,128,0,49812:0:0:0:0:
64,192,49645,128,0,50026:0:0:0:0:
320,192,49860,128,0,50169:0:0:0:0:
448,192,49931,128,0,50169:0:0:0:0:
192,192,49931,128,0,50240:0:0:0:0:
64,192,50074,128,0,50240:0:0:0:0:
320,192,50216,128,0,50335:0:0:0:0:
448,192,50216,128,0,50312:0:0:0:0:
192,192,50288,128,0,50383:0:0:0:0:
64,192,50288,128,0,50407:0:0:0:0:
448,192,50359,128,0,50455:0:0:0:0:
320,192,50383,128,0,50597:0:0:0:0:
192,192,50431,128,0,50525:0:0:0:0:
64,192,50455,128,0,50669:0:0:0:0:
448,192,50502,128,0,50740:0:0:0:0:
192,192,50574,128,0,50812:0:0:0:0:
320,192,50645,128,0,50740:0:0:0:0:
64,192,50716,128,0,50883:0:0:0:0:
320,192,50787,128,0,50955:0:0:0:0:
448,192,50787,128,0,51025:0:0:0:0:
192,192,50859,128,0,51025:0:0:0:0:
64,192,50931,128,0,51097:0:0:0:0:
320,192,51002,128,0,51168:0:0:0:0:
448,192,51074,128,0,51311:0:0:0:0:
192,192,51074,128,0,51240:0:0:0:0:
64,192,51145,128,0,51311:0:0:0:0:
320,192,51216,128,0,51383:0:0:0:0:
192,192,51287,128,0,51454:0:0:0:0:
448,192,51359,128,0,51597:0:0:0:0:
64,192,51359,128,0,51525:0:0:0:0:
320,192,51430,128,0,51597:0:0:0:0:
192,192,51502,128,0,51668:0:0:0:0:
64,192,51573,128,0,51740:0:0:0:0:
320,192,51645,128,0,51954:0:0:0:0:
448,192,51645,128,0,51811:0:0:0:0:
192,192,51715,128,0,51883:0:0:0:0:
64,192,51787,128,0,51883:0:0:0:0:
448,192,51858,128,0,52025:0:0:0:0:
192,192,51930,128,0,52096:0:0:0:0:
64,192,51930,128,0,52168:0:0:0:0:
320,192,52002,128,0,52168:0:0:0:0:
448,192,52073,128,0,52239:0:0:0:0:
192,192,52145,128,0,52311:0:0:0:0:
320,192,52215,128,0,52382:0:0:0:0:
64,192,52215,128,0,52454:0:0:0:0:
448,192,52287,128,0,52454:0:0:0:0:
192,192,52358,128,0,52525:0:0:0:0:
320,192,52430,128,0,52596:0:0:0:0:
448,192,52501,128,0,52668:0:0:0:0:
64,192,52501,128,0,52739:0:0:0:0:
192,192,52573,128,0,52739:0:0:0:0:
320,192,52644,128,0,52811:0:0:0:0:
448,192,52715,128,0,52882:0:0:0:0:
64,192,52786,128,0,53096:0:0:0:0:
192,192,52786,128,0,52954:0:0:0:0:
320,192,52858,128,0,53025:0:0:0:0:
448,192,52929,128,0,53025:0:0:0:0:
192,192,53001,128,0,53167:0:0:0:0:
320,192,53073,128,0,53239:0:0:0:0:
448,192,53073,128,0,53167:0:0:0:0:
64,192,53144,128,0,53310:0:0:0:0:
192,192,53215,128,0,53310:0:0:0:0:
448,192,53215,128,0,53382:0:0:0:0:
320,192,53286,128,0,53453:0:0:0:0:
192,192,53358,128,0,53525:0:0:0:0:
64,192,53358,128,0,53453:0:0:0:0:
448,192,53429,128,0,53595:0:0:0:0:
320,192,53501,128,0,53595:0:0:0:0:
64,192,53501,128,0,53667:0:0:0:0:
192,192,53572,128,0,53667:0:0:0:0:
448,192,53644,128,0,53739:0:0:0:0:
320,192,53644,128,0,53739:0:0:0:0:
192,192,53715,128,0,53810:0:0:0:0:
64,192,53715,128,0,53810:0:0:0:0:
320,192,53786,128,0,53882:0:0:0:0:
448,192,53786,128,0,53882:0:0:0:0:
192,192,53857,128,0,53953:0:0:0:0:
64,192,53857,128,0,53953:0:0:0:0:
448,192,53929,128,0,54025:0:0:0:0:
320,192,53929,128,0,54025:0:0:0:0:
192,192,54000,128,0,54095:0:0:0:0:
64,192,54000,128,0,54095:0:0:0:0:
320,192,54072,128,0,54167:0:0:0:0:
448,192,54072,128,0,54167:0:0:0:0:
192,192,54144,128,0,54453:0:0:0:0:
64,192,54144,128,0,54453:0:0:0:0:
320,192,54215,128,0,54738:0:0:0:0:
448,192,54215,128,0,54453:0:0:0:0:
192,192,54500,128,0,55024:0:0:0:0:
64,192,54500,128,0,55024:0:0:0:0:
448,192,54500,128,0,54738:0:0:0:0:
448,192,54785,128,0,54881:0:0:0:0:
320,192,54785,128,0,54881:0:0:0:0:
448,192,54928,128,0,55024:0:0:0:0:
320,192,54928,128,0,55024:0:0:0:0:
64,192,55071,128,0,55309:0:0:0:0:
192,192,55071,128,0,55381:0:0:0:0:
320,192,55071,128,0,55381:0:0:0:0:
448,192,55071,128,0,55309:0:0:0:0:
64,192,55357,128,0,55452:0:0:0:0:
448,192,55357,128,0,55452:0:0:0:0:
320,192,55428,128,0,55524:0:0:0:0:
192,192,55428,128,0,55524:0:0:0:0:
64,192,55500,128,0,55595:0:0:0:0:
448,192,55500,128,0,55595:0:0:0:0:
320,192,55571,128,0,55737:0:0:0:0:
192,192,55571,128,0,55666:0:0:0:0:
64,192,55643,128,0,55809:0:0:0:0:
448,192,55643,128,0,55737:0:0:0:0:
192,192,55714,128,0,55881:0:0:0:0:
320,192,55785,128,0,55881:0:0:0:0:
448,192,55785,128,0,55952:0:0:0:0:
64,192,55856,128,0,56024:0:0:0:0:
192,192,55928,128,0,56024:0:0:0:0:
320,192,55928,128,0,56095:0:0:0:0:
448,192,55999,128,0,56166:0:0:0:0:
192,192,56071,128,0,56166:0:0:0:0:
64,192,56071,128,0,56237:0:0:0:0:
320,192,56143,128,0,56309:0:0:0:0:
448,192,56214,128,0,56309:0:0:0:0:
192,192,56214,128,0,56380:0:0:0:0:
64,192,56285,128,0,56523:0:0:0:0:
320,192,56356,128,0,56452:0:0:0:0:
448,192,56356,128,0,56452:0:0:0:0:
192,192,56428,128,0,56523:0:0:0:0:
448,192,56499,128,0,56595:0:0:0:0:
320,192,56499,128,0,56595:0:0:0:0:
192,192,56571,128,0,56665:0:0:0:0:
64,192,56571,128,0,56665:0:0:0:0:
320,192,56642,128,0,56737:0:0:0:0:
448,192,56642,128,0,56737:0:0:0:0:
192,192,56714,128,0,56808:0:0:0:0:
64,192,56714,128,0,56880:0:0:0:0:
320,192,56785,128,0,56952:0:0:0:0:
448,192,56785,128,0,56880:0:0:0:0:
192,192,56856,128,0,57023:0:0:0:0:
64,192,56927,128,0,57023:0:0:0:0:
448,192,56927,128,0,57095:0:0:0:0:
320,192,56999,128,0,57165:0:0:0:0:
192,192,57070,128,0,57237:0:0:0:0:
64,192,57070,128,0,57165:0:0:0:0:
448,192,57142,128,0,57308:0:0:0:0:
320,192,57214,128,0,57308:0:0:0:0:
64,192,57214,128,0,57380:0:0:0:0:
192,192,57285,128,0,57451:0:0:0:0:
320,192,57356,128,0,57523:0:0:0:0:
448,192,57356,128,0,57451:0:0:0:0:
64,192,57427,128,0,57594:0:0:0:0:
448,192,57499,128,0,57665:0:0:0:0:
192,192,57499,128,0,57594:0:0:0:0:
320,192,57570,128,0,57736:0:0:0:0:
192,192,57642,128,0,57808:0:0:0:0:
64,192,57642,128,0,57880:0:0:0:0:
448,192,57713,128,0,57808:0:0:0:0:
320,192,57785,128,0,57951:0:0:0:0:
448,192,57855,128,0,58094:0:0:0:0:
192,192,57855,128,0,58023:0:0:0:0:
64,192,57927,128,0,58023:0:0:0:0:
320,192,57998,128,0,58165:0:0:0:0:
192,192,58070,128,0,58236:0:0:0:0:
64,192,58070,128,0,58165:0:0:0:0:
448,192,58141,128,0,58379:0:0:0:0:
320,192,58213,128,0,58308:0:0:0:0:
64,192,58213,128,0,58379:0:0:0:0:
192,192,58285,128,0,58451:0:0:0:0:
320,192,58355,128,0,58522:0:0:0:0:
448,192,58427,128,0,58594:0:0:0:0:
64,192,58427,128,0,58594:0:0:0:0:
192,192,58498,128,0,58665:0:0:0:0:
320,192,58570,128,0,58736:0:0:0:0:
448,192,58641,128,0,58736:0:0:0:0:
64,192,58641,128,0,58807:0:0:0:0:
192,192,58713,128,0,58951:0:0:0:0:
320,192,58784,128,0,58951:0:0:0:0:
448,192,58784,128,0,58879:0:0:0:0:
64,192,58855,128,0,59022:0:0:0:0:
448,192,58926,128,0,59165:0:0:0:0:
320,192,58998,128,0,59094:0:0:0:0:
192,192,58998,128,0,59165:0:0:0:0:
64,192,59069,128,0,59236:0:0:0:0:
320,192,59141,128,0,59307:0:0:0:0:
448,192,59212,128,0,59307:0:0:0:0:
192,192,59212,128,0,59379:0:0:0:0:
64,192,59284,128,0,59379:0:0:0:0:
320,192,59355,128,0,59450:0:0:0:0:
448,192,59355,128,0,59450:0:0:0:0:
192,192,59426,128,0,59522:0:0:0:0:
64,192,59426,128,0,59593:0:0:0:0:
320,192,59498,128,0,59665:0:0:0:0:
448,192,59498,128,0,59593:0:0:0:0:
192,192,59569,128,0,59665:0:0:0:0:
64,192,59641,128,0,59735:0:0:0:0:
448,192,59641,128,0,59735:0:0:0:0:
192,192,59712,128,0,59807:0:0:0:0:
320,192,59712,128,0,59878:0:0:0:0:
448,192,59784,128,0,59878:0:0:0:0:
64,192,59784,128,0,59950:0:0:0:0:
192,192,59855,128,0,59950:0:0:0:0:
320,192,59926,128,0,60022:0:0:0:0:
448,192,59926,128,0,60022:0:0:0:0:
192,192,59997,128,0,60093:0:0:0:0:
64,192,59997,128,0,60093:0:0:0:0:
320,192,60069,128,0,60165:0:0:0:0:
448,192,60069,128,0,60165:0:0:0:0:
192,192,60140,128,0,60235:0:0:0:0:
64,192,60140,128,0,60307:0:0:0:0:
320,192,60212,128,0,60378:0:0:0:0:
448,192,60212,128,0,60307:0:0:0:0:
192,192,60283,128,0,60450:0:0:0:0:
64,192,60355,128,0,60450:0:0:0:0:
448,192,60355,128,0,60521:0:0:0:0:
320,192,60426,128,0,60593:0:0:0:0:
192,192,60497,128,0,60664:0:0:0:0:
64,192,60497,128,0,60593:0:0:0:0:
448,192,60569,128,0,60735:0:0:0:0:
320,192,60640,128,0,60735:0:0:0:0:
64,192,60640,128,0,60806:0:0:0:0:
192,192,60712,128,0,60878:0:0:0:0:
320,192,60783,128,0,60949:0:0:0:0:
448,192,60783,128,0,60878:0:0:0:0:
64,192,60855,128,0,61021:0:0:0:0:
192,192,60925,128,0,61093:0:0:0:0:
448,192,60925,128,0,61021:0:0:0:0:
320,192,60997,128,0,61093:0:0:0:0:
448,192,61068,128,0,61164:0:0:0:0:
64,192,61068,128,0,61164:0:0:0:0:
320,192,61140,128,0,61235:0:0:0:0:
192,192,61140,128,0,61235:0:0:0:0:
64,192,61211,128,0,61306:0:0:0:0:
448,192,61211,128,0,61306:0:0:0:0:
192,192,61283,128,0,61378:0:0:0:0:
320,192,61283,128,0,61449:0:0:0:0:
448,192,61354,128,0,61449:0:0:0:0:
64,192,61354,128,0,61521:0:0:0:0:
192,192,61425,128,0,61592:0:0:0:0:
320,192,61497,128,0,61664:0:0:0:0:
448,192,61497,128,0,61592:0:0:0:0:
64,192,61568,128,0,61735:0:0:0:0:
192,192,61640,128,0,61735:0:0:0:0:
448,192,61640,128,0,61806:0:0:0:0:
320,192,61711,128,0,61877:0:0:0:0:
192,192,61783,128,0,61877:0:0:0:0:
64,192,61783,128,0,61949:0:0:0:0:
448,192,61854,128,0,62020:0:0:0:0:
320,192,61925,128,0,62020:0:0:0:0:
192,192,61925,128,0,62092:0:0:0:0:
64,192,61996,128,0,62164:0:0:0:0:
320,192,62068,128,0,62164:0:0:0:0:
448,192,62068,128,0,62235:0:0:0:0:
192,192,62139,128,0,62306:0:0:0:0:
64,192,62211,128,0,62449:0:0:0:0:
320,192,62211,128,0,62377:0:0:0:0:
448,192,62282,128,0,62377:0:0:0:0:
192,192,62354,128,0,62520:0:0:0:0:
320,192,62425,128,0,62592:0:0:0:0:
448,192,62425,128,0,62663:0:0:0:0:
64,192,62496,128,0,62592:0:0:0:0:
192,192,62568,128,0,62735:0:0:0:0:
64,192,62639,128,0,62735:0:0:0:0:
320,192,62639,128,0,62805:0:0:0:0:
448,192,62711,128,0,62948:0:0:0:0:
64,192,62782,128,0,62948:0:0:0:0:
192,192,62782,128,0,62877:0:0:0:0:
320,192,62854,128,0,63020:0:0:0:0:
192,192,62925,128,0,63091:0:0:0:0:
64,192,62996,128,0,63163:0:0:0:0:
448,192,62996,128,0,63163:0:0:0:0:
320,192,63067,128,0,63235:0:0:0:0:
192,192,63139,128,0,63305:0:0:0:0:
64,192,63210,128,0,63305:0:0:0:0:
448,192,63210,128,0,63377:0:0:0:0:
320,192,63282,128,0,63520:0:0:0:0:
192,192,63353,128,0,63448:0:0:0:0:
64,192,63353,128,0,63520:0:0:0:0:
448,192,63425,128,0,63591:0:0:0:0:
192,192,63496,128,0,63734:0:0:0:0:
64,192,63567,128,0,63663:0:0:0:0:
320,192,63567,128,0,63805:0:0:0:0:
448,192,63639,128,0,63734:0:0:0:0:
64,192,63710,128,0,63876:0:0:0:0:
192,192,63782,128,0,63876:0:0:0:0:
448,192,63782,128,0,63948:0:0:0:0:
320,192,63853,128,0,64019:0:0:0:0:
192,192,63925,128,0,64091:0:0:0:0:
64,192,63925,128,0,64162:0:0:0:0:
448,192,63995,128,0,64162:0:0:0:0:
320,192,64067,128,0,64234:0:0:0:0:
192,192,64138,128,0,64305:0:0:0:0:
64,192,64210,128,0,64448:0:0:0:0:
448,192,64210,128,0,64448:0:0:0:0:
320,192,64281,128,0,64376:0:0:0:0:
192,192,64353,128,0,64519:0:0:0:0:
320,192,64424,128,0,64519:0:0:0:0:
448,192,64495,128,0,64591:0:0:0:0:
64,192,64495,128,0,64591:0:0:0:0:
320,192,64567,128,0,64662:0:0:0:0:
192,192,64567,128,0,64662:0:0:0:0:
64,192,64638,128,0,64734:0:0:0:0:
448,192,64638,128,0,64734:0:0:0:0:
320,192,64710,128,0,64805:0:0:0:0:
192,192,64710,128,0,64876:0:0:0:0:
64,192,64781,128,0,64876:0:0:0:0:
448,192,64781,128,0,64947:0:0:0:0:
320,192,64853,128,0,65019:0:0:0:0:
192,192,64924,128,0,65019:0:0:0:0:
64,192,64924,128,0,65090:0:0:0:0:
448,192,64995,128,0,65162:0:0:0:0:
320,192,65066,128,0,65162:0:0:0:0:
192,192,65066,128,0,65234:0:0:0:0:
64,192,65138,128,0,65305:0:0:0:0:
448,192,65209,128,0,65376:0:0:0:0:
320,192,65209,128,0,65305:0:0:0:0:
192,192,65281,128,0,65447:0:0:0:0:
64,192,65352,128,0,65447:0:0:0:0:
320,192,65352,128,0,65519:0:0:0:0:
448,192,65424,128,0,65662:0:0:0:0:
192,192,65495,128,0,65590:0:0:0:0:
64,192,65495,128,0,65590:0:0:0:0:
320,192,65566,128,0,65662:0:0:0:0:
192,192,65638,128,0,65733:0:0:0:0:
64,192,65638,128,0,65733:0:0:0:0:
448,192,65709,128,0,65805:0:0:0:0:
320,192,65709,128,0,65805:0:0:0:0:
64,192,65781,128,0,65875:0:0:0:0:
192,192,65781,128,0,65875:0:0:0:0:
320,192,65852,128,0,65947:0:0:0:0:
448,192,65852,128,0,66018:0:0:0:0:
192,192,65924,128,0,66090:0:0:0:0:
64,192,65924,128,0,66018:0:0:0:0:
320,192,65995,128,0,66161:0:0:0:0:
448,192,66066,128,0,66161:0:0:0:0:
64,192,66066,128,0,66233:0:0:0:0:
192,192,66137,128,0,66305:0:0:0:0:
320,192,66209,128,0,66375:0:0:0:0:
448,192,66209,128,0,66305:0:0:0:0:
64,192,66280,128,0,66447:0:0:0:0:
192,192,66352,128,0,66447:0:0:0:0:
448,192,66352,128,0,66590:0:0:0:0:
320,192,66423,128,0,66518:0:0:0:0:
192,192,66495,128,0,66590:0:0:0:0:
64,192,66495,128,0,66661:0:0:0:0:
320,192,66565,128,0,66733:0:0:0:0:
448,192,66637,128,0,66733:0:0:0:0:
192,192,66637,128,0,66804:0:0:0:0:
64,192,66709,128,0,66946:0:0:0:0:
320,192,66780,128,0,66875:0:0:0:0:
448,192,66780,128,0,66946:0:0:0:0:
192,192,66852,128,0,67018:0:0:0:0:
320,192,66923,128,0,67089:0:0:0:0:
448,192,66995,128,0,67232:0:0:0:0:
64,192,66995,128,0,67161:0:0:0:0:
192,192,67065,128,0,67161:0:0:0:0:
320,192,67137,128,0,67304:0:0:0:0:
192,192,67208,128,0,67375:0:0:0:0:
64,192,67208,128,0,67304:0:0:0:0:
448,192,67280,128,0,67518:0:0:0:0:
320,192,67351,128,0,67446:0:0:0:0:
64,192,67351,128,0,67518:0:0:0:0:
192,192,67423,128,0,67589:0:0:0:0:
320,192,67494,128,0,67661:0:0:0:0:
448,192,67565,128,0,67732:0:0:0:0:
64,192,67565,128,0,67732:0:0:0:0:
192,192,67636,128,0,67804:0:0:0:0:
320,192,67708,128,0,67875:0:0:0:0:
448,192,67780,128,0,67875:0:0:0:0:
64,192,67780,128,0,67946:0:0:0:0:
192,192,67851,128,0,68089:0:0:0:0:
320,192,67923,128,0,68089:0:0:0:0:
448,192,67923,128,0,68017:0:0:0:0:
64,192,67994,128,0,68160:0:0:0:0:
448,192,68065,128,0,68232:0:0:0:0:
320,192,68136,128,0,68375:0:0:0:0:
192,192,68136,128,0,68303:0:0:0:0:
64,192,68208,128,0,68303:0:0:0:0:
448,192,68279,128,0,68446:0:0:0:0:
64,192,68351,128,0,68517:0:0:0:0:
192,192,68351,128,0,68446:0:0:0:0:
320,192,68422,128,0,68589:0:0:0:0:
192,192,68494,128,0,68660:0:0:0:0:
448,192,68494,128,0,68732:0:0:0:0:
64,192,68565,128,0,68660:0:0:0:0:
320,192,68636,128,0,68803:0:0:0:0:
192,192,68707,128,0,68875:0:0:0:0:
64,192,68707,128,0,68875:0:0:0:0:
448,192,68779,128,0,68945:0:0:0:0:
320,192,68851,128,0,69088:0:0:0:0:
192,192,68922,128,0,69017:0:0:0:0:
64,192,68922,128,0,69017:0:0:0:0:
448,192,68994,128,0,69088:0:0:0:0:
192,192,69065,128,0,69160:0:0:0:0:
64,192,69065,128,0,69160:0:0:0:0:
320,192,69136,128,0,69231:0:0:0:0:
448,192,69136,128,0,69231:0:0:0:0:
192,192,69207,128,0,69303:0:0:0:0:
64,192,69207,128,0,69303:0:0:0:0:
320,192,69279,128,0,69445:0:0:0:0:
448,192,69279,128,0,69374:0:0:0:0:
192,192,69350,128,0,69517:0:0:0:0:
64,192,69350,128,0,69445:0:0:0:0:
448,192,69422,128,0,69588:0:0:0:0:
320,192,69493,128,0,69588:0:0:0:0:
64,192,69493,128,0,69660:0:0:0:0:
192,192,69565,128,0,69731:0:0:0:0:
320,192,69635,128,0,69803:0:0:0:0:
448,192,69635,128,0,69731:0:0:0:0:
64,192,69707,128,0,69874:0:0:0:0:
192,192,69779,128,0,69874:0:0:0:0:
448,192,69779,128,0,69945:0:0:0:0:
320,192,69850,128,0,70016:0:0:0:0:
64,192,69922,128,0,70016:0:0:0:0:
192,192,69922,128,0,70088:0:0:0:0:
448,192,69993,128,0,70159:0:0:0:0:
320,192,70065,128,0,70231:0:0:0:0:
64,192,70065,128,0,70159:0:0:0:0:
192,192,70135,128,0,70231:0:0:0:0:
64,192,70207,128,0,70302:0:0:0:0:
448,192,70207,128,0,70302:0:0:0:0:
320,192,70278,128,0,70374:0:0:0:0:
192,192,70278,128,0,70374:0:0:0:0:
64,192,70350,128,0,70445:0:0:0:0:
448,192,70350,128,0,70445:0:0:0:0:
320,192,70421,128,0,70588:0:0:0:0:
192,192,70421,128,0,70516:0:0:0:0:
448,192,70493,128,0,70588:0:0:0:0:
64,192,70493,128,0,70659:0:0:0:0:
192,192,70564,128,0,70731:0:0:0:0:
320,192,70635,128,0,70731:0:0:0:0:
448,192,70635,128,0,70802:0:0:0:0:
64,192,70706,128,0,70874:0:0:0:0:
320,192,70778,128,0,70945:0:0:0:0:
192,192,70778,128,0,70874:0:0:0:0:
448,192,70850,128,0,71016:0:0:0:0:
64,192,70921,128,0,71087:0:0:0:0:
192,192,70921,128,0,71016:0:0:0:0:
320,192,70993,128,0,71159:0:0:0:0:
448,192,71064,128,0,71159:0:0:0:0:
192,192,71064,128,0,71230:0:0:0:0:
64,192,71135,128,0,71302:0:0:0:0:
320,192,71206,128,0,71302:0:0:0:0:
448,192,71206,128,0,71373:0:0:0:0:
192,192,71278,128,0,71445:0:0:0:0:
320,192,71349,128,0,71516:0:0:0:0:
64,192,71349,128,0,71587:0:0:0:0:
448,192,71421,128,0,71516:0:0:0:0:
192,192,71492,128,0,71659:0:0:0:0:
320,192,71564,128,0,71730:0:0:0:0:
448,192,71564,128,0,71802:0:0:0:0:
64,192,71635,128,0,71730:0:0:0:0:
192,192,71706,128,0,71873:0:0:0:0:
320,192,71777,128,0,71945:0:0:0:0:
64,192,71777,128,0,71873:0:0:0:0:
448,192,71849,128,0,72015:0:0:0:0:
192,192,71921,128,0,72087:0:0:0:0:
64,192,71921,128,0,72087:0:0:0:0:
320,192,71992,128,0,72158:0:0:0:0:
448,192,72064,128,0,72373:0:0:0:0:
192,192,72135,128,0,72230:0:0:0:0:
64,192,72135,128,0,72301:0:0:0:0:
320,192,72206,128,0,72301:0:0:0:0:
192,192,72277,128,0,72444:0:0:0:0:
64,192,72349,128,0,72444:0:0:0:0:
320,192,72349,128,0,72587:0:0:0:0:
448,192,72420,128,0,72730:0:0:0:0:
192,192,72492,128,0,72658:0:0:0:0:
64,192,72492,128,0,73015:0:0:0:0:
320,192,72635,128,0,72944:0:0:0:0:
192,192,72705,128,0,72873:0:0:0:0:
448,192,72777,128,0,73158:0:0:0:0:
192,192,72920,128,0,73015:0:0:0:0:
320,192,72992,128,0,73158:0:0:0:0:
192,192,73063,128,0,73301:0:0:0:0:
64,192,73063,128,0,73586:0:0:0:0:
320,192,73205,128,0,73372:0:0:0:0:
448,192,73205,128,0,73586:0:0:0:0:
192,192,73348,128,0,73444:0:0:0:0:
320,192,73420,128,0,73515:0:0:0:0:
192,192,73491,128,0,73586:0:0:0:0:
320,192,73563,128,0,73658:0:0:0:0:
448,192,73634,128,0,73801:0:0:0:0:
192,192,73634,128,0,73872:0:0:0:0:
64,192,73634,128,0,73729:0:0:0:0:
320,192,73705,128,0,73944:0:0:0:0:
64,192,73776,128,0,73872:0:0:0:0:
448,192,73848,128,0,74015:0:0:0:0:
192,192,73919,128,0,74086:0:0:0:0:
64,192,73919,128,0,74157:0:0:0:0:
320,192,73991,128,0,74229:0:0:0:0:
448,192,74063,128,0,74157:0:0:0:0:
192,192,74134,128,0,74300:0:0:0:0:
64,192,74205,128,0,74443:0:0:0:0:
448,192,74205,128,0,74372:0:0:0:0:
320,192,74276,128,0,74515:0:0:0:0:
192,192,74348,128,0,74443:0:0:0:0:
448,192,74419,128,0,74585:0:0:0:0:
64,192,74491,128,0,74729:0:0:0:0:
192,192,74491,128,0,74657:0:0:0:0:
320,192,74562,128,0,74729:0:0:0:0:
448,192,74634,128,0,74800:0:0:0:0:
192,192,74705,128,0,74872:0:0:0:0:
320,192,74776,128,0,75015:0:0:0:0:
64,192,74776,128,0,74943:0:0:0:0:
448,192,74847,128,0,75015:0:0:0:0:
192,192,74919,128,0,75085:0:0:0:0:
64,192,74990,128,0,75300:0:0:0:0:
320,192,75062,128,0,75228:0:0:0:0:
448,192,75062,128,0,75157:0:0:0:0:
192,192,75134,128,0,75300:0:0:0:0:
448,192,75205,128,0,75585:0:0:0:0:
320,192,75276,128,0,75371:0:0:0:0:
192,192,75347,128,0,75514:0:0:0:0:
64,192,75347,128,0,75443:0:0:0:0:
320,192,75419,128,0,75585:0:0:0:0:
64,192,75490,128,0,75656:0:0:0:0:
192,192,75562,128,0,75800:0:0:0:0:
448,192,75633,128,0,75871:0:0:0:0:
320,192,75633,128,0,75728:0:0:0:0:
64,192,75705,128,0,75871:0:0:0:0:
320,192,75775,128,0,75943:0:0:0:0:
192,192,75847,128,0,76014:0:0:0:0:
448,192,75918,128,0,76085:0:0:0:0:
64,192,75918,128,0,76156:0:0:0:0:
320,192,75990,128,0,76156:0:0:0:0:
192,192,76062,128,0,76228:0:0:0:0:
448,192,76133,128,0,76299:0:0:0:0:
320,192,76205,128,0,76371:0:0:0:0:
64,192,76205,128,0,76442:0:0:0:0:
192,192,76275,128,0,76442:0:0:0:0:
448,192,76347,128,0,76514:0:0:0:0:
320,192,76418,128,0,76656:0:0:0:0:
192,192,76490,128,0,76585:0:0:0:0:
64,192,76490,128,0,76727:0:0:0:0:
448,192,76561,128,0,76799:0:0:0:0:
192,192,76633,128,0,76727:0:0:0:0:
320,192,76704,128,0,76871:0:0:0:0:
192,192,76775,128,0,76942:0:0:0:0:
64,192,76775,128,0,77014:0:0:0:0:
448,192,76846,128,0,77014:0:0:0:0:
320,192,76918,128,0,77085:0:0:0:0:
192,192,76989,128,0,77370:0:0:0:0:
64,192,77061,128,0,77156:0:0:0:0:
448,192,77061,128,0,77227:0:0:0:0:
320,192,77133,128,0,77299:0:0:0:0:
64,192,77204,128,0,77299:0:0:0:0:
448,192,77275,128,0,77655:0:0:0:0:
64,192,77346,128,0,77513:0:0:0:0:
320,192,77346,128,0,77442:0:0:0:0:
192,192,77418,128,0,77585:0:0:0:0:
320,192,77489,128,0,77585:0:0:0:0:
64,192,77561,128,0,77870:0:0:0:0:
192,192,77632,128,0,77727:0:0:0:0:
320,192,77632,128,0,77798:0:0:0:0:
448,192,77704,128,0,77942:0:0:0:0:
192,192,77775,128,0,77870:0:0:0:0:
320,192,77846,128,0,78013:0:0:0:0:
64,192,77917,128,0,78085:0:0:0:0:
192,192,77917,128,0,78155:0:0:0:0:
448,192,77989,128,0,78155:0:0:0:0:
320,192,78060,128,0,78155:0:0:0:0:
64,192,78132,128,0,78227:0:0:0:0:
192,192,78204,128,0,78370:0:0:0:0:
320,192,78204,128,0,78298:0:0:0:0:
448,192,78204,128,0,78441:0:0:0:0:
64,192,78275,128,0,78441:0:0:0:0:
320,192,78346,128,0,78655:0:0:0:0:
192,192,78417,128,0,78513:0:0:0:0:
448,192,78489,128,0,78584:0:0:0:0:
64,192,78489,128,0,78726:0:0:0:0:
192,192,78560,128,0,78726:0:0:0:0:
448,192,78632,128,0,78798:0:0:0:0:
320,192,78703,128,0,78870:0:0:0:0:
192,192,78775,128,0,79013:0:0:0:0:
64,192,78775,128,0,78941:0:0:0:0:
448,192,78845,128,0,79013:0:0:0:0:
320,192,78917,128,0,79084:0:0:0:0:
64,192,78988,128,0,79155:0:0:0:0:
192,192,79060,128,0,79226:0:0:0:0:
448,192,79060,128,0,79298:0:0:0:0:
320,192,79131,128,0,79298:0:0:0:0:
64,192,79203,128,0,79584:0:0:0:0:
192,192,79275,128,0,79369:0:0:0:0:
320,192,79345,128,0,79512:0:0:0:0:
448,192,79345,128,0,79441:0:0:0:0:
192,192,79417,128,0,79584:0:0:0:0:
448,192,79488,128,0,79655:0:0:0:0:
320,192,79560,128,0,79797:0:0:0:0:
192,192,79631,128,0,79869:0:0:0:0:
64,192,79631,128,0,79726:0:0:0:0:
448,192,79703,128,0,79869:0:0:0:0:
64,192,79774,128,0,79941:0:0:0:0:
320,192,79845,128,0,80012:0:0:0:0:
448,192,79916,128,0,80155:0:0:0:0:
192,192,79916,128,0,80084:0:0:0:0:
64,192,79988,128,0,80155:0:0:0:0:
320,192,80059,128,0,80226:0:0:0:0:
192,192,80131,128,0,80297:0:0:0:0:
64,192,80202,128,0,80440:0:0:0:0:
448,192,80202,128,0,80369:0:0:0:0:
320,192,80274,128,0,80440:0:0:0:0:
192,192,80345,128,0,80512:0:0:0:0:
448,192,80416,128,0,80583:0:0:0:0:
320,192,80488,128,0,80797:0:0:0:0:
64,192,80488,128,0,80655:0:0:0:0:
192,192,80559,128,0,80725:0:0:0:0:
448,192,80631,128,0,80725:0:0:0:0:
64,192,80702,128,0,80868:0:0:0:0:
448,192,80774,128,0,81012:0:0:0:0:
192,192,80774,128,0,80940:0:0:0:0:
320,192,80845,128,0,81012:0:0:0:0:
64,192,80916,128,0,81083:0:0:0:0:
192,192,80987,128,0,81225:0:0:0:0:
320,192,81059,128,0,81155:0:0:0:0:
448,192,81059,128,0,81297:0:0:0:0:
64,192,81130,128,0,81297:0:0:0:0:
320,192,81202,128,0,81368:0:0:0:0:
192,192,81273,128,0,81440:0:0:0:0:
448,192,81345,128,0,81511:0:0:0:0:
64,192,81345,128,0,81583:0:0:0:0:
320,192,81416,128,0,81654:0:0:0:0:
192,192,81487,128,0,81583:0:0:0:0:
448,192,81559,128,0,81725:0:0:0:0:
192,192,81630,128,0,81796:0:0:0:0:
64,192,81630,128,0,81868:0:0:0:0:
320,192,81702,128,0,81868:0:0:0:0:
448,192,81773,128,0,81939:0:0:0:0:
192,192,81845,128,0,82011:0:0:0:0:
64,192,81915,128,0,82154:0:0:0:0:
320,192,81915,128,0,82083:0:0:0:0:
448,192,81987,128,0,82154:0:0:0:0:
192,192,82058,128,0,82225:0:0:0:0:
320,192,82130,128,0,82296:0:0:0:0:
448,192,82201,128,0,82439:0:0:0:0:
64,192,82201,128,0,82368:0:0:0:0:
192,192,82273,128,0,82725:0:0:0:0:
320,192,82344,128,0,82439:0:0:0:0:
64,192,82415,128,0,82511:0:0:0:0:
320,192,82487,128,0,82582:0:0:0:0:
448,192,82487,128,0,82725:0:0:0:0:
64,192,82558,128,0,82654:0:0:0:0:
320,192,82630,128,0,82725:0:0:0:0:
64,192,82701,128,0,82796:0:0:0:0:
192,192,82773,128,0,82939:0:0:0:0:
320,192,82773,128,0,83010:0:0:0:0:
448,192,82773,128,0,82867:0:0:0:0:
64,192,82844,128,0,83010:0:0:0:0:
448,192,82915,128,0,83082:0:0:0:0:
192,192,82986,128,0,83154:0:0:0:0:
320,192,83058,128,0,83225:0:0:0:0:
64,192,83058,128,0,83296:0:0:0:0:
448,192,83129,128,0,83296:0:0:0:0:
192,192,83201,128,0,83367:0:0:0:0:
320,192,83272,128,0,83439:0:0:0:0:
448,192,83344,128,0,83582:0:0:0:0:
64,192,83344,128,0,83510:0:0:0:0:
192,192,83415,128,0,83582:0:0:0:0:
320,192,83486,128,0,83653:0:0:0:0:
64,192,83558,128,0,83867:0:0:0:0:
448,192,83629,128,0,83795:0:0:0:0:
192,192,83629,128,0,83725:0:0:0:0:
320,192,83701,128,0,83867:0:0:0:0:
192,192,83772,128,0,83938:0:0:0:0:
448,192,83844,128,0,84010:0:0:0:0:
320,192,83915,128,0,84153:0:0:0:0:
64,192,83915,128,0,84225:0:0:0:0:
192,192,83986,128,0,84081:0:0:0:0:
448,192,84057,128,0,84153:0:0:0:0:
192,192,84129,128,0,84295:0:0:0:0:
320,192,84200,128,0,84438:0:0:0:0:
448,192,84200,128,0,84367:0:0:0:0:
64,192,84272,128,0,84438:0:0:0:0:
192,192,84343,128,0,84510:0:0:0:0:
448,192,84415,128,0,84581:0:0:0:0:
320,192,84486,128,0,84724:0:0:0:0:
64,192,84486,128,0,84653:0:0:0:0:
192,192,84557,128,0,84724:0:0:0:0:
448,192,84629,128,0,84795:0:0:0:0:
64,192,84700,128,0,84866:0:0:0:0:
192,192,84772,128,0,85009:0:0:0:0:
320,192,84772,128,0,84938:0:0:0:0:
448,192,84843,128,0,85081:0:0:0:0:
64,192,84915,128,0,85009:0:0:0:0:
320,192,84985,128,0,85153:0:0:0:0:
192,192,85057,128,0,85224:0:0:0:0:
64,192,85057,128,0,85295:0:0:0:0:
448,192,85128,128,0,85295:0:0:0:0:
320,192,85200,128,0,85366:0:0:0:0:
192,192,85271,128,0,85509:0:0:0:0:
64,192,85343,128,0,85438:0:0:0:0:
448,192,85343,128,0,85581:0:0:0:0:
320,192,85414,128,0,85581:0:0:0:0:
64,192,85485,128,0,85795:0:0:0:0:
192,192,85557,128,0,85652:0:0:0:0:
320,192,85628,128,0,85724:0:0:0:0:
448,192,85628,128,0,85937:0:0:0:0:
192,192,85700,128,0,85866:0:0:0:0:
320,192,85771,128,0,85866:0:0:0:0:
64,192,85843,128,0,86152:0:0:0:0:
192,192,85914,128,0,86009:0:0:0:0:
320,192,85914,128,0,86080:0:0:0:0:
448,192,85985,128,0,86152:0:0:0:0:
192,192,86056,128,0,86224:0:0:0:0:
320,192,86128,128,0,86295:0:0:0:0:
64,192,86199,128,0,86437:0:0:0:0:
448,192,86199,128,0,86437:0:0:0:0:
192,192,86271,128,0,86366:0:0:0:0:
320,192,86342,128,0,86509:0:0:0:0:
192,192,86414,128,0,86580:0:0:0:0:
448,192,86485,128,0,86652:0:0:0:0:
64,192,86485,128,0,86723:0:0:0:0:
320,192,86556,128,0,86723:0:0:0:0:
192,192,86628,128,0,86795:0:0:0:0:
448,192,86699,128,0,86865:0:0:0:0:
64,192,86771,128,0,86937:0:0:0:0:
320,192,86771,128,0,87008:0:0:0:0:
192,192,86842,128,0,87008:0:0:0:0:
448,192,86914,128,0,87080:0:0:0:0:
64,192,86985,128,0,87151:0:0:0:0:
192,192,87056,128,0,87295:0:0:0:0:
320,192,87056,128,0,87295:0:0:0:0:
448,192,87127,128,0,87223:0:0:0:0:
64,192,87199,128,0,87295:0:0:0:0:
448,192,87270,128,0,87365:0:0:0:0:
320,192,87342,128,0,87508:0:0:0:0:
192,192,87342,128,0,87437:0:0:0:0:
64,192,87342,128,0,87580:0:0:0:0:
448,192,87413,128,0,87580:0:0:0:0:
192,192,87485,128,0,87651:0:0:0:0:
320,192,87555,128,0,87723:0:0:0:0:
448,192,87627,128,0,87865:0:0:0:0:
64,192,87627,128,0,87794:0:0:0:0:
192,192,87699,128,0,87865:0:0:0:0:
320,192,87770,128,0,87936:0:0:0:0:
64,192,87842,128,0,88008:0:0:0:0:
192,192,87913,128,0,88151:0:0:0:0:
448,192,87913,128,0,88151:0:0:0:0:
320,192,87985,128,0,88079:0:0:0:0:
64,192,88055,128,0,88222:0:0:0:0:
320,192,88127,128,0,88294:0:0:0:0:
192,192,88198,128,0,88365:0:0:0:0:
448,192,88198,128,0,88508:0:0:0:0:
64,192,88270,128,0,88436:0:0:0:0:
320,192,88341,128,0,88436:0:0:0:0:
192,192,88413,128,0,88579:0:0:0:0:
320,192,88484,128,0,88651:0:0:0:0:
64,192,88484,128,0,88722:0:0:0:0:
448,192,88555,128,0,88794:0:0:0:0:
192,192,88626,128,0,88722:0:0:0:0:
320,192,88698,128,0,88936:0:0:0:0:
64,192,88770,128,0,89007:0:0:0:0:
192,192,88770,128,0,88865:0:0:0:0:
448,192,88841,128,0,89007:0:0:0:0:
192,192,88913,128,0,89079:0:0:0:0:
320,192,88984,128,0,89150:0:0:0:0:
448,192,89055,128,0,89293:0:0:0:0:
64,192,89055,128,0,89222:0:0:0:0:
192,192,89126,128,0,89293:0:0:0:0:
320,192,89198,128,0,89365:0:0:0:0:
64,192,89269,128,0,89579:0:0:0:0:
192,192,89341,128,0,89436:0:0:0:0:
448,192,89341,128,0,89507:0:0:0:0:
320,192,89412,128,0,89650:0:0:0:0:
192,192,89484,128,0,89579:0:0:0:0:
448,192,89555,128,0,89865:0:0:0:0:
64,192,89626,128,0,89722:0:0:0:0:
192,192,89626,128,0,89793:0:0:0:0:
320,192,89698,128,0,89865:0:0:0:0:
64,192,89769,128,0,90007:0:0:0:0:
192,192,89841,128,0,89935:0:0:0:0:
320,192,89912,128,0,90078:0:0:0:0:
448,192,89912,128,0,90150:0:0:0:0:
192,192,89984,128,0,90150:0:0:0:0:
64,192,90055,128,0,90221:0:0:0:0:
320,192,90126,128,0,90293:0:0:0:0:
448,192,90197,128,0,90507:0:0:0:0:
192,192,90197,128,0,90364:0:0:0:0:
64,192,90269,128,0,90435:0:0:0:0:
320,192,90340,128,0,90435:0:0:0:0:
192,192,90412,128,0,90578:0:0:0:0:
64,192,90483,128,0,90721:0:0:0:0:
320,192,90483,128,0,90650:0:0:0:0:
448,192,90555,128,0,90721:0:0:0:0:
192,192,90625,128,0,90935:0:0:0:0:
320,192,90697,128,0,90864:0:0:0:0:
64,192,90769,128,0,91006:0:0:0:0:
448,192,90769,128,0,91221:0:0:0:0:
320,192,90912,128,0,91078:0:0:0:0:
192,192,90983,128,0,91149:0:0:0:0:
64,192,91055,128,0,91149:0:0:0:0:
320,192,91125,128,0,91364:0:0:0:0:
192,192,91197,128,0,91292:0:0:0:0:
64,192,91197,128,0,91292:0:0:0:0:
448,192,91268,128,0,91364:0:0:0:0:
64,192,91340,128,0,91435:0:0:0:0:
192,192,91340,128,0,91459:0:0:0:0:
320,192,91411,128,0,91506:0:0:0:0:
448,192,91411,128,0,91530:0:0:0:0:
64,192,91483,128,0,91578:0:0:0:0:
192,192,91506,128,0,91649:0:0:0:0:
320,192,91554,128,0,91792:0:0:0:0:
448,192,91578,128,0,91721:0:0:0:0:
64,192,91625,128,0,91864:0:0:0:0:
192,192,91696,128,0,91864:0:0:0:0:
448,192,91768,128,0,94148:0:0:0:0:
320,192,91840,128,0,93005:0:0:0:0:
192,192,91911,128,0,93005:0:0:0:0:
64,192,91911,128,0,92720:0:0:0:0:
64,192,92767,128,0,95290:0:0:0:0:
192,192,93054,128,0,95005:0:0:0:0:
320,192,93054,128,0,94148:0:0:0:0:
320,192,94195,128,0,95290:0:0:0:0:
448,192,94195,128,0,96147:0:0:0:0:
192,192,95053,128,0,95862:0:0:0:0:
320,192,95338,128,0,96005:0:0:0:0:
64,192,95338,128,0,96433:0:0:0:0:
192,192,95909,128,0,96290:0:0:0:0:
320,192,96052,128,0,96433:0:0:0:0:
448,192,96195,128,0,97575:0:0:0:0:
192,192,96337,128,0,98717:0:0:0:0:
320,192,96480,128,0,97289:0:0:0:0:
64,192,96480,128,0,97575:0:0:0:0:
320,192,97337,128,0,99003:0:0:0:0:
448,192,97623,128,0,98146:0:0:0:0:
64,192,97623,128,0,98717:0:0:0:0:
448,192,98194,128,0,99288:0:0:0:0:
192,192,98765,128,0,99574:0:0:0:0:
64,192,98765,128,0,99860:0:0:0:0:
320,192,99050,128,0,99860:0:0:0:0:
448,192,99336,128,0,100431:0:0:0:0:
192,192,99622,128,0,100787:0:0:0:0:
64,192,99907,128,0,100502:0:0:0:0:
320,192,99907,128,0,100716:0:0:0:0:
448,192,100478,128,0,100574:0:0:0:0:
64,192,100550,128,0,100645:0:0:0:0:
448,192,100621,128,0,101002:0:0:0:0:
64,192,100693,128,0,101002:0:0:0:0:
320,192,100764,128,0,100859:0:0:0:0:
192,192,100835,128,0,100931:0:0:0:0:
320,192,100906,128,0,101002:0:0:0:0:
192,192,100978,128,0,102145:0:0:0:0:
320,192,101049,128,0,101287:0:0:0:0:
448,192,101049,128,0,102145:0:0:0:0:
64,192,101049,128,0,101287:0:0:0:0:
320,192,101335,128,0,101573:0:0:0:0:
64,192,101335,128,0,101573:0:0:0:0:
320,192,101621,128,0,101858:0:0:0:0:
64,192,101621,128,0,101858:0:0:0:0:
320,192,101906,128,0,104429:0:0:0:0:
64,192,101906,128,0,102145:0:0:0:0:
448,192,102192,128,0,102430:0:0:0:0:
192,192,102192,128,0,102430:0:0:0:0:
64,192,102192,128,0,103286:0:0:0:0:
192,192,102477,128,0,102715:0:0:0:0:
448,192,102477,128,0,102715:0:0:0:0:
448,192,102763,128,0,103001:0:0:0:0:
192,192,102763,128,0,103001:0:0:0:0:
448,192,103048,128,0,103286:0:0:0:0:
192,192,103048,128,0,103286:0:0:0:0:
448,192,103335,128,0,104429:0:0:0:0:
192,192,103335,128,0,103572:0:0:0:0:
64,192,103335,128,0,103572:0:0:0:0:
64,192,103620,128,0,103857:0:0:0:0:
192,192,103620,128,0,103857:0:0:0:0:
192,192,103905,128,0,104144:0:0:0:0:
64,192,103905,128,0,104144:0:0:0:0:
64,192,104191,128,0,104429:0:0:0:0:
192,192,104191,128,0,105143:0:0:0:0:
320,192,104476,128,0,104715:0:0:0:0:
448,192,104476,128,0,104715:0:0:0:0:
64,192,104476,128,0,105285:0:0:0:0:
320,192,104762,128,0,105000:0:0:0:0:
448,192,104762,128,0,105000:0:0:0:0:
448,192,105047,128,0,105285:0:0:0:0:
320,192,105047,128,0,105428:0:0:0:0:
192,192,105190,128,0,105500:0:0:0:0:
448,192,105333,128,0,105571:0:0:0:0:
64,192,105333,128,0,105571:0:0:0:0:
320,192,105476,128,0,105643:0:0:0:0:
192,192,105547,128,0,105714:0:0:0:0:
448,192,105619,128,0,105856:0:0:0:0:
64,192,105619,128,0,105785:0:0:0:0:
320,192,105690,128,0,105856:0:0:0:0:
192,192,105762,128,0,105905:0:0:0:0:
64,192,105833,128,0,105999:0:0:0:0:
320,192,105905,128,0,106071:0:0:0:0:
448,192,105905,128,0,106143:0:0:0:0:
192,192,105952,128,0,106143:0:0:0:0:
64,192,106047,128,0,106214:0:0:0:0:
320,192,106118,128,0,106285:0:0:0:0:
448,192,106190,128,0,106428:0:0:0:0:
192,192,106190,128,0,106356:0:0:0:0:
64,192,106261,128,0,106428:0:0:0:0:
320,192,106333,128,0,106499:0:0:0:0:
192,192,106404,128,0,106571:0:0:0:0:
448,192,106475,128,0,106642:0:0:0:0:
64,192,106475,128,0,106714:0:0:0:0:
320,192,106547,128,0,106785:0:0:0:0:
192,192,106618,128,0,106714:0:0:0:0:
448,192,106690,128,0,106856:0:0:0:0:
64,192,106761,128,0,106999:0:0:0:0:
192,192,106761,128,0,106927:0:0:0:0:
320,192,106833,128,0,106999:0:0:0:0:
448,192,106904,128,0,107070:0:0:0:0:
192,192,106975,128,0,107142:0:0:0:0:
320,192,107046,128,0,107214:0:0:0:0:
64,192,107046,128,0,107285:0:0:0:0:
448,192,107118,128,0,107285:0:0:0:0:
192,192,107189,128,0,107356:0:0:0:0:
320,192,107261,128,0,107427:0:0:0:0:
64,192,107332,128,0,107570:0:0:0:0:
448,192,107332,128,0,107499:0:0:0:0:
192,192,107404,128,0,107570:0:0:0:0:
320,192,107475,128,0,107642:0:0:0:0:
448,192,107546,128,0,107713:0:0:0:0:
192,192,107618,128,0,107927:0:0:0:0:
64,192,107618,128,0,107785:0:0:0:0:
320,192,107689,128,0,107855:0:0:0:0:
448,192,107761,128,0,107855:0:0:0:0:
64,192,107832,128,0,107998:0:0:0:0:
320,192,107904,128,0,107998:0:0:0:0:
448,192,107904,128,0,108070:0:0:0:0:
192,192,107975,128,0,108141:0:0:0:0:
64,192,108046,128,0,108141:0:0:0:0:
320,192,108046,128,0,108213:0:0:0:0:
448,192,108117,128,0,108285:0:0:0:0:
192,192,108189,128,0,108285:0:0:0:0:
64,192,108189,128,0,108355:0:0:0:0:
320,192,108260,128,0,108427:0:0:0:0:
448,192,108332,128,0,108427:0:0:0:0:
192,192,108332,128,0,108498:0:0:0:0:
64,192,108403,128,0,108498:0:0:0:0:
320,192,108475,128,0,108570:0:0:0:0:
448,192,108475,128,0,108570:0:0:0:0:
192,192,108545,128,0,108641:0:0:0:0:
64,192,108545,128,0,108641:0:0:0:0:
320,192,108617,128,0,108713:0:0:0:0:
448,192,108617,128,0,108713:0:0:0:0:
192,192,108689,128,0,108784:0:0:0:0:
64,192,108689,128,0,108784:0:0:0:0:
320,192,108760,128,0,108855:0:0:0:0:
448,192,108760,128,0,108855:0:0:0:0:
192,192,108832,128,0,108926:0:0:0:0:
64,192,108832,128,0,108926:0:0:0:0:
320,192,108903,128,0,108998:0:0:0:0:
448,192,108903,128,0,108998:0:0:0:0:
192,192,108975,128,0,109284:0:0:0:0:
64,192,108975,128,0,109284:0:0:0:0:
320,192,109045,128,0,109569:0:0:0:0:
448,192,109045,128,0,109284:0:0:0:0:
448,192,109331,128,0,109569:0:0:0:0:
192,192,109331,128,0,109855:0:0:0:0:
64,192,109331,128,0,109855:0:0:0:0:
320,192,109616,128,0,109712:0:0:0:0:
448,192,109616,128,0,109712:0:0:0:0:
320,192,109760,128,0,109855:0:0:0:0:
448,192,109760,128,0,109855:0:0:0:0:
64,192,109903,128,0,110140:0:0:0:0:
192,192,109903,128,0,110140:0:0:0:0:
320,192,109903,128,0,110426:0:0:0:0:
448,192,109903,128,0,110140:0:0:0:0:
64,192,110188,128,0,110283:0:0:0:0:
192,192,110188,128,0,110283:0:0:0:0:
448,192,110188,128,0,110283:0:0:0:0:
448,192,110331,128,0,110497:0:0:0:0:
192,192,110331,128,0,110569:0:0:0:0:
64,192,110331,128,0,110712:0:0:0:0:
320,192,110474,128,0,110640:0:0:0:0:
448,192,110545,128,0,110712:0:0:0:0:
192,192,110616,128,0,111116:0:0:0:0:
320,192,110688,128,0,110925:0:0:0:0:
448,192,110759,128,0,111116:0:0:0:0:
64,192,110759,128,0,110878:0:0:0:0:
64,192,110925,128,0,111283:0:0:0:0:
320,192,110974,128,0,111283:0:0:0:0:
192,192,111164,128,0,111568:0:0:0:0:
448,192,111164,128,0,111283:0:0:0:0:
64,192,111330,128,0,111425:0:0:0:0:
320,192,111330,128,0,111425:0:0:0:0:
448,192,111330,128,0,111425:0:0:0:0:
320,192,111473,128,0,111711:0:0:0:0:
448,192,111473,128,0,111854:0:0:0:0:
64,192,111473,128,0,111640:0:0:0:0:
192,192,111615,128,0,111783:0:0:0:0:
64,192,111687,128,0,111854:0:0:0:0:
320,192,111759,128,0,112235:0:0:0:0:
192,192,111830,128,0,112045:0:0:0:0:
448,192,111902,128,0,112045:0:0:0:0:
64,192,111902,128,0,112258:0:0:0:0:
192,192,112092,128,0,112425:0:0:0:0:
448,192,112092,128,0,112425:0:0:0:0:
320,192,112282,128,0,112425:0:0:0:0:
64,192,112306,128,0,112711:0:0:0:0:
192,192,112473,128,0,112568:0:0:0:0:
320,192,112473,128,0,112568:0:0:0:0:
448,192,112473,128,0,112568:0:0:0:0:
192,192,112615,128,0,112782:0:0:0:0:
320,192,112615,128,0,112854:0:0:0:0:
448,192,112615,128,0,112925:0:0:0:0:
64,192,112758,128,0,112996:0:0:0:0:
192,192,112830,128,0,112996:0:0:0:0:
320,192,112901,128,0,113210:0:0:0:0:
448,192,112973,128,0,113401:0:0:0:0:
64,192,113044,128,0,113163:0:0:0:0:
192,192,113044,128,0,113377:0:0:0:0:
64,192,113210,128,0,113567:0:0:0:0:
320,192,113258,128,0,113567:0:0:0:0:
192,192,113425,128,0,113567:0:0:0:0:
448,192,113448,128,0,113757:0:0:0:0:
320,192,113615,128,0,113972:0:0:0:0:
192,192,113615,128,0,113757:0:0:0:0:
64,192,113615,128,0,113757:0:0:0:0:
448,192,113805,128,0,113972:0:0:0:0:
192,192,113805,128,0,113972:0:0:0:0:
64,192,113805,128,0,114138:0:0:0:0:
192,192,114019,128,0,114329:0:0:0:0:
320,192,114019,128,0,114138:0:0:0:0:
448,192,114019,128,0,114138:0:0:0:0:
320,192,114186,128,0,114329:0:0:0:0:
448,192,114186,128,0,114329:0:0:0:0:
64,192,114186,128,0,114543:0:0:0:0:
192,192,114376,128,0,114543:0:0:0:0:
448,192,114376,128,0,114543:0:0:0:0:
320,192,114376,128,0,114710:0:0:0:0:
448,192,114591,128,0,114995:0:0:0:0:
192,192,114591,128,0,114710:0:0:0:0:
64,192,114591,128,0,114710:0:0:0:0:
320,192,114757,128,0,114853:0:0:0:0:
192,192,114757,128,0,114853:0:0:0:0:
64,192,114757,128,0,114853:0:0:0:0:
320,192,114900,128,0,115066:0:0:0:0:
192,192,114900,128,0,115138:0:0:0:0:
64,192,114900,128,0,115209:0:0:0:0:
448,192,115043,128,0,115281:0:0:0:0:
320,192,115115,128,0,115281:0:0:0:0:
192,192,115185,128,0,115685:0:0:0:0:
64,192,115257,128,0,115471:0:0:0:0:
320,192,115328,128,0,115685:0:0:0:0:
448,192,115328,128,0,115471:0:0:0:0:
448,192,115519,128,0,115852:0:0:0:0:
64,192,115519,128,0,115852:0:0:0:0:
320,192,115733,128,0,115852:0:0:0:0:
192,192,115733,128,0,116137:0:0:0:0:
320,192,115899,128,0,115995:0:0:0:0:
448,192,115899,128,0,115995:0:0:0:0:
64,192,115899,128,0,115995:0:0:0:0:
320,192,116043,128,0,116280:0:0:0:0:
448,192,116043,128,0,116423:0:0:0:0:
64,192,116043,128,0,116209:0:0:0:0:
192,192,116185,128,0,116352:0:0:0:0:
64,192,116256,128,0,116423:0:0:0:0:
320,192,116328,128,0,116827:0:0:0:0:
192,192,116399,128,0,116614:0:0:0:0:
448,192,116471,128,0,116614:0:0:0:0:
64,192,116471,128,0,116827:0:0:0:0:
448,192,116661,128,0,116995:0:0:0:0:
192,192,116661,128,0,116995:0:0:0:0:
64,192,116875,128,0,116995:0:0:0:0:
320,192,116875,128,0,117280:0:0:0:0:
448,192,117042,128,0,117137:0:0:0:0:
192,192,117042,128,0,117137:0:0:0:0:
64,192,117042,128,0,117137:0:0:0:0:
448,192,117185,128,0,117351:0:0:0:0:
192,192,117185,128,0,117423:0:0:0:0:
64,192,117185,128,0,117565:0:0:0:0:
320,192,117327,128,0,117494:0:0:0:0:
448,192,117399,128,0,117565:0:0:0:0:
192,192,117470,128,0,117970:0:0:0:0:
320,192,117542,128,0,117755:0:0:0:0:
448,192,117613,128,0,117970:0:0:0:0:
64,192,117613,128,0,117755:0:0:0:0:
320,192,117804,128,0,118136:0:0:0:0:
64,192,117804,128,0,118136:0:0:0:0:
448,192,118017,128,0,118136:0:0:0:0:
192,192,118017,128,0,118327:0:0:0:0:
64,192,118185,128,0,118327:0:0:0:0:
320,192,118185,128,0,118327:0:0:0:0:
448,192,118185,128,0,118541:0:0:0:0:
320,192,118375,128,0,118541:0:0:0:0:
64,192,118375,128,0,118541:0:0:0:0:
192,192,118375,128,0,118707:0:0:0:0:
320,192,118589,128,0,118707:0:0:0:0:
448,192,118589,128,0,118707:0:0:0:0:
64,192,118589,128,0,118898:0:0:0:0:
448,192,118755,128,0,118898:0:0:0:0:
320,192,118755,128,0,119113:0:0:0:0:
192,192,118755,128,0,118898:0:0:0:0:
64,192,118945,128,0,119279:0:0:0:0:
192,192,118945,128,0,119113:0:0:0:0:
448,192,118945,128,0,119113:0:0:0:0:
320,192,119160,128,0,120207:0:0:0:0:
192,192,119160,128,0,119279:0:0:0:0:
448,192,119160,128,0,119279:0:0:0:0:
192,192,119326,128,0,119565:0:0:0:0:
64,192,119326,128,0,119565:0:0:0:0:
448,192,119326,128,0,119565:0:0:0:0:
448,192,119612,128,0,120135:0:0:0:0:
192,192,119612,128,0,120278:0:0:0:0:
64,192,119612,128,0,120350:0:0:0:0:
448,192,120184,128,0,120421:0:0:0:0:
320,192,120255,128,0,120421:0:0:0:0:
192,192,120326,128,0,120421:0:0:0:0:
64,192,120397,128,0,121278:0:0:0:0:
192,192,120469,128,0,120706:0:0:0:0:
320,192,120469,128,0,120706:0:0:0:0:
448,192,120469,128,0,120706:0:0:0:0:
448,192,120755,128,0,121492:0:0:0:0:
320,192,120755,128,0,121421:0:0:0:0:
192,192,120755,128,0,121349:0:0:0:0:
64,192,121325,128,0,121564:0:0:0:0:
192,192,121397,128,0,121564:0:0:0:0:
320,192,121468,128,0,121564:0:0:0:0:
448,192,121540,128,0,122420:0:0:0:0:
320,192,121611,128,0,121849:0:0:0:0:
192,192,121611,128,0,121849:0:0:0:0:
64,192,121611,128,0,121849:0:0:0:0:
64,192,121896,128,0,122492:0:0:0:0:
192,192,121896,128,0,122563:0:0:0:0:
320,192,121896,128,0,122635:0:0:0:0:
448,192,122468,128,0,122705:0:0:0:0:
64,192,122539,128,0,122705:0:0:0:0:
192,192,122611,128,0,122705:0:0:0:0:
320,192,122682,128,0,122896:0:0:0:0:
448,192,122754,128,0,122896:0:0:0:0:
192,192,122754,128,0,123110:0:0:0:0:
64,192,122754,128,0,122896:0:0:0:0:
320,192,122944,128,0,123110:0:0:0:0:
448,192,122944,128,0,123277:0:0:0:0:
64,192,122944,128,0,123110:0:0:0:0:
192,192,123158,128,0,123277:0:0:0:0:
320,192,123158,128,0,123277:0:0:0:0:
64,192,123158,128,0,123467:0:0:0:0:
192,192,123325,128,0,123467:0:0:0:0:
448,192,123325,128,0,123467:0:0:0:0:
320,192,123325,128,0,123682:0:0:0:0:
64,192,123515,128,0,123682:0:0:0:0:
192,192,123515,128,0,123848:0:0:0:0:
448,192,123515,128,0,123682:0:0:0:0:
64,192,123729,128,0,123848:0:0:0:0:
320,192,123729,128,0,123848:0:0:0:0:
448,192,123729,128,0,124705:0:0:0:0:
320,192,123895,128,0,124134:0:0:0:0:
192,192,123895,128,0,124134:0:0:0:0:
64,192,123895,128,0,124134:0:0:0:0:
64,192,124181,128,0,124776:0:0:0:0:
192,192,124181,128,0,124847:0:0:0:0:
320,192,124181,128,0,124919:0:0:0:0:
448,192,124753,128,0,124990:0:0:0:0:
64,192,124824,128,0,124990:0:0:0:0:
192,192,124895,128,0,124990:0:0:0:0:
320,192,124966,128,0,125990:0:0:0:0:
448,192,125038,128,0,125276:0:0:0:0:
192,192,125038,128,0,125276:0:0:0:0:
64,192,125038,128,0,125276:0:0:0:0:
448,192,125324,128,0,125918:0:0:0:0:
192,192,125324,128,0,126062:0:0:0:0:
64,192,125324,128,0,125847:0:0:0:0:
64,192,125895,128,0,126133:0:0:0:0:
448,192,125966,128,0,126133:0:0:0:0:
320,192,126037,128,0,126133:0:0:0:0:
192,192,126109,128,0,126704:0:0:0:0:
320,192,126180,128,0,126418:0:0:0:0:
448,192,126180,128,0,126418:0:0:0:0:
64,192,126180,128,0,126418:0:0:0:0:
320,192,126466,128,0,126704:0:0:0:0:
448,192,126466,128,0,126895:0:0:0:0:
64,192,126466,128,0,126704:0:0:0:0:
64,192,126752,128,0,127108:0:0:0:0:
192,192,126752,128,0,126895:0:0:0:0:
320,192,126752,128,0,126895:0:0:0:0:
448,192,126942,128,0,127108:0:0:0:0:
192,192,126942,128,0,127108:0:0:0:0:
320,192,126942,128,0,127275:0:0:0:0:
192,192,127156,128,0,127465:0:0:0:0:
448,192,127156,128,0,127275:0:0:0:0:
64,192,127156,128,0,127275:0:0:0:0:
64,192,127323,128,0,127465:0:0:0:0:
320,192,127323,128,0,127465:0:0:0:0:
448,192,127323,128,0,127680:0:0:0:0:
320,192,127513,128,0,127680:0:0:0:0:
192,192,127513,128,0,127680:0:0:0:0:
64,192,127513,128,0,127846:0:0:0:0:
192,192,127727,128,0,127846:0:0:0:0:
320,192,127727,128,0,128036:0:0:0:0:
448,192,127727,128,0,127846:0:0:0:0:
448,192,127894,128,0,128036:0:0:0:0:
192,192,127894,128,0,128036:0:0:0:0:
64,192,127894,128,0,128251:0:0:0:0:
192,192,128085,128,0,128251:0:0:0:0:
320,192,128085,128,0,128251:0:0:0:0:
448,192,128085,128,0,128417:0:0:0:0:
64,192,128298,128,0,128417:0:0:0:0:
192,192,128298,128,0,128703:0:0:0:0:
320,192,128298,128,0,128417:0:0:0:0:
64,192,128465,128,0,128703:0:0:0:0:
320,192,128465,128,0,129345:0:0:0:0:
448,192,128465,128,0,128703:0:0:0:0:
192,192,128751,128,0,128988:0:0:0:0:
64,192,128751,128,0,128988:0:0:0:0:
448,192,128751,128,0,129417:0:0:0:0:
192,192,129036,128,0,129275:0:0:0:0:
64,192,129036,128,0,129275:0:0:0:0:
64,192,129322,128,0,129560:0:0:0:0:
192,192,129322,128,0,129488:0:0:0:0:
320,192,129393,128,0,129560:0:0:0:0:
448,192,129465,128,0,129560:0:0:0:0:
192,192,129535,128,0,130488:0:0:0:0:
320,192,129607,128,0,129845:0:0:0:0:
448,192,129607,128,0,129845:0:0:0:0:
64,192,129607,128,0,129845:0:0:0:0:
320,192,129893,128,0,130131:0:0:0:0:
448,192,129893,128,0,130131:0:0:0:0:
64,192,129893,128,0,130559:0:0:0:0:
320,192,130178,128,0,130416:0:0:0:0:
448,192,130178,128,0,130416:0:0:0:0:
448,192,130464,128,0,130702:0:0:0:0:
320,192,130464,128,0,130631:0:0:0:0:
192,192,130535,128,0,130702:0:0:0:0:
64,192,130607,128,0,130702:0:0:0:0:
320,192,130678,128,0,131630:0:0:0:0:
448,192,130750,128,0,130987:0:0:0:0:
192,192,130750,128,0,130987:0:0:0:0:
64,192,130750,128,0,130987:0:0:0:0:
64,192,131035,128,0,131702:0:0:0:0:
192,192,131035,128,0,131273:0:0:0:0:
448,192,131035,128,0,131273:0:0:0:0:
448,192,131321,128,0,131559:0:0:0:0:
192,192,131321,128,0,131559:0:0:0:0:
192,192,131606,128,0,131773:0:0:0:0:
448,192,131606,128,0,131845:0:0:0:0:
320,192,131678,128,0,131845:0:0:0:0:
64,192,131749,128,0,131845:0:0:0:0:
192,192,131821,128,0,132035:0:0:0:0:
320,192,131892,128,0,132130:0:0:0:0:
448,192,131892,128,0,132249:0:0:0:0:
64,192,131892,128,0,132130:0:0:0:0:
192,192,132083,128,0,132415:0:0:0:0:
320,192,132177,128,0,132605:0:0:0:0:
64,192,132177,128,0,132415:0:0:0:0:
448,192,132296,128,0,132701:0:0:0:0:
192,192,132463,128,0,132820:0:0:0:0:
64,192,132463,128,0,132701:0:0:0:0:
320,192,132654,128,0,132986:0:0:0:0:
448,192,132749,128,0,132986:0:0:0:0:
64,192,132749,128,0,132986:0:0:0:0:
192,192,132867,128,0,133058:0:0:0:0:
448,192,133035,128,0,133129:0:0:0:0:
320,192,133035,128,0,133201:0:0:0:0:
64,192,133035,128,0,133272:0:0:0:0:
192,192,133105,128,0,133272:0:0:0:0:
448,192,133177,128,0,133272:0:0:0:0:
320,192,133248,128,0,133344:0:0:0:0:
448,192,133320,128,0,133558:0:0:0:0:
192,192,133320,128,0,133415:0:0:0:0:
64,192,133320,128,0,133486:0:0:0:0:
320,192,133391,128,0,133558:0:0:0:0:
192,192,133463,128,0,133629:0:0:0:0:
64,192,133534,128,0,133701:0:0:0:0:
320,192,133605,128,0,133772:0:0:0:0:
448,192,133605,128,0,133844:0:0:0:0:
192,192,133676,128,0,133844:0:0:0:0:
64,192,133748,128,0,133915:0:0:0:0:
320,192,133820,128,0,133986:0:0:0:0:
448,192,133891,128,0,134129:0:0:0:0:
192,192,133891,128,0,134057:0:0:0:0:
64,192,133963,128,0,134129:0:0:0:0:
320,192,134034,128,0,134129:0:0:0:0:
192,192,134105,128,0,134200:0:0:0:0:
320,192,134176,128,0,134343:0:0:0:0:
448,192,134176,128,0,134415:0:0:0:0:
64,192,134176,128,0,134272:0:0:0:0:
192,192,134248,128,0,134415:0:0:0:0:
64,192,134319,128,0,134415:0:0:0:0:
320,192,134391,128,0,134486:0:0:0:0:
448,192,134462,128,0,134557:0:0:0:0:
192,192,134462,128,0,134629:0:0:0:0:
64,192,134462,128,0,134700:0:0:0:0:
320,192,134534,128,0,134700:0:0:0:0:
448,192,134605,128,0,134772:0:0:0:0:
192,192,134676,128,0,134843:0:0:0:0:
320,192,134747,128,0,134915:0:0:0:0:
64,192,134747,128,0,134985:0:0:0:0:
448,192,134819,128,0,134985:0:0:0:0:
192,192,134891,128,0,135057:0:0:0:0:
320,192,134962,128,0,135128:0:0:0:0:
448,192,135034,128,0,135200:0:0:0:0:
64,192,135034,128,0,135271:0:0:0:0:
192,192,135105,128,0,135271:0:0:0:0:
320,192,135176,128,0,135343:0:0:0:0:
448,192,135247,128,0,135414:0:0:0:0:
64,192,135319,128,0,135414:0:0:0:0:
192,192,135319,128,0,135485:0:0:0:0:
320,192,135390,128,0,135557:0:0:0:0:
448,192,135462,128,0,135557:0:0:0:0:
64,192,135462,128,0,135628:0:0:0:0:
192,192,135533,128,0,135700:0:0:0:0:
320,192,135605,128,0,135700:0:0:0:0:
448,192,135605,128,0,135771:0:0:0:0:
64,192,135675,128,0,135843:0:0:0:0:
192,192,135747,128,0,135843:0:0:0:0:
320,192,135747,128,0,135914:0:0:0:0:
448,192,135818,128,0,135914:0:0:0:0:
64,192,135890,128,0,135985:0:0:0:0:
192,192,135890,128,0,135985:0:0:0:0:
320,192,135962,128,0,136056:0:0:0:0:
448,192,135962,128,0,136056:0:0:0:0:
64,192,136033,128,0,136128:0:0:0:0:
192,192,136033,128,0,136128:0:0:0:0:
320,192,136105,128,0,136199:0:0:0:0:
448,192,136105,128,0,136199:0:0:0:0:
192,192,136175,128,0,136271:0:0:0:0:
64,192,136175,128,0,136271:0:0:0:0:
320,192,136247,128,0,136342:0:0:0:0:
448,192,136247,128,0,136342:0:0:0:0:
192,192,136318,128,0,136414:0:0:0:0:
64,192,136318,128,0,136414:0:0:0:0:
320,192,136390,128,0,136699:0:0:0:0:
448,192,136390,128,0,136699:0:0:0:0:
192,192,136461,128,0,136985:0:0:0:0:
64,192,136461,128,0,136699:0:0:0:0:
64,192,136746,128,0,136985:0:0:0:0:
320,192,136746,128,0,137270:0:0:0:0:
448,192,136746,128,0,137270:0:0:0:0:
192,192,137033,128,0,137127:0:0:0:0:
64,192,137033,128,0,137127:0:0:0:0:
64,192,137175,128,0,137270:0:0:0:0:
192,192,137175,128,0,137270:0:0:0:0:
64,192,137318,128,0,137555:0:0:0:0:
192,192,137318,128,0,137555:0:0:0:0:
320,192,137318,128,0,137555:0:0:0:0:
448,192,137318,128,0,137842:0:0:0:0:
320,192,137604,128,0,137699:0:0:0:0:
192,192,137604,128,0,137699:0:0:0:0:
64,192,137604,128,0,137699:0:0:0:0:
64,192,137746,128,0,137842:0:0:0:0:
192,192,137746,128,0,137913:0:0:0:0:
320,192,137746,128,0,137913:0:0:0:0:
448,192,137889,128,0,137985:0:0:0:0:
64,192,137889,128,0,137985:0:0:0:0:
320,192,137961,128,0,138055:0:0:0:0:
192,192,137961,128,0,138055:0:0:0:0:
448,192,138032,128,0,138127:0:0:0:0:
64,192,138032,128,0,138127:0:0:0:0:
192,192,138104,128,0,138198:0:0:0:0:
320,192,138104,128,0,138270:0:0:0:0:
448,192,138175,128,0,138270:0:0:0:0:
64,192,138175,128,0,138341:0:0:0:0:
192,192,138246,128,0,138413:0:0:0:0:
320,192,138317,128,0,138484:0:0:0:0:
448,192,138317,128,0,138413:0:0:0:0:
64,192,138389,128,0,138555:0:0:0:0:
192,192,138460,128,0,138555:0:0:0:0:
448,192,138460,128,0,138626:0:0:0:0:
320,192,138532,128,0,138698:0:0:0:0:
192,192,138603,128,0,138698:0:0:0:0:
64,192,138603,128,0,138698:0:0:0:0:
448,192,138675,128,0,138984:0:0:0:0:
320,192,138745,128,0,138841:0:0:0:0:
192,192,138745,128,0,138841:0:0:0:0:
64,192,138745,128,0,138841:0:0:0:0:
64,192,138888,128,0,139055:0:0:0:0:
192,192,138888,128,0,139055:0:0:0:0:
320,192,138888,128,0,138984:0:0:0:0:
448,192,139032,128,0,139126:0:0:0:0:
320,192,139032,128,0,139126:0:0:0:0:
192,192,139103,128,0,139198:0:0:0:0:
64,192,139103,128,0,139198:0:0:0:0:
320,192,139175,128,0,139269:0:0:0:0:
448,192,139175,128,0,139269:0:0:0:0:
192,192,139245,128,0,139341:0:0:0:0:
64,192,139245,128,0,139412:0:0:0:0:
448,192,139317,128,0,139412:0:0:0:0:
320,192,139317,128,0,139484:0:0:0:0:
192,192,139388,128,0,139555:0:0:0:0:
64,192,139460,128,0,139555:0:0:0:0:
448,192,139460,128,0,139626:0:0:0:0:
320,192,139531,128,0,139698:0:0:0:0:
192,192,139603,128,0,139698:0:0:0:0:
64,192,139603,128,0,139769:0:0:0:0:
448,192,139674,128,0,139841:0:0:0:0:
320,192,139745,128,0,139841:0:0:0:0:
192,192,139745,128,0,139841:0:0:0:0:
64,192,139816,128,0,140126:0:0:0:0:
192,192,139888,128,0,139984:0:0:0:0:
320,192,139888,128,0,139984:0:0:0:0:
448,192,139888,128,0,139984:0:0:0:0:
448,192,140031,128,0,140126:0:0:0:0:
320,192,140031,128,0,140197:0:0:0:0:
192,192,140031,128,0,140197:0:0:0:0:
448,192,140174,128,0,140269:0:0:0:0:
64,192,140174,128,0,140269:0:0:0:0:
192,192,140245,128,0,140340:0:0:0:0:
320,192,140245,128,0,140340:0:0:0:0:
448,192,140316,128,0,140412:0:0:0:0:
64,192,140316,128,0,140412:0:0:0:0:
192,192,140388,128,0,140483:0:0:0:0:
320,192,140388,128,0,140555:0:0:0:0:
448,192,140459,128,0,140555:0:0:0:0:
64,192,140459,128,0,140625:0:0:0:0:
192,192,140531,128,0,140697:0:0:0:0:
320,192,140602,128,0,140769:0:0:0:0:
448,192,140602,128,0,140697:0:0:0:0:
64,192,140674,128,0,140840:0:0:0:0:
192,192,140745,128,0,140840:0:0:0:0:
448,192,140745,128,0,140983:0:0:0:0:
320,192,140816,128,0,140912:0:0:0:0:
64,192,140887,128,0,140983:0:0:0:0:
192,192,140887,128,0,141055:0:0:0:0:
320,192,140959,128,0,141125:0:0:0:0:
448,192,141030,128,0,141125:0:0:0:0:
64,192,141030,128,0,141197:0:0:0:0:
192,192,141102,128,0,141268:0:0:0:0:
320,192,141174,128,0,141340:0:0:0:0:
448,192,141174,128,0,141268:0:0:0:0:
64,192,141245,128,0,141411:0:0:0:0:
192,192,141316,128,0,141411:0:0:0:0:
448,192,141316,128,0,141483:0:0:0:0:
320,192,141387,128,0,141625:0:0:0:0:
192,192,141459,128,0,141554:0:0:0:0:
64,192,141459,128,0,141554:0:0:0:0:
448,192,141530,128,0,141625:0:0:0:0:
192,192,141602,128,0,141696:0:0:0:0:
64,192,141602,128,0,141696:0:0:0:0:
320,192,141673,128,0,141768:0:0:0:0:
448,192,141673,128,0,141840:0:0:0:0:
192,192,141745,128,0,141911:0:0:0:0:
64,192,141745,128,0,141840:0:0:0:0:
320,192,141815,128,0,141911:0:0:0:0:
448,192,141887,128,0,141983:0:0:0:0:
64,192,141887,128,0,141983:0:0:0:0:
192,192,141958,128,0,142125:0:0:0:0:
320,192,141958,128,0,142054:0:0:0:0:
448,192,142030,128,0,142125:0:0:0:0:
64,192,142030,128,0,142125:0:0:0:0:
320,192,142101,128,0,142411:0:0:0:0:
448,192,142173,128,0,142268:0:0:0:0:
192,192,142173,128,0,142268:0:0:0:0:
64,192,142173,128,0,142268:0:0:0:0:
448,192,142315,128,0,142411:0:0:0:0:
192,192,142315,128,0,142482:0:0:0:0:
64,192,142315,128,0,142482:0:0:0:0:
320,192,142458,128,0,142554:0:0:0:0:
448,192,142458,128,0,142554:0:0:0:0:
192,192,142530,128,0,142625:0:0:0:0:
64,192,142530,128,0,142625:0:0:0:0:
320,192,142601,128,0,142696:0:0:0:0:
448,192,142601,128,0,142696:0:0:0:0:
192,192,142673,128,0,142767:0:0:0:0:
64,192,142673,128,0,142839:0:0:0:0:
320,192,142744,128,0,142911:0:0:0:0:
448,192,142744,128,0,142839:0:0:0:0:
192,192,142815,128,0,142982:0:0:0:0:
448,192,142886,128,0,143054:0:0:0:0:
64,192,142886,128,0,142982:0:0:0:0:
320,192,142958,128,0,143125:0:0:0:0:
192,192,143029,128,0,143125:0:0:0:0:
64,192,143029,128,0,143196:0:0:0:0:
448,192,143101,128,0,143267:0:0:0:0:
192,192,143172,128,0,143267:0:0:0:0:
320,192,143172,128,0,143267:0:0:0:0:
64,192,143244,128,0,143553:0:0:0:0:
192,192,143315,128,0,143410:0:0:0:0:
320,192,143315,128,0,143410:0:0:0:0:
448,192,143315,128,0,143410:0:0:0:0:
448,192,143458,128,0,143553:0:0:0:0:
320,192,143458,128,0,143625:0:0:0:0:
192,192,143458,128,0,143625:0:0:0:0:
64,192,143601,128,0,143695:0:0:0:0:
448,192,143601,128,0,143695:0:0:0:0:
320,192,143672,128,0,143767:0:0:0:0:
192,192,143672,128,0,143767:0:0:0:0:
448,192,143744,128,0,143838:0:0:0:0:
64,192,143744,128,0,143838:0:0:0:0:
320,192,143815,128,0,143910:0:0:0:0:
192,192,143815,128,0,143982:0:0:0:0:
64,192,143886,128,0,143982:0:0:0:0:
448,192,143886,128,0,144053:0:0:0:0:
320,192,143957,128,0,144125:0:0:0:0:
192,192,144029,128,0,144195:0:0:0:0:
64,192,144029,128,0,144125:0:0:0:0:
448,192,144100,128,0,144267:0:0:0:0:
320,192,144172,128,0,144338:0:0:0:0:
64,192,144172,128,0,144267:0:0:0:0:
192,192,144244,128,0,144410:0:0:0:0:
64,192,144315,128,0,144410:0:0:0:0:
448,192,144315,128,0,144410:0:0:0:0:
320,192,144386,128,0,144695:0:0:0:0:
448,192,144457,128,0,144553:0:0:0:0:
192,192,144457,128,0,144553:0:0:0:0:
64,192,144457,128,0,144553:0:0:0:0:
64,192,144600,128,0,144766:0:0:0:0:
192,192,144600,128,0,144766:0:0:0:0:
448,192,144600,128,0,144695:0:0:0:0:
320,192,144743,128,0,144838:0:0:0:0:
448,192,144743,128,0,144838:0:0:0:0:
192,192,144815,128,0,144909:0:0:0:0:
64,192,144815,128,0,144909:0:0:0:0:
320,192,144885,128,0,144981:0:0:0:0:
448,192,144885,128,0,144981:0:0:0:0:
192,192,144957,128,0,145053:0:0:0:0:
64,192,144957,128,0,145124:0:0:0:0:
320,192,145028,128,0,145124:0:0:0:0:
448,192,145028,128,0,145195:0:0:0:0:
192,192,145100,128,0,145266:0:0:0:0:
64,192,145171,128,0,145266:0:0:0:0:
320,192,145171,128,0,145338:0:0:0:0:
448,192,145243,128,0,145409:0:0:0:0:
64,192,145315,128,0,145409:0:0:0:0:
192,192,145315,128,0,145481:0:0:0:0:
320,192,145385,128,0,145552:0:0:0:0:
448,192,145457,128,0,145624:0:0:0:0:
64,192,145457,128,0,145552:0:0:0:0:
192,192,145528,128,0,145695:0:0:0:0:
320,192,145600,128,0,145766:0:0:0:0:
64,192,145600,128,0,145695:0:0:0:0:
448,192,145671,128,0,145837:0:0:0:0:
192,192,145743,128,0,145909:0:0:0:0:
64,192,145743,128,0,145909:0:0:0:0:
320,192,145814,128,0,145980:0:0:0:0:
448,192,145885,128,0,145980:0:0:0:0:
192,192,145956,128,0,146052:0:0:0:0:
64,192,145956,128,0,146124:0:0:0:0:
448,192,146028,128,0,146195:0:0:0:0:
320,192,146028,128,0,146124:0:0:0:0:
192,192,146099,128,0,146266:0:0:0:0:
64,192,146171,128,0,146266:0:0:0:0:
320,192,146171,128,0,146337:0:0:0:0:
448,192,146242,128,0,146409:0:0:0:0:
192,192,146314,128,0,146480:0:0:0:0:
64,192,146314,128,0,146409:0:0:0:0:
320,192,146385,128,0,146552:0:0:0:0:
448,192,146456,128,0,146552:0:0:0:0:
64,192,146456,128,0,146623:0:0:0:0:
192,192,146528,128,0,146695:0:0:0:0:
320,192,146599,128,0,146695:0:0:0:0:
448,192,146599,128,0,146695:0:0:0:0:
64,192,146671,128,0,146980:0:0:0:0:
192,192,146742,128,0,146837:0:0:0:0:
320,192,146742,128,0,146837:0:0:0:0:
448,192,146742,128,0,146837:0:0:0:0:
448,192,146885,128,0,146980:0:0:0:0:
320,192,146885,128,0,147052:0:0:0:0:
192,192,146885,128,0,147052:0:0:0:0:
64,192,147027,128,0,147123:0:0:0:0:
448,192,147027,128,0,147123:0:0:0:0:
320,192,147099,128,0,147195:0:0:0:0:
192,192,147099,128,0,147195:0:0:0:0:
64,192,147170,128,0,147265:0:0:0:0:
448,192,147170,128,0,147265:0:0:0:0:
192,192,147242,128,0,147337:0:0:0:0:
320,192,147242,128,0,147408:0:0:0:0:
448,192,147313,128,0,147408:0:0:0:0:
64,192,147313,128,0,147480:0:0:0:0:
192,192,147385,128,0,147551:0:0:0:0:
320,192,147456,128,0,147623:0:0:0:0:
448,192,147456,128,0,147551:0:0:0:0:
64,192,147527,128,0,147694:0:0:0:0:
192,192,147599,128,0,147694:0:0:0:0:
448,192,147599,128,0,147765:0:0:0:0:
320,192,147670,128,0,147836:0:0:0:0:
192,192,147742,128,0,147836:0:0:0:0:
64,192,147742,128,0,147836:0:0:0:0:
448,192,147813,128,0,148123:0:0:0:0:
320,192,147885,128,0,147979:0:0:0:0:
192,192,147885,128,0,147979:0:0:0:0:
64,192,147885,128,0,147979:0:0:0:0:
64,192,148027,128,0,148194:0:0:0:0:
192,192,148027,128,0,148194:0:0:0:0:
320,192,148027,128,0,148123:0:0:0:0:
448,192,148170,128,0,148265:0:0:0:0:
320,192,148170,128,0,148265:0:0:0:0:
192,192,148241,128,0,148336:0:0:0:0:
64,192,148241,128,0,148336:0:0:0:0:
320,192,148313,128,0,148408:0:0:0:0:
448,192,148313,128,0,148408:0:0:0:0:
192,192,148384,128,0,148479:0:0:0:0:
64,192,148384,128,0,148551:0:0:0:0:
320,192,148455,128,0,148622:0:0:0:0:
448,192,148455,128,0,148551:0:0:0:0:
192,192,148527,128,0,148694:0:0:0:0:
64,192,148598,128,0,148694:0:0:0:0:
448,192,148598,128,0,148765:0:0:0:0:
320,192,148670,128,0,148836:0:0:0:0:
192,192,148741,128,0,148836:0:0:0:0:
64,192,148741,128,0,148907:0:0:0:0:
448,192,148813,128,0,148979:0:0:0:0:
320,192,148884,128,0,148979:0:0:0:0:
192,192,148884,128,0,148979:0:0:0:0:
64,192,148955,128,0,149265:0:0:0:0:
192,192,149026,128,0,149122:0:0:0:0:
320,192,149026,128,0,149122:0:0:0:0:
448,192,149026,128,0,149122:0:0:0:0:
448,192,149169,128,0,149265:0:0:0:0:
320,192,149169,128,0,149336:0:0:0:0:
192,192,149169,128,0,149336:0:0:0:0:
64,192,149312,128,0,149407:0:0:0:0:
448,192,149312,128,0,149407:0:0:0:0:
320,192,149384,128,0,149479:0:0:0:0:
192,192,149384,128,0,149479:0:0:0:0:
448,192,149455,128,0,149550:0:0:0:0:
64,192,149455,128,0,149550:0:0:0:0:
192,192,149526,128,0,149693:0:0:0:0:
320,192,149526,128,0,149622:0:0:0:0:
448,192,149598,128,0,149765:0:0:0:0:
64,192,149598,128,0,149693:0:0:0:0:
320,192,149669,128,0,149835:0:0:0:0:
192,192,149741,128,0,149907:0:0:0:0:
64,192,149741,128,0,149835:0:0:0:0:
448,192,149812,128,0,149978:0:0:0:0:
320,192,149884,128,0,149978:0:0:0:0:
64,192,149884,128,0,150121:0:0:0:0:
192,192,149955,128,0,150050:0:0:0:0:
320,192,150026,128,0,150193:0:0:0:0:
448,192,150026,128,0,150121:0:0:0:0:
192,192,150097,128,0,150265:0:0:0:0:
64,192,150169,128,0,150265:0:0:0:0:
448,192,150169,128,0,150335:0:0:0:0:
320,192,150240,128,0,150407:0:0:0:0:
192,192,150312,128,0,150478:0:0:0:0:
64,192,150312,128,0,150407:0:0:0:0:
448,192,150383,128,0,150550:0:0:0:0:
320,192,150455,128,0,150550:0:0:0:0:
64,192,150455,128,0,150693:0:0:0:0:
192,192,150525,128,0,150621:0:0:0:0:
320,192,150597,128,0,150693:0:0:0:0:
448,192,150597,128,0,150764:0:0:0:0:
192,192,150669,128,0,150835:0:0:0:0:
320,192,150740,128,0,150906:0:0:0:0:
64,192,150740,128,0,150835:0:0:0:0:
448,192,150812,128,0,150978:0:0:0:0:
64,192,150883,128,0,150978:0:0:0:0:
192,192,150883,128,0,151049:0:0:0:0:
320,192,150955,128,0,151121:0:0:0:0:
448,192,151025,128,0,151121:0:0:0:0:
64,192,151025,128,0,151192:0:0:0:0:
192,192,151097,128,0,151264:0:0:0:0:
320,192,151168,128,0,151264:0:0:0:0:
448,192,151168,128,0,151264:0:0:0:0:
64,192,151240,128,0,151549:0:0:0:0:
192,192,151311,128,0,151406:0:0:0:0:
320,192,151311,128,0,151406:0:0:0:0:
448,192,151311,128,0,151406:0:0:0:0:
448,192,151454,128,0,151621:0:0:0:0:
320,192,151454,128,0,151621:0:0:0:0:
192,192,151454,128,0,151549:0:0:0:0:
64,192,151597,128,0,151692:0:0:0:0:
192,192,151597,128,0,151692:0:0:0:0:
320,192,151668,128,0,151764:0:0:0:0:
448,192,151668,128,0,151764:0:0:0:0:
64,192,151740,128,0,151835:0:0:0:0:
192,192,151740,128,0,151835:0:0:0:0:
320,192,151811,128,0,151906:0:0:0:0:
448,192,151811,128,0,151977:0:0:0:0:
192,192,151883,128,0,152049:0:0:0:0:
64,192,151883,128,0,151977:0:0:0:0:
320,192,151954,128,0,152120:0:0:0:0:
64,192,152025,128,0,152192:0:0:0:0:
448,192,152025,128,0,152120:0:0:0:0:
192,192,152096,128,0,152263:0:0:0:0:
320,192,152168,128,0,152263:0:0:0:0:
448,192,152168,128,0,152335:0:0:0:0:
64,192,152239,128,0,152406:0:0:0:0:
192,192,152311,128,0,152406:0:0:0:0:
320,192,152311,128,0,152406:0:0:0:0:
448,192,152382,128,0,152692:0:0:0:0:
320,192,152454,128,0,152549:0:0:0:0:
192,192,152454,128,0,152549:0:0:0:0:
64,192,152454,128,0,152549:0:0:0:0:
320,192,152596,128,0,152763:0:0:0:0:
64,192,152596,128,0,152692:0:0:0:0:
192,192,152596,128,0,152763:0:0:0:0:
64,192,152739,128,0,152835:0:0:0:0:
448,192,152739,128,0,152835:0:0:0:0:
320,192,152811,128,0,152905:0:0:0:0:
192,192,152811,128,0,152905:0:0:0:0:
64,192,152882,128,0,152977:0:0:0:0:
448,192,152882,128,0,152977:0:0:0:0:
192,192,152954,128,0,153120:0:0:0:0:
320,192,152954,128,0,153048:0:0:0:0:
64,192,153025,128,0,153120:0:0:0:0:
448,192,153025,128,0,153191:0:0:0:0:
320,192,153096,128,0,153263:0:0:0:0:
192,192,153167,128,0,153263:0:0:0:0:
64,192,153167,128,0,153335:0:0:0:0:
448,192,153239,128,0,153405:0:0:0:0:
320,192,153310,128,0,153405:0:0:0:0:
192,192,153310,128,0,153477:0:0:0:0:
64,192,153382,128,0,153548:0:0:0:0:
448,192,153453,128,0,153548:0:0:0:0:
320,192,153453,128,0,153548:0:0:0:0:
192,192,153525,128,0,153834:0:0:0:0:
64,192,153595,128,0,153691:0:0:0:0:
320,192,153595,128,0,153691:0:0:0:0:
448,192,153595,128,0,153691:0:0:0:0:
64,192,153739,128,0,153834:0:0:0:0:
448,192,153739,128,0,153905:0:0:0:0:
320,192,153739,128,0,153905:0:0:0:0:
192,192,153882,128,0,153976:0:0:0:0:
64,192,153882,128,0,153976:0:0:0:0:
320,192,153953,128,0,154048:0:0:0:0:
448,192,153953,128,0,154048:0:0:0:0:
192,192,154025,128,0,154119:0:0:0:0:
64,192,154025,128,0,154119:0:0:0:0:
320,192,154095,128,0,154191:0:0:0:0:
448,192,154095,128,0,154262:0:0:0:0:
192,192,154167,128,0,154334:0:0:0:0:
64,192,154167,128,0,154262:0:0:0:0:
320,192,154238,128,0,154405:0:0:0:0:
448,192,154310,128,0,154405:0:0:0:0:
64,192,154310,128,0,154476:0:0:0:0:
192,192,154381,128,0,154548:0:0:0:0:
320,192,154453,128,0,154619:0:0:0:0:
448,192,154453,128,0,154524:0:0:0:0:
64,192,154524,128,0,154691:0:0:0:0:
192,192,154595,128,0,154691:0:0:0:0:
448,192,154595,128,0,154691:0:0:0:0:
320,192,154666,128,0,154881:0:0:0:0:
64,192,154738,128,0,154881:0:0:0:0:
448,192,154738,128,0,154881:0:0:0:0:
192,192,154738,128,0,155095:0:0:0:0:
64,192,154928,128,0,155095:0:0:0:0:
320,192,154928,128,0,155095:0:0:0:0:
448,192,154928,128,0,155262:0:0:0:0:
320,192,155143,128,0,155262:0:0:0:0:
192,192,155143,128,0,155262:0:0:0:0:
64,192,155143,128,0,155452:0:0:0:0:
192,192,155309,128,0,155452:0:0:0:0:
320,192,155309,128,0,155666:0:0:0:0:
448,192,155309,128,0,155452:0:0:0:0:
64,192,155500,128,0,155666:0:0:0:0:
192,192,155500,128,0,155666:0:0:0:0:
448,192,155500,128,0,155833:0:0:0:0:
64,192,155714,128,0,155833:0:0:0:0:
320,192,155714,128,0,155905:0:0:0:0:
192,192,155714,128,0,155905:0:0:0:0:
64,192,155881,128,0,155975:0:0:0:0:
448,192,155881,128,0,155975:0:0:0:0:
192,192,155952,128,0,156047:0:0:0:0:
320,192,155952,128,0,156047:0:0:0:0:
448,192,156024,128,0,156118:0:0:0:0:
64,192,156024,128,0,156118:0:0:0:0:
320,192,156095,128,0,156261:0:0:0:0:
192,192,156095,128,0,156190:0:0:0:0:
448,192,156166,128,0,156261:0:0:0:0:
64,192,156166,128,0,156333:0:0:0:0:
192,192,156237,128,0,156404:0:0:0:0:
320,192,156309,128,0,156475:0:0:0:0:
448,192,156309,128,0,156404:0:0:0:0:
64,192,156380,128,0,156547:0:0:0:0:
192,192,156452,128,0,156547:0:0:0:0:
448,192,156452,128,0,156618:0:0:0:0:
320,192,156523,128,0,156690:0:0:0:0:
192,192,156595,128,0,156690:0:0:0:0:
64,192,156595,128,0,156761:0:0:0:0:
448,192,156665,128,0,156833:0:0:0:0:
320,192,156737,128,0,156833:0:0:0:0:
192,192,156737,128,0,156904:0:0:0:0:
64,192,156808,128,0,157046:0:0:0:0:
320,192,156880,128,0,156975:0:0:0:0:
448,192,156880,128,0,156975:0:0:0:0:
192,192,156952,128,0,157046:0:0:0:0:
448,192,157023,128,0,157118:0:0:0:0:
320,192,157023,128,0,157118:0:0:0:0:
192,192,157095,128,0,157189:0:0:0:0:
64,192,157095,128,0,157189:0:0:0:0:
320,192,157165,128,0,157261:0:0:0:0:
448,192,157165,128,0,157261:0:0:0:0:
192,192,157237,128,0,157332:0:0:0:0:
64,192,157237,128,0,157404:0:0:0:0:
320,192,157308,128,0,157475:0:0:0:0:
448,192,157308,128,0,157404:0:0:0:0:
192,192,157380,128,0,157546:0:0:0:0:
64,192,157451,128,0,157546:0:0:0:0:
448,192,157451,128,0,157618:0:0:0:0:
320,192,157523,128,0,157689:0:0:0:0:
192,192,157594,128,0,157761:0:0:0:0:
64,192,157594,128,0,157689:0:0:0:0:
448,192,157665,128,0,157832:0:0:0:0:
320,192,157736,128,0,157832:0:0:0:0:
64,192,157736,128,0,157975:0:0:0:0:
192,192,157808,128,0,157904:0:0:0:0:
320,192,157880,128,0,157975:0:0:0:0:
448,192,157880,128,0,158046:0:0:0:0:
192,192,157951,128,0,158117:0:0:0:0:
64,192,158023,128,0,158117:0:0:0:0:
320,192,158023,128,0,158189:0:0:0:0:
448,192,158094,128,0,158332:0:0:0:0:
192,192,158165,128,0,158260:0:0:0:0:
64,192,158165,128,0,158332:0:0:0:0:
320,192,158236,128,0,158403:0:0:0:0:
192,192,158308,128,0,158475:0:0:0:0:
448,192,158379,128,0,158617:0:0:0:0:
64,192,158379,128,0,158545:0:0:0:0:
320,192,158451,128,0,158545:0:0:0:0:
192,192,158522,128,0,158689:0:0:0:0:
64,192,158594,128,0,158689:0:0:0:0:
320,192,158594,128,0,158832:0:0:0:0:
448,192,158665,128,0,158760:0:0:0:0:
192,192,158736,128,0,158903:0:0:0:0:
64,192,158736,128,0,158975:0:0:0:0:
448,192,158807,128,0,158903:0:0:0:0:
320,192,158879,128,0,159045:0:0:0:0:
448,192,158951,128,0,159117:0:0:0:0:
192,192,158951,128,0,159117:0:0:0:0:
64,192,159022,128,0,159188:0:0:0:0:
320,192,159094,128,0,159260:0:0:0:0:
448,192,159165,128,0,159260:0:0:0:0:
192,192,159165,128,0,159331:0:0:0:0:
64,192,159236,128,0,159474:0:0:0:0:
448,192,159307,128,0,159403:0:0:0:0:
320,192,159307,128,0,159474:0:0:0:0:
192,192,159379,128,0,159545:0:0:0:0:
448,192,159450,128,0,159616:0:0:0:0:
64,192,159522,128,0,159688:0:0:0:0:
320,192,159522,128,0,159760:0:0:0:0:
192,192,159593,128,0,159688:0:0:0:0:
448,192,159665,128,0,159831:0:0:0:0:
192,192,159735,128,0,159831:0:0:0:0:
64,192,159735,128,0,159903:0:0:0:0:
320,192,159807,128,0,159974:0:0:0:0:
192,192,159878,128,0,160045:0:0:0:0:
448,192,159878,128,0,160116:0:0:0:0:
64,192,159950,128,0,160045:0:0:0:0:
320,192,160022,128,0,160188:0:0:0:0:
192,192,160093,128,0,160259:0:0:0:0:
64,192,160093,128,0,160259:0:0:0:0:
448,192,160165,128,0,160331:0:0:0:0:
320,192,160235,128,0,160474:0:0:0:0:
64,192,160307,128,0,160402:0:0:0:0:
192,192,160307,128,0,160402:0:0:0:0:
448,192,160378,128,0,160474:0:0:0:0:
64,192,160450,128,0,160545:0:0:0:0:
192,192,160450,128,0,160545:0:0:0:0:
320,192,160521,128,0,160616:0:0:0:0:
448,192,160521,128,0,160616:0:0:0:0:
192,192,160593,128,0,160688:0:0:0:0:
64,192,160593,128,0,160688:0:0:0:0:
320,192,160664,128,0,160831:0:0:0:0:
448,192,160664,128,0,160759:0:0:0:0:
192,192,160735,128,0,160902:0:0:0:0:
64,192,160735,128,0,160831:0:0:0:0:
448,192,160806,128,0,160974:0:0:0:0:
64,192,160878,128,0,161045:0:0:0:0:
320,192,160878,128,0,160974:0:0:0:0:
192,192,160949,128,0,161116:0:0:0:0:
320,192,161021,128,0,161187:0:0:0:0:
448,192,161021,128,0,161116:0:0:0:0:
64,192,161093,128,0,161259:0:0:0:0:
192,192,161164,128,0,161259:0:0:0:0:
448,192,161164,128,0,161330:0:0:0:0:
320,192,161235,128,0,161402:0:0:0:0:
192,192,161306,128,0,161473:0:0:0:0:
64,192,161306,128,0,161402:0:0:0:0:
448,192,161378,128,0,161545:0:0:0:0:
320,192,161449,128,0,161615:0:0:0:0:
64,192,161449,128,0,161545:0:0:0:0:
192,192,161521,128,0,161615:0:0:0:0:
64,192,161592,128,0,161687:0:0:0:0:
448,192,161592,128,0,161687:0:0:0:0:
192,192,161664,128,0,161759:0:0:0:0:
320,192,161664,128,0,161759:0:0:0:0:
64,192,161735,128,0,161830:0:0:0:0:
448,192,161735,128,0,161830:0:0:0:0:
320,192,161806,128,0,161902:0:0:0:0:
192,192,161806,128,0,161973:0:0:0:0:
64,192,161877,128,0,162045:0:0:0:0:
448,192,161877,128,0,161973:0:0:0:0:
320,192,161949,128,0,162115:0:0:0:0:
448,192,162020,128,0,162115:0:0:0:0:
192,192,162020,128,0,162187:0:0:0:0:
64,192,162092,128,0,162258:0:0:0:0:
448,192,162164,128,0,162258:0:0:0:0:
320,192,162164,128,0,162330:0:0:0:0:
192,192,162235,128,0,162401:0:0:0:0:
64,192,162306,128,0,162401:0:0:0:0:
448,192,162306,128,0,162473:0:0:0:0:
320,192,162377,128,0,162544:0:0:0:0:
192,192,162449,128,0,162544:0:0:0:0:
64,192,162449,128,0,162615:0:0:0:0:
448,192,162520,128,0,162686:0:0:0:0:
320,192,162592,128,0,162686:0:0:0:0:
192,192,162592,128,0,162758:0:0:0:0:
64,192,162663,128,0,162901:0:0:0:0:
448,192,162735,128,0,162901:0:0:0:0:
320,192,162735,128,0,162830:0:0:0:0:
192,192,162805,128,0,162973:0:0:0:0:
320,192,162877,128,0,163044:0:0:0:0:
448,192,162948,128,0,163115:0:0:0:0:
64,192,162948,128,0,163186:0:0:0:0:
192,192,163020,128,0,163115:0:0:0:0:
320,192,163091,128,0,163258:0:0:0:0:
448,192,163163,128,0,163258:0:0:0:0:
192,192,163163,128,0,163329:0:0:0:0:
64,192,163235,128,0,163472:0:0:0:0:
320,192,163305,128,0,163472:0:0:0:0:
448,192,163305,128,0,163401:0:0:0:0:
192,192,163377,128,0,163544:0:0:0:0:
448,192,163448,128,0,163615:0:0:0:0:
320,192,163520,128,0,163686:0:0:0:0:
64,192,163520,128,0,163686:0:0:0:0:
192,192,163591,128,0,163757:0:0:0:0:
448,192,163663,128,0,163829:0:0:0:0:
320,192,163734,128,0,163829:0:0:0:0:
64,192,163734,128,0,164044:0:0:0:0:
192,192,163805,128,0,163901:0:0:0:0:
448,192,163876,128,0,164044:0:0:0:0:
320,192,163876,128,0,163972:0:0:0:0:
192,192,163948,128,0,164115:0:0:0:0:
320,192,164019,128,0,164186:0:0:0:0:
448,192,164091,128,0,164329:0:0:0:0:
64,192,164091,128,0,164257:0:0:0:0:
192,192,164162,128,0,164257:0:0:0:0:
320,192,164234,128,0,164400:0:0:0:0:
64,192,164305,128,0,164400:0:0:0:0:
192,192,164305,128,0,164472:0:0:0:0:
448,192,164376,128,0,164543:0:0:0:0:
320,192,164448,128,0,164615:0:0:0:0:
64,192,164448,128,0,164685:0:0:0:0:
192,192,164519,128,0,164685:0:0:0:0:
448,192,164591,128,0,164972:0:0:0:0:
320,192,164662,128,0,164757:0:0:0:0:
64,192,164734,128,0,164828:0:0:0:0:
192,192,164734,128,0,165043:0:0:0:0:
320,192,164805,128,0,164900:0:0:0:0:
64,192,164876,128,0,164972:0:0:0:0:
320,192,164947,128,0,165043:0:0:0:0:
448,192,165019,128,0,165115:0:0:0:0:
64,192,165019,128,0,165115:0:0:0:0:
192,192,165090,128,0,165185:0:0:0:0:
320,192,165090,128,0,165185:0:0:0:0:
448,192,165162,128,0,165257:0:0:0:0:
64,192,165162,128,0,165257:0:0:0:0:
192,192,165234,128,0,165400:0:0:0:0:
320,192,165234,128,0,165328:0:0:0:0:
448,192,165305,128,0,165543:0:0:0:0:
64,192,165305,128,0,165400:0:0:0:0:
320,192,165376,128,0,165471:0:0:0:0:
192,192,165447,128,0,165543:0:0:0:0:
64,192,165447,128,0,165614:0:0:0:0:
320,192,165519,128,0,165685:0:0:0:0:
448,192,165590,128,0,165685:0:0:0:0:
192,192,165590,128,0,165756:0:0:0:0:
64,192,165662,128,0,165828:0:0:0:0:
448,192,165733,128,0,165828:0:0:0:0:
320,192,165733,128,0,165899:0:0:0:0:
192,192,165805,128,0,165971:0:0:0:0:
64,192,165875,128,0,165971:0:0:0:0:
448,192,165875,128,0,166043:0:0:0:0:
320,192,165947,128,0,166185:0:0:0:0:
192,192,166018,128,0,166114:0:0:0:0:
64,192,166018,128,0,166114:0:0:0:0:
448,192,166090,128,0,166185:0:0:0:0:
192,192,166161,128,0,166256:0:0:0:0:
64,192,166161,128,0,166256:0:0:0:0:
320,192,166233,128,0,166328:0:0:0:0:
448,192,166233,128,0,166328:0:0:0:0:
192,192,166305,128,0,166399:0:0:0:0:
64,192,166305,128,0,166399:0:0:0:0:
320,192,166375,128,0,166471:0:0:0:0:
448,192,166375,128,0,166542:0:0:0:0:
192,192,166447,128,0,166542:0:0:0:0:
64,192,166447,128,0,166614:0:0:0:0:
320,192,166518,128,0,166685:0:0:0:0:
448,192,166590,128,0,166685:0:0:0:0:
192,192,166590,128,0,166756:0:0:0:0:
64,192,166661,128,0,166827:0:0:0:0:
320,192,166733,128,0,166899:0:0:0:0:
448,192,166733,128,0,166827:0:0:0:0:
192,192,166804,128,0,166971:0:0:0:0:
64,192,166875,128,0,166971:0:0:0:0:
448,192,166875,128,0,167042:0:0:0:0:
320,192,166946,128,0,167114:0:0:0:0:
192,192,167018,128,0,167114:0:0:0:0:
64,192,167018,128,0,167185:0:0:0:0:
448,192,167089,128,0,167256:0:0:0:0:
320,192,167161,128,0,167256:0:0:0:0:
192,192,167161,128,0,167327:0:0:0:0:
64,192,167232,128,0,167399:0:0:0:0:
448,192,167304,128,0,167470:0:0:0:0:
320,192,167304,128,0,167470:0:0:0:0:
192,192,167375,128,0,167613:0:0:0:0:
64,192,167446,128,0,167542:0:0:0:0:
320,192,167518,128,0,167685:0:0:0:0:
448,192,167518,128,0,167755:0:0:0:0:
64,192,167589,128,0,167685:0:0:0:0:
192,192,167661,128,0,167827:0:0:0:0:
320,192,167732,128,0,167898:0:0:0:0:
64,192,167732,128,0,167827:0:0:0:0:
448,192,167804,128,0,168042:0:0:0:0:
64,192,167875,128,0,168042:0:0:0:0:
192,192,167875,128,0,167970:0:0:0:0:
320,192,167946,128,0,168113:0:0:0:0:
192,192,168017,128,0,168185:0:0:0:0:
448,192,168089,128,0,168255:0:0:0:0:
64,192,168089,128,0,168255:0:0:0:0:
320,192,168160,128,0,168327:0:0:0:0:
192,192,168232,128,0,168398:0:0:0:0:
64,192,168303,128,0,168398:0:0:0:0:
448,192,168303,128,0,168470:0:0:0:0:
320,192,168375,128,0,168684:0:0:0:0:
192,192,168446,128,0,168613:0:0:0:0:
64,192,168446,128,0,168541:0:0:0:0:
448,192,168517,128,0,168613:0:0:0:0:
64,192,168589,128,0,168826:0:0:0:0:
192,192,168660,128,0,168755:0:0:0:0:
448,192,168660,128,0,168826:0:0:0:0:
320,192,168732,128,0,168898:0:0:0:0:
192,192,168803,128,0,168969:0:0:0:0:
64,192,168875,128,0,168969:0:0:0:0:
448,192,168875,128,0,169041:0:0:0:0:
320,192,168945,128,0,169113:0:0:0:0:
192,192,169017,128,0,169184:0:0:0:0:
64,192,169017,128,0,169255:0:0:0:0:
448,192,169088,128,0,169184:0:0:0:0:
320,192,169160,128,0,169326:0:0:0:0:
192,192,169231,128,0,169398:0:0:0:0:
448,192,169231,128,0,169398:0:0:0:0:
64,192,169303,128,0,169469:0:0:0:0:
320,192,169374,128,0,169541:0:0:0:0:
448,192,169445,128,0,169541:0:0:0:0:
192,192,169445,128,0,169612:0:0:0:0:
64,192,169517,128,0,169612:0:0:0:0:
320,192,169588,128,0,169684:0:0:0:0:
448,192,169588,128,0,169684:0:0:0:0:
192,192,169660,128,0,169755:0:0:0:0:
64,192,169660,128,0,169755:0:0:0:0:
320,192,169731,128,0,169826:0:0:0:0:
448,192,169731,128,0,169826:0:0:0:0:
192,192,169803,128,0,169897:0:0:0:0:
64,192,169803,128,0,169969:0:0:0:0:
320,192,169874,128,0,170040:0:0:0:0:
448,192,169874,128,0,169969:0:0:0:0:
192,192,169945,128,0,170112:0:0:0:0:
64,192,170016,128,0,170112:0:0:0:0:
448,192,170016,128,0,170184:0:0:0:0:
320,192,170088,128,0,170255:0:0:0:0:
192,192,170159,128,0,170326:0:0:0:0:
64,192,170159,128,0,170255:0:0:0:0:
448,192,170231,128,0,170397:0:0:0:0:
320,192,170302,128,0,170397:0:0:0:0:
64,192,170302,128,0,170469:0:0:0:0:
192,192,170374,128,0,170540:0:0:0:0:
320,192,170445,128,0,170612:0:0:0:0:
448,192,170445,128,0,170540:0:0:0:0:
64,192,170516,128,0,170683:0:0:0:0:
192,192,170588,128,0,170755:0:0:0:0:
448,192,170588,128,0,170683:0:0:0:0:
320,192,170659,128,0,170755:0:0:0:0:
64,192,170731,128,0,170825:0:0:0:0:
448,192,170731,128,0,170825:0:0:0:0:
192,192,170802,128,0,170897:0:0:0:0:
320,192,170802,128,0,170897:0:0:0:0:
64,192,170874,128,0,170968:0:0:0:0:
448,192,170874,128,0,170968:0:0:0:0:
320,192,170945,128,0,171111:0:0:0:0:
192,192,170945,128,0,171040:0:0:0:0:
64,192,171016,128,0,171183:0:0:0:0:
448,192,171016,128,0,171111:0:0:0:0:
192,192,171087,128,0,171255:0:0:0:0:
320,192,171159,128,0,171325:0:0:0:0:
448,192,171159,128,0,171255:0:0:0:0:
64,192,171230,128,0,171397:0:0:0:0:
192,192,171302,128,0,171397:0:0:0:0:
448,192,171302,128,0,171540:0:0:0:0:
320,192,171373,128,0,171468:0:0:0:0:
192,192,171445,128,0,171540:0:0:0:0:
64,192,171445,128,0,171611:0:0:0:0:
320,192,171516,128,0,171683:0:0:0:0:
192,192,171587,128,0,171754:0:0:0:0:
448,192,171587,128,0,171683:0:0:0:0:
64,192,171659,128,0,171825:0:0:0:0:
448,192,171730,128,0,171896:0:0:0:0:
320,192,171730,128,0,171825:0:0:0:0:
192,192,171802,128,0,171968:0:0:0:0:
64,192,171873,128,0,172111:0:0:0:0:
320,192,171873,128,0,172039:0:0:0:0:
448,192,171945,128,0,172039:0:0:0:0:
192,192,172015,128,0,172182:0:0:0:0:
320,192,172087,128,0,172254:0:0:0:0:
448,192,172087,128,0,172254:0:0:0:0:
64,192,172158,128,0,172396:0:0:0:0:
192,192,172230,128,0,172325:0:0:0:0:
320,192,172301,128,0,172468:0:0:0:0:
448,192,172301,128,0,172396:0:0:0:0:
192,192,172373,128,0,172539:0:0:0:0:
64,192,172444,128,0,172611:0:0:0:0:
448,192,172444,128,0,172682:0:0:0:0:
320,192,172515,128,0,172611:0:0:0:0:
192,192,172587,128,0,172754:0:0:0:0:
64,192,172658,128,0,172825:0:0:0:0:
320,192,172658,128,0,172825:0:0:0:0:
448,192,172730,128,0,172896:0:0:0:0:
192,192,172801,128,0,172967:0:0:0:0:
64,192,172873,128,0,172967:0:0:0:0:
320,192,172873,128,0,173110:0:0:0:0:
448,192,172944,128,0,173253:0:0:0:0:
192,192,173015,128,0,173182:0:0:0:0:
64,192,173015,128,0,173396:0:0:0:0:
320,192,173158,128,0,173539:0:0:0:0:
192,192,173229,128,0,173467:0:0:0:0:
448,192,173301,128,0,173539:0:0:0:0:
64,192,173444,128,0,173610:0:0:0:0:
192,192,173515,128,0,173610:0:0:0:0:
320,192,173586,128,0,173729:0:0:0:0:
448,192,173586,128,0,173682:0:0:0:0:
192,192,173658,128,0,173753:0:0:0:0:
64,192,173658,128,0,173801:0:0:0:0:
448,192,173729,128,0,173825:0:0:0:0:
320,192,173776,128,0,173967:0:0:0:0:
192,192,173801,128,0,173895:0:0:0:0:
64,192,173848,128,0,174038:0:0:0:0:
448,192,173872,128,0,174110:0:0:0:0:
192,192,173944,128,0,174110:0:0:0:0:
320,192,174015,128,0,175824:0:0:0:0:
64,192,174086,128,0,174966:0:0:0:0:
192,192,174157,128,0,175252:0:0:0:0:
448,192,174157,128,0,175252:0:0:0:0:
64,192,175015,128,0,176395:0:0:0:0:
192,192,175300,128,0,176395:0:0:0:0:
448,192,175300,128,0,177251:0:0:0:0:
320,192,175871,128,0,177537:0:0:0:0:
64,192,176442,128,0,177537:0:0:0:0:
192,192,176442,128,0,178108:0:0:0:0:
448,192,177299,128,0,178679:0:0:0:0:
320,192,177585,128,0,178251:0:0:0:0:
64,192,177585,128,0,178394:0:0:0:0:
192,192,178155,128,0,178536:0:0:0:0:
320,192,178298,128,0,178679:0:0:0:0:
64,192,178441,128,0,180393:0:0:0:0:
192,192,178584,128,0,179822:0:0:0:0:
320,192,178726,128,0,179535:0:0:0:0:
448,192,178726,128,0,179822:0:0:0:0:
320,192,179584,128,0,180393:0:0:0:0:
192,192,179869,128,0,180964:0:0:0:0:
448,192,179869,128,0,180964:0:0:0:0:
320,192,180440,128,0,181249:0:0:0:0:
64,192,180440,128,0,181535:0:0:0:0:
192,192,181012,128,0,181821:0:0:0:0:
448,192,181012,128,0,182106:0:0:0:0:
320,192,181297,128,0,182106:0:0:0:0:
64,192,181583,128,0,183248:0:0:0:0:
192,192,181868,128,0,182677:0:0:0:0:
320,192,182154,128,0,184105:0:0:0:0:
448,192,182154,128,0,183248:0:0:0:0:
192,192,182725,128,0,184391:0:0:0:0:
64,192,183296,128,0,184391:0:0:0:0:
448,192,183296,128,0,185533:0:0:0:0:
320,192,184153,128,0,184962:0:0:0:0:
192,192,184438,128,0,186390:0:0:0:0:
64,192,184438,128,0,185533:0:0:0:0:
320,192,185009,128,0,186675:0:0:0:0:
448,192,185581,128,0,187817:0:0:0:0:
64,192,185581,128,0,186675:0:0:0:0:
192,192,186437,128,0,187246:0:0:0:0:
320,192,186723,128,0,187389:0:0:0:0:
64,192,186723,128,0,187532:0:0:0:0:
192,192,187295,128,0,187675:0:0:0:0:
320,192,187437,128,0,187817:0:0:0:0:
64,192,187580,128,0,188960:0:0:0:0:
192,192,187723,128,0,188960:0:0:0:0:
320,192,187865,128,0,188675:0:0:0:0:
448,192,187865,128,0,190103:0:0:0:0:
320,192,188722,128,0,190103:0:0:0:0:
64,192,189007,128,0,192435:0:0:0:0:
192,192,189007,128,0,192435:0:0:0:0:
448,192,190150,128,0,192435:0:0:0:0:
320,192,190150,128,0,192435:0:0:0:0:
