osu file format v14

[General]
AudioFilename: audio115.mp3
AudioLeadIn: 0
PreviewTime: -1
Countdown: 0
SampleSet: None
StackLeniency: 0.7
Mode: 3
LetterboxInBreaks: 0
SpecialStyle: 0
WidescreenStoryboard: 0

[Editor]
DistanceSpacing: 0.8
BeatDivisor: 12
GridSize: 32
TimelineZoom: 2.2

[Metadata]
Title:AO-INFINITY
TitleUnicode:AO-∞
Artist:Seiryu
ArtistUnicode:青龍
Creator:Affinityy
Version:Reflection [1.15x Rate]
Source:REFLEC BEAT plus
Tags:
BeatmapID:2458397
BeatmapSetID:1177420

[Difficulty]
HPDrainRate:6
CircleSize:4
OverallDifficulty:0
ApproachRate:5
SliderMultiplier:1.4
SliderTickRate:1

[Events]
//Background and Video events
0,0,"bg.png",0,0
//Break Periods
//Storyboard Layer 0 (Background)
//Storyboard Layer 1 (Fail)
//Storyboard Layer 2 (Pass)
//Storyboard Layer 3 (Foreground)
//Storyboard Layer 4 (Overlay)
//Storyboard Sound Samples

[TimingPoints]
505,273.161848395174,4,2,1,30,1,0
52929,-100,4,2,1,30,0,1
70411,-100,4,2,1,30,0,0
131327,-100,4,2,1,30,0,1
166633,-100,4,2,1,30,0,0

[HitObjects]
320,192,505,128,0,2098:0:0:0:0:
64,192,505,128,0,1552:0:0:0:0:
192,192,1324,128,0,2644:0:0:0:0:
448,192,1597,128,0,4693:0:0:0:0:
64,192,1597,128,0,2644:0:0:0:0:
320,192,2143,128,0,3737:0:0:0:0:
64,192,2690,128,0,3737:0:0:0:0:
192,192,2690,128,0,3464:0:0:0:0:
192,192,3510,128,0,4420:0:0:0:0:
64,192,3783,128,0,4283:0:0:0:0:
320,192,3783,128,0,4557:0:0:0:0:
64,192,4329,128,0,4830:0:0:0:0:
192,192,4465,128,0,4830:0:0:0:0:
320,192,4603,128,0,5923:0:0:0:0:
448,192,4739,128,0,6469:0:0:0:0:
64,192,4876,128,0,5923:0:0:0:0:
192,192,4876,128,0,5650:0:0:0:0:
192,192,5695,128,0,7015:0:0:0:0:
64,192,5968,128,0,7015:0:0:0:0:
320,192,5968,128,0,7289:0:0:0:0:
448,192,6514,128,0,7562:0:0:0:0:
64,192,7061,128,0,8108:0:0:0:0:
192,192,7061,128,0,7835:0:0:0:0:
320,192,7334,128,0,8108:0:0:0:0:
448,192,7607,128,0,8654:0:0:0:0:
192,192,7880,128,0,10293:0:0:0:0:
64,192,8153,128,0,10839:0:0:0:0:
320,192,8153,128,0,9200:0:0:0:0:
448,192,8700,128,0,9200:0:0:0:0:
320,192,9246,128,0,10020:0:0:0:0:
448,192,9246,128,0,10293:0:0:0:0:
320,192,10065,128,0,12751:0:0:0:0:
192,192,10338,128,0,11386:0:0:0:0:
448,192,10338,128,0,12478:0:0:0:0:
64,192,10885,128,0,11386:0:0:0:0:
192,192,11431,128,0,12205:0:0:0:0:
64,192,11431,128,0,12478:0:0:0:0:
192,192,12250,128,0,13161:0:0:0:0:
64,192,12523,128,0,13024:0:0:0:0:
448,192,12523,128,0,13435:0:0:0:0:
320,192,12797,128,0,13298:0:0:0:0:
64,192,13070,128,0,13571:0:0:0:0:
192,192,13207,128,0,13571:0:0:0:0:
320,192,13343,128,0,14390:0:0:0:0:
448,192,13480,128,0,14663:0:0:0:0:
192,192,13617,128,0,15210:0:0:0:0:
64,192,13617,128,0,14663:0:0:0:0:
320,192,14436,128,0,15757:0:0:0:0:
448,192,14710,128,0,15757:0:0:0:0:
64,192,14710,128,0,17942:0:0:0:0:
192,192,15256,128,0,18761:0:0:0:0:
320,192,15802,128,0,19034:0:0:0:0:
448,192,15802,128,0,17942:0:0:0:0:
64,192,17987,128,0,19581:0:0:0:0:
448,192,17987,128,0,19034:0:0:0:0:
192,192,18807,128,0,20127:0:0:0:0:
320,192,19080,128,0,20946:0:0:0:0:
448,192,19080,128,0,20127:0:0:0:0:
64,192,19626,128,0,21219:0:0:0:0:
192,192,20172,128,0,21903:0:0:0:0:
448,192,20172,128,0,21219:0:0:0:0:
320,192,20992,128,0,22039:0:0:0:0:
64,192,21265,128,0,21766:0:0:0:0:
448,192,21265,128,0,22176:0:0:0:0:
64,192,21811,128,0,22312:0:0:0:0:
192,192,21948,128,0,22312:0:0:0:0:
320,192,22084,128,0,23131:0:0:0:0:
448,192,22221,128,0,23405:0:0:0:0:
192,192,22357,128,0,23405:0:0:0:0:
64,192,22357,128,0,24497:0:0:0:0:
320,192,23177,128,0,23951:0:0:0:0:
192,192,23450,128,0,25043:0:0:0:0:
448,192,23450,128,0,24497:0:0:0:0:
320,192,23997,128,0,24770:0:0:0:0:
64,192,24543,128,0,25317:0:0:0:0:
448,192,24543,128,0,25590:0:0:0:0:
320,192,24817,128,0,25590:0:0:0:0:
192,192,25090,128,0,26137:0:0:0:0:
64,192,25363,128,0,26683:0:0:0:0:
320,192,25636,128,0,27503:0:0:0:0:
448,192,25636,128,0,26683:0:0:0:0:
192,192,26182,128,0,27776:0:0:0:0:
448,192,26729,128,0,27776:0:0:0:0:
64,192,26729,128,0,28322:0:0:0:0:
320,192,27548,128,0,28868:0:0:0:0:
448,192,27821,128,0,28868:0:0:0:0:
192,192,27821,128,0,29688:0:0:0:0:
64,192,28367,128,0,29961:0:0:0:0:
448,192,28914,128,0,29961:0:0:0:0:
320,192,28914,128,0,30234:0:0:0:0:
192,192,29733,128,0,30643:0:0:0:0:
64,192,30006,128,0,30507:0:0:0:0:
448,192,30006,128,0,30917:0:0:0:0:
320,192,30279,128,0,30780:0:0:0:0:
64,192,30552,128,0,31053:0:0:0:0:
192,192,30690,128,0,31053:0:0:0:0:
320,192,30826,128,0,32146:0:0:0:0:
448,192,30963,128,0,31873:0:0:0:0:
64,192,31099,128,0,32146:0:0:0:0:
192,192,31099,128,0,32692:0:0:0:0:
448,192,31918,128,0,33238:0:0:0:0:
320,192,32191,128,0,33238:0:0:0:0:
64,192,32191,128,0,34877:0:0:0:0:
192,192,32738,128,0,34331:0:0:0:0:
320,192,33284,128,0,34537:0:0:0:0:
448,192,33284,128,0,34741:0:0:0:0:
192,192,34377,128,0,35561:0:0:0:0:
320,192,34582,128,0,35083:0:0:0:0:
448,192,34787,128,0,35424:0:0:0:0:
64,192,34923,128,0,35424:0:0:0:0:
320,192,35128,128,0,35287:0:0:0:0:
320,192,35333,128,0,35492:0:0:0:0:
448,192,35470,128,0,35697:0:0:0:0:
64,192,35470,128,0,35629:0:0:0:0:
320,192,35537,128,0,36449:0:0:0:0:
192,192,35606,128,0,35834:0:0:0:0:
64,192,35675,128,0,36107:0:0:0:0:
448,192,35743,128,0,35970:0:0:0:0:
192,192,35879,128,0,36380:0:0:0:0:
448,192,36016,128,0,36243:0:0:0:0:
64,192,36152,128,0,36517:0:0:0:0:
448,192,36289,128,0,36517:0:0:0:0:
192,192,36425,128,0,36585:0:0:0:0:
320,192,36494,128,0,36653:0:0:0:0:
448,192,36562,128,0,36722:0:0:0:0:
64,192,36562,128,0,36790:0:0:0:0:
192,192,36630,128,0,37610:0:0:0:0:
320,192,36699,128,0,36926:0:0:0:0:
448,192,36767,128,0,37199:0:0:0:0:
64,192,36836,128,0,37063:0:0:0:0:
320,192,36972,128,0,37473:0:0:0:0:
64,192,37109,128,0,37337:0:0:0:0:
448,192,37245,128,0,37610:0:0:0:0:
64,192,37382,128,0,38019:0:0:0:0:
320,192,37518,128,0,37814:0:0:0:0:
192,192,37655,128,0,37814:0:0:0:0:
448,192,37655,128,0,38156:0:0:0:0:
320,192,37860,128,0,38019:0:0:0:0:
192,192,37860,128,0,38156:0:0:0:0:
320,192,38064,128,0,38361:0:0:0:0:
64,192,38064,128,0,38702:0:0:0:0:
448,192,38201,128,0,38361:0:0:0:0:
192,192,38201,128,0,38702:0:0:0:0:
320,192,38406,128,0,38565:0:0:0:0:
448,192,38406,128,0,38565:0:0:0:0:
320,192,38610,128,0,38907:0:0:0:0:
448,192,38610,128,0,39111:0:0:0:0:
192,192,38748,128,0,38907:0:0:0:0:
64,192,38748,128,0,39248:0:0:0:0:
192,192,38952,128,0,39248:0:0:0:0:
320,192,38952,128,0,39111:0:0:0:0:
320,192,39157,128,0,39453:0:0:0:0:
448,192,39157,128,0,39795:0:0:0:0:
192,192,39294,128,0,39453:0:0:0:0:
64,192,39294,128,0,39795:0:0:0:0:
320,192,39498,128,0,39658:0:0:0:0:
192,192,39498,128,0,39658:0:0:0:0:
320,192,39703,128,0,39863:0:0:0:0:
192,192,39703,128,0,39931:0:0:0:0:
448,192,39840,128,0,40068:0:0:0:0:
64,192,39840,128,0,39999:0:0:0:0:
320,192,39909,128,0,40819:0:0:0:0:
192,192,39977,128,0,40204:0:0:0:0:
64,192,40045,128,0,40477:0:0:0:0:
448,192,40113,128,0,40341:0:0:0:0:
192,192,40250,128,0,40750:0:0:0:0:
448,192,40386,128,0,40614:0:0:0:0:
64,192,40523,128,0,40887:0:0:0:0:
448,192,40660,128,0,40887:0:0:0:0:
192,192,40797,128,0,40956:0:0:0:0:
320,192,40864,128,0,41023:0:0:0:0:
448,192,40933,128,0,41092:0:0:0:0:
64,192,40933,128,0,41160:0:0:0:0:
192,192,41001,128,0,41980:0:0:0:0:
320,192,41070,128,0,41297:0:0:0:0:
448,192,41137,128,0,41570:0:0:0:0:
64,192,41206,128,0,41434:0:0:0:0:
320,192,41343,128,0,41843:0:0:0:0:
64,192,41479,128,0,41707:0:0:0:0:
448,192,41616,128,0,42184:0:0:0:0:
64,192,41752,128,0,41980:0:0:0:0:
320,192,41889,128,0,42390:0:0:0:0:
192,192,42025,128,0,42184:0:0:0:0:
64,192,42025,128,0,42526:0:0:0:0:
448,192,42230,128,0,42390:0:0:0:0:
192,192,42230,128,0,42526:0:0:0:0:
320,192,42435,128,0,42731:0:0:0:0:
448,192,42435,128,0,43072:0:0:0:0:
192,192,42571,128,0,43072:0:0:0:0:
64,192,42571,128,0,42731:0:0:0:0:
320,192,42777,128,0,42936:0:0:0:0:
64,192,42777,128,0,42936:0:0:0:0:
320,192,42982,128,0,43277:0:0:0:0:
64,192,42982,128,0,43483:0:0:0:0:
448,192,43118,128,0,43277:0:0:0:0:
192,192,43118,128,0,43619:0:0:0:0:
320,192,43323,128,0,43483:0:0:0:0:
448,192,43323,128,0,43619:0:0:0:0:
320,192,43528,128,0,43756:0:0:0:0:
64,192,43528,128,0,43823:0:0:0:0:
448,192,43664,128,0,43892:0:0:0:0:
192,192,43664,128,0,43823:0:0:0:0:
320,192,43801,128,0,44029:0:0:0:0:
192,192,43870,128,0,44097:0:0:0:0:
64,192,43870,128,0,43960:0:0:0:0:
448,192,43937,128,0,44029:0:0:0:0:
64,192,44006,128,0,44233:0:0:0:0:
448,192,44074,128,0,44165:0:0:0:0:
320,192,44074,128,0,44165:0:0:0:0:
192,192,44143,128,0,44302:0:0:0:0:
320,192,44210,128,0,44370:0:0:0:0:
448,192,44210,128,0,44438:0:0:0:0:
64,192,44279,128,0,44438:0:0:0:0:
192,192,44347,128,0,44575:0:0:0:0:
320,192,44416,128,0,44848:0:0:0:0:
448,192,44483,128,0,44711:0:0:0:0:
64,192,44483,128,0,44711:0:0:0:0:
192,192,44620,128,0,44984:0:0:0:0:
64,192,44757,128,0,44984:0:0:0:0:
448,192,44757,128,0,45121:0:0:0:0:
320,192,44894,128,0,45190:0:0:0:0:
192,192,45030,128,0,45257:0:0:0:0:
64,192,45030,128,0,45257:0:0:0:0:
448,192,45167,128,0,45326:0:0:0:0:
320,192,45235,128,0,45395:0:0:0:0:
192,192,45303,128,0,45463:0:0:0:0:
64,192,45303,128,0,45531:0:0:0:0:
448,192,45371,128,0,45531:0:0:0:0:
320,192,45440,128,0,45668:0:0:0:0:
192,192,45508,128,0,45941:0:0:0:0:
448,192,45577,128,0,45804:0:0:0:0:
64,192,45577,128,0,45804:0:0:0:0:
320,192,45713,128,0,46077:0:0:0:0:
448,192,45850,128,0,46077:0:0:0:0:
64,192,45850,128,0,46350:0:0:0:0:
192,192,45986,128,0,46214:0:0:0:0:
320,192,46123,128,0,46556:0:0:0:0:
448,192,46123,128,0,46350:0:0:0:0:
192,192,46259,128,0,46623:0:0:0:0:
448,192,46396,128,0,46897:0:0:0:0:
64,192,46396,128,0,46623:0:0:0:0:
320,192,46601,128,0,46760:0:0:0:0:
192,192,46670,128,0,46897:0:0:0:0:
64,192,46670,128,0,47102:0:0:0:0:
320,192,46806,128,0,47170:0:0:0:0:
448,192,46943,128,0,47170:0:0:0:0:
192,192,46943,128,0,47306:0:0:0:0:
64,192,47147,128,0,47443:0:0:0:0:
320,192,47216,128,0,47443:0:0:0:0:
448,192,47216,128,0,47717:0:0:0:0:
192,192,47352,128,0,47717:0:0:0:0:
320,192,47489,128,0,47648:0:0:0:0:
64,192,47489,128,0,47853:0:0:0:0:
320,192,47694,128,0,47990:0:0:0:0:
448,192,47762,128,0,47990:0:0:0:0:
192,192,47762,128,0,48057:0:0:0:0:
64,192,47898,128,0,48057:0:0:0:0:
320,192,48035,128,0,48149:0:0:0:0:
448,192,48035,128,0,48126:0:0:0:0:
192,192,48103,128,0,48194:0:0:0:0:
64,192,48103,128,0,48217:0:0:0:0:
448,192,48171,128,0,48263:0:0:0:0:
320,192,48194,128,0,48399:0:0:0:0:
192,192,48240,128,0,48330:0:0:0:0:
64,192,48263,128,0,48468:0:0:0:0:
448,192,48308,128,0,48536:0:0:0:0:
192,192,48377,128,0,48604:0:0:0:0:
320,192,48444,128,0,48536:0:0:0:0:
64,192,48513,128,0,48672:0:0:0:0:
320,192,48581,128,0,48741:0:0:0:0:
448,192,48581,128,0,48809:0:0:0:0:
192,192,48650,128,0,48809:0:0:0:0:
64,192,48718,128,0,48877:0:0:0:0:
320,192,48786,128,0,48945:0:0:0:0:
448,192,48855,128,0,49082:0:0:0:0:
192,192,48855,128,0,49014:0:0:0:0:
64,192,48923,128,0,49082:0:0:0:0:
320,192,48991,128,0,49150:0:0:0:0:
192,192,49059,128,0,49218:0:0:0:0:
448,192,49128,128,0,49356:0:0:0:0:
64,192,49128,128,0,49287:0:0:0:0:
320,192,49196,128,0,49356:0:0:0:0:
192,192,49264,128,0,49423:0:0:0:0:
64,192,49332,128,0,49492:0:0:0:0:
320,192,49401,128,0,49697:0:0:0:0:
448,192,49401,128,0,49560:0:0:0:0:
192,192,49469,128,0,49629:0:0:0:0:
64,192,49537,128,0,49629:0:0:0:0:
448,192,49605,128,0,49765:0:0:0:0:
192,192,49674,128,0,49833:0:0:0:0:
64,192,49674,128,0,49902:0:0:0:0:
320,192,49743,128,0,49902:0:0:0:0:
448,192,49810,128,0,49970:0:0:0:0:
192,192,49879,128,0,50038:0:0:0:0:
320,192,49947,128,0,50106:0:0:0:0:
64,192,49947,128,0,50175:0:0:0:0:
448,192,50016,128,0,50175:0:0:0:0:
192,192,50083,128,0,50243:0:0:0:0:
320,192,50152,128,0,50311:0:0:0:0:
448,192,50220,128,0,50380:0:0:0:0:
64,192,50220,128,0,50448:0:0:0:0:
192,192,50289,128,0,50448:0:0:0:0:
320,192,50357,128,0,50517:0:0:0:0:
448,192,50425,128,0,50584:0:0:0:0:
64,192,50493,128,0,50790:0:0:0:0:
192,192,50493,128,0,50653:0:0:0:0:
320,192,50562,128,0,50721:0:0:0:0:
448,192,50630,128,0,50721:0:0:0:0:
192,192,50698,128,0,50857:0:0:0:0:
320,192,50767,128,0,50926:0:0:0:0:
448,192,50767,128,0,50857:0:0:0:0:
64,192,50835,128,0,50994:0:0:0:0:
192,192,50903,128,0,50994:0:0:0:0:
448,192,50903,128,0,51063:0:0:0:0:
320,192,50971,128,0,51130:0:0:0:0:
192,192,51040,128,0,51199:0:0:0:0:
64,192,51040,128,0,51130:0:0:0:0:
448,192,51108,128,0,51267:0:0:0:0:
320,192,51177,128,0,51267:0:0:0:0:
64,192,51177,128,0,51336:0:0:0:0:
192,192,51244,128,0,51336:0:0:0:0:
448,192,51313,128,0,51404:0:0:0:0:
320,192,51313,128,0,51404:0:0:0:0:
192,192,51381,128,0,51472:0:0:0:0:
64,192,51381,128,0,51472:0:0:0:0:
320,192,51450,128,0,51541:0:0:0:0:
448,192,51450,128,0,51541:0:0:0:0:
192,192,51517,128,0,51609:0:0:0:0:
64,192,51517,128,0,51609:0:0:0:0:
448,192,51586,128,0,51677:0:0:0:0:
320,192,51586,128,0,51677:0:0:0:0:
192,192,51654,128,0,51745:0:0:0:0:
64,192,51654,128,0,51745:0:0:0:0:
320,192,51723,128,0,51814:0:0:0:0:
448,192,51723,128,0,51814:0:0:0:0:
192,192,51791,128,0,52087:0:0:0:0:
64,192,51791,128,0,52087:0:0:0:0:
320,192,51859,128,0,52360:0:0:0:0:
448,192,51859,128,0,52087:0:0:0:0:
192,192,52132,128,0,52633:0:0:0:0:
64,192,52132,128,0,52633:0:0:0:0:
448,192,52132,128,0,52360:0:0:0:0:
448,192,52405,128,0,52497:0:0:0:0:
320,192,52405,128,0,52497:0:0:0:0:
448,192,52542,128,0,52633:0:0:0:0:
320,192,52542,128,0,52633:0:0:0:0:
64,192,52678,128,0,52906:0:0:0:0:
192,192,52678,128,0,52975:0:0:0:0:
320,192,52678,128,0,52975:0:0:0:0:
448,192,52678,128,0,52906:0:0:0:0:
64,192,52952,128,0,53043:0:0:0:0:
448,192,52952,128,0,53043:0:0:0:0:
320,192,53020,128,0,53111:0:0:0:0:
192,192,53020,128,0,53111:0:0:0:0:
64,192,53089,128,0,53179:0:0:0:0:
448,192,53089,128,0,53179:0:0:0:0:
320,192,53157,128,0,53316:0:0:0:0:
192,192,53157,128,0,53248:0:0:0:0:
64,192,53225,128,0,53384:0:0:0:0:
448,192,53225,128,0,53316:0:0:0:0:
192,192,53293,128,0,53453:0:0:0:0:
320,192,53362,128,0,53453:0:0:0:0:
448,192,53362,128,0,53521:0:0:0:0:
64,192,53430,128,0,53590:0:0:0:0:
192,192,53498,128,0,53590:0:0:0:0:
320,192,53498,128,0,53657:0:0:0:0:
448,192,53566,128,0,53726:0:0:0:0:
192,192,53635,128,0,53726:0:0:0:0:
64,192,53635,128,0,53794:0:0:0:0:
320,192,53703,128,0,53863:0:0:0:0:
448,192,53771,128,0,53863:0:0:0:0:
192,192,53771,128,0,53930:0:0:0:0:
64,192,53840,128,0,54067:0:0:0:0:
320,192,53908,128,0,53999:0:0:0:0:
448,192,53908,128,0,53999:0:0:0:0:
192,192,53977,128,0,54067:0:0:0:0:
448,192,54044,128,0,54136:0:0:0:0:
320,192,54044,128,0,54136:0:0:0:0:
192,192,54113,128,0,54203:0:0:0:0:
64,192,54113,128,0,54203:0:0:0:0:
320,192,54181,128,0,54272:0:0:0:0:
448,192,54181,128,0,54272:0:0:0:0:
192,192,54250,128,0,54340:0:0:0:0:
64,192,54250,128,0,54409:0:0:0:0:
320,192,54317,128,0,54477:0:0:0:0:
448,192,54317,128,0,54409:0:0:0:0:
192,192,54386,128,0,54545:0:0:0:0:
64,192,54454,128,0,54545:0:0:0:0:
448,192,54454,128,0,54614:0:0:0:0:
320,192,54523,128,0,54682:0:0:0:0:
192,192,54590,128,0,54750:0:0:0:0:
64,192,54590,128,0,54682:0:0:0:0:
448,192,54659,128,0,54818:0:0:0:0:
320,192,54728,128,0,54818:0:0:0:0:
64,192,54728,128,0,54887:0:0:0:0:
192,192,54796,128,0,54955:0:0:0:0:
320,192,54864,128,0,55023:0:0:0:0:
448,192,54864,128,0,54955:0:0:0:0:
64,192,54932,128,0,55091:0:0:0:0:
448,192,55001,128,0,55160:0:0:0:0:
192,192,55001,128,0,55091:0:0:0:0:
320,192,55069,128,0,55228:0:0:0:0:
192,192,55137,128,0,55297:0:0:0:0:
64,192,55137,128,0,55365:0:0:0:0:
448,192,55205,128,0,55297:0:0:0:0:
320,192,55274,128,0,55433:0:0:0:0:
448,192,55342,128,0,55570:0:0:0:0:
192,192,55342,128,0,55502:0:0:0:0:
64,192,55410,128,0,55502:0:0:0:0:
320,192,55478,128,0,55638:0:0:0:0:
192,192,55547,128,0,55706:0:0:0:0:
64,192,55547,128,0,55638:0:0:0:0:
448,192,55615,128,0,55843:0:0:0:0:
320,192,55683,128,0,55775:0:0:0:0:
64,192,55683,128,0,55843:0:0:0:0:
192,192,55752,128,0,55911:0:0:0:0:
320,192,55820,128,0,55979:0:0:0:0:
448,192,55889,128,0,56048:0:0:0:0:
64,192,55889,128,0,56048:0:0:0:0:
192,192,55957,128,0,56116:0:0:0:0:
320,192,56025,128,0,56184:0:0:0:0:
448,192,56093,128,0,56184:0:0:0:0:
64,192,56093,128,0,56252:0:0:0:0:
192,192,56162,128,0,56390:0:0:0:0:
320,192,56230,128,0,56390:0:0:0:0:
448,192,56230,128,0,56321:0:0:0:0:
64,192,56298,128,0,56457:0:0:0:0:
448,192,56366,128,0,56594:0:0:0:0:
320,192,56435,128,0,56526:0:0:0:0:
192,192,56435,128,0,56594:0:0:0:0:
64,192,56503,128,0,56663:0:0:0:0:
320,192,56571,128,0,56730:0:0:0:0:
448,192,56639,128,0,56730:0:0:0:0:
192,192,56639,128,0,56799:0:0:0:0:
64,192,56708,128,0,56799:0:0:0:0:
320,192,56777,128,0,56867:0:0:0:0:
448,192,56777,128,0,56867:0:0:0:0:
192,192,56844,128,0,56936:0:0:0:0:
64,192,56844,128,0,57003:0:0:0:0:
320,192,56913,128,0,57072:0:0:0:0:
448,192,56913,128,0,57003:0:0:0:0:
192,192,56981,128,0,57072:0:0:0:0:
64,192,57050,128,0,57140:0:0:0:0:
448,192,57050,128,0,57140:0:0:0:0:
192,192,57117,128,0,57209:0:0:0:0:
320,192,57117,128,0,57277:0:0:0:0:
448,192,57186,128,0,57277:0:0:0:0:
64,192,57186,128,0,57345:0:0:0:0:
192,192,57254,128,0,57345:0:0:0:0:
320,192,57323,128,0,57414:0:0:0:0:
448,192,57323,128,0,57414:0:0:0:0:
192,192,57390,128,0,57482:0:0:0:0:
64,192,57390,128,0,57482:0:0:0:0:
320,192,57459,128,0,57550:0:0:0:0:
448,192,57459,128,0,57550:0:0:0:0:
192,192,57527,128,0,57618:0:0:0:0:
64,192,57527,128,0,57687:0:0:0:0:
320,192,57596,128,0,57755:0:0:0:0:
448,192,57596,128,0,57687:0:0:0:0:
192,192,57663,128,0,57823:0:0:0:0:
64,192,57732,128,0,57823:0:0:0:0:
448,192,57732,128,0,57891:0:0:0:0:
320,192,57801,128,0,57960:0:0:0:0:
192,192,57869,128,0,58028:0:0:0:0:
64,192,57869,128,0,57960:0:0:0:0:
448,192,57937,128,0,58097:0:0:0:0:
320,192,58005,128,0,58097:0:0:0:0:
64,192,58005,128,0,58164:0:0:0:0:
192,192,58074,128,0,58233:0:0:0:0:
320,192,58142,128,0,58301:0:0:0:0:
448,192,58142,128,0,58233:0:0:0:0:
64,192,58210,128,0,58370:0:0:0:0:
192,192,58278,128,0,58438:0:0:0:0:
448,192,58278,128,0,58370:0:0:0:0:
320,192,58347,128,0,58438:0:0:0:0:
448,192,58415,128,0,58506:0:0:0:0:
64,192,58415,128,0,58506:0:0:0:0:
320,192,58483,128,0,58575:0:0:0:0:
192,192,58483,128,0,58575:0:0:0:0:
64,192,58551,128,0,58643:0:0:0:0:
448,192,58551,128,0,58643:0:0:0:0:
192,192,58620,128,0,58711:0:0:0:0:
320,192,58620,128,0,58779:0:0:0:0:
448,192,58688,128,0,58779:0:0:0:0:
64,192,58688,128,0,58848:0:0:0:0:
192,192,58757,128,0,58916:0:0:0:0:
320,192,58825,128,0,58984:0:0:0:0:
448,192,58825,128,0,58916:0:0:0:0:
64,192,58893,128,0,59052:0:0:0:0:
192,192,58962,128,0,59052:0:0:0:0:
448,192,58962,128,0,59121:0:0:0:0:
320,192,59030,128,0,59189:0:0:0:0:
192,192,59098,128,0,59189:0:0:0:0:
64,192,59098,128,0,59257:0:0:0:0:
448,192,59166,128,0,59325:0:0:0:0:
320,192,59235,128,0,59325:0:0:0:0:
192,192,59235,128,0,59394:0:0:0:0:
64,192,59303,128,0,59463:0:0:0:0:
320,192,59371,128,0,59463:0:0:0:0:
448,192,59371,128,0,59530:0:0:0:0:
192,192,59439,128,0,59599:0:0:0:0:
64,192,59508,128,0,59736:0:0:0:0:
320,192,59508,128,0,59667:0:0:0:0:
448,192,59576,128,0,59667:0:0:0:0:
192,192,59644,128,0,59803:0:0:0:0:
320,192,59713,128,0,59872:0:0:0:0:
448,192,59713,128,0,59940:0:0:0:0:
64,192,59781,128,0,59872:0:0:0:0:
192,192,59850,128,0,60009:0:0:0:0:
64,192,59917,128,0,60009:0:0:0:0:
320,192,59917,128,0,60077:0:0:0:0:
448,192,59986,128,0,60213:0:0:0:0:
64,192,60054,128,0,60213:0:0:0:0:
192,192,60054,128,0,60145:0:0:0:0:
320,192,60123,128,0,60282:0:0:0:0:
192,192,60190,128,0,60350:0:0:0:0:
64,192,60259,128,0,60418:0:0:0:0:
448,192,60259,128,0,60418:0:0:0:0:
320,192,60327,128,0,60487:0:0:0:0:
192,192,60396,128,0,60555:0:0:0:0:
64,192,60463,128,0,60555:0:0:0:0:
448,192,60463,128,0,60623:0:0:0:0:
320,192,60532,128,0,60760:0:0:0:0:
192,192,60600,128,0,60691:0:0:0:0:
64,192,60600,128,0,60760:0:0:0:0:
448,192,60669,128,0,60828:0:0:0:0:
192,192,60737,128,0,60964:0:0:0:0:
64,192,60805,128,0,60897:0:0:0:0:
320,192,60805,128,0,61033:0:0:0:0:
448,192,60874,128,0,60964:0:0:0:0:
64,192,60942,128,0,61101:0:0:0:0:
192,192,61010,128,0,61101:0:0:0:0:
448,192,61010,128,0,61170:0:0:0:0:
320,192,61078,128,0,61237:0:0:0:0:
192,192,61147,128,0,61306:0:0:0:0:
64,192,61147,128,0,61374:0:0:0:0:
448,192,61215,128,0,61374:0:0:0:0:
320,192,61283,128,0,61443:0:0:0:0:
192,192,61351,128,0,61511:0:0:0:0:
64,192,61420,128,0,61648:0:0:0:0:
448,192,61420,128,0,61648:0:0:0:0:
320,192,61488,128,0,61579:0:0:0:0:
192,192,61557,128,0,61716:0:0:0:0:
320,192,61624,128,0,61716:0:0:0:0:
448,192,61693,128,0,61784:0:0:0:0:
64,192,61693,128,0,61784:0:0:0:0:
320,192,61762,128,0,61852:0:0:0:0:
192,192,61762,128,0,61852:0:0:0:0:
64,192,61830,128,0,61921:0:0:0:0:
448,192,61830,128,0,61921:0:0:0:0:
320,192,61898,128,0,61989:0:0:0:0:
192,192,61898,128,0,62057:0:0:0:0:
64,192,61966,128,0,62057:0:0:0:0:
448,192,61966,128,0,62125:0:0:0:0:
320,192,62035,128,0,62194:0:0:0:0:
192,192,62103,128,0,62194:0:0:0:0:
64,192,62103,128,0,62262:0:0:0:0:
448,192,62171,128,0,62330:0:0:0:0:
320,192,62239,128,0,62330:0:0:0:0:
192,192,62239,128,0,62399:0:0:0:0:
64,192,62308,128,0,62467:0:0:0:0:
448,192,62376,128,0,62536:0:0:0:0:
320,192,62376,128,0,62467:0:0:0:0:
192,192,62444,128,0,62603:0:0:0:0:
64,192,62512,128,0,62603:0:0:0:0:
320,192,62512,128,0,62672:0:0:0:0:
448,192,62581,128,0,62809:0:0:0:0:
192,192,62649,128,0,62740:0:0:0:0:
64,192,62649,128,0,62740:0:0:0:0:
320,192,62717,128,0,62809:0:0:0:0:
192,192,62786,128,0,62877:0:0:0:0:
64,192,62786,128,0,62877:0:0:0:0:
448,192,62854,128,0,62945:0:0:0:0:
320,192,62854,128,0,62945:0:0:0:0:
64,192,62923,128,0,63013:0:0:0:0:
192,192,62923,128,0,63013:0:0:0:0:
320,192,62990,128,0,63082:0:0:0:0:
448,192,62990,128,0,63150:0:0:0:0:
192,192,63059,128,0,63218:0:0:0:0:
64,192,63059,128,0,63150:0:0:0:0:
320,192,63127,128,0,63286:0:0:0:0:
448,192,63196,128,0,63286:0:0:0:0:
64,192,63196,128,0,63355:0:0:0:0:
192,192,63263,128,0,63423:0:0:0:0:
320,192,63332,128,0,63491:0:0:0:0:
448,192,63332,128,0,63423:0:0:0:0:
64,192,63400,128,0,63560:0:0:0:0:
192,192,63469,128,0,63560:0:0:0:0:
448,192,63469,128,0,63697:0:0:0:0:
320,192,63537,128,0,63628:0:0:0:0:
192,192,63605,128,0,63697:0:0:0:0:
64,192,63605,128,0,63764:0:0:0:0:
320,192,63673,128,0,63833:0:0:0:0:
448,192,63742,128,0,63833:0:0:0:0:
192,192,63742,128,0,63901:0:0:0:0:
64,192,63810,128,0,64037:0:0:0:0:
320,192,63878,128,0,63970:0:0:0:0:
448,192,63878,128,0,64037:0:0:0:0:
192,192,63947,128,0,64106:0:0:0:0:
320,192,64015,128,0,64174:0:0:0:0:
448,192,64083,128,0,64310:0:0:0:0:
64,192,64083,128,0,64243:0:0:0:0:
192,192,64151,128,0,64243:0:0:0:0:
320,192,64220,128,0,64379:0:0:0:0:
192,192,64288,128,0,64448:0:0:0:0:
64,192,64288,128,0,64379:0:0:0:0:
448,192,64357,128,0,64584:0:0:0:0:
320,192,64424,128,0,64516:0:0:0:0:
64,192,64424,128,0,64584:0:0:0:0:
192,192,64493,128,0,64652:0:0:0:0:
320,192,64561,128,0,64721:0:0:0:0:
448,192,64630,128,0,64789:0:0:0:0:
64,192,64630,128,0,64789:0:0:0:0:
192,192,64697,128,0,64857:0:0:0:0:
320,192,64766,128,0,64925:0:0:0:0:
448,192,64835,128,0,64925:0:0:0:0:
64,192,64835,128,0,64994:0:0:0:0:
192,192,64903,128,0,65130:0:0:0:0:
320,192,64971,128,0,65130:0:0:0:0:
448,192,64971,128,0,65062:0:0:0:0:
64,192,65039,128,0,65198:0:0:0:0:
448,192,65108,128,0,65267:0:0:0:0:
320,192,65176,128,0,65403:0:0:0:0:
192,192,65176,128,0,65335:0:0:0:0:
64,192,65244,128,0,65335:0:0:0:0:
448,192,65312,128,0,65472:0:0:0:0:
64,192,65381,128,0,65540:0:0:0:0:
192,192,65381,128,0,65472:0:0:0:0:
320,192,65449,128,0,65609:0:0:0:0:
192,192,65517,128,0,65677:0:0:0:0:
448,192,65517,128,0,65745:0:0:0:0:
64,192,65585,128,0,65677:0:0:0:0:
320,192,65654,128,0,65813:0:0:0:0:
192,192,65722,128,0,65882:0:0:0:0:
64,192,65722,128,0,65882:0:0:0:0:
448,192,65790,128,0,65950:0:0:0:0:
320,192,65859,128,0,66086:0:0:0:0:
192,192,65927,128,0,66018:0:0:0:0:
64,192,65927,128,0,66018:0:0:0:0:
448,192,65996,128,0,66086:0:0:0:0:
192,192,66063,128,0,66155:0:0:0:0:
64,192,66063,128,0,66155:0:0:0:0:
320,192,66132,128,0,66223:0:0:0:0:
448,192,66132,128,0,66223:0:0:0:0:
192,192,66200,128,0,66291:0:0:0:0:
64,192,66200,128,0,66291:0:0:0:0:
320,192,66269,128,0,66428:0:0:0:0:
448,192,66269,128,0,66359:0:0:0:0:
192,192,66337,128,0,66497:0:0:0:0:
64,192,66337,128,0,66428:0:0:0:0:
448,192,66405,128,0,66564:0:0:0:0:
320,192,66473,128,0,66564:0:0:0:0:
64,192,66473,128,0,66633:0:0:0:0:
192,192,66542,128,0,66701:0:0:0:0:
320,192,66610,128,0,66770:0:0:0:0:
448,192,66610,128,0,66701:0:0:0:0:
64,192,66678,128,0,66837:0:0:0:0:
192,192,66747,128,0,66837:0:0:0:0:
448,192,66747,128,0,66906:0:0:0:0:
320,192,66815,128,0,66974:0:0:0:0:
64,192,66883,128,0,66974:0:0:0:0:
192,192,66883,128,0,67043:0:0:0:0:
448,192,66951,128,0,67110:0:0:0:0:
320,192,67020,128,0,67179:0:0:0:0:
64,192,67020,128,0,67110:0:0:0:0:
192,192,67088,128,0,67179:0:0:0:0:
64,192,67157,128,0,67247:0:0:0:0:
448,192,67157,128,0,67247:0:0:0:0:
320,192,67224,128,0,67316:0:0:0:0:
192,192,67224,128,0,67316:0:0:0:0:
64,192,67293,128,0,67383:0:0:0:0:
448,192,67293,128,0,67383:0:0:0:0:
320,192,67361,128,0,67521:0:0:0:0:
192,192,67361,128,0,67452:0:0:0:0:
448,192,67430,128,0,67521:0:0:0:0:
64,192,67430,128,0,67589:0:0:0:0:
192,192,67497,128,0,67657:0:0:0:0:
320,192,67566,128,0,67657:0:0:0:0:
448,192,67566,128,0,67725:0:0:0:0:
64,192,67634,128,0,67794:0:0:0:0:
320,192,67703,128,0,67862:0:0:0:0:
192,192,67703,128,0,67794:0:0:0:0:
448,192,67771,128,0,67930:0:0:0:0:
64,192,67839,128,0,67998:0:0:0:0:
192,192,67839,128,0,67930:0:0:0:0:
320,192,67908,128,0,68067:0:0:0:0:
448,192,67976,128,0,68067:0:0:0:0:
192,192,67976,128,0,68135:0:0:0:0:
64,192,68044,128,0,68203:0:0:0:0:
320,192,68112,128,0,68203:0:0:0:0:
448,192,68112,128,0,68271:0:0:0:0:
192,192,68181,128,0,68340:0:0:0:0:
320,192,68249,128,0,68409:0:0:0:0:
64,192,68249,128,0,68477:0:0:0:0:
448,192,68317,128,0,68409:0:0:0:0:
192,192,68385,128,0,68545:0:0:0:0:
320,192,68454,128,0,68613:0:0:0:0:
448,192,68454,128,0,68682:0:0:0:0:
64,192,68522,128,0,68613:0:0:0:0:
192,192,68590,128,0,68750:0:0:0:0:
320,192,68658,128,0,68818:0:0:0:0:
64,192,68658,128,0,68750:0:0:0:0:
448,192,68727,128,0,68886:0:0:0:0:
192,192,68796,128,0,68955:0:0:0:0:
64,192,68796,128,0,68955:0:0:0:0:
320,192,68863,128,0,69023:0:0:0:0:
448,192,68932,128,0,69228:0:0:0:0:
192,192,69000,128,0,69091:0:0:0:0:
64,192,69000,128,0,69159:0:0:0:0:
320,192,69069,128,0,69159:0:0:0:0:
192,192,69137,128,0,69296:0:0:0:0:
64,192,69205,128,0,69296:0:0:0:0:
320,192,69205,128,0,69433:0:0:0:0:
448,192,69273,128,0,69570:0:0:0:0:
192,192,69342,128,0,69501:0:0:0:0:
64,192,69342,128,0,69843:0:0:0:0:
320,192,69478,128,0,69774:0:0:0:0:
192,192,69546,128,0,69706:0:0:0:0:
448,192,69615,128,0,69979:0:0:0:0:
192,192,69751,128,0,69843:0:0:0:0:
320,192,69820,128,0,69979:0:0:0:0:
192,192,69888,128,0,70116:0:0:0:0:
64,192,69888,128,0,70389:0:0:0:0:
320,192,70024,128,0,70183:0:0:0:0:
448,192,70024,128,0,70389:0:0:0:0:
192,192,70161,128,0,70252:0:0:0:0:
320,192,70230,128,0,70320:0:0:0:0:
192,192,70297,128,0,70389:0:0:0:0:
320,192,70366,128,0,70457:0:0:0:0:
448,192,70434,128,0,70594:0:0:0:0:
192,192,70434,128,0,70662:0:0:0:0:
64,192,70434,128,0,70525:0:0:0:0:
320,192,70503,128,0,70730:0:0:0:0:
64,192,70570,128,0,70662:0:0:0:0:
448,192,70639,128,0,70798:0:0:0:0:
192,192,70707,128,0,70867:0:0:0:0:
64,192,70707,128,0,70935:0:0:0:0:
320,192,70776,128,0,71003:0:0:0:0:
448,192,70844,128,0,70935:0:0:0:0:
192,192,70912,128,0,71071:0:0:0:0:
64,192,70981,128,0,71208:0:0:0:0:
448,192,70981,128,0,71140:0:0:0:0:
320,192,71049,128,0,71277:0:0:0:0:
192,192,71117,128,0,71208:0:0:0:0:
448,192,71185,128,0,71344:0:0:0:0:
64,192,71254,128,0,71482:0:0:0:0:
192,192,71254,128,0,71413:0:0:0:0:
320,192,71322,128,0,71482:0:0:0:0:
448,192,71390,128,0,71550:0:0:0:0:
192,192,71458,128,0,71618:0:0:0:0:
320,192,71527,128,0,71755:0:0:0:0:
64,192,71527,128,0,71686:0:0:0:0:
448,192,71595,128,0,71755:0:0:0:0:
192,192,71663,128,0,71823:0:0:0:0:
64,192,71731,128,0,72028:0:0:0:0:
320,192,71800,128,0,71959:0:0:0:0:
448,192,71800,128,0,71891:0:0:0:0:
192,192,71869,128,0,72028:0:0:0:0:
448,192,71937,128,0,72301:0:0:0:0:
320,192,72005,128,0,72096:0:0:0:0:
192,192,72073,128,0,72232:0:0:0:0:
64,192,72073,128,0,72164:0:0:0:0:
320,192,72142,128,0,72301:0:0:0:0:
64,192,72210,128,0,72369:0:0:0:0:
192,192,72278,128,0,72506:0:0:0:0:
448,192,72346,128,0,72574:0:0:0:0:
320,192,72346,128,0,72437:0:0:0:0:
64,192,72415,128,0,72574:0:0:0:0:
320,192,72483,128,0,72643:0:0:0:0:
192,192,72551,128,0,72710:0:0:0:0:
448,192,72619,128,0,72779:0:0:0:0:
64,192,72619,128,0,72847:0:0:0:0:
320,192,72688,128,0,72847:0:0:0:0:
192,192,72757,128,0,72916:0:0:0:0:
448,192,72824,128,0,72983:0:0:0:0:
320,192,72893,128,0,73052:0:0:0:0:
64,192,72893,128,0,73120:0:0:0:0:
192,192,72961,128,0,73120:0:0:0:0:
448,192,73030,128,0,73189:0:0:0:0:
320,192,73097,128,0,73325:0:0:0:0:
192,192,73166,128,0,73257:0:0:0:0:
64,192,73166,128,0,73393:0:0:0:0:
448,192,73234,128,0,73462:0:0:0:0:
192,192,73303,128,0,73393:0:0:0:0:
320,192,73370,128,0,73530:0:0:0:0:
192,192,73439,128,0,73598:0:0:0:0:
64,192,73439,128,0,73667:0:0:0:0:
448,192,73507,128,0,73667:0:0:0:0:
320,192,73576,128,0,73735:0:0:0:0:
192,192,73643,128,0,74008:0:0:0:0:
64,192,73712,128,0,73803:0:0:0:0:
448,192,73712,128,0,73871:0:0:0:0:
320,192,73781,128,0,73940:0:0:0:0:
64,192,73849,128,0,73940:0:0:0:0:
448,192,73917,128,0,74281:0:0:0:0:
64,192,73985,128,0,74144:0:0:0:0:
320,192,73985,128,0,74077:0:0:0:0:
192,192,74054,128,0,74213:0:0:0:0:
320,192,74122,128,0,74213:0:0:0:0:
64,192,74190,128,0,74486:0:0:0:0:
192,192,74258,128,0,74350:0:0:0:0:
320,192,74258,128,0,74417:0:0:0:0:
448,192,74327,128,0,74555:0:0:0:0:
192,192,74395,128,0,74486:0:0:0:0:
320,192,74463,128,0,74623:0:0:0:0:
64,192,74531,128,0,74691:0:0:0:0:
192,192,74531,128,0,74759:0:0:0:0:
448,192,74600,128,0,74759:0:0:0:0:
320,192,74668,128,0,74759:0:0:0:0:
64,192,74737,128,0,74828:0:0:0:0:
192,192,74805,128,0,74964:0:0:0:0:
320,192,74805,128,0,74896:0:0:0:0:
448,192,74805,128,0,75032:0:0:0:0:
64,192,74873,128,0,75032:0:0:0:0:
320,192,74942,128,0,75237:0:0:0:0:
192,192,75010,128,0,75101:0:0:0:0:
448,192,75078,128,0,75169:0:0:0:0:
64,192,75078,128,0,75305:0:0:0:0:
192,192,75146,128,0,75305:0:0:0:0:
448,192,75215,128,0,75374:0:0:0:0:
320,192,75283,128,0,75443:0:0:0:0:
192,192,75351,128,0,75579:0:0:0:0:
64,192,75351,128,0,75510:0:0:0:0:
448,192,75419,128,0,75579:0:0:0:0:
320,192,75488,128,0,75647:0:0:0:0:
64,192,75556,128,0,75716:0:0:0:0:
192,192,75624,128,0,75783:0:0:0:0:
448,192,75624,128,0,75852:0:0:0:0:
320,192,75692,128,0,75852:0:0:0:0:
64,192,75761,128,0,76125:0:0:0:0:
192,192,75830,128,0,75920:0:0:0:0:
320,192,75897,128,0,76057:0:0:0:0:
448,192,75897,128,0,75989:0:0:0:0:
192,192,75966,128,0,76125:0:0:0:0:
448,192,76034,128,0,76193:0:0:0:0:
320,192,76103,128,0,76330:0:0:0:0:
192,192,76170,128,0,76398:0:0:0:0:
64,192,76170,128,0,76262:0:0:0:0:
448,192,76239,128,0,76398:0:0:0:0:
64,192,76307,128,0,76467:0:0:0:0:
320,192,76376,128,0,76535:0:0:0:0:
448,192,76443,128,0,76671:0:0:0:0:
192,192,76443,128,0,76603:0:0:0:0:
64,192,76512,128,0,76671:0:0:0:0:
320,192,76580,128,0,76740:0:0:0:0:
192,192,76649,128,0,76808:0:0:0:0:
64,192,76717,128,0,76944:0:0:0:0:
448,192,76717,128,0,76877:0:0:0:0:
320,192,76785,128,0,76944:0:0:0:0:
192,192,76854,128,0,77013:0:0:0:0:
448,192,76922,128,0,77081:0:0:0:0:
320,192,76990,128,0,77286:0:0:0:0:
64,192,76990,128,0,77150:0:0:0:0:
192,192,77058,128,0,77217:0:0:0:0:
448,192,77127,128,0,77217:0:0:0:0:
64,192,77195,128,0,77354:0:0:0:0:
448,192,77263,128,0,77491:0:0:0:0:
192,192,77263,128,0,77423:0:0:0:0:
320,192,77331,128,0,77491:0:0:0:0:
64,192,77400,128,0,77559:0:0:0:0:
192,192,77468,128,0,77696:0:0:0:0:
320,192,77537,128,0,77628:0:0:0:0:
448,192,77537,128,0,77764:0:0:0:0:
64,192,77604,128,0,77764:0:0:0:0:
320,192,77673,128,0,77832:0:0:0:0:
192,192,77741,128,0,77901:0:0:0:0:
448,192,77810,128,0,77969:0:0:0:0:
64,192,77810,128,0,78037:0:0:0:0:
320,192,77878,128,0,78105:0:0:0:0:
192,192,77946,128,0,78037:0:0:0:0:
448,192,78015,128,0,78174:0:0:0:0:
192,192,78083,128,0,78242:0:0:0:0:
64,192,78083,128,0,78310:0:0:0:0:
320,192,78151,128,0,78310:0:0:0:0:
448,192,78219,128,0,78378:0:0:0:0:
192,192,78288,128,0,78447:0:0:0:0:
64,192,78356,128,0,78583:0:0:0:0:
320,192,78356,128,0,78516:0:0:0:0:
448,192,78424,128,0,78583:0:0:0:0:
192,192,78492,128,0,78652:0:0:0:0:
320,192,78561,128,0,78720:0:0:0:0:
448,192,78629,128,0,78857:0:0:0:0:
64,192,78629,128,0,78789:0:0:0:0:
192,192,78697,128,0,79130:0:0:0:0:
320,192,78765,128,0,78857:0:0:0:0:
64,192,78834,128,0,78925:0:0:0:0:
320,192,78903,128,0,78993:0:0:0:0:
448,192,78903,128,0,79130:0:0:0:0:
64,192,78970,128,0,79062:0:0:0:0:
320,192,79039,128,0,79130:0:0:0:0:
64,192,79107,128,0,79198:0:0:0:0:
192,192,79176,128,0,79335:0:0:0:0:
320,192,79176,128,0,79403:0:0:0:0:
448,192,79176,128,0,79266:0:0:0:0:
64,192,79243,128,0,79403:0:0:0:0:
448,192,79312,128,0,79471:0:0:0:0:
192,192,79380,128,0,79540:0:0:0:0:
320,192,79449,128,0,79608:0:0:0:0:
64,192,79449,128,0,79677:0:0:0:0:
448,192,79517,128,0,79677:0:0:0:0:
192,192,79585,128,0,79744:0:0:0:0:
320,192,79653,128,0,79813:0:0:0:0:
448,192,79722,128,0,79950:0:0:0:0:
64,192,79722,128,0,79881:0:0:0:0:
192,192,79790,128,0,79950:0:0:0:0:
320,192,79858,128,0,80017:0:0:0:0:
64,192,79927,128,0,80223:0:0:0:0:
448,192,79995,128,0,80154:0:0:0:0:
192,192,79995,128,0,80086:0:0:0:0:
320,192,80063,128,0,80223:0:0:0:0:
192,192,80131,128,0,80290:0:0:0:0:
448,192,80200,128,0,80359:0:0:0:0:
320,192,80268,128,0,80496:0:0:0:0:
64,192,80268,128,0,80564:0:0:0:0:
192,192,80337,128,0,80427:0:0:0:0:
448,192,80404,128,0,80496:0:0:0:0:
192,192,80473,128,0,80632:0:0:0:0:
320,192,80541,128,0,80769:0:0:0:0:
448,192,80541,128,0,80701:0:0:0:0:
64,192,80610,128,0,80769:0:0:0:0:
192,192,80677,128,0,80837:0:0:0:0:
448,192,80746,128,0,80905:0:0:0:0:
320,192,80815,128,0,81042:0:0:0:0:
64,192,80815,128,0,80974:0:0:0:0:
192,192,80883,128,0,81042:0:0:0:0:
448,192,80951,128,0,81110:0:0:0:0:
64,192,81019,128,0,81178:0:0:0:0:
192,192,81088,128,0,81315:0:0:0:0:
320,192,81088,128,0,81247:0:0:0:0:
448,192,81156,128,0,81383:0:0:0:0:
64,192,81224,128,0,81315:0:0:0:0:
320,192,81292,128,0,81452:0:0:0:0:
192,192,81361,128,0,81520:0:0:0:0:
64,192,81361,128,0,81589:0:0:0:0:
448,192,81429,128,0,81589:0:0:0:0:
320,192,81497,128,0,81657:0:0:0:0:
192,192,81565,128,0,81793:0:0:0:0:
64,192,81634,128,0,81725:0:0:0:0:
448,192,81634,128,0,81862:0:0:0:0:
320,192,81702,128,0,81862:0:0:0:0:
64,192,81770,128,0,82066:0:0:0:0:
192,192,81839,128,0,81930:0:0:0:0:
320,192,81907,128,0,81998:0:0:0:0:
448,192,81907,128,0,82203:0:0:0:0:
192,192,81976,128,0,82135:0:0:0:0:
320,192,82043,128,0,82135:0:0:0:0:
64,192,82112,128,0,82408:0:0:0:0:
192,192,82180,128,0,82271:0:0:0:0:
320,192,82180,128,0,82339:0:0:0:0:
448,192,82249,128,0,82408:0:0:0:0:
192,192,82317,128,0,82477:0:0:0:0:
320,192,82385,128,0,82544:0:0:0:0:
64,192,82453,128,0,82681:0:0:0:0:
448,192,82453,128,0,82681:0:0:0:0:
192,192,82522,128,0,82613:0:0:0:0:
320,192,82590,128,0,82750:0:0:0:0:
192,192,82658,128,0,82817:0:0:0:0:
448,192,82726,128,0,82886:0:0:0:0:
64,192,82726,128,0,82954:0:0:0:0:
320,192,82795,128,0,82954:0:0:0:0:
192,192,82863,128,0,83023:0:0:0:0:
448,192,82931,128,0,83090:0:0:0:0:
64,192,83000,128,0,83159:0:0:0:0:
320,192,83000,128,0,83227:0:0:0:0:
192,192,83068,128,0,83227:0:0:0:0:
448,192,83137,128,0,83296:0:0:0:0:
64,192,83204,128,0,83363:0:0:0:0:
192,192,83273,128,0,83501:0:0:0:0:
320,192,83273,128,0,83501:0:0:0:0:
448,192,83341,128,0,83432:0:0:0:0:
64,192,83410,128,0,83501:0:0:0:0:
448,192,83477,128,0,83569:0:0:0:0:
320,192,83546,128,0,83705:0:0:0:0:
192,192,83546,128,0,83637:0:0:0:0:
64,192,83546,128,0,83774:0:0:0:0:
448,192,83614,128,0,83774:0:0:0:0:
192,192,83683,128,0,83842:0:0:0:0:
320,192,83750,128,0,83910:0:0:0:0:
448,192,83819,128,0,84047:0:0:0:0:
64,192,83819,128,0,83978:0:0:0:0:
192,192,83888,128,0,84047:0:0:0:0:
320,192,83956,128,0,84115:0:0:0:0:
64,192,84024,128,0,84183:0:0:0:0:
192,192,84092,128,0,84320:0:0:0:0:
448,192,84092,128,0,84320:0:0:0:0:
320,192,84161,128,0,84251:0:0:0:0:
64,192,84229,128,0,84388:0:0:0:0:
320,192,84297,128,0,84457:0:0:0:0:
192,192,84365,128,0,84525:0:0:0:0:
448,192,84365,128,0,84662:0:0:0:0:
64,192,84434,128,0,84593:0:0:0:0:
320,192,84502,128,0,84593:0:0:0:0:
192,192,84570,128,0,84730:0:0:0:0:
320,192,84638,128,0,84798:0:0:0:0:
64,192,84638,128,0,84866:0:0:0:0:
448,192,84707,128,0,84935:0:0:0:0:
192,192,84775,128,0,84866:0:0:0:0:
320,192,84843,128,0,85071:0:0:0:0:
64,192,84912,128,0,85139:0:0:0:0:
192,192,84912,128,0,85003:0:0:0:0:
448,192,84980,128,0,85139:0:0:0:0:
192,192,85049,128,0,85208:0:0:0:0:
320,192,85117,128,0,85276:0:0:0:0:
448,192,85185,128,0,85412:0:0:0:0:
64,192,85185,128,0,85344:0:0:0:0:
192,192,85253,128,0,85412:0:0:0:0:
320,192,85322,128,0,85481:0:0:0:0:
64,192,85390,128,0,85686:0:0:0:0:
192,192,85458,128,0,85550:0:0:0:0:
448,192,85458,128,0,85617:0:0:0:0:
320,192,85526,128,0,85754:0:0:0:0:
192,192,85595,128,0,85686:0:0:0:0:
448,192,85663,128,0,85959:0:0:0:0:
64,192,85731,128,0,85823:0:0:0:0:
192,192,85731,128,0,85890:0:0:0:0:
320,192,85800,128,0,85959:0:0:0:0:
64,192,85868,128,0,86096:0:0:0:0:
192,192,85937,128,0,86027:0:0:0:0:
320,192,86004,128,0,86163:0:0:0:0:
448,192,86004,128,0,86232:0:0:0:0:
192,192,86073,128,0,86232:0:0:0:0:
64,192,86141,128,0,86300:0:0:0:0:
320,192,86210,128,0,86369:0:0:0:0:
448,192,86277,128,0,86574:0:0:0:0:
192,192,86277,128,0,86437:0:0:0:0:
64,192,86346,128,0,86505:0:0:0:0:
320,192,86414,128,0,86505:0:0:0:0:
192,192,86483,128,0,86642:0:0:0:0:
64,192,86550,128,0,86778:0:0:0:0:
320,192,86550,128,0,86710:0:0:0:0:
448,192,86619,128,0,86778:0:0:0:0:
192,192,86687,128,0,86983:0:0:0:0:
320,192,86756,128,0,86915:0:0:0:0:
64,192,86824,128,0,87051:0:0:0:0:
448,192,86824,128,0,87257:0:0:0:0:
320,192,86961,128,0,87120:0:0:0:0:
192,192,87029,128,0,87188:0:0:0:0:
64,192,87097,128,0,87188:0:0:0:0:
320,192,87165,128,0,87393:0:0:0:0:
192,192,87234,128,0,87324:0:0:0:0:
64,192,87234,128,0,87324:0:0:0:0:
448,192,87302,128,0,87393:0:0:0:0:
64,192,87370,128,0,87461:0:0:0:0:
192,192,87370,128,0,87484:0:0:0:0:
320,192,87438,128,0,87530:0:0:0:0:
448,192,87438,128,0,87552:0:0:0:0:
64,192,87507,128,0,87598:0:0:0:0:
192,192,87530,128,0,87666:0:0:0:0:
320,192,87575,128,0,87803:0:0:0:0:
448,192,87598,128,0,87735:0:0:0:0:
64,192,87643,128,0,87871:0:0:0:0:
192,192,87711,128,0,87871:0:0:0:0:
448,192,87780,128,0,90057:0:0:0:0:
320,192,87849,128,0,88963:0:0:0:0:
192,192,87917,128,0,88963:0:0:0:0:
64,192,87917,128,0,88690:0:0:0:0:
64,192,88736,128,0,91149:0:0:0:0:
192,192,89010,128,0,90876:0:0:0:0:
320,192,89010,128,0,90057:0:0:0:0:
320,192,90102,128,0,91149:0:0:0:0:
448,192,90102,128,0,91969:0:0:0:0:
192,192,90922,128,0,91696:0:0:0:0:
320,192,91195,128,0,91832:0:0:0:0:
64,192,91195,128,0,92242:0:0:0:0:
192,192,91741,128,0,92105:0:0:0:0:
320,192,91877,128,0,92242:0:0:0:0:
448,192,92014,128,0,93334:0:0:0:0:
192,192,92150,128,0,94427:0:0:0:0:
320,192,92287,128,0,93061:0:0:0:0:
64,192,92287,128,0,93334:0:0:0:0:
320,192,93107,128,0,94700:0:0:0:0:
448,192,93380,128,0,93881:0:0:0:0:
64,192,93380,128,0,94427:0:0:0:0:
448,192,93926,128,0,94973:0:0:0:0:
192,192,94472,128,0,95246:0:0:0:0:
64,192,94472,128,0,95520:0:0:0:0:
320,192,94745,128,0,95520:0:0:0:0:
448,192,95019,128,0,96066:0:0:0:0:
192,192,95292,128,0,96407:0:0:0:0:
64,192,95565,128,0,96134:0:0:0:0:
320,192,95565,128,0,96339:0:0:0:0:
448,192,96111,128,0,96203:0:0:0:0:
64,192,96180,128,0,96270:0:0:0:0:
448,192,96248,128,0,96612:0:0:0:0:
64,192,96317,128,0,96612:0:0:0:0:
320,192,96384,128,0,96476:0:0:0:0:
192,192,96453,128,0,96544:0:0:0:0:
320,192,96521,128,0,96612:0:0:0:0:
192,192,96590,128,0,97705:0:0:0:0:
320,192,96657,128,0,96885:0:0:0:0:
448,192,96657,128,0,97705:0:0:0:0:
64,192,96657,128,0,96885:0:0:0:0:
320,192,96931,128,0,97158:0:0:0:0:
64,192,96931,128,0,97158:0:0:0:0:
320,192,97204,128,0,97431:0:0:0:0:
64,192,97204,128,0,97431:0:0:0:0:
320,192,97477,128,0,99890:0:0:0:0:
64,192,97477,128,0,97705:0:0:0:0:
448,192,97750,128,0,97978:0:0:0:0:
192,192,97750,128,0,97978:0:0:0:0:
64,192,97750,128,0,98797:0:0:0:0:
192,192,98023,128,0,98251:0:0:0:0:
448,192,98023,128,0,98251:0:0:0:0:
448,192,98297,128,0,98524:0:0:0:0:
192,192,98297,128,0,98524:0:0:0:0:
448,192,98570,128,0,98797:0:0:0:0:
192,192,98570,128,0,98797:0:0:0:0:
448,192,98843,128,0,99890:0:0:0:0:
192,192,98843,128,0,99070:0:0:0:0:
64,192,98843,128,0,99070:0:0:0:0:
64,192,99117,128,0,99343:0:0:0:0:
192,192,99117,128,0,99343:0:0:0:0:
192,192,99390,128,0,99617:0:0:0:0:
64,192,99390,128,0,99617:0:0:0:0:
64,192,99663,128,0,99890:0:0:0:0:
192,192,99663,128,0,100573:0:0:0:0:
320,192,99936,128,0,100163:0:0:0:0:
448,192,99936,128,0,100163:0:0:0:0:
64,192,99936,128,0,100710:0:0:0:0:
320,192,100209,128,0,100437:0:0:0:0:
448,192,100209,128,0,100437:0:0:0:0:
448,192,100482,128,0,100710:0:0:0:0:
320,192,100482,128,0,100846:0:0:0:0:
192,192,100618,128,0,100915:0:0:0:0:
448,192,100755,128,0,100983:0:0:0:0:
64,192,100755,128,0,100983:0:0:0:0:
320,192,100892,128,0,101051:0:0:0:0:
192,192,100960,128,0,101119:0:0:0:0:
448,192,101029,128,0,101256:0:0:0:0:
64,192,101029,128,0,101188:0:0:0:0:
320,192,101097,128,0,101256:0:0:0:0:
192,192,101165,128,0,101302:0:0:0:0:
64,192,101233,128,0,101392:0:0:0:0:
320,192,101302,128,0,101461:0:0:0:0:
448,192,101302,128,0,101530:0:0:0:0:
192,192,101347,128,0,101530:0:0:0:0:
64,192,101438,128,0,101597:0:0:0:0:
320,192,101506,128,0,101666:0:0:0:0:
448,192,101575,128,0,101803:0:0:0:0:
192,192,101575,128,0,101734:0:0:0:0:
64,192,101643,128,0,101803:0:0:0:0:
320,192,101711,128,0,101870:0:0:0:0:
192,192,101779,128,0,101939:0:0:0:0:
448,192,101848,128,0,102007:0:0:0:0:
64,192,101848,128,0,102076:0:0:0:0:
320,192,101917,128,0,102143:0:0:0:0:
192,192,101984,128,0,102076:0:0:0:0:
448,192,102053,128,0,102212:0:0:0:0:
64,192,102121,128,0,102349:0:0:0:0:
192,192,102121,128,0,102280:0:0:0:0:
320,192,102190,128,0,102349:0:0:0:0:
448,192,102257,128,0,102417:0:0:0:0:
192,192,102326,128,0,102485:0:0:0:0:
320,192,102394,128,0,102554:0:0:0:0:
64,192,102394,128,0,102622:0:0:0:0:
448,192,102463,128,0,102622:0:0:0:0:
192,192,102530,128,0,102690:0:0:0:0:
320,192,102599,128,0,102758:0:0:0:0:
64,192,102667,128,0,102895:0:0:0:0:
448,192,102667,128,0,102827:0:0:0:0:
192,192,102736,128,0,102895:0:0:0:0:
320,192,102803,128,0,102963:0:0:0:0:
448,192,102872,128,0,103031:0:0:0:0:
192,192,102941,128,0,103237:0:0:0:0:
64,192,102941,128,0,103100:0:0:0:0:
320,192,103009,128,0,103168:0:0:0:0:
448,192,103077,128,0,103168:0:0:0:0:
64,192,103145,128,0,103304:0:0:0:0:
320,192,103214,128,0,103304:0:0:0:0:
448,192,103214,128,0,103373:0:0:0:0:
192,192,103282,128,0,103441:0:0:0:0:
64,192,103350,128,0,103441:0:0:0:0:
320,192,103350,128,0,103510:0:0:0:0:
448,192,103418,128,0,103578:0:0:0:0:
192,192,103487,128,0,103578:0:0:0:0:
64,192,103487,128,0,103646:0:0:0:0:
320,192,103555,128,0,103715:0:0:0:0:
448,192,103623,128,0,103715:0:0:0:0:
192,192,103623,128,0,103783:0:0:0:0:
64,192,103691,128,0,103783:0:0:0:0:
320,192,103760,128,0,103851:0:0:0:0:
448,192,103760,128,0,103851:0:0:0:0:
192,192,103828,128,0,103919:0:0:0:0:
64,192,103828,128,0,103919:0:0:0:0:
320,192,103897,128,0,103988:0:0:0:0:
448,192,103897,128,0,103988:0:0:0:0:
192,192,103965,128,0,104056:0:0:0:0:
64,192,103965,128,0,104056:0:0:0:0:
320,192,104033,128,0,104124:0:0:0:0:
448,192,104033,128,0,104124:0:0:0:0:
192,192,104102,128,0,104192:0:0:0:0:
64,192,104102,128,0,104192:0:0:0:0:
320,192,104170,128,0,104261:0:0:0:0:
448,192,104170,128,0,104261:0:0:0:0:
192,192,104238,128,0,104534:0:0:0:0:
64,192,104238,128,0,104534:0:0:0:0:
320,192,104306,128,0,104807:0:0:0:0:
448,192,104306,128,0,104534:0:0:0:0:
448,192,104579,128,0,104807:0:0:0:0:
192,192,104579,128,0,105080:0:0:0:0:
64,192,104579,128,0,105080:0:0:0:0:
320,192,104852,128,0,104943:0:0:0:0:
448,192,104852,128,0,104943:0:0:0:0:
320,192,104990,128,0,105080:0:0:0:0:
448,192,104990,128,0,105080:0:0:0:0:
64,192,105126,128,0,105353:0:0:0:0:
192,192,105126,128,0,105353:0:0:0:0:
320,192,105126,128,0,105627:0:0:0:0:
448,192,105126,128,0,105353:0:0:0:0:
64,192,105399,128,0,105490:0:0:0:0:
192,192,105399,128,0,105490:0:0:0:0:
448,192,105399,128,0,105490:0:0:0:0:
448,192,105536,128,0,105695:0:0:0:0:
192,192,105536,128,0,105763:0:0:0:0:
64,192,105536,128,0,105900:0:0:0:0:
320,192,105672,128,0,105831:0:0:0:0:
448,192,105740,128,0,105900:0:0:0:0:
192,192,105809,128,0,106287:0:0:0:0:
320,192,105877,128,0,106104:0:0:0:0:
448,192,105945,128,0,106287:0:0:0:0:
64,192,105945,128,0,106059:0:0:0:0:
64,192,106104,128,0,106446:0:0:0:0:
320,192,106150,128,0,106446:0:0:0:0:
192,192,106332,128,0,106719:0:0:0:0:
448,192,106332,128,0,106446:0:0:0:0:
64,192,106491,128,0,106583:0:0:0:0:
320,192,106491,128,0,106583:0:0:0:0:
448,192,106491,128,0,106583:0:0:0:0:
320,192,106628,128,0,106856:0:0:0:0:
448,192,106628,128,0,106992:0:0:0:0:
64,192,106628,128,0,106788:0:0:0:0:
192,192,106764,128,0,106924:0:0:0:0:
64,192,106833,128,0,106992:0:0:0:0:
320,192,106902,128,0,107357:0:0:0:0:
192,192,106970,128,0,107175:0:0:0:0:
448,192,107038,128,0,107175:0:0:0:0:
64,192,107038,128,0,107379:0:0:0:0:
192,192,107220,128,0,107539:0:0:0:0:
448,192,107220,128,0,107539:0:0:0:0:
320,192,107402,128,0,107539:0:0:0:0:
64,192,107425,128,0,107812:0:0:0:0:
192,192,107584,128,0,107676:0:0:0:0:
320,192,107584,128,0,107676:0:0:0:0:
448,192,107584,128,0,107676:0:0:0:0:
192,192,107721,128,0,107880:0:0:0:0:
320,192,107721,128,0,107949:0:0:0:0:
448,192,107721,128,0,108017:0:0:0:0:
64,192,107857,128,0,108085:0:0:0:0:
192,192,107926,128,0,108085:0:0:0:0:
320,192,107994,128,0,108290:0:0:0:0:
448,192,108063,128,0,108472:0:0:0:0:
64,192,108130,128,0,108244:0:0:0:0:
192,192,108130,128,0,108450:0:0:0:0:
64,192,108290,128,0,108631:0:0:0:0:
320,192,108336,128,0,108631:0:0:0:0:
192,192,108495,128,0,108631:0:0:0:0:
448,192,108517,128,0,108813:0:0:0:0:
320,192,108677,128,0,109018:0:0:0:0:
192,192,108677,128,0,108813:0:0:0:0:
64,192,108677,128,0,108813:0:0:0:0:
448,192,108859,128,0,109018:0:0:0:0:
192,192,108859,128,0,109018:0:0:0:0:
64,192,108859,128,0,109177:0:0:0:0:
192,192,109063,128,0,109360:0:0:0:0:
320,192,109063,128,0,109177:0:0:0:0:
448,192,109063,128,0,109177:0:0:0:0:
320,192,109223,128,0,109360:0:0:0:0:
448,192,109223,128,0,109360:0:0:0:0:
64,192,109223,128,0,109564:0:0:0:0:
192,192,109405,128,0,109564:0:0:0:0:
448,192,109405,128,0,109564:0:0:0:0:
320,192,109405,128,0,109724:0:0:0:0:
448,192,109610,128,0,109997:0:0:0:0:
192,192,109610,128,0,109724:0:0:0:0:
64,192,109610,128,0,109724:0:0:0:0:
320,192,109770,128,0,109861:0:0:0:0:
192,192,109770,128,0,109861:0:0:0:0:
64,192,109770,128,0,109861:0:0:0:0:
320,192,109906,128,0,110065:0:0:0:0:
192,192,109906,128,0,110134:0:0:0:0:
64,192,109906,128,0,110202:0:0:0:0:
448,192,110043,128,0,110270:0:0:0:0:
320,192,110111,128,0,110270:0:0:0:0:
192,192,110179,128,0,110657:0:0:0:0:
64,192,110248,128,0,110452:0:0:0:0:
320,192,110316,128,0,110657:0:0:0:0:
448,192,110316,128,0,110452:0:0:0:0:
448,192,110498,128,0,110817:0:0:0:0:
64,192,110498,128,0,110817:0:0:0:0:
320,192,110703,128,0,110817:0:0:0:0:
192,192,110703,128,0,111090:0:0:0:0:
320,192,110862,128,0,110953:0:0:0:0:
448,192,110862,128,0,110953:0:0:0:0:
64,192,110862,128,0,110953:0:0:0:0:
320,192,110999,128,0,111226:0:0:0:0:
448,192,110999,128,0,111363:0:0:0:0:
64,192,110999,128,0,111158:0:0:0:0:
192,192,111136,128,0,111295:0:0:0:0:
64,192,111203,128,0,111363:0:0:0:0:
320,192,111272,128,0,111750:0:0:0:0:
192,192,111340,128,0,111545:0:0:0:0:
448,192,111409,128,0,111545:0:0:0:0:
64,192,111409,128,0,111750:0:0:0:0:
448,192,111590,128,0,111910:0:0:0:0:
192,192,111590,128,0,111910:0:0:0:0:
64,192,111796,128,0,111910:0:0:0:0:
320,192,111796,128,0,112183:0:0:0:0:
448,192,111955,128,0,112046:0:0:0:0:
192,192,111955,128,0,112046:0:0:0:0:
64,192,111955,128,0,112046:0:0:0:0:
448,192,112091,128,0,112250:0:0:0:0:
192,192,112091,128,0,112319:0:0:0:0:
64,192,112091,128,0,112456:0:0:0:0:
320,192,112228,128,0,112387:0:0:0:0:
448,192,112297,128,0,112456:0:0:0:0:
192,192,112364,128,0,112843:0:0:0:0:
320,192,112433,128,0,112637:0:0:0:0:
448,192,112501,128,0,112843:0:0:0:0:
64,192,112501,128,0,112637:0:0:0:0:
320,192,112683,128,0,113002:0:0:0:0:
64,192,112683,128,0,113002:0:0:0:0:
448,192,112888,128,0,113002:0:0:0:0:
192,192,112888,128,0,113184:0:0:0:0:
64,192,113048,128,0,113184:0:0:0:0:
320,192,113048,128,0,113184:0:0:0:0:
448,192,113048,128,0,113389:0:0:0:0:
320,192,113230,128,0,113389:0:0:0:0:
64,192,113230,128,0,113389:0:0:0:0:
192,192,113230,128,0,113548:0:0:0:0:
320,192,113435,128,0,113548:0:0:0:0:
448,192,113435,128,0,113548:0:0:0:0:
64,192,113435,128,0,113730:0:0:0:0:
448,192,113594,128,0,113730:0:0:0:0:
320,192,113594,128,0,113936:0:0:0:0:
192,192,113594,128,0,113730:0:0:0:0:
64,192,113776,128,0,114095:0:0:0:0:
192,192,113776,128,0,113936:0:0:0:0:
448,192,113776,128,0,113936:0:0:0:0:
320,192,113981,128,0,114983:0:0:0:0:
192,192,113981,128,0,114095:0:0:0:0:
448,192,113981,128,0,114095:0:0:0:0:
192,192,114140,128,0,114368:0:0:0:0:
64,192,114140,128,0,114368:0:0:0:0:
448,192,114140,128,0,114368:0:0:0:0:
448,192,114413,128,0,114914:0:0:0:0:
192,192,114413,128,0,115050:0:0:0:0:
64,192,114413,128,0,115119:0:0:0:0:
448,192,114960,128,0,115187:0:0:0:0:
320,192,115028,128,0,115187:0:0:0:0:
192,192,115097,128,0,115187:0:0:0:0:
64,192,115164,128,0,116007:0:0:0:0:
192,192,115233,128,0,115460:0:0:0:0:
320,192,115233,128,0,115460:0:0:0:0:
448,192,115233,128,0,115460:0:0:0:0:
448,192,115506,128,0,116211:0:0:0:0:
320,192,115506,128,0,116143:0:0:0:0:
192,192,115506,128,0,116075:0:0:0:0:
64,192,116052,128,0,116280:0:0:0:0:
192,192,116121,128,0,116280:0:0:0:0:
320,192,116189,128,0,116280:0:0:0:0:
448,192,116257,128,0,117099:0:0:0:0:
320,192,116325,128,0,116553:0:0:0:0:
192,192,116325,128,0,116553:0:0:0:0:
64,192,116325,128,0,116553:0:0:0:0:
64,192,116598,128,0,117168:0:0:0:0:
192,192,116598,128,0,117236:0:0:0:0:
320,192,116598,128,0,117304:0:0:0:0:
448,192,117145,128,0,117372:0:0:0:0:
64,192,117213,128,0,117372:0:0:0:0:
192,192,117282,128,0,117372:0:0:0:0:
320,192,117350,128,0,117555:0:0:0:0:
448,192,117418,128,0,117555:0:0:0:0:
192,192,117418,128,0,117759:0:0:0:0:
64,192,117418,128,0,117555:0:0:0:0:
320,192,117600,128,0,117759:0:0:0:0:
448,192,117600,128,0,117919:0:0:0:0:
64,192,117600,128,0,117759:0:0:0:0:
192,192,117805,128,0,117919:0:0:0:0:
320,192,117805,128,0,117919:0:0:0:0:
64,192,117805,128,0,118101:0:0:0:0:
192,192,117964,128,0,118101:0:0:0:0:
448,192,117964,128,0,118101:0:0:0:0:
320,192,117964,128,0,118306:0:0:0:0:
64,192,118146,128,0,118306:0:0:0:0:
192,192,118146,128,0,118465:0:0:0:0:
448,192,118146,128,0,118306:0:0:0:0:
64,192,118351,128,0,118465:0:0:0:0:
320,192,118351,128,0,118465:0:0:0:0:
448,192,118351,128,0,119284:0:0:0:0:
320,192,118510,128,0,118738:0:0:0:0:
192,192,118510,128,0,118738:0:0:0:0:
64,192,118510,128,0,118738:0:0:0:0:
64,192,118783,128,0,119353:0:0:0:0:
192,192,118783,128,0,119421:0:0:0:0:
320,192,118783,128,0,119490:0:0:0:0:
448,192,119330,128,0,119557:0:0:0:0:
64,192,119398,128,0,119557:0:0:0:0:
192,192,119467,128,0,119557:0:0:0:0:
320,192,119535,128,0,120514:0:0:0:0:
448,192,119603,128,0,119831:0:0:0:0:
192,192,119603,128,0,119831:0:0:0:0:
64,192,119603,128,0,119831:0:0:0:0:
448,192,119877,128,0,120445:0:0:0:0:
192,192,119877,128,0,120583:0:0:0:0:
64,192,119877,128,0,120377:0:0:0:0:
64,192,120423,128,0,120650:0:0:0:0:
448,192,120491,128,0,120650:0:0:0:0:
320,192,120559,128,0,120650:0:0:0:0:
192,192,120628,128,0,121197:0:0:0:0:
320,192,120696,128,0,120923:0:0:0:0:
448,192,120696,128,0,120923:0:0:0:0:
64,192,120696,128,0,120923:0:0:0:0:
320,192,120970,128,0,121197:0:0:0:0:
448,192,120970,128,0,121379:0:0:0:0:
64,192,120970,128,0,121197:0:0:0:0:
64,192,121243,128,0,121583:0:0:0:0:
192,192,121243,128,0,121379:0:0:0:0:
320,192,121243,128,0,121379:0:0:0:0:
448,192,121424,128,0,121583:0:0:0:0:
192,192,121424,128,0,121583:0:0:0:0:
320,192,121424,128,0,121743:0:0:0:0:
192,192,121630,128,0,121925:0:0:0:0:
448,192,121630,128,0,121743:0:0:0:0:
64,192,121630,128,0,121743:0:0:0:0:
64,192,121789,128,0,121925:0:0:0:0:
320,192,121789,128,0,121925:0:0:0:0:
448,192,121789,128,0,122130:0:0:0:0:
320,192,121970,128,0,122130:0:0:0:0:
192,192,121970,128,0,122130:0:0:0:0:
64,192,121970,128,0,122290:0:0:0:0:
192,192,122176,128,0,122290:0:0:0:0:
320,192,122176,128,0,122471:0:0:0:0:
448,192,122176,128,0,122290:0:0:0:0:
448,192,122335,128,0,122471:0:0:0:0:
192,192,122335,128,0,122471:0:0:0:0:
64,192,122335,128,0,122677:0:0:0:0:
192,192,122517,128,0,122677:0:0:0:0:
320,192,122517,128,0,122677:0:0:0:0:
448,192,122517,128,0,122836:0:0:0:0:
64,192,122722,128,0,122836:0:0:0:0:
192,192,122722,128,0,123109:0:0:0:0:
320,192,122722,128,0,122836:0:0:0:0:
64,192,122881,128,0,123109:0:0:0:0:
320,192,122881,128,0,123723:0:0:0:0:
448,192,122881,128,0,123109:0:0:0:0:
192,192,123155,128,0,123382:0:0:0:0:
64,192,123155,128,0,123382:0:0:0:0:
448,192,123155,128,0,123792:0:0:0:0:
192,192,123428,128,0,123656:0:0:0:0:
64,192,123428,128,0,123656:0:0:0:0:
64,192,123701,128,0,123929:0:0:0:0:
192,192,123701,128,0,123860:0:0:0:0:
320,192,123769,128,0,123929:0:0:0:0:
448,192,123837,128,0,123929:0:0:0:0:
192,192,123905,128,0,124817:0:0:0:0:
320,192,123974,128,0,124202:0:0:0:0:
448,192,123974,128,0,124202:0:0:0:0:
64,192,123974,128,0,124202:0:0:0:0:
320,192,124247,128,0,124475:0:0:0:0:
448,192,124247,128,0,124475:0:0:0:0:
64,192,124247,128,0,124884:0:0:0:0:
320,192,124520,128,0,124748:0:0:0:0:
448,192,124520,128,0,124748:0:0:0:0:
448,192,124793,128,0,125021:0:0:0:0:
320,192,124793,128,0,124953:0:0:0:0:
192,192,124862,128,0,125021:0:0:0:0:
64,192,124930,128,0,125021:0:0:0:0:
320,192,124998,128,0,125909:0:0:0:0:
448,192,125067,128,0,125294:0:0:0:0:
192,192,125067,128,0,125294:0:0:0:0:
64,192,125067,128,0,125294:0:0:0:0:
64,192,125340,128,0,125977:0:0:0:0:
192,192,125340,128,0,125567:0:0:0:0:
448,192,125340,128,0,125567:0:0:0:0:
448,192,125613,128,0,125841:0:0:0:0:
192,192,125613,128,0,125841:0:0:0:0:
192,192,125886,128,0,126045:0:0:0:0:
448,192,125886,128,0,126114:0:0:0:0:
320,192,125955,128,0,126114:0:0:0:0:
64,192,126023,128,0,126114:0:0:0:0:
192,192,126091,128,0,126296:0:0:0:0:
320,192,126159,128,0,126387:0:0:0:0:
448,192,126159,128,0,126501:0:0:0:0:
64,192,126159,128,0,126387:0:0:0:0:
192,192,126342,128,0,126660:0:0:0:0:
320,192,126432,128,0,126842:0:0:0:0:
64,192,126432,128,0,126660:0:0:0:0:
448,192,126546,128,0,126933:0:0:0:0:
192,192,126705,128,0,127047:0:0:0:0:
64,192,126705,128,0,126933:0:0:0:0:
320,192,126888,128,0,127206:0:0:0:0:
448,192,126979,128,0,127206:0:0:0:0:
64,192,126979,128,0,127206:0:0:0:0:
192,192,127092,128,0,127275:0:0:0:0:
448,192,127252,128,0,127343:0:0:0:0:
320,192,127252,128,0,127411:0:0:0:0:
64,192,127252,128,0,127479:0:0:0:0:
192,192,127320,128,0,127479:0:0:0:0:
448,192,127389,128,0,127479:0:0:0:0:
320,192,127457,128,0,127548:0:0:0:0:
448,192,127525,128,0,127753:0:0:0:0:
192,192,127525,128,0,127617:0:0:0:0:
64,192,127525,128,0,127684:0:0:0:0:
320,192,127593,128,0,127753:0:0:0:0:
192,192,127662,128,0,127821:0:0:0:0:
64,192,127730,128,0,127890:0:0:0:0:
320,192,127798,128,0,127957:0:0:0:0:
448,192,127798,128,0,128026:0:0:0:0:
192,192,127866,128,0,128026:0:0:0:0:
64,192,127935,128,0,128094:0:0:0:0:
320,192,128003,128,0,128163:0:0:0:0:
448,192,128071,128,0,128299:0:0:0:0:
192,192,128071,128,0,128230:0:0:0:0:
64,192,128140,128,0,128299:0:0:0:0:
320,192,128208,128,0,128299:0:0:0:0:
192,192,128277,128,0,128367:0:0:0:0:
320,192,128344,128,0,128503:0:0:0:0:
448,192,128344,128,0,128572:0:0:0:0:
64,192,128344,128,0,128436:0:0:0:0:
192,192,128413,128,0,128572:0:0:0:0:
64,192,128481,128,0,128572:0:0:0:0:
320,192,128550,128,0,128641:0:0:0:0:
448,192,128617,128,0,128709:0:0:0:0:
192,192,128617,128,0,128777:0:0:0:0:
64,192,128617,128,0,128845:0:0:0:0:
320,192,128686,128,0,128845:0:0:0:0:
448,192,128754,128,0,128914:0:0:0:0:
192,192,128823,128,0,128982:0:0:0:0:
320,192,128890,128,0,129050:0:0:0:0:
64,192,128890,128,0,129118:0:0:0:0:
448,192,128959,128,0,129118:0:0:0:0:
192,192,129028,128,0,129187:0:0:0:0:
320,192,129096,128,0,129255:0:0:0:0:
448,192,129164,128,0,129323:0:0:0:0:
64,192,129164,128,0,129391:0:0:0:0:
192,192,129232,128,0,129391:0:0:0:0:
320,192,129301,128,0,129460:0:0:0:0:
448,192,129369,128,0,129528:0:0:0:0:
64,192,129437,128,0,129528:0:0:0:0:
192,192,129437,128,0,129597:0:0:0:0:
320,192,129505,128,0,129665:0:0:0:0:
448,192,129574,128,0,129665:0:0:0:0:
64,192,129574,128,0,129733:0:0:0:0:
192,192,129642,128,0,129802:0:0:0:0:
320,192,129710,128,0,129802:0:0:0:0:
448,192,129710,128,0,129870:0:0:0:0:
64,192,129778,128,0,129938:0:0:0:0:
192,192,129847,128,0,129938:0:0:0:0:
320,192,129847,128,0,130006:0:0:0:0:
448,192,129915,128,0,130006:0:0:0:0:
64,192,129983,128,0,130075:0:0:0:0:
192,192,129983,128,0,130075:0:0:0:0:
320,192,130052,128,0,130143:0:0:0:0:
448,192,130052,128,0,130143:0:0:0:0:
64,192,130120,128,0,130211:0:0:0:0:
192,192,130120,128,0,130211:0:0:0:0:
320,192,130189,128,0,130279:0:0:0:0:
448,192,130189,128,0,130279:0:0:0:0:
192,192,130257,128,0,130348:0:0:0:0:
64,192,130257,128,0,130348:0:0:0:0:
320,192,130325,128,0,130416:0:0:0:0:
448,192,130325,128,0,130416:0:0:0:0:
192,192,130393,128,0,130484:0:0:0:0:
64,192,130393,128,0,130484:0:0:0:0:
320,192,130462,128,0,130757:0:0:0:0:
448,192,130462,128,0,130757:0:0:0:0:
192,192,130530,128,0,131030:0:0:0:0:
64,192,130530,128,0,130757:0:0:0:0:
64,192,130803,128,0,131030:0:0:0:0:
320,192,130803,128,0,131303:0:0:0:0:
448,192,130803,128,0,131303:0:0:0:0:
192,192,131077,128,0,131167:0:0:0:0:
64,192,131077,128,0,131167:0:0:0:0:
64,192,131213,128,0,131303:0:0:0:0:
192,192,131213,128,0,131303:0:0:0:0:
64,192,131350,128,0,131577:0:0:0:0:
192,192,131350,128,0,131577:0:0:0:0:
320,192,131350,128,0,131577:0:0:0:0:
448,192,131350,128,0,131850:0:0:0:0:
320,192,131623,128,0,131714:0:0:0:0:
192,192,131623,128,0,131714:0:0:0:0:
64,192,131623,128,0,131714:0:0:0:0:
64,192,131759,128,0,131850:0:0:0:0:
192,192,131759,128,0,131918:0:0:0:0:
320,192,131759,128,0,131918:0:0:0:0:
448,192,131896,128,0,131987:0:0:0:0:
64,192,131896,128,0,131987:0:0:0:0:
320,192,131964,128,0,132055:0:0:0:0:
192,192,131964,128,0,132055:0:0:0:0:
448,192,132032,128,0,132123:0:0:0:0:
64,192,132032,128,0,132123:0:0:0:0:
192,192,132101,128,0,132191:0:0:0:0:
320,192,132101,128,0,132260:0:0:0:0:
448,192,132169,128,0,132260:0:0:0:0:
64,192,132169,128,0,132328:0:0:0:0:
192,192,132237,128,0,132397:0:0:0:0:
320,192,132305,128,0,132464:0:0:0:0:
448,192,132305,128,0,132397:0:0:0:0:
64,192,132374,128,0,132533:0:0:0:0:
192,192,132442,128,0,132533:0:0:0:0:
448,192,132442,128,0,132601:0:0:0:0:
320,192,132510,128,0,132670:0:0:0:0:
192,192,132578,128,0,132670:0:0:0:0:
64,192,132578,128,0,132670:0:0:0:0:
448,192,132647,128,0,132943:0:0:0:0:
320,192,132715,128,0,132806:0:0:0:0:
192,192,132715,128,0,132806:0:0:0:0:
64,192,132715,128,0,132806:0:0:0:0:
64,192,132851,128,0,133011:0:0:0:0:
192,192,132851,128,0,133011:0:0:0:0:
320,192,132851,128,0,132943:0:0:0:0:
448,192,132989,128,0,133079:0:0:0:0:
320,192,132989,128,0,133079:0:0:0:0:
192,192,133057,128,0,133148:0:0:0:0:
64,192,133057,128,0,133148:0:0:0:0:
320,192,133125,128,0,133216:0:0:0:0:
448,192,133125,128,0,133216:0:0:0:0:
192,192,133193,128,0,133284:0:0:0:0:
64,192,133193,128,0,133352:0:0:0:0:
448,192,133262,128,0,133352:0:0:0:0:
320,192,133262,128,0,133421:0:0:0:0:
192,192,133330,128,0,133489:0:0:0:0:
64,192,133398,128,0,133489:0:0:0:0:
448,192,133398,128,0,133557:0:0:0:0:
320,192,133466,128,0,133626:0:0:0:0:
192,192,133535,128,0,133626:0:0:0:0:
64,192,133535,128,0,133694:0:0:0:0:
448,192,133603,128,0,133763:0:0:0:0:
320,192,133671,128,0,133763:0:0:0:0:
192,192,133671,128,0,133763:0:0:0:0:
64,192,133739,128,0,134036:0:0:0:0:
192,192,133808,128,0,133899:0:0:0:0:
320,192,133808,128,0,133899:0:0:0:0:
448,192,133808,128,0,133899:0:0:0:0:
448,192,133944,128,0,134036:0:0:0:0:
320,192,133944,128,0,134103:0:0:0:0:
192,192,133944,128,0,134103:0:0:0:0:
448,192,134081,128,0,134172:0:0:0:0:
64,192,134081,128,0,134172:0:0:0:0:
192,192,134150,128,0,134240:0:0:0:0:
320,192,134150,128,0,134240:0:0:0:0:
448,192,134217,128,0,134309:0:0:0:0:
64,192,134217,128,0,134309:0:0:0:0:
192,192,134286,128,0,134377:0:0:0:0:
320,192,134286,128,0,134445:0:0:0:0:
448,192,134354,128,0,134445:0:0:0:0:
64,192,134354,128,0,134513:0:0:0:0:
192,192,134423,128,0,134582:0:0:0:0:
320,192,134490,128,0,134650:0:0:0:0:
448,192,134490,128,0,134582:0:0:0:0:
64,192,134559,128,0,134718:0:0:0:0:
192,192,134627,128,0,134718:0:0:0:0:
448,192,134627,128,0,134855:0:0:0:0:
320,192,134696,128,0,134787:0:0:0:0:
64,192,134763,128,0,134855:0:0:0:0:
192,192,134763,128,0,134923:0:0:0:0:
320,192,134832,128,0,134991:0:0:0:0:
448,192,134900,128,0,134991:0:0:0:0:
64,192,134900,128,0,135060:0:0:0:0:
192,192,134969,128,0,135128:0:0:0:0:
320,192,135037,128,0,135197:0:0:0:0:
448,192,135037,128,0,135128:0:0:0:0:
64,192,135105,128,0,135264:0:0:0:0:
192,192,135174,128,0,135264:0:0:0:0:
448,192,135174,128,0,135333:0:0:0:0:
320,192,135242,128,0,135470:0:0:0:0:
192,192,135310,128,0,135401:0:0:0:0:
64,192,135310,128,0,135401:0:0:0:0:
448,192,135378,128,0,135470:0:0:0:0:
192,192,135447,128,0,135537:0:0:0:0:
64,192,135447,128,0,135537:0:0:0:0:
320,192,135515,128,0,135606:0:0:0:0:
448,192,135515,128,0,135675:0:0:0:0:
192,192,135583,128,0,135743:0:0:0:0:
64,192,135583,128,0,135675:0:0:0:0:
320,192,135651,128,0,135743:0:0:0:0:
448,192,135720,128,0,135811:0:0:0:0:
64,192,135720,128,0,135811:0:0:0:0:
192,192,135788,128,0,135948:0:0:0:0:
320,192,135788,128,0,135879:0:0:0:0:
448,192,135857,128,0,135948:0:0:0:0:
64,192,135857,128,0,135948:0:0:0:0:
320,192,135924,128,0,136221:0:0:0:0:
448,192,135993,128,0,136084:0:0:0:0:
192,192,135993,128,0,136084:0:0:0:0:
64,192,135993,128,0,136084:0:0:0:0:
448,192,136130,128,0,136221:0:0:0:0:
192,192,136130,128,0,136289:0:0:0:0:
64,192,136130,128,0,136289:0:0:0:0:
320,192,136266,128,0,136357:0:0:0:0:
448,192,136266,128,0,136357:0:0:0:0:
192,192,136335,128,0,136425:0:0:0:0:
64,192,136335,128,0,136425:0:0:0:0:
320,192,136403,128,0,136494:0:0:0:0:
448,192,136403,128,0,136494:0:0:0:0:
192,192,136471,128,0,136562:0:0:0:0:
64,192,136471,128,0,136630:0:0:0:0:
320,192,136539,128,0,136699:0:0:0:0:
448,192,136539,128,0,136630:0:0:0:0:
192,192,136608,128,0,136767:0:0:0:0:
448,192,136676,128,0,136836:0:0:0:0:
64,192,136676,128,0,136767:0:0:0:0:
320,192,136744,128,0,136903:0:0:0:0:
192,192,136812,128,0,136903:0:0:0:0:
64,192,136812,128,0,136972:0:0:0:0:
448,192,136881,128,0,137040:0:0:0:0:
192,192,136949,128,0,137040:0:0:0:0:
320,192,136949,128,0,137040:0:0:0:0:
64,192,137017,128,0,137313:0:0:0:0:
192,192,137086,128,0,137177:0:0:0:0:
320,192,137086,128,0,137177:0:0:0:0:
448,192,137086,128,0,137177:0:0:0:0:
448,192,137223,128,0,137313:0:0:0:0:
320,192,137223,128,0,137382:0:0:0:0:
192,192,137223,128,0,137382:0:0:0:0:
64,192,137359,128,0,137450:0:0:0:0:
448,192,137359,128,0,137450:0:0:0:0:
320,192,137427,128,0,137518:0:0:0:0:
192,192,137427,128,0,137518:0:0:0:0:
448,192,137496,128,0,137586:0:0:0:0:
64,192,137496,128,0,137586:0:0:0:0:
320,192,137563,128,0,137655:0:0:0:0:
192,192,137563,128,0,137723:0:0:0:0:
64,192,137632,128,0,137723:0:0:0:0:
448,192,137632,128,0,137791:0:0:0:0:
320,192,137700,128,0,137860:0:0:0:0:
192,192,137769,128,0,137928:0:0:0:0:
64,192,137769,128,0,137860:0:0:0:0:
448,192,137837,128,0,137997:0:0:0:0:
320,192,137905,128,0,138064:0:0:0:0:
64,192,137905,128,0,137997:0:0:0:0:
192,192,137974,128,0,138133:0:0:0:0:
64,192,138042,128,0,138133:0:0:0:0:
448,192,138042,128,0,138133:0:0:0:0:
320,192,138110,128,0,138406:0:0:0:0:
448,192,138178,128,0,138270:0:0:0:0:
192,192,138178,128,0,138270:0:0:0:0:
64,192,138178,128,0,138270:0:0:0:0:
64,192,138315,128,0,138474:0:0:0:0:
192,192,138315,128,0,138474:0:0:0:0:
448,192,138315,128,0,138406:0:0:0:0:
320,192,138451,128,0,138543:0:0:0:0:
448,192,138451,128,0,138543:0:0:0:0:
192,192,138520,128,0,138610:0:0:0:0:
64,192,138520,128,0,138610:0:0:0:0:
320,192,138588,128,0,138679:0:0:0:0:
448,192,138588,128,0,138679:0:0:0:0:
192,192,138657,128,0,138748:0:0:0:0:
64,192,138657,128,0,138816:0:0:0:0:
320,192,138724,128,0,138816:0:0:0:0:
448,192,138724,128,0,138884:0:0:0:0:
192,192,138793,128,0,138952:0:0:0:0:
64,192,138861,128,0,138952:0:0:0:0:
320,192,138861,128,0,139021:0:0:0:0:
448,192,138930,128,0,139089:0:0:0:0:
64,192,138998,128,0,139089:0:0:0:0:
192,192,138998,128,0,139157:0:0:0:0:
320,192,139066,128,0,139225:0:0:0:0:
448,192,139135,128,0,139294:0:0:0:0:
64,192,139135,128,0,139225:0:0:0:0:
192,192,139203,128,0,139362:0:0:0:0:
320,192,139271,128,0,139430:0:0:0:0:
64,192,139271,128,0,139362:0:0:0:0:
448,192,139339,128,0,139498:0:0:0:0:
192,192,139408,128,0,139567:0:0:0:0:
64,192,139408,128,0,139567:0:0:0:0:
320,192,139476,128,0,139635:0:0:0:0:
448,192,139544,128,0,139635:0:0:0:0:
192,192,139612,128,0,139703:0:0:0:0:
64,192,139612,128,0,139772:0:0:0:0:
448,192,139681,128,0,139840:0:0:0:0:
320,192,139681,128,0,139772:0:0:0:0:
192,192,139749,128,0,139909:0:0:0:0:
64,192,139817,128,0,139909:0:0:0:0:
320,192,139817,128,0,139977:0:0:0:0:
448,192,139885,128,0,140045:0:0:0:0:
192,192,139954,128,0,140113:0:0:0:0:
64,192,139954,128,0,140045:0:0:0:0:
320,192,140023,128,0,140182:0:0:0:0:
448,192,140090,128,0,140182:0:0:0:0:
64,192,140090,128,0,140250:0:0:0:0:
192,192,140159,128,0,140318:0:0:0:0:
320,192,140227,128,0,140318:0:0:0:0:
448,192,140227,128,0,140318:0:0:0:0:
64,192,140296,128,0,140591:0:0:0:0:
192,192,140363,128,0,140455:0:0:0:0:
320,192,140363,128,0,140455:0:0:0:0:
448,192,140363,128,0,140455:0:0:0:0:
448,192,140500,128,0,140591:0:0:0:0:
320,192,140500,128,0,140660:0:0:0:0:
192,192,140500,128,0,140660:0:0:0:0:
64,192,140637,128,0,140728:0:0:0:0:
448,192,140637,128,0,140728:0:0:0:0:
320,192,140705,128,0,140797:0:0:0:0:
192,192,140705,128,0,140797:0:0:0:0:
64,192,140773,128,0,140864:0:0:0:0:
448,192,140773,128,0,140864:0:0:0:0:
192,192,140842,128,0,140933:0:0:0:0:
320,192,140842,128,0,141001:0:0:0:0:
448,192,140910,128,0,141001:0:0:0:0:
64,192,140910,128,0,141070:0:0:0:0:
192,192,140978,128,0,141137:0:0:0:0:
320,192,141047,128,0,141206:0:0:0:0:
448,192,141047,128,0,141137:0:0:0:0:
64,192,141115,128,0,141274:0:0:0:0:
192,192,141183,128,0,141274:0:0:0:0:
448,192,141183,128,0,141343:0:0:0:0:
320,192,141251,128,0,141410:0:0:0:0:
192,192,141320,128,0,141410:0:0:0:0:
64,192,141320,128,0,141410:0:0:0:0:
448,192,141388,128,0,141684:0:0:0:0:
320,192,141457,128,0,141547:0:0:0:0:
192,192,141457,128,0,141547:0:0:0:0:
64,192,141457,128,0,141547:0:0:0:0:
64,192,141593,128,0,141752:0:0:0:0:
192,192,141593,128,0,141752:0:0:0:0:
320,192,141593,128,0,141684:0:0:0:0:
448,192,141730,128,0,141821:0:0:0:0:
320,192,141730,128,0,141821:0:0:0:0:
192,192,141797,128,0,141889:0:0:0:0:
64,192,141797,128,0,141889:0:0:0:0:
320,192,141866,128,0,141957:0:0:0:0:
448,192,141866,128,0,141957:0:0:0:0:
192,192,141934,128,0,142025:0:0:0:0:
64,192,141934,128,0,142094:0:0:0:0:
320,192,142003,128,0,142162:0:0:0:0:
448,192,142003,128,0,142094:0:0:0:0:
192,192,142071,128,0,142230:0:0:0:0:
64,192,142139,128,0,142230:0:0:0:0:
448,192,142139,128,0,142298:0:0:0:0:
320,192,142208,128,0,142367:0:0:0:0:
192,192,142276,128,0,142367:0:0:0:0:
64,192,142276,128,0,142435:0:0:0:0:
448,192,142344,128,0,142503:0:0:0:0:
320,192,142412,128,0,142503:0:0:0:0:
192,192,142412,128,0,142503:0:0:0:0:
64,192,142481,128,0,142777:0:0:0:0:
192,192,142549,128,0,142640:0:0:0:0:
320,192,142549,128,0,142640:0:0:0:0:
448,192,142549,128,0,142640:0:0:0:0:
448,192,142685,128,0,142777:0:0:0:0:
320,192,142685,128,0,142845:0:0:0:0:
192,192,142685,128,0,142845:0:0:0:0:
64,192,142822,128,0,142913:0:0:0:0:
448,192,142822,128,0,142913:0:0:0:0:
320,192,142890,128,0,142982:0:0:0:0:
192,192,142890,128,0,142982:0:0:0:0:
448,192,142958,128,0,143050:0:0:0:0:
64,192,142958,128,0,143050:0:0:0:0:
192,192,143027,128,0,143186:0:0:0:0:
320,192,143027,128,0,143118:0:0:0:0:
448,192,143096,128,0,143255:0:0:0:0:
64,192,143096,128,0,143186:0:0:0:0:
320,192,143163,128,0,143323:0:0:0:0:
192,192,143232,128,0,143391:0:0:0:0:
64,192,143232,128,0,143323:0:0:0:0:
448,192,143300,128,0,143459:0:0:0:0:
320,192,143369,128,0,143459:0:0:0:0:
64,192,143369,128,0,143596:0:0:0:0:
192,192,143437,128,0,143528:0:0:0:0:
320,192,143505,128,0,143664:0:0:0:0:
448,192,143505,128,0,143596:0:0:0:0:
192,192,143573,128,0,143733:0:0:0:0:
64,192,143642,128,0,143733:0:0:0:0:
448,192,143642,128,0,143801:0:0:0:0:
320,192,143710,128,0,143870:0:0:0:0:
192,192,143778,128,0,143937:0:0:0:0:
64,192,143778,128,0,143870:0:0:0:0:
448,192,143846,128,0,144006:0:0:0:0:
320,192,143915,128,0,144006:0:0:0:0:
64,192,143915,128,0,144143:0:0:0:0:
192,192,143983,128,0,144074:0:0:0:0:
320,192,144051,128,0,144143:0:0:0:0:
448,192,144051,128,0,144210:0:0:0:0:
192,192,144120,128,0,144279:0:0:0:0:
320,192,144188,128,0,144347:0:0:0:0:
64,192,144188,128,0,144279:0:0:0:0:
448,192,144257,128,0,144416:0:0:0:0:
64,192,144324,128,0,144416:0:0:0:0:
192,192,144324,128,0,144483:0:0:0:0:
320,192,144393,128,0,144552:0:0:0:0:
448,192,144461,128,0,144552:0:0:0:0:
64,192,144461,128,0,144620:0:0:0:0:
192,192,144530,128,0,144689:0:0:0:0:
320,192,144597,128,0,144689:0:0:0:0:
448,192,144597,128,0,144689:0:0:0:0:
64,192,144666,128,0,144962:0:0:0:0:
192,192,144734,128,0,144825:0:0:0:0:
320,192,144734,128,0,144825:0:0:0:0:
448,192,144734,128,0,144825:0:0:0:0:
448,192,144870,128,0,145030:0:0:0:0:
320,192,144870,128,0,145030:0:0:0:0:
192,192,144870,128,0,144962:0:0:0:0:
64,192,145008,128,0,145098:0:0:0:0:
192,192,145008,128,0,145098:0:0:0:0:
320,192,145076,128,0,145167:0:0:0:0:
448,192,145076,128,0,145167:0:0:0:0:
64,192,145144,128,0,145235:0:0:0:0:
192,192,145144,128,0,145235:0:0:0:0:
320,192,145212,128,0,145303:0:0:0:0:
448,192,145212,128,0,145371:0:0:0:0:
192,192,145281,128,0,145440:0:0:0:0:
64,192,145281,128,0,145371:0:0:0:0:
320,192,145349,128,0,145508:0:0:0:0:
64,192,145417,128,0,145577:0:0:0:0:
448,192,145417,128,0,145508:0:0:0:0:
192,192,145485,128,0,145644:0:0:0:0:
320,192,145554,128,0,145644:0:0:0:0:
448,192,145554,128,0,145713:0:0:0:0:
64,192,145622,128,0,145782:0:0:0:0:
192,192,145690,128,0,145782:0:0:0:0:
320,192,145690,128,0,145782:0:0:0:0:
448,192,145758,128,0,146055:0:0:0:0:
320,192,145827,128,0,145918:0:0:0:0:
192,192,145827,128,0,145918:0:0:0:0:
64,192,145827,128,0,145918:0:0:0:0:
320,192,145963,128,0,146123:0:0:0:0:
64,192,145963,128,0,146055:0:0:0:0:
192,192,145963,128,0,146123:0:0:0:0:
64,192,146100,128,0,146191:0:0:0:0:
448,192,146100,128,0,146191:0:0:0:0:
320,192,146169,128,0,146259:0:0:0:0:
192,192,146169,128,0,146259:0:0:0:0:
64,192,146237,128,0,146328:0:0:0:0:
448,192,146237,128,0,146328:0:0:0:0:
192,192,146305,128,0,146464:0:0:0:0:
320,192,146305,128,0,146396:0:0:0:0:
64,192,146373,128,0,146464:0:0:0:0:
448,192,146373,128,0,146532:0:0:0:0:
320,192,146442,128,0,146601:0:0:0:0:
192,192,146510,128,0,146601:0:0:0:0:
64,192,146510,128,0,146670:0:0:0:0:
448,192,146578,128,0,146737:0:0:0:0:
320,192,146646,128,0,146737:0:0:0:0:
192,192,146646,128,0,146806:0:0:0:0:
64,192,146715,128,0,146874:0:0:0:0:
448,192,146783,128,0,146874:0:0:0:0:
320,192,146783,128,0,146874:0:0:0:0:
192,192,146851,128,0,147147:0:0:0:0:
64,192,146919,128,0,147010:0:0:0:0:
320,192,146919,128,0,147010:0:0:0:0:
448,192,146919,128,0,147010:0:0:0:0:
64,192,147057,128,0,147147:0:0:0:0:
448,192,147057,128,0,147216:0:0:0:0:
320,192,147057,128,0,147216:0:0:0:0:
192,192,147193,128,0,147283:0:0:0:0:
64,192,147193,128,0,147283:0:0:0:0:
320,192,147261,128,0,147352:0:0:0:0:
448,192,147261,128,0,147352:0:0:0:0:
192,192,147330,128,0,147420:0:0:0:0:
64,192,147330,128,0,147420:0:0:0:0:
320,192,147397,128,0,147489:0:0:0:0:
448,192,147397,128,0,147557:0:0:0:0:
192,192,147466,128,0,147625:0:0:0:0:
64,192,147466,128,0,147557:0:0:0:0:
320,192,147534,128,0,147694:0:0:0:0:
448,192,147603,128,0,147694:0:0:0:0:
64,192,147603,128,0,147762:0:0:0:0:
192,192,147670,128,0,147830:0:0:0:0:
320,192,147739,128,0,147898:0:0:0:0:
448,192,147739,128,0,147807:0:0:0:0:
64,192,147807,128,0,147967:0:0:0:0:
192,192,147876,128,0,147967:0:0:0:0:
448,192,147876,128,0,147967:0:0:0:0:
320,192,147943,128,0,148149:0:0:0:0:
64,192,148012,128,0,148149:0:0:0:0:
448,192,148012,128,0,148149:0:0:0:0:
192,192,148012,128,0,148354:0:0:0:0:
64,192,148194,128,0,148354:0:0:0:0:
320,192,148194,128,0,148354:0:0:0:0:
448,192,148194,128,0,148513:0:0:0:0:
320,192,148399,128,0,148513:0:0:0:0:
192,192,148399,128,0,148513:0:0:0:0:
64,192,148399,128,0,148695:0:0:0:0:
192,192,148558,128,0,148695:0:0:0:0:
320,192,148558,128,0,148900:0:0:0:0:
448,192,148558,128,0,148695:0:0:0:0:
64,192,148741,128,0,148900:0:0:0:0:
192,192,148741,128,0,148900:0:0:0:0:
448,192,148741,128,0,149059:0:0:0:0:
64,192,148945,128,0,149059:0:0:0:0:
320,192,148945,128,0,149128:0:0:0:0:
192,192,148945,128,0,149128:0:0:0:0:
64,192,149105,128,0,149196:0:0:0:0:
448,192,149105,128,0,149196:0:0:0:0:
192,192,149173,128,0,149264:0:0:0:0:
320,192,149173,128,0,149264:0:0:0:0:
448,192,149242,128,0,149332:0:0:0:0:
64,192,149242,128,0,149332:0:0:0:0:
320,192,149310,128,0,149469:0:0:0:0:
192,192,149310,128,0,149401:0:0:0:0:
448,192,149378,128,0,149469:0:0:0:0:
64,192,149378,128,0,149537:0:0:0:0:
192,192,149446,128,0,149605:0:0:0:0:
320,192,149515,128,0,149674:0:0:0:0:
448,192,149515,128,0,149605:0:0:0:0:
64,192,149583,128,0,149743:0:0:0:0:
192,192,149651,128,0,149743:0:0:0:0:
448,192,149651,128,0,149810:0:0:0:0:
320,192,149719,128,0,149879:0:0:0:0:
192,192,149788,128,0,149879:0:0:0:0:
64,192,149788,128,0,149947:0:0:0:0:
448,192,149856,128,0,150016:0:0:0:0:
320,192,149924,128,0,150016:0:0:0:0:
192,192,149924,128,0,150083:0:0:0:0:
64,192,149992,128,0,150220:0:0:0:0:
320,192,150061,128,0,150152:0:0:0:0:
448,192,150061,128,0,150152:0:0:0:0:
192,192,150130,128,0,150220:0:0:0:0:
448,192,150197,128,0,150289:0:0:0:0:
320,192,150197,128,0,150289:0:0:0:0:
192,192,150266,128,0,150357:0:0:0:0:
64,192,150266,128,0,150357:0:0:0:0:
320,192,150334,128,0,150425:0:0:0:0:
448,192,150334,128,0,150425:0:0:0:0:
192,192,150403,128,0,150493:0:0:0:0:
64,192,150403,128,0,150562:0:0:0:0:
320,192,150470,128,0,150630:0:0:0:0:
448,192,150470,128,0,150562:0:0:0:0:
192,192,150539,128,0,150698:0:0:0:0:
64,192,150607,128,0,150698:0:0:0:0:
448,192,150607,128,0,150767:0:0:0:0:
320,192,150676,128,0,150835:0:0:0:0:
192,192,150743,128,0,150903:0:0:0:0:
64,192,150743,128,0,150835:0:0:0:0:
448,192,150812,128,0,150971:0:0:0:0:
320,192,150880,128,0,150971:0:0:0:0:
64,192,150880,128,0,151108:0:0:0:0:
192,192,150949,128,0,151040:0:0:0:0:
320,192,151017,128,0,151108:0:0:0:0:
448,192,151017,128,0,151177:0:0:0:0:
192,192,151085,128,0,151244:0:0:0:0:
64,192,151154,128,0,151244:0:0:0:0:
320,192,151154,128,0,151313:0:0:0:0:
448,192,151222,128,0,151450:0:0:0:0:
192,192,151290,128,0,151381:0:0:0:0:
64,192,151290,128,0,151450:0:0:0:0:
320,192,151358,128,0,151517:0:0:0:0:
192,192,151427,128,0,151586:0:0:0:0:
448,192,151495,128,0,151723:0:0:0:0:
64,192,151495,128,0,151654:0:0:0:0:
320,192,151563,128,0,151654:0:0:0:0:
192,192,151631,128,0,151791:0:0:0:0:
64,192,151700,128,0,151791:0:0:0:0:
320,192,151700,128,0,151928:0:0:0:0:
448,192,151768,128,0,151859:0:0:0:0:
192,192,151837,128,0,151996:0:0:0:0:
64,192,151837,128,0,152064:0:0:0:0:
448,192,151904,128,0,151996:0:0:0:0:
320,192,151973,128,0,152132:0:0:0:0:
448,192,152042,128,0,152201:0:0:0:0:
192,192,152042,128,0,152201:0:0:0:0:
64,192,152110,128,0,152269:0:0:0:0:
320,192,152178,128,0,152337:0:0:0:0:
448,192,152246,128,0,152337:0:0:0:0:
192,192,152246,128,0,152405:0:0:0:0:
64,192,152315,128,0,152542:0:0:0:0:
448,192,152383,128,0,152474:0:0:0:0:
320,192,152383,128,0,152542:0:0:0:0:
192,192,152451,128,0,152610:0:0:0:0:
448,192,152519,128,0,152678:0:0:0:0:
64,192,152588,128,0,152747:0:0:0:0:
320,192,152588,128,0,152816:0:0:0:0:
192,192,152656,128,0,152747:0:0:0:0:
448,192,152724,128,0,152883:0:0:0:0:
192,192,152792,128,0,152883:0:0:0:0:
64,192,152792,128,0,152952:0:0:0:0:
320,192,152861,128,0,153020:0:0:0:0:
192,192,152929,128,0,153089:0:0:0:0:
448,192,152929,128,0,153157:0:0:0:0:
64,192,152997,128,0,153089:0:0:0:0:
320,192,153066,128,0,153225:0:0:0:0:
192,192,153134,128,0,153293:0:0:0:0:
64,192,153134,128,0,153293:0:0:0:0:
448,192,153203,128,0,153362:0:0:0:0:
320,192,153270,128,0,153498:0:0:0:0:
64,192,153339,128,0,153430:0:0:0:0:
192,192,153339,128,0,153430:0:0:0:0:
448,192,153407,128,0,153498:0:0:0:0:
64,192,153476,128,0,153566:0:0:0:0:
192,192,153476,128,0,153566:0:0:0:0:
320,192,153543,128,0,153635:0:0:0:0:
448,192,153543,128,0,153635:0:0:0:0:
192,192,153612,128,0,153703:0:0:0:0:
64,192,153612,128,0,153703:0:0:0:0:
320,192,153680,128,0,153840:0:0:0:0:
448,192,153680,128,0,153771:0:0:0:0:
192,192,153749,128,0,153908:0:0:0:0:
64,192,153749,128,0,153840:0:0:0:0:
448,192,153817,128,0,153977:0:0:0:0:
64,192,153885,128,0,154044:0:0:0:0:
320,192,153885,128,0,153977:0:0:0:0:
192,192,153953,128,0,154113:0:0:0:0:
320,192,154022,128,0,154181:0:0:0:0:
448,192,154022,128,0,154113:0:0:0:0:
64,192,154090,128,0,154250:0:0:0:0:
192,192,154158,128,0,154250:0:0:0:0:
448,192,154158,128,0,154317:0:0:0:0:
320,192,154227,128,0,154386:0:0:0:0:
192,192,154295,128,0,154454:0:0:0:0:
64,192,154295,128,0,154386:0:0:0:0:
448,192,154363,128,0,154523:0:0:0:0:
320,192,154431,128,0,154590:0:0:0:0:
64,192,154431,128,0,154523:0:0:0:0:
192,192,154500,128,0,154590:0:0:0:0:
64,192,154568,128,0,154659:0:0:0:0:
448,192,154568,128,0,154659:0:0:0:0:
192,192,154637,128,0,154728:0:0:0:0:
320,192,154637,128,0,154728:0:0:0:0:
64,192,154704,128,0,154796:0:0:0:0:
448,192,154704,128,0,154796:0:0:0:0:
320,192,154773,128,0,154864:0:0:0:0:
192,192,154773,128,0,154932:0:0:0:0:
64,192,154841,128,0,155001:0:0:0:0:
448,192,154841,128,0,154932:0:0:0:0:
320,192,154910,128,0,155069:0:0:0:0:
448,192,154977,128,0,155069:0:0:0:0:
192,192,154977,128,0,155137:0:0:0:0:
64,192,155046,128,0,155205:0:0:0:0:
448,192,155115,128,0,155205:0:0:0:0:
320,192,155115,128,0,155274:0:0:0:0:
192,192,155183,128,0,155342:0:0:0:0:
64,192,155251,128,0,155342:0:0:0:0:
448,192,155251,128,0,155410:0:0:0:0:
320,192,155319,128,0,155478:0:0:0:0:
192,192,155388,128,0,155478:0:0:0:0:
64,192,155388,128,0,155547:0:0:0:0:
448,192,155456,128,0,155615:0:0:0:0:
320,192,155524,128,0,155615:0:0:0:0:
192,192,155524,128,0,155683:0:0:0:0:
64,192,155592,128,0,155820:0:0:0:0:
448,192,155661,128,0,155820:0:0:0:0:
320,192,155661,128,0,155752:0:0:0:0:
192,192,155729,128,0,155889:0:0:0:0:
320,192,155797,128,0,155957:0:0:0:0:
448,192,155865,128,0,156025:0:0:0:0:
64,192,155865,128,0,156093:0:0:0:0:
192,192,155934,128,0,156025:0:0:0:0:
320,192,156002,128,0,156162:0:0:0:0:
448,192,156070,128,0,156162:0:0:0:0:
192,192,156070,128,0,156230:0:0:0:0:
64,192,156139,128,0,156366:0:0:0:0:
320,192,156207,128,0,156366:0:0:0:0:
448,192,156207,128,0,156298:0:0:0:0:
192,192,156276,128,0,156435:0:0:0:0:
448,192,156343,128,0,156503:0:0:0:0:
320,192,156412,128,0,156571:0:0:0:0:
64,192,156412,128,0,156571:0:0:0:0:
192,192,156480,128,0,156639:0:0:0:0:
448,192,156549,128,0,156708:0:0:0:0:
320,192,156617,128,0,156708:0:0:0:0:
64,192,156617,128,0,156913:0:0:0:0:
192,192,156685,128,0,156777:0:0:0:0:
448,192,156753,128,0,156913:0:0:0:0:
320,192,156753,128,0,156844:0:0:0:0:
192,192,156822,128,0,156981:0:0:0:0:
320,192,156890,128,0,157050:0:0:0:0:
448,192,156958,128,0,157186:0:0:0:0:
64,192,156958,128,0,157117:0:0:0:0:
192,192,157026,128,0,157117:0:0:0:0:
320,192,157095,128,0,157254:0:0:0:0:
64,192,157163,128,0,157254:0:0:0:0:
192,192,157163,128,0,157323:0:0:0:0:
448,192,157231,128,0,157390:0:0:0:0:
320,192,157300,128,0,157459:0:0:0:0:
64,192,157300,128,0,157527:0:0:0:0:
192,192,157368,128,0,157527:0:0:0:0:
448,192,157437,128,0,157801:0:0:0:0:
320,192,157504,128,0,157596:0:0:0:0:
64,192,157573,128,0,157663:0:0:0:0:
192,192,157573,128,0,157869:0:0:0:0:
320,192,157641,128,0,157732:0:0:0:0:
64,192,157710,128,0,157801:0:0:0:0:
320,192,157777,128,0,157869:0:0:0:0:
448,192,157846,128,0,157937:0:0:0:0:
64,192,157846,128,0,157937:0:0:0:0:
192,192,157914,128,0,158005:0:0:0:0:
320,192,157914,128,0,158005:0:0:0:0:
448,192,157983,128,0,158074:0:0:0:0:
64,192,157983,128,0,158074:0:0:0:0:
192,192,158051,128,0,158210:0:0:0:0:
320,192,158051,128,0,158142:0:0:0:0:
448,192,158119,128,0,158347:0:0:0:0:
64,192,158119,128,0,158210:0:0:0:0:
320,192,158188,128,0,158278:0:0:0:0:
192,192,158256,128,0,158347:0:0:0:0:
64,192,158256,128,0,158415:0:0:0:0:
320,192,158324,128,0,158483:0:0:0:0:
448,192,158392,128,0,158483:0:0:0:0:
192,192,158392,128,0,158551:0:0:0:0:
64,192,158461,128,0,158620:0:0:0:0:
448,192,158529,128,0,158620:0:0:0:0:
320,192,158529,128,0,158688:0:0:0:0:
192,192,158597,128,0,158757:0:0:0:0:
64,192,158665,128,0,158757:0:0:0:0:
448,192,158665,128,0,158825:0:0:0:0:
320,192,158734,128,0,158962:0:0:0:0:
192,192,158802,128,0,158893:0:0:0:0:
64,192,158802,128,0,158893:0:0:0:0:
448,192,158870,128,0,158962:0:0:0:0:
192,192,158938,128,0,159030:0:0:0:0:
64,192,158938,128,0,159030:0:0:0:0:
320,192,159007,128,0,159098:0:0:0:0:
448,192,159007,128,0,159098:0:0:0:0:
192,192,159076,128,0,159166:0:0:0:0:
64,192,159076,128,0,159166:0:0:0:0:
320,192,159143,128,0,159235:0:0:0:0:
448,192,159143,128,0,159303:0:0:0:0:
192,192,159212,128,0,159303:0:0:0:0:
64,192,159212,128,0,159371:0:0:0:0:
320,192,159280,128,0,159439:0:0:0:0:
448,192,159349,128,0,159439:0:0:0:0:
192,192,159349,128,0,159508:0:0:0:0:
64,192,159417,128,0,159576:0:0:0:0:
320,192,159485,128,0,159644:0:0:0:0:
448,192,159485,128,0,159576:0:0:0:0:
192,192,159553,128,0,159713:0:0:0:0:
64,192,159622,128,0,159713:0:0:0:0:
448,192,159622,128,0,159781:0:0:0:0:
320,192,159690,128,0,159850:0:0:0:0:
192,192,159758,128,0,159850:0:0:0:0:
64,192,159758,128,0,159917:0:0:0:0:
448,192,159826,128,0,159986:0:0:0:0:
320,192,159895,128,0,159986:0:0:0:0:
192,192,159895,128,0,160054:0:0:0:0:
64,192,159963,128,0,160123:0:0:0:0:
448,192,160031,128,0,160190:0:0:0:0:
320,192,160031,128,0,160190:0:0:0:0:
192,192,160100,128,0,160327:0:0:0:0:
64,192,160168,128,0,160259:0:0:0:0:
320,192,160237,128,0,160396:0:0:0:0:
448,192,160237,128,0,160463:0:0:0:0:
64,192,160304,128,0,160396:0:0:0:0:
192,192,160373,128,0,160532:0:0:0:0:
320,192,160441,128,0,160600:0:0:0:0:
64,192,160441,128,0,160532:0:0:0:0:
448,192,160510,128,0,160737:0:0:0:0:
64,192,160577,128,0,160737:0:0:0:0:
192,192,160577,128,0,160669:0:0:0:0:
320,192,160646,128,0,160805:0:0:0:0:
192,192,160714,128,0,160874:0:0:0:0:
448,192,160783,128,0,160942:0:0:0:0:
64,192,160783,128,0,160942:0:0:0:0:
320,192,160850,128,0,161010:0:0:0:0:
192,192,160919,128,0,161078:0:0:0:0:
64,192,160987,128,0,161078:0:0:0:0:
448,192,160987,128,0,161147:0:0:0:0:
320,192,161056,128,0,161351:0:0:0:0:
192,192,161124,128,0,161283:0:0:0:0:
64,192,161124,128,0,161215:0:0:0:0:
448,192,161192,128,0,161283:0:0:0:0:
64,192,161261,128,0,161488:0:0:0:0:
192,192,161329,128,0,161420:0:0:0:0:
448,192,161329,128,0,161488:0:0:0:0:
320,192,161397,128,0,161557:0:0:0:0:
192,192,161465,128,0,161624:0:0:0:0:
64,192,161534,128,0,161624:0:0:0:0:
448,192,161534,128,0,161693:0:0:0:0:
320,192,161602,128,0,161762:0:0:0:0:
192,192,161670,128,0,161830:0:0:0:0:
64,192,161670,128,0,161898:0:0:0:0:
448,192,161738,128,0,161830:0:0:0:0:
320,192,161807,128,0,161966:0:0:0:0:
192,192,161875,128,0,162035:0:0:0:0:
448,192,161875,128,0,162035:0:0:0:0:
64,192,161943,128,0,162103:0:0:0:0:
320,192,162011,128,0,162171:0:0:0:0:
448,192,162080,128,0,162171:0:0:0:0:
192,192,162080,128,0,162239:0:0:0:0:
64,192,162149,128,0,162239:0:0:0:0:
320,192,162217,128,0,162308:0:0:0:0:
448,192,162217,128,0,162308:0:0:0:0:
192,192,162285,128,0,162376:0:0:0:0:
64,192,162285,128,0,162376:0:0:0:0:
320,192,162353,128,0,162444:0:0:0:0:
448,192,162353,128,0,162444:0:0:0:0:
192,192,162422,128,0,162512:0:0:0:0:
64,192,162422,128,0,162581:0:0:0:0:
320,192,162490,128,0,162649:0:0:0:0:
448,192,162490,128,0,162581:0:0:0:0:
192,192,162558,128,0,162717:0:0:0:0:
64,192,162626,128,0,162717:0:0:0:0:
448,192,162626,128,0,162786:0:0:0:0:
320,192,162695,128,0,162854:0:0:0:0:
192,192,162763,128,0,162923:0:0:0:0:
64,192,162763,128,0,162854:0:0:0:0:
448,192,162831,128,0,162990:0:0:0:0:
320,192,162899,128,0,162990:0:0:0:0:
64,192,162899,128,0,163059:0:0:0:0:
192,192,162968,128,0,163127:0:0:0:0:
320,192,163036,128,0,163196:0:0:0:0:
448,192,163036,128,0,163127:0:0:0:0:
64,192,163104,128,0,163263:0:0:0:0:
192,192,163173,128,0,163332:0:0:0:0:
448,192,163173,128,0,163263:0:0:0:0:
320,192,163241,128,0,163332:0:0:0:0:
64,192,163310,128,0,163400:0:0:0:0:
448,192,163310,128,0,163400:0:0:0:0:
192,192,163377,128,0,163469:0:0:0:0:
320,192,163377,128,0,163469:0:0:0:0:
64,192,163446,128,0,163537:0:0:0:0:
448,192,163446,128,0,163537:0:0:0:0:
320,192,163514,128,0,163673:0:0:0:0:
192,192,163514,128,0,163605:0:0:0:0:
64,192,163583,128,0,163742:0:0:0:0:
448,192,163583,128,0,163673:0:0:0:0:
192,192,163650,128,0,163810:0:0:0:0:
320,192,163719,128,0,163878:0:0:0:0:
448,192,163719,128,0,163810:0:0:0:0:
64,192,163787,128,0,163947:0:0:0:0:
192,192,163856,128,0,163947:0:0:0:0:
448,192,163856,128,0,164083:0:0:0:0:
320,192,163923,128,0,164015:0:0:0:0:
192,192,163992,128,0,164083:0:0:0:0:
64,192,163992,128,0,164151:0:0:0:0:
320,192,164061,128,0,164220:0:0:0:0:
192,192,164129,128,0,164288:0:0:0:0:
448,192,164129,128,0,164220:0:0:0:0:
64,192,164197,128,0,164357:0:0:0:0:
448,192,164265,128,0,164424:0:0:0:0:
320,192,164265,128,0,164357:0:0:0:0:
192,192,164334,128,0,164493:0:0:0:0:
64,192,164402,128,0,164630:0:0:0:0:
320,192,164402,128,0,164561:0:0:0:0:
448,192,164470,128,0,164561:0:0:0:0:
192,192,164538,128,0,164697:0:0:0:0:
320,192,164607,128,0,164766:0:0:0:0:
448,192,164607,128,0,164766:0:0:0:0:
64,192,164675,128,0,164903:0:0:0:0:
192,192,164743,128,0,164835:0:0:0:0:
320,192,164811,128,0,164971:0:0:0:0:
448,192,164811,128,0,164903:0:0:0:0:
192,192,164880,128,0,165039:0:0:0:0:
64,192,164948,128,0,165108:0:0:0:0:
448,192,164948,128,0,165176:0:0:0:0:
320,192,165017,128,0,165108:0:0:0:0:
192,192,165085,128,0,165244:0:0:0:0:
64,192,165153,128,0,165312:0:0:0:0:
320,192,165153,128,0,165312:0:0:0:0:
448,192,165222,128,0,165381:0:0:0:0:
192,192,165290,128,0,165449:0:0:0:0:
64,192,165358,128,0,165449:0:0:0:0:
320,192,165358,128,0,165585:0:0:0:0:
448,192,165426,128,0,165722:0:0:0:0:
192,192,165495,128,0,165654:0:0:0:0:
64,192,165495,128,0,165859:0:0:0:0:
320,192,165631,128,0,165996:0:0:0:0:
192,192,165699,128,0,165927:0:0:0:0:
448,192,165768,128,0,165996:0:0:0:0:
64,192,165904,128,0,166063:0:0:0:0:
192,192,165972,128,0,166063:0:0:0:0:
320,192,166041,128,0,166177:0:0:0:0:
448,192,166041,128,0,166132:0:0:0:0:
192,192,166110,128,0,166200:0:0:0:0:
64,192,166110,128,0,166246:0:0:0:0:
448,192,166177,128,0,166269:0:0:0:0:
320,192,166223,128,0,166405:0:0:0:0:
192,192,166246,128,0,166337:0:0:0:0:
64,192,166291,128,0,166473:0:0:0:0:
448,192,166314,128,0,166542:0:0:0:0:
192,192,166383,128,0,166542:0:0:0:0:
320,192,166450,128,0,168181:0:0:0:0:
64,192,166519,128,0,167361:0:0:0:0:
192,192,166587,128,0,167634:0:0:0:0:
448,192,166587,128,0,167634:0:0:0:0:
64,192,167407,128,0,168727:0:0:0:0:
192,192,167680,128,0,168727:0:0:0:0:
448,192,167680,128,0,169546:0:0:0:0:
320,192,168226,128,0,169820:0:0:0:0:
64,192,168772,128,0,169820:0:0:0:0:
192,192,168772,128,0,170366:0:0:0:0:
448,192,169592,128,0,170912:0:0:0:0:
320,192,169865,128,0,170503:0:0:0:0:
64,192,169865,128,0,170639:0:0:0:0:
192,192,170411,128,0,170776:0:0:0:0:
320,192,170548,128,0,170912:0:0:0:0:
64,192,170684,128,0,172551:0:0:0:0:
192,192,170821,128,0,172005:0:0:0:0:
320,192,170957,128,0,171731:0:0:0:0:
448,192,170957,128,0,172005:0:0:0:0:
320,192,171777,128,0,172551:0:0:0:0:
192,192,172050,128,0,173097:0:0:0:0:
448,192,172050,128,0,173097:0:0:0:0:
320,192,172597,128,0,173370:0:0:0:0:
64,192,172597,128,0,173643:0:0:0:0:
192,192,173143,128,0,173917:0:0:0:0:
448,192,173143,128,0,174190:0:0:0:0:
320,192,173417,128,0,174190:0:0:0:0:
64,192,173690,128,0,175283:0:0:0:0:
192,192,173963,128,0,174737:0:0:0:0:
320,192,174236,128,0,176103:0:0:0:0:
448,192,174236,128,0,175283:0:0:0:0:
192,192,174782,128,0,176376:0:0:0:0:
64,192,175329,128,0,176376:0:0:0:0:
448,192,175329,128,0,177468:0:0:0:0:
320,192,176148,128,0,176922:0:0:0:0:
192,192,176421,128,0,178288:0:0:0:0:
64,192,176421,128,0,177468:0:0:0:0:
320,192,176967,128,0,178561:0:0:0:0:
448,192,177514,128,0,179653:0:0:0:0:
64,192,177514,128,0,178561:0:0:0:0:
192,192,178333,128,0,179107:0:0:0:0:
320,192,178606,128,0,179243:0:0:0:0:
64,192,178606,128,0,179380:0:0:0:0:
192,192,179153,128,0,179517:0:0:0:0:
320,192,179290,128,0,179653:0:0:0:0:
64,192,179426,128,0,180746:0:0:0:0:
192,192,179563,128,0,180746:0:0:0:0:
320,192,179699,128,0,180473:0:0:0:0:
448,192,179699,128,0,181839:0:0:0:0:
320,192,180518,128,0,181839:0:0:0:0:
64,192,180791,128,0,184070:0:0:0:0:
192,192,180791,128,0,184070:0:0:0:0:
448,192,181884,128,0,184070:0:0:0:0:
320,192,181884,128,0,184070:0:0:0:0:
