osu file format v14

[General]
AudioFilename: audio105.mp3
AudioLeadIn: 0
PreviewTime: -1
Countdown: 0
SampleSet: None
StackLeniency: 0.7
Mode: 3
LetterboxInBreaks: 0
SpecialStyle: 0
WidescreenStoryboard: 0

[Editor]
DistanceSpacing: 0.8
BeatDivisor: 12
GridSize: 32
TimelineZoom: 2.2

[Metadata]
Title:AO-INFINITY
TitleUnicode:AO-∞
Artist:Seiryu
ArtistUnicode:青龍
Creator:Affinityy
Version:Reflection [1.05x Rate]
Source:REFLEC BEAT plus
Tags:
BeatmapID:2455643
BeatmapSetID:1177420

[Difficulty]
HPDrainRate:6
CircleSize:4
OverallDifficulty:0
ApproachRate:5
SliderMultiplier:1.4
SliderTickRate:1

[Events]
//Background and Video events
0,0,"bg.png",0,0
//Break Periods
//Storyboard Layer 0 (Background)
//Storyboard Layer 1 (Fail)
//Storyboard Layer 2 (Pass)
//Storyboard Layer 3 (Foreground)
//Storyboard Layer 4 (Overlay)
//Storyboard Sound Samples

[TimingPoints]
550,299.177262528048,4,2,1,30,1,0
57966,-100,4,2,1,30,0,1
77113,-100,4,2,1,30,0,0
143830,-100,4,2,1,30,0,1
182499,-100,4,2,1,30,0,0

[HitObjects]
320,192,550,128,0,2294:0:0:0:0:
64,192,550,128,0,1696:0:0:0:0:
192,192,1447,128,0,2892:0:0:0:0:
448,192,1746,128,0,5136:0:0:0:0:
64,192,1746,128,0,2892:0:0:0:0:
320,192,2344,128,0,4090:0:0:0:0:
64,192,2943,128,0,4090:0:0:0:0:
192,192,2943,128,0,3790:0:0:0:0:
192,192,3840,128,0,4837:0:0:0:0:
64,192,4139,128,0,4688:0:0:0:0:
320,192,4139,128,0,4987:0:0:0:0:
64,192,4737,128,0,5286:0:0:0:0:
192,192,4887,128,0,5286:0:0:0:0:
320,192,5037,128,0,6483:0:0:0:0:
448,192,5187,128,0,7081:0:0:0:0:
64,192,5336,128,0,6483:0:0:0:0:
192,192,5336,128,0,6184:0:0:0:0:
192,192,6233,128,0,7679:0:0:0:0:
64,192,6532,128,0,7679:0:0:0:0:
320,192,6532,128,0,7979:0:0:0:0:
448,192,7130,128,0,8278:0:0:0:0:
64,192,7730,128,0,8876:0:0:0:0:
192,192,7730,128,0,8577:0:0:0:0:
320,192,8029,128,0,8876:0:0:0:0:
448,192,8328,128,0,9474:0:0:0:0:
192,192,8627,128,0,11270:0:0:0:0:
64,192,8926,128,0,11868:0:0:0:0:
320,192,8926,128,0,10072:0:0:0:0:
448,192,9525,128,0,10072:0:0:0:0:
320,192,10123,128,0,10970:0:0:0:0:
448,192,10123,128,0,11270:0:0:0:0:
320,192,11020,128,0,13962:0:0:0:0:
192,192,11319,128,0,12467:0:0:0:0:
448,192,11319,128,0,13663:0:0:0:0:
64,192,11918,128,0,12467:0:0:0:0:
192,192,12516,128,0,13364:0:0:0:0:
64,192,12516,128,0,13663:0:0:0:0:
192,192,13413,128,0,14410:0:0:0:0:
64,192,13712,128,0,14261:0:0:0:0:
448,192,13712,128,0,14710:0:0:0:0:
320,192,14012,128,0,14561:0:0:0:0:
64,192,14311,128,0,14860:0:0:0:0:
192,192,14461,128,0,14860:0:0:0:0:
320,192,14610,128,0,15757:0:0:0:0:
448,192,14760,128,0,16056:0:0:0:0:
192,192,14910,128,0,16654:0:0:0:0:
64,192,14910,128,0,16056:0:0:0:0:
320,192,15807,128,0,17253:0:0:0:0:
448,192,16107,128,0,17253:0:0:0:0:
64,192,16107,128,0,19647:0:0:0:0:
192,192,16705,128,0,20544:0:0:0:0:
320,192,17303,128,0,20843:0:0:0:0:
448,192,17303,128,0,19647:0:0:0:0:
64,192,19696,128,0,21442:0:0:0:0:
448,192,19696,128,0,20843:0:0:0:0:
192,192,20594,128,0,22040:0:0:0:0:
320,192,20893,128,0,22937:0:0:0:0:
448,192,20893,128,0,22040:0:0:0:0:
64,192,21491,128,0,23236:0:0:0:0:
192,192,22090,128,0,23985:0:0:0:0:
448,192,22090,128,0,23236:0:0:0:0:
320,192,22988,128,0,24134:0:0:0:0:
64,192,23287,128,0,23835:0:0:0:0:
448,192,23287,128,0,24284:0:0:0:0:
64,192,23885,128,0,24433:0:0:0:0:
192,192,24034,128,0,24433:0:0:0:0:
320,192,24184,128,0,25330:0:0:0:0:
448,192,24333,128,0,25630:0:0:0:0:
192,192,24483,128,0,25630:0:0:0:0:
64,192,24483,128,0,26827:0:0:0:0:
320,192,25381,128,0,26229:0:0:0:0:
192,192,25680,128,0,27425:0:0:0:0:
448,192,25680,128,0,26827:0:0:0:0:
320,192,26278,128,0,27126:0:0:0:0:
64,192,26876,128,0,27725:0:0:0:0:
448,192,26876,128,0,28024:0:0:0:0:
320,192,27176,128,0,28024:0:0:0:0:
192,192,27475,128,0,28622:0:0:0:0:
64,192,27774,128,0,29220:0:0:0:0:
320,192,28073,128,0,30118:0:0:0:0:
448,192,28073,128,0,29220:0:0:0:0:
192,192,28671,128,0,30417:0:0:0:0:
448,192,29270,128,0,30417:0:0:0:0:
64,192,29270,128,0,31015:0:0:0:0:
320,192,30168,128,0,31613:0:0:0:0:
448,192,30467,128,0,31613:0:0:0:0:
192,192,30467,128,0,32511:0:0:0:0:
64,192,31065,128,0,32810:0:0:0:0:
448,192,31664,128,0,32810:0:0:0:0:
320,192,31664,128,0,33110:0:0:0:0:
192,192,32561,128,0,33558:0:0:0:0:
64,192,32860,128,0,33409:0:0:0:0:
448,192,32860,128,0,33857:0:0:0:0:
320,192,33159,128,0,33708:0:0:0:0:
64,192,33458,128,0,34007:0:0:0:0:
192,192,33609,128,0,34007:0:0:0:0:
320,192,33758,128,0,35204:0:0:0:0:
448,192,33908,128,0,34905:0:0:0:0:
64,192,34057,128,0,35204:0:0:0:0:
192,192,34057,128,0,35802:0:0:0:0:
448,192,34954,128,0,36400:0:0:0:0:
320,192,35253,128,0,36400:0:0:0:0:
64,192,35253,128,0,38195:0:0:0:0:
192,192,35852,128,0,37597:0:0:0:0:
320,192,36450,128,0,37822:0:0:0:0:
448,192,36450,128,0,38046:0:0:0:0:
192,192,37647,128,0,38944:0:0:0:0:
320,192,37871,128,0,38420:0:0:0:0:
448,192,38096,128,0,38794:0:0:0:0:
64,192,38246,128,0,38794:0:0:0:0:
320,192,38470,128,0,38644:0:0:0:0:
320,192,38694,128,0,38869:0:0:0:0:
448,192,38844,128,0,39093:0:0:0:0:
64,192,38844,128,0,39018:0:0:0:0:
320,192,38918,128,0,39916:0:0:0:0:
192,192,38993,128,0,39243:0:0:0:0:
64,192,39069,128,0,39542:0:0:0:0:
448,192,39143,128,0,39392:0:0:0:0:
192,192,39292,128,0,39841:0:0:0:0:
448,192,39442,128,0,39691:0:0:0:0:
64,192,39591,128,0,39990:0:0:0:0:
448,192,39741,128,0,39990:0:0:0:0:
192,192,39890,128,0,40066:0:0:0:0:
320,192,39966,128,0,40140:0:0:0:0:
448,192,40040,128,0,40215:0:0:0:0:
64,192,40040,128,0,40290:0:0:0:0:
192,192,40115,128,0,41188:0:0:0:0:
320,192,40190,128,0,40439:0:0:0:0:
448,192,40265,128,0,40738:0:0:0:0:
64,192,40340,128,0,40589:0:0:0:0:
320,192,40490,128,0,41038:0:0:0:0:
64,192,40639,128,0,40889:0:0:0:0:
448,192,40789,128,0,41188:0:0:0:0:
64,192,40938,128,0,41636:0:0:0:0:
320,192,41088,128,0,41411:0:0:0:0:
192,192,41237,128,0,41411:0:0:0:0:
448,192,41237,128,0,41786:0:0:0:0:
320,192,41462,128,0,41636:0:0:0:0:
192,192,41462,128,0,41786:0:0:0:0:
320,192,41686,128,0,42010:0:0:0:0:
64,192,41686,128,0,42384:0:0:0:0:
448,192,41835,128,0,42010:0:0:0:0:
192,192,41835,128,0,42384:0:0:0:0:
320,192,42060,128,0,42234:0:0:0:0:
448,192,42060,128,0,42234:0:0:0:0:
320,192,42284,128,0,42609:0:0:0:0:
448,192,42284,128,0,42832:0:0:0:0:
192,192,42434,128,0,42609:0:0:0:0:
64,192,42434,128,0,42982:0:0:0:0:
192,192,42658,128,0,42982:0:0:0:0:
320,192,42658,128,0,42832:0:0:0:0:
320,192,42883,128,0,43207:0:0:0:0:
448,192,42883,128,0,43581:0:0:0:0:
192,192,43032,128,0,43207:0:0:0:0:
64,192,43032,128,0,43581:0:0:0:0:
320,192,43256,128,0,43431:0:0:0:0:
192,192,43256,128,0,43431:0:0:0:0:
320,192,43481,128,0,43655:0:0:0:0:
192,192,43481,128,0,43730:0:0:0:0:
448,192,43630,128,0,43880:0:0:0:0:
64,192,43630,128,0,43805:0:0:0:0:
320,192,43706,128,0,44703:0:0:0:0:
192,192,43780,128,0,44030:0:0:0:0:
64,192,43855,128,0,44329:0:0:0:0:
448,192,43930,128,0,44179:0:0:0:0:
192,192,44079,128,0,44628:0:0:0:0:
448,192,44229,128,0,44478:0:0:0:0:
64,192,44378,128,0,44777:0:0:0:0:
448,192,44529,128,0,44777:0:0:0:0:
192,192,44678,128,0,44852:0:0:0:0:
320,192,44752,128,0,44927:0:0:0:0:
448,192,44828,128,0,45002:0:0:0:0:
64,192,44828,128,0,45076:0:0:0:0:
192,192,44902,128,0,45974:0:0:0:0:
320,192,44977,128,0,45226:0:0:0:0:
448,192,45051,128,0,45526:0:0:0:0:
64,192,45127,128,0,45376:0:0:0:0:
320,192,45276,128,0,45825:0:0:0:0:
64,192,45426,128,0,45675:0:0:0:0:
448,192,45575,128,0,46198:0:0:0:0:
64,192,45725,128,0,45974:0:0:0:0:
320,192,45874,128,0,46423:0:0:0:0:
192,192,46024,128,0,46198:0:0:0:0:
64,192,46024,128,0,46572:0:0:0:0:
448,192,46249,128,0,46423:0:0:0:0:
192,192,46249,128,0,46572:0:0:0:0:
320,192,46472,128,0,46797:0:0:0:0:
448,192,46472,128,0,47170:0:0:0:0:
192,192,46622,128,0,47170:0:0:0:0:
64,192,46622,128,0,46797:0:0:0:0:
320,192,46847,128,0,47021:0:0:0:0:
64,192,46847,128,0,47021:0:0:0:0:
320,192,47071,128,0,47395:0:0:0:0:
64,192,47071,128,0,47620:0:0:0:0:
448,192,47221,128,0,47395:0:0:0:0:
192,192,47221,128,0,47770:0:0:0:0:
320,192,47445,128,0,47620:0:0:0:0:
448,192,47445,128,0,47770:0:0:0:0:
320,192,47670,128,0,47919:0:0:0:0:
64,192,47670,128,0,47993:0:0:0:0:
448,192,47819,128,0,48069:0:0:0:0:
192,192,47819,128,0,47993:0:0:0:0:
320,192,47969,128,0,48218:0:0:0:0:
192,192,48044,128,0,48292:0:0:0:0:
64,192,48044,128,0,48143:0:0:0:0:
448,192,48118,128,0,48218:0:0:0:0:
64,192,48193,128,0,48442:0:0:0:0:
448,192,48268,128,0,48368:0:0:0:0:
320,192,48268,128,0,48368:0:0:0:0:
192,192,48343,128,0,48517:0:0:0:0:
320,192,48417,128,0,48592:0:0:0:0:
448,192,48417,128,0,48667:0:0:0:0:
64,192,48492,128,0,48667:0:0:0:0:
192,192,48567,128,0,48816:0:0:0:0:
320,192,48642,128,0,49115:0:0:0:0:
448,192,48716,128,0,48966:0:0:0:0:
64,192,48716,128,0,48966:0:0:0:0:
192,192,48866,128,0,49265:0:0:0:0:
64,192,49016,128,0,49265:0:0:0:0:
448,192,49016,128,0,49414:0:0:0:0:
320,192,49166,128,0,49490:0:0:0:0:
192,192,49315,128,0,49564:0:0:0:0:
64,192,49315,128,0,49564:0:0:0:0:
448,192,49465,128,0,49639:0:0:0:0:
320,192,49539,128,0,49714:0:0:0:0:
192,192,49614,128,0,49789:0:0:0:0:
64,192,49614,128,0,49864:0:0:0:0:
448,192,49689,128,0,49864:0:0:0:0:
320,192,49764,128,0,50013:0:0:0:0:
192,192,49838,128,0,50312:0:0:0:0:
448,192,49913,128,0,50163:0:0:0:0:
64,192,49913,128,0,50163:0:0:0:0:
320,192,50063,128,0,50462:0:0:0:0:
448,192,50212,128,0,50462:0:0:0:0:
64,192,50212,128,0,50761:0:0:0:0:
192,192,50362,128,0,50611:0:0:0:0:
320,192,50511,128,0,50986:0:0:0:0:
448,192,50511,128,0,50761:0:0:0:0:
192,192,50661,128,0,51060:0:0:0:0:
448,192,50810,128,0,51359:0:0:0:0:
64,192,50810,128,0,51060:0:0:0:0:
320,192,51035,128,0,51210:0:0:0:0:
192,192,51110,128,0,51359:0:0:0:0:
64,192,51110,128,0,51584:0:0:0:0:
320,192,51260,128,0,51658:0:0:0:0:
448,192,51410,128,0,51658:0:0:0:0:
192,192,51410,128,0,51808:0:0:0:0:
64,192,51633,128,0,51958:0:0:0:0:
320,192,51709,128,0,51958:0:0:0:0:
448,192,51709,128,0,52257:0:0:0:0:
192,192,51858,128,0,52257:0:0:0:0:
320,192,52008,128,0,52182:0:0:0:0:
64,192,52008,128,0,52407:0:0:0:0:
320,192,52232,128,0,52556:0:0:0:0:
448,192,52307,128,0,52556:0:0:0:0:
192,192,52307,128,0,52630:0:0:0:0:
64,192,52456,128,0,52630:0:0:0:0:
320,192,52606,128,0,52730:0:0:0:0:
448,192,52606,128,0,52706:0:0:0:0:
192,192,52681,128,0,52780:0:0:0:0:
64,192,52681,128,0,52806:0:0:0:0:
448,192,52755,128,0,52855:0:0:0:0:
320,192,52780,128,0,53005:0:0:0:0:
192,192,52830,128,0,52930:0:0:0:0:
64,192,52855,128,0,53080:0:0:0:0:
448,192,52905,128,0,53154:0:0:0:0:
192,192,52980,128,0,53230:0:0:0:0:
320,192,53054,128,0,53154:0:0:0:0:
64,192,53130,128,0,53304:0:0:0:0:
320,192,53204,128,0,53379:0:0:0:0:
448,192,53204,128,0,53453:0:0:0:0:
192,192,53279,128,0,53453:0:0:0:0:
64,192,53354,128,0,53529:0:0:0:0:
320,192,53429,128,0,53603:0:0:0:0:
448,192,53504,128,0,53752:0:0:0:0:
192,192,53504,128,0,53678:0:0:0:0:
64,192,53578,128,0,53752:0:0:0:0:
320,192,53653,128,0,53828:0:0:0:0:
192,192,53728,128,0,53902:0:0:0:0:
448,192,53803,128,0,54052:0:0:0:0:
64,192,53803,128,0,53977:0:0:0:0:
320,192,53877,128,0,54052:0:0:0:0:
192,192,53952,128,0,54127:0:0:0:0:
64,192,54027,128,0,54202:0:0:0:0:
320,192,54102,128,0,54426:0:0:0:0:
448,192,54102,128,0,54276:0:0:0:0:
192,192,54176,128,0,54351:0:0:0:0:
64,192,54251,128,0,54351:0:0:0:0:
448,192,54326,128,0,54501:0:0:0:0:
192,192,54401,128,0,54575:0:0:0:0:
64,192,54401,128,0,54650:0:0:0:0:
320,192,54476,128,0,54650:0:0:0:0:
448,192,54550,128,0,54725:0:0:0:0:
192,192,54626,128,0,54800:0:0:0:0:
320,192,54700,128,0,54874:0:0:0:0:
64,192,54700,128,0,54950:0:0:0:0:
448,192,54775,128,0,54950:0:0:0:0:
192,192,54850,128,0,55024:0:0:0:0:
320,192,54925,128,0,55099:0:0:0:0:
448,192,54999,128,0,55174:0:0:0:0:
64,192,54999,128,0,55249:0:0:0:0:
192,192,55074,128,0,55249:0:0:0:0:
320,192,55149,128,0,55324:0:0:0:0:
448,192,55224,128,0,55398:0:0:0:0:
64,192,55298,128,0,55623:0:0:0:0:
192,192,55298,128,0,55473:0:0:0:0:
320,192,55373,128,0,55548:0:0:0:0:
448,192,55448,128,0,55548:0:0:0:0:
192,192,55523,128,0,55697:0:0:0:0:
320,192,55598,128,0,55772:0:0:0:0:
448,192,55598,128,0,55697:0:0:0:0:
64,192,55672,128,0,55847:0:0:0:0:
192,192,55748,128,0,55847:0:0:0:0:
448,192,55748,128,0,55922:0:0:0:0:
320,192,55822,128,0,55996:0:0:0:0:
192,192,55897,128,0,56071:0:0:0:0:
64,192,55897,128,0,55996:0:0:0:0:
448,192,55971,128,0,56146:0:0:0:0:
320,192,56047,128,0,56146:0:0:0:0:
64,192,56047,128,0,56221:0:0:0:0:
192,192,56121,128,0,56221:0:0:0:0:
448,192,56196,128,0,56296:0:0:0:0:
320,192,56196,128,0,56296:0:0:0:0:
192,192,56270,128,0,56370:0:0:0:0:
64,192,56270,128,0,56370:0:0:0:0:
320,192,56346,128,0,56446:0:0:0:0:
448,192,56346,128,0,56446:0:0:0:0:
192,192,56420,128,0,56520:0:0:0:0:
64,192,56420,128,0,56520:0:0:0:0:
448,192,56495,128,0,56595:0:0:0:0:
320,192,56495,128,0,56595:0:0:0:0:
192,192,56570,128,0,56670:0:0:0:0:
64,192,56570,128,0,56670:0:0:0:0:
320,192,56645,128,0,56745:0:0:0:0:
448,192,56645,128,0,56745:0:0:0:0:
192,192,56720,128,0,57044:0:0:0:0:
64,192,56720,128,0,57044:0:0:0:0:
320,192,56794,128,0,57343:0:0:0:0:
448,192,56794,128,0,57044:0:0:0:0:
192,192,57093,128,0,57642:0:0:0:0:
64,192,57093,128,0,57642:0:0:0:0:
448,192,57093,128,0,57343:0:0:0:0:
448,192,57392,128,0,57492:0:0:0:0:
320,192,57392,128,0,57492:0:0:0:0:
448,192,57542,128,0,57642:0:0:0:0:
320,192,57542,128,0,57642:0:0:0:0:
64,192,57691,128,0,57941:0:0:0:0:
192,192,57691,128,0,58016:0:0:0:0:
320,192,57691,128,0,58016:0:0:0:0:
448,192,57691,128,0,57941:0:0:0:0:
64,192,57991,128,0,58090:0:0:0:0:
448,192,57991,128,0,58090:0:0:0:0:
320,192,58066,128,0,58166:0:0:0:0:
192,192,58066,128,0,58166:0:0:0:0:
64,192,58141,128,0,58240:0:0:0:0:
448,192,58141,128,0,58240:0:0:0:0:
320,192,58215,128,0,58390:0:0:0:0:
192,192,58215,128,0,58315:0:0:0:0:
64,192,58290,128,0,58465:0:0:0:0:
448,192,58290,128,0,58390:0:0:0:0:
192,192,58365,128,0,58540:0:0:0:0:
320,192,58440,128,0,58540:0:0:0:0:
448,192,58440,128,0,58614:0:0:0:0:
64,192,58514,128,0,58690:0:0:0:0:
192,192,58590,128,0,58690:0:0:0:0:
320,192,58590,128,0,58764:0:0:0:0:
448,192,58664,128,0,58839:0:0:0:0:
192,192,58739,128,0,58839:0:0:0:0:
64,192,58739,128,0,58913:0:0:0:0:
320,192,58814,128,0,58989:0:0:0:0:
448,192,58889,128,0,58989:0:0:0:0:
192,192,58889,128,0,59063:0:0:0:0:
64,192,58964,128,0,59212:0:0:0:0:
320,192,59038,128,0,59138:0:0:0:0:
448,192,59038,128,0,59138:0:0:0:0:
192,192,59113,128,0,59212:0:0:0:0:
448,192,59188,128,0,59288:0:0:0:0:
320,192,59188,128,0,59288:0:0:0:0:
192,192,59263,128,0,59362:0:0:0:0:
64,192,59263,128,0,59362:0:0:0:0:
320,192,59337,128,0,59437:0:0:0:0:
448,192,59337,128,0,59437:0:0:0:0:
192,192,59412,128,0,59511:0:0:0:0:
64,192,59412,128,0,59587:0:0:0:0:
320,192,59487,128,0,59662:0:0:0:0:
448,192,59487,128,0,59587:0:0:0:0:
192,192,59562,128,0,59736:0:0:0:0:
64,192,59636,128,0,59736:0:0:0:0:
448,192,59636,128,0,59811:0:0:0:0:
320,192,59711,128,0,59886:0:0:0:0:
192,192,59786,128,0,59961:0:0:0:0:
64,192,59786,128,0,59886:0:0:0:0:
448,192,59861,128,0,60035:0:0:0:0:
320,192,59936,128,0,60035:0:0:0:0:
64,192,59936,128,0,60110:0:0:0:0:
192,192,60010,128,0,60185:0:0:0:0:
320,192,60086,128,0,60260:0:0:0:0:
448,192,60086,128,0,60185:0:0:0:0:
64,192,60160,128,0,60334:0:0:0:0:
448,192,60235,128,0,60410:0:0:0:0:
192,192,60235,128,0,60334:0:0:0:0:
320,192,60310,128,0,60484:0:0:0:0:
192,192,60385,128,0,60559:0:0:0:0:
64,192,60385,128,0,60634:0:0:0:0:
448,192,60459,128,0,60559:0:0:0:0:
320,192,60534,128,0,60709:0:0:0:0:
448,192,60609,128,0,60858:0:0:0:0:
192,192,60609,128,0,60784:0:0:0:0:
64,192,60684,128,0,60784:0:0:0:0:
320,192,60758,128,0,60933:0:0:0:0:
192,192,60833,128,0,61008:0:0:0:0:
64,192,60833,128,0,60933:0:0:0:0:
448,192,60908,128,0,61157:0:0:0:0:
320,192,60983,128,0,61083:0:0:0:0:
64,192,60983,128,0,61157:0:0:0:0:
192,192,61058,128,0,61232:0:0:0:0:
320,192,61132,128,0,61307:0:0:0:0:
448,192,61208,128,0,61382:0:0:0:0:
64,192,61208,128,0,61382:0:0:0:0:
192,192,61282,128,0,61456:0:0:0:0:
320,192,61357,128,0,61531:0:0:0:0:
448,192,61431,128,0,61531:0:0:0:0:
64,192,61431,128,0,61606:0:0:0:0:
192,192,61507,128,0,61756:0:0:0:0:
320,192,61581,128,0,61756:0:0:0:0:
448,192,61581,128,0,61681:0:0:0:0:
64,192,61656,128,0,61830:0:0:0:0:
448,192,61730,128,0,61980:0:0:0:0:
320,192,61806,128,0,61906:0:0:0:0:
192,192,61806,128,0,61980:0:0:0:0:
64,192,61880,128,0,62055:0:0:0:0:
320,192,61955,128,0,62130:0:0:0:0:
448,192,62030,128,0,62130:0:0:0:0:
192,192,62030,128,0,62205:0:0:0:0:
64,192,62105,128,0,62205:0:0:0:0:
320,192,62180,128,0,62279:0:0:0:0:
448,192,62180,128,0,62279:0:0:0:0:
192,192,62254,128,0,62354:0:0:0:0:
64,192,62254,128,0,62429:0:0:0:0:
320,192,62330,128,0,62504:0:0:0:0:
448,192,62330,128,0,62429:0:0:0:0:
192,192,62404,128,0,62504:0:0:0:0:
64,192,62479,128,0,62578:0:0:0:0:
448,192,62479,128,0,62578:0:0:0:0:
192,192,62553,128,0,62653:0:0:0:0:
320,192,62553,128,0,62728:0:0:0:0:
448,192,62629,128,0,62728:0:0:0:0:
64,192,62629,128,0,62803:0:0:0:0:
192,192,62703,128,0,62803:0:0:0:0:
320,192,62778,128,0,62878:0:0:0:0:
448,192,62778,128,0,62878:0:0:0:0:
192,192,62852,128,0,62952:0:0:0:0:
64,192,62852,128,0,62952:0:0:0:0:
320,192,62928,128,0,63028:0:0:0:0:
448,192,62928,128,0,63028:0:0:0:0:
192,192,63002,128,0,63102:0:0:0:0:
64,192,63002,128,0,63177:0:0:0:0:
320,192,63077,128,0,63251:0:0:0:0:
448,192,63077,128,0,63177:0:0:0:0:
192,192,63151,128,0,63327:0:0:0:0:
64,192,63227,128,0,63327:0:0:0:0:
448,192,63227,128,0,63401:0:0:0:0:
320,192,63302,128,0,63476:0:0:0:0:
192,192,63376,128,0,63550:0:0:0:0:
64,192,63376,128,0,63476:0:0:0:0:
448,192,63451,128,0,63626:0:0:0:0:
320,192,63526,128,0,63626:0:0:0:0:
64,192,63526,128,0,63700:0:0:0:0:
192,192,63601,128,0,63775:0:0:0:0:
320,192,63675,128,0,63850:0:0:0:0:
448,192,63675,128,0,63775:0:0:0:0:
64,192,63750,128,0,63925:0:0:0:0:
192,192,63825,128,0,64000:0:0:0:0:
448,192,63825,128,0,63925:0:0:0:0:
320,192,63900,128,0,64000:0:0:0:0:
448,192,63974,128,0,64074:0:0:0:0:
64,192,63974,128,0,64074:0:0:0:0:
320,192,64050,128,0,64150:0:0:0:0:
192,192,64050,128,0,64150:0:0:0:0:
64,192,64124,128,0,64224:0:0:0:0:
448,192,64124,128,0,64224:0:0:0:0:
192,192,64199,128,0,64299:0:0:0:0:
320,192,64199,128,0,64373:0:0:0:0:
448,192,64273,128,0,64373:0:0:0:0:
64,192,64273,128,0,64449:0:0:0:0:
192,192,64349,128,0,64523:0:0:0:0:
320,192,64424,128,0,64598:0:0:0:0:
448,192,64424,128,0,64523:0:0:0:0:
64,192,64498,128,0,64672:0:0:0:0:
192,192,64573,128,0,64672:0:0:0:0:
448,192,64573,128,0,64748:0:0:0:0:
320,192,64648,128,0,64822:0:0:0:0:
192,192,64723,128,0,64822:0:0:0:0:
64,192,64723,128,0,64897:0:0:0:0:
448,192,64797,128,0,64971:0:0:0:0:
320,192,64872,128,0,64971:0:0:0:0:
192,192,64872,128,0,65047:0:0:0:0:
64,192,64947,128,0,65122:0:0:0:0:
320,192,65022,128,0,65122:0:0:0:0:
448,192,65022,128,0,65196:0:0:0:0:
192,192,65096,128,0,65271:0:0:0:0:
64,192,65171,128,0,65421:0:0:0:0:
320,192,65171,128,0,65346:0:0:0:0:
448,192,65246,128,0,65346:0:0:0:0:
192,192,65321,128,0,65495:0:0:0:0:
320,192,65396,128,0,65570:0:0:0:0:
448,192,65396,128,0,65645:0:0:0:0:
64,192,65470,128,0,65570:0:0:0:0:
192,192,65546,128,0,65720:0:0:0:0:
64,192,65620,128,0,65720:0:0:0:0:
320,192,65620,128,0,65794:0:0:0:0:
448,192,65695,128,0,65944:0:0:0:0:
64,192,65770,128,0,65944:0:0:0:0:
192,192,65770,128,0,65870:0:0:0:0:
320,192,65845,128,0,66019:0:0:0:0:
192,192,65919,128,0,66093:0:0:0:0:
64,192,65994,128,0,66169:0:0:0:0:
448,192,65994,128,0,66169:0:0:0:0:
320,192,66069,128,0,66244:0:0:0:0:
192,192,66144,128,0,66318:0:0:0:0:
64,192,66218,128,0,66318:0:0:0:0:
448,192,66218,128,0,66393:0:0:0:0:
320,192,66293,128,0,66543:0:0:0:0:
192,192,66368,128,0,66468:0:0:0:0:
64,192,66368,128,0,66543:0:0:0:0:
448,192,66443,128,0,66617:0:0:0:0:
192,192,66518,128,0,66767:0:0:0:0:
64,192,66592,128,0,66692:0:0:0:0:
320,192,66592,128,0,66842:0:0:0:0:
448,192,66668,128,0,66767:0:0:0:0:
64,192,66742,128,0,66916:0:0:0:0:
192,192,66817,128,0,66916:0:0:0:0:
448,192,66817,128,0,66991:0:0:0:0:
320,192,66891,128,0,67066:0:0:0:0:
192,192,66967,128,0,67141:0:0:0:0:
64,192,66967,128,0,67215:0:0:0:0:
448,192,67041,128,0,67215:0:0:0:0:
320,192,67116,128,0,67290:0:0:0:0:
192,192,67190,128,0,67366:0:0:0:0:
64,192,67266,128,0,67515:0:0:0:0:
448,192,67266,128,0,67515:0:0:0:0:
320,192,67340,128,0,67440:0:0:0:0:
192,192,67415,128,0,67590:0:0:0:0:
320,192,67490,128,0,67590:0:0:0:0:
448,192,67565,128,0,67665:0:0:0:0:
64,192,67565,128,0,67665:0:0:0:0:
320,192,67640,128,0,67739:0:0:0:0:
192,192,67640,128,0,67739:0:0:0:0:
64,192,67714,128,0,67814:0:0:0:0:
448,192,67714,128,0,67814:0:0:0:0:
320,192,67790,128,0,67889:0:0:0:0:
192,192,67790,128,0,67964:0:0:0:0:
64,192,67864,128,0,67964:0:0:0:0:
448,192,67864,128,0,68038:0:0:0:0:
320,192,67939,128,0,68113:0:0:0:0:
192,192,68013,128,0,68113:0:0:0:0:
64,192,68013,128,0,68188:0:0:0:0:
448,192,68089,128,0,68263:0:0:0:0:
320,192,68163,128,0,68263:0:0:0:0:
192,192,68163,128,0,68338:0:0:0:0:
64,192,68238,128,0,68412:0:0:0:0:
448,192,68312,128,0,68488:0:0:0:0:
320,192,68312,128,0,68412:0:0:0:0:
192,192,68388,128,0,68562:0:0:0:0:
64,192,68462,128,0,68562:0:0:0:0:
320,192,68462,128,0,68637:0:0:0:0:
448,192,68537,128,0,68787:0:0:0:0:
192,192,68611,128,0,68711:0:0:0:0:
64,192,68611,128,0,68711:0:0:0:0:
320,192,68687,128,0,68787:0:0:0:0:
192,192,68762,128,0,68861:0:0:0:0:
64,192,68762,128,0,68861:0:0:0:0:
448,192,68836,128,0,68936:0:0:0:0:
320,192,68836,128,0,68936:0:0:0:0:
64,192,68911,128,0,69010:0:0:0:0:
192,192,68911,128,0,69010:0:0:0:0:
320,192,68986,128,0,69086:0:0:0:0:
448,192,68986,128,0,69160:0:0:0:0:
192,192,69061,128,0,69235:0:0:0:0:
64,192,69061,128,0,69160:0:0:0:0:
320,192,69135,128,0,69310:0:0:0:0:
448,192,69210,128,0,69310:0:0:0:0:
64,192,69210,128,0,69385:0:0:0:0:
192,192,69285,128,0,69460:0:0:0:0:
320,192,69360,128,0,69534:0:0:0:0:
448,192,69360,128,0,69460:0:0:0:0:
64,192,69434,128,0,69610:0:0:0:0:
192,192,69510,128,0,69610:0:0:0:0:
448,192,69510,128,0,69759:0:0:0:0:
320,192,69584,128,0,69684:0:0:0:0:
192,192,69659,128,0,69759:0:0:0:0:
64,192,69659,128,0,69833:0:0:0:0:
320,192,69733,128,0,69909:0:0:0:0:
448,192,69809,128,0,69909:0:0:0:0:
192,192,69809,128,0,69983:0:0:0:0:
64,192,69884,128,0,70132:0:0:0:0:
320,192,69958,128,0,70058:0:0:0:0:
448,192,69958,128,0,70132:0:0:0:0:
192,192,70033,128,0,70208:0:0:0:0:
320,192,70108,128,0,70282:0:0:0:0:
448,192,70183,128,0,70431:0:0:0:0:
64,192,70183,128,0,70357:0:0:0:0:
192,192,70257,128,0,70357:0:0:0:0:
320,192,70332,128,0,70507:0:0:0:0:
192,192,70407,128,0,70582:0:0:0:0:
64,192,70407,128,0,70507:0:0:0:0:
448,192,70482,128,0,70731:0:0:0:0:
320,192,70556,128,0,70656:0:0:0:0:
64,192,70556,128,0,70731:0:0:0:0:
192,192,70631,128,0,70806:0:0:0:0:
320,192,70706,128,0,70881:0:0:0:0:
448,192,70781,128,0,70955:0:0:0:0:
64,192,70781,128,0,70955:0:0:0:0:
192,192,70855,128,0,71030:0:0:0:0:
320,192,70930,128,0,71105:0:0:0:0:
448,192,71006,128,0,71105:0:0:0:0:
64,192,71006,128,0,71180:0:0:0:0:
192,192,71080,128,0,71330:0:0:0:0:
320,192,71155,128,0,71330:0:0:0:0:
448,192,71155,128,0,71254:0:0:0:0:
64,192,71230,128,0,71404:0:0:0:0:
448,192,71305,128,0,71479:0:0:0:0:
320,192,71379,128,0,71629:0:0:0:0:
192,192,71379,128,0,71553:0:0:0:0:
64,192,71454,128,0,71553:0:0:0:0:
448,192,71529,128,0,71704:0:0:0:0:
64,192,71604,128,0,71778:0:0:0:0:
192,192,71604,128,0,71704:0:0:0:0:
320,192,71678,128,0,71853:0:0:0:0:
192,192,71753,128,0,71928:0:0:0:0:
448,192,71753,128,0,72003:0:0:0:0:
64,192,71828,128,0,71928:0:0:0:0:
320,192,71903,128,0,72077:0:0:0:0:
192,192,71977,128,0,72152:0:0:0:0:
64,192,71977,128,0,72152:0:0:0:0:
448,192,72052,128,0,72227:0:0:0:0:
320,192,72128,128,0,72376:0:0:0:0:
192,192,72202,128,0,72302:0:0:0:0:
64,192,72202,128,0,72302:0:0:0:0:
448,192,72277,128,0,72376:0:0:0:0:
192,192,72351,128,0,72451:0:0:0:0:
64,192,72351,128,0,72451:0:0:0:0:
320,192,72427,128,0,72526:0:0:0:0:
448,192,72427,128,0,72526:0:0:0:0:
192,192,72501,128,0,72601:0:0:0:0:
64,192,72501,128,0,72601:0:0:0:0:
320,192,72576,128,0,72750:0:0:0:0:
448,192,72576,128,0,72675:0:0:0:0:
192,192,72650,128,0,72826:0:0:0:0:
64,192,72650,128,0,72750:0:0:0:0:
448,192,72726,128,0,72900:0:0:0:0:
320,192,72800,128,0,72900:0:0:0:0:
64,192,72800,128,0,72975:0:0:0:0:
192,192,72875,128,0,73050:0:0:0:0:
320,192,72950,128,0,73125:0:0:0:0:
448,192,72950,128,0,73050:0:0:0:0:
64,192,73025,128,0,73199:0:0:0:0:
192,192,73100,128,0,73199:0:0:0:0:
448,192,73100,128,0,73274:0:0:0:0:
320,192,73174,128,0,73349:0:0:0:0:
64,192,73250,128,0,73349:0:0:0:0:
192,192,73250,128,0,73424:0:0:0:0:
448,192,73324,128,0,73498:0:0:0:0:
320,192,73399,128,0,73573:0:0:0:0:
64,192,73399,128,0,73498:0:0:0:0:
192,192,73473,128,0,73573:0:0:0:0:
64,192,73549,128,0,73648:0:0:0:0:
448,192,73549,128,0,73648:0:0:0:0:
320,192,73623,128,0,73723:0:0:0:0:
192,192,73623,128,0,73723:0:0:0:0:
64,192,73698,128,0,73797:0:0:0:0:
448,192,73698,128,0,73797:0:0:0:0:
320,192,73772,128,0,73948:0:0:0:0:
192,192,73772,128,0,73872:0:0:0:0:
448,192,73848,128,0,73948:0:0:0:0:
64,192,73848,128,0,74022:0:0:0:0:
192,192,73922,128,0,74097:0:0:0:0:
320,192,73997,128,0,74097:0:0:0:0:
448,192,73997,128,0,74171:0:0:0:0:
64,192,74071,128,0,74247:0:0:0:0:
320,192,74147,128,0,74321:0:0:0:0:
192,192,74147,128,0,74247:0:0:0:0:
448,192,74222,128,0,74396:0:0:0:0:
64,192,74296,128,0,74470:0:0:0:0:
192,192,74296,128,0,74396:0:0:0:0:
320,192,74371,128,0,74546:0:0:0:0:
448,192,74446,128,0,74546:0:0:0:0:
192,192,74446,128,0,74620:0:0:0:0:
64,192,74521,128,0,74695:0:0:0:0:
320,192,74595,128,0,74695:0:0:0:0:
448,192,74595,128,0,74770:0:0:0:0:
192,192,74670,128,0,74845:0:0:0:0:
320,192,74745,128,0,74920:0:0:0:0:
64,192,74745,128,0,74994:0:0:0:0:
448,192,74820,128,0,74920:0:0:0:0:
192,192,74894,128,0,75070:0:0:0:0:
320,192,74970,128,0,75144:0:0:0:0:
448,192,74970,128,0,75219:0:0:0:0:
64,192,75044,128,0,75144:0:0:0:0:
192,192,75119,128,0,75293:0:0:0:0:
320,192,75193,128,0,75369:0:0:0:0:
64,192,75193,128,0,75293:0:0:0:0:
448,192,75269,128,0,75443:0:0:0:0:
192,192,75344,128,0,75518:0:0:0:0:
64,192,75344,128,0,75518:0:0:0:0:
320,192,75418,128,0,75592:0:0:0:0:
448,192,75493,128,0,75817:0:0:0:0:
192,192,75568,128,0,75668:0:0:0:0:
64,192,75568,128,0,75742:0:0:0:0:
320,192,75643,128,0,75742:0:0:0:0:
192,192,75717,128,0,75891:0:0:0:0:
64,192,75792,128,0,75891:0:0:0:0:
320,192,75792,128,0,76042:0:0:0:0:
448,192,75867,128,0,76191:0:0:0:0:
192,192,75942,128,0,76116:0:0:0:0:
64,192,75942,128,0,76490:0:0:0:0:
320,192,76091,128,0,76415:0:0:0:0:
192,192,76166,128,0,76341:0:0:0:0:
448,192,76241,128,0,76640:0:0:0:0:
192,192,76390,128,0,76490:0:0:0:0:
320,192,76466,128,0,76640:0:0:0:0:
192,192,76540,128,0,76790:0:0:0:0:
64,192,76540,128,0,77089:0:0:0:0:
320,192,76690,128,0,76864:0:0:0:0:
448,192,76690,128,0,77089:0:0:0:0:
192,192,76839,128,0,76939:0:0:0:0:
320,192,76914,128,0,77013:0:0:0:0:
192,192,76989,128,0,77089:0:0:0:0:
320,192,77064,128,0,77164:0:0:0:0:
448,192,77138,128,0,77313:0:0:0:0:
192,192,77138,128,0,77388:0:0:0:0:
64,192,77138,128,0,77238:0:0:0:0:
320,192,77213,128,0,77463:0:0:0:0:
64,192,77288,128,0,77388:0:0:0:0:
448,192,77363,128,0,77537:0:0:0:0:
192,192,77437,128,0,77612:0:0:0:0:
64,192,77437,128,0,77687:0:0:0:0:
320,192,77512,128,0,77762:0:0:0:0:
448,192,77588,128,0,77687:0:0:0:0:
192,192,77662,128,0,77836:0:0:0:0:
64,192,77737,128,0,77986:0:0:0:0:
448,192,77737,128,0,77911:0:0:0:0:
320,192,77811,128,0,78061:0:0:0:0:
192,192,77887,128,0,77986:0:0:0:0:
448,192,77961,128,0,78135:0:0:0:0:
64,192,78036,128,0,78286:0:0:0:0:
192,192,78036,128,0,78210:0:0:0:0:
320,192,78110,128,0,78286:0:0:0:0:
448,192,78186,128,0,78360:0:0:0:0:
192,192,78260,128,0,78435:0:0:0:0:
320,192,78335,128,0,78585:0:0:0:0:
64,192,78335,128,0,78510:0:0:0:0:
448,192,78410,128,0,78585:0:0:0:0:
192,192,78485,128,0,78659:0:0:0:0:
64,192,78559,128,0,78884:0:0:0:0:
320,192,78634,128,0,78809:0:0:0:0:
448,192,78634,128,0,78734:0:0:0:0:
192,192,78710,128,0,78884:0:0:0:0:
448,192,78784,128,0,79183:0:0:0:0:
320,192,78859,128,0,78958:0:0:0:0:
192,192,78933,128,0,79108:0:0:0:0:
64,192,78933,128,0,79033:0:0:0:0:
320,192,79009,128,0,79183:0:0:0:0:
64,192,79083,128,0,79257:0:0:0:0:
192,192,79158,128,0,79408:0:0:0:0:
448,192,79232,128,0,79482:0:0:0:0:
320,192,79232,128,0,79332:0:0:0:0:
64,192,79308,128,0,79482:0:0:0:0:
320,192,79382,128,0,79557:0:0:0:0:
192,192,79457,128,0,79631:0:0:0:0:
448,192,79531,128,0,79707:0:0:0:0:
64,192,79531,128,0,79781:0:0:0:0:
320,192,79607,128,0,79781:0:0:0:0:
192,192,79682,128,0,79856:0:0:0:0:
448,192,79756,128,0,79930:0:0:0:0:
320,192,79831,128,0,80006:0:0:0:0:
64,192,79831,128,0,80080:0:0:0:0:
192,192,79906,128,0,80080:0:0:0:0:
448,192,79981,128,0,80155:0:0:0:0:
320,192,80055,128,0,80305:0:0:0:0:
192,192,80130,128,0,80230:0:0:0:0:
64,192,80130,128,0,80379:0:0:0:0:
448,192,80205,128,0,80454:0:0:0:0:
192,192,80280,128,0,80379:0:0:0:0:
320,192,80354,128,0,80530:0:0:0:0:
192,192,80430,128,0,80604:0:0:0:0:
64,192,80430,128,0,80679:0:0:0:0:
448,192,80504,128,0,80679:0:0:0:0:
320,192,80579,128,0,80753:0:0:0:0:
192,192,80653,128,0,81052:0:0:0:0:
64,192,80729,128,0,80829:0:0:0:0:
448,192,80729,128,0,80903:0:0:0:0:
320,192,80804,128,0,80978:0:0:0:0:
64,192,80878,128,0,80978:0:0:0:0:
448,192,80953,128,0,81351:0:0:0:0:
64,192,81028,128,0,81202:0:0:0:0:
320,192,81028,128,0,81128:0:0:0:0:
192,192,81103,128,0,81277:0:0:0:0:
320,192,81177,128,0,81277:0:0:0:0:
64,192,81252,128,0,81576:0:0:0:0:
192,192,81327,128,0,81427:0:0:0:0:
320,192,81327,128,0,81501:0:0:0:0:
448,192,81402,128,0,81651:0:0:0:0:
192,192,81476,128,0,81576:0:0:0:0:
320,192,81551,128,0,81726:0:0:0:0:
64,192,81626,128,0,81801:0:0:0:0:
192,192,81626,128,0,81875:0:0:0:0:
448,192,81701,128,0,81875:0:0:0:0:
320,192,81775,128,0,81875:0:0:0:0:
64,192,81850,128,0,81950:0:0:0:0:
192,192,81926,128,0,82100:0:0:0:0:
320,192,81926,128,0,82025:0:0:0:0:
448,192,81926,128,0,82174:0:0:0:0:
64,192,82000,128,0,82174:0:0:0:0:
320,192,82075,128,0,82399:0:0:0:0:
192,192,82150,128,0,82250:0:0:0:0:
448,192,82225,128,0,82324:0:0:0:0:
64,192,82225,128,0,82473:0:0:0:0:
192,192,82299,128,0,82473:0:0:0:0:
448,192,82374,128,0,82549:0:0:0:0:
320,192,82449,128,0,82624:0:0:0:0:
192,192,82524,128,0,82773:0:0:0:0:
64,192,82524,128,0,82698:0:0:0:0:
448,192,82598,128,0,82773:0:0:0:0:
320,192,82673,128,0,82848:0:0:0:0:
64,192,82748,128,0,82923:0:0:0:0:
192,192,82823,128,0,82997:0:0:0:0:
448,192,82823,128,0,83072:0:0:0:0:
320,192,82897,128,0,83072:0:0:0:0:
64,192,82972,128,0,83371:0:0:0:0:
192,192,83048,128,0,83147:0:0:0:0:
320,192,83122,128,0,83296:0:0:0:0:
448,192,83122,128,0,83222:0:0:0:0:
192,192,83197,128,0,83371:0:0:0:0:
448,192,83271,128,0,83446:0:0:0:0:
320,192,83347,128,0,83595:0:0:0:0:
192,192,83421,128,0,83670:0:0:0:0:
64,192,83421,128,0,83521:0:0:0:0:
448,192,83496,128,0,83670:0:0:0:0:
64,192,83570,128,0,83746:0:0:0:0:
320,192,83646,128,0,83820:0:0:0:0:
448,192,83720,128,0,83970:0:0:0:0:
192,192,83720,128,0,83895:0:0:0:0:
64,192,83795,128,0,83970:0:0:0:0:
320,192,83870,128,0,84045:0:0:0:0:
192,192,83945,128,0,84119:0:0:0:0:
64,192,84019,128,0,84269:0:0:0:0:
448,192,84019,128,0,84194:0:0:0:0:
320,192,84094,128,0,84269:0:0:0:0:
192,192,84170,128,0,84344:0:0:0:0:
448,192,84244,128,0,84418:0:0:0:0:
320,192,84319,128,0,84643:0:0:0:0:
64,192,84319,128,0,84493:0:0:0:0:
192,192,84393,128,0,84568:0:0:0:0:
448,192,84469,128,0,84568:0:0:0:0:
64,192,84543,128,0,84717:0:0:0:0:
448,192,84618,128,0,84868:0:0:0:0:
192,192,84618,128,0,84792:0:0:0:0:
320,192,84692,128,0,84868:0:0:0:0:
64,192,84768,128,0,84942:0:0:0:0:
192,192,84842,128,0,85091:0:0:0:0:
320,192,84917,128,0,85017:0:0:0:0:
448,192,84917,128,0,85167:0:0:0:0:
64,192,84991,128,0,85167:0:0:0:0:
320,192,85067,128,0,85241:0:0:0:0:
192,192,85141,128,0,85316:0:0:0:0:
448,192,85216,128,0,85390:0:0:0:0:
64,192,85216,128,0,85466:0:0:0:0:
320,192,85291,128,0,85540:0:0:0:0:
192,192,85366,128,0,85466:0:0:0:0:
448,192,85441,128,0,85615:0:0:0:0:
192,192,85515,128,0,85690:0:0:0:0:
64,192,85515,128,0,85765:0:0:0:0:
320,192,85590,128,0,85765:0:0:0:0:
448,192,85665,128,0,85839:0:0:0:0:
192,192,85740,128,0,85914:0:0:0:0:
64,192,85814,128,0,86064:0:0:0:0:
320,192,85814,128,0,85990:0:0:0:0:
448,192,85890,128,0,86064:0:0:0:0:
192,192,85964,128,0,86139:0:0:0:0:
320,192,86039,128,0,86213:0:0:0:0:
448,192,86113,128,0,86363:0:0:0:0:
64,192,86113,128,0,86289:0:0:0:0:
192,192,86189,128,0,86662:0:0:0:0:
320,192,86263,128,0,86363:0:0:0:0:
64,192,86338,128,0,86438:0:0:0:0:
320,192,86413,128,0,86512:0:0:0:0:
448,192,86413,128,0,86662:0:0:0:0:
64,192,86488,128,0,86588:0:0:0:0:
320,192,86563,128,0,86662:0:0:0:0:
64,192,86637,128,0,86737:0:0:0:0:
192,192,86712,128,0,86887:0:0:0:0:
320,192,86712,128,0,86961:0:0:0:0:
448,192,86712,128,0,86811:0:0:0:0:
64,192,86787,128,0,86961:0:0:0:0:
448,192,86862,128,0,87036:0:0:0:0:
192,192,86936,128,0,87111:0:0:0:0:
320,192,87011,128,0,87186:0:0:0:0:
64,192,87011,128,0,87261:0:0:0:0:
448,192,87086,128,0,87261:0:0:0:0:
192,192,87161,128,0,87335:0:0:0:0:
320,192,87235,128,0,87410:0:0:0:0:
448,192,87310,128,0,87560:0:0:0:0:
64,192,87310,128,0,87485:0:0:0:0:
192,192,87386,128,0,87560:0:0:0:0:
320,192,87460,128,0,87634:0:0:0:0:
64,192,87535,128,0,87859:0:0:0:0:
448,192,87610,128,0,87784:0:0:0:0:
192,192,87610,128,0,87710:0:0:0:0:
320,192,87685,128,0,87859:0:0:0:0:
192,192,87759,128,0,87933:0:0:0:0:
448,192,87834,128,0,88009:0:0:0:0:
320,192,87909,128,0,88158:0:0:0:0:
64,192,87909,128,0,88233:0:0:0:0:
192,192,87984,128,0,88083:0:0:0:0:
448,192,88058,128,0,88158:0:0:0:0:
192,192,88133,128,0,88308:0:0:0:0:
320,192,88208,128,0,88457:0:0:0:0:
448,192,88208,128,0,88383:0:0:0:0:
64,192,88283,128,0,88457:0:0:0:0:
192,192,88357,128,0,88532:0:0:0:0:
448,192,88432,128,0,88607:0:0:0:0:
320,192,88508,128,0,88756:0:0:0:0:
64,192,88508,128,0,88682:0:0:0:0:
192,192,88582,128,0,88756:0:0:0:0:
448,192,88657,128,0,88831:0:0:0:0:
64,192,88731,128,0,88906:0:0:0:0:
192,192,88807,128,0,89055:0:0:0:0:
320,192,88807,128,0,88981:0:0:0:0:
448,192,88881,128,0,89130:0:0:0:0:
64,192,88956,128,0,89055:0:0:0:0:
320,192,89030,128,0,89206:0:0:0:0:
192,192,89106,128,0,89280:0:0:0:0:
64,192,89106,128,0,89355:0:0:0:0:
448,192,89180,128,0,89355:0:0:0:0:
320,192,89255,128,0,89430:0:0:0:0:
192,192,89330,128,0,89579:0:0:0:0:
64,192,89405,128,0,89505:0:0:0:0:
448,192,89405,128,0,89654:0:0:0:0:
320,192,89479,128,0,89654:0:0:0:0:
64,192,89554,128,0,89878:0:0:0:0:
192,192,89630,128,0,89729:0:0:0:0:
320,192,89704,128,0,89804:0:0:0:0:
448,192,89704,128,0,90028:0:0:0:0:
192,192,89779,128,0,89953:0:0:0:0:
320,192,89853,128,0,89953:0:0:0:0:
64,192,89929,128,0,90252:0:0:0:0:
192,192,90003,128,0,90103:0:0:0:0:
320,192,90003,128,0,90177:0:0:0:0:
448,192,90078,128,0,90252:0:0:0:0:
192,192,90152,128,0,90328:0:0:0:0:
320,192,90228,128,0,90402:0:0:0:0:
64,192,90302,128,0,90551:0:0:0:0:
448,192,90302,128,0,90551:0:0:0:0:
192,192,90377,128,0,90477:0:0:0:0:
320,192,90451,128,0,90627:0:0:0:0:
192,192,90527,128,0,90701:0:0:0:0:
448,192,90601,128,0,90776:0:0:0:0:
64,192,90601,128,0,90850:0:0:0:0:
320,192,90676,128,0,90850:0:0:0:0:
192,192,90751,128,0,90926:0:0:0:0:
448,192,90826,128,0,91000:0:0:0:0:
64,192,90901,128,0,91075:0:0:0:0:
320,192,90901,128,0,91150:0:0:0:0:
192,192,90975,128,0,91150:0:0:0:0:
448,192,91050,128,0,91225:0:0:0:0:
64,192,91125,128,0,91299:0:0:0:0:
192,192,91200,128,0,91450:0:0:0:0:
320,192,91200,128,0,91450:0:0:0:0:
448,192,91274,128,0,91374:0:0:0:0:
64,192,91350,128,0,91450:0:0:0:0:
448,192,91424,128,0,91524:0:0:0:0:
320,192,91499,128,0,91673:0:0:0:0:
192,192,91499,128,0,91599:0:0:0:0:
64,192,91499,128,0,91749:0:0:0:0:
448,192,91573,128,0,91749:0:0:0:0:
192,192,91649,128,0,91823:0:0:0:0:
320,192,91723,128,0,91898:0:0:0:0:
448,192,91798,128,0,92048:0:0:0:0:
64,192,91798,128,0,91972:0:0:0:0:
192,192,91873,128,0,92048:0:0:0:0:
320,192,91948,128,0,92122:0:0:0:0:
64,192,92023,128,0,92197:0:0:0:0:
192,192,92097,128,0,92347:0:0:0:0:
448,192,92097,128,0,92347:0:0:0:0:
320,192,92172,128,0,92271:0:0:0:0:
64,192,92247,128,0,92421:0:0:0:0:
320,192,92322,128,0,92496:0:0:0:0:
192,192,92396,128,0,92571:0:0:0:0:
448,192,92396,128,0,92721:0:0:0:0:
64,192,92471,128,0,92646:0:0:0:0:
320,192,92546,128,0,92646:0:0:0:0:
192,192,92621,128,0,92795:0:0:0:0:
320,192,92695,128,0,92870:0:0:0:0:
64,192,92695,128,0,92945:0:0:0:0:
448,192,92770,128,0,93020:0:0:0:0:
192,192,92845,128,0,92945:0:0:0:0:
320,192,92920,128,0,93170:0:0:0:0:
64,192,92995,128,0,93244:0:0:0:0:
192,192,92995,128,0,93094:0:0:0:0:
448,192,93070,128,0,93244:0:0:0:0:
192,192,93145,128,0,93319:0:0:0:0:
320,192,93219,128,0,93393:0:0:0:0:
448,192,93294,128,0,93543:0:0:0:0:
64,192,93294,128,0,93469:0:0:0:0:
192,192,93369,128,0,93543:0:0:0:0:
320,192,93444,128,0,93618:0:0:0:0:
64,192,93518,128,0,93843:0:0:0:0:
192,192,93593,128,0,93693:0:0:0:0:
448,192,93593,128,0,93768:0:0:0:0:
320,192,93668,128,0,93917:0:0:0:0:
192,192,93743,128,0,93843:0:0:0:0:
448,192,93817,128,0,94142:0:0:0:0:
64,192,93892,128,0,93992:0:0:0:0:
192,192,93892,128,0,94067:0:0:0:0:
320,192,93968,128,0,94142:0:0:0:0:
64,192,94042,128,0,94291:0:0:0:0:
192,192,94117,128,0,94216:0:0:0:0:
320,192,94191,128,0,94366:0:0:0:0:
448,192,94191,128,0,94441:0:0:0:0:
192,192,94267,128,0,94441:0:0:0:0:
64,192,94341,128,0,94515:0:0:0:0:
320,192,94416,128,0,94590:0:0:0:0:
448,192,94490,128,0,94815:0:0:0:0:
192,192,94490,128,0,94665:0:0:0:0:
64,192,94566,128,0,94740:0:0:0:0:
320,192,94640,128,0,94740:0:0:0:0:
192,192,94715,128,0,94890:0:0:0:0:
64,192,94790,128,0,95039:0:0:0:0:
320,192,94790,128,0,94965:0:0:0:0:
448,192,94865,128,0,95039:0:0:0:0:
192,192,94939,128,0,95264:0:0:0:0:
320,192,95014,128,0,95189:0:0:0:0:
64,192,95090,128,0,95338:0:0:0:0:
448,192,95090,128,0,95563:0:0:0:0:
320,192,95239,128,0,95413:0:0:0:0:
192,192,95313,128,0,95488:0:0:0:0:
64,192,95389,128,0,95488:0:0:0:0:
320,192,95463,128,0,95712:0:0:0:0:
192,192,95538,128,0,95637:0:0:0:0:
64,192,95538,128,0,95637:0:0:0:0:
448,192,95612,128,0,95712:0:0:0:0:
64,192,95688,128,0,95787:0:0:0:0:
192,192,95688,128,0,95812:0:0:0:0:
320,192,95762,128,0,95862:0:0:0:0:
448,192,95762,128,0,95887:0:0:0:0:
64,192,95837,128,0,95937:0:0:0:0:
192,192,95862,128,0,96011:0:0:0:0:
320,192,95911,128,0,96161:0:0:0:0:
448,192,95937,128,0,96087:0:0:0:0:
64,192,95987,128,0,96236:0:0:0:0:
192,192,96061,128,0,96236:0:0:0:0:
448,192,96136,128,0,98630:0:0:0:0:
320,192,96211,128,0,97432:0:0:0:0:
192,192,96286,128,0,97432:0:0:0:0:
64,192,96286,128,0,97133:0:0:0:0:
64,192,97183,128,0,99826:0:0:0:0:
192,192,97483,128,0,99527:0:0:0:0:
320,192,97483,128,0,98630:0:0:0:0:
320,192,98679,128,0,99826:0:0:0:0:
448,192,98679,128,0,100724:0:0:0:0:
192,192,99577,128,0,100425:0:0:0:0:
320,192,99876,128,0,100574:0:0:0:0:
64,192,99876,128,0,101023:0:0:0:0:
192,192,100474,128,0,100873:0:0:0:0:
320,192,100624,128,0,101023:0:0:0:0:
448,192,100773,128,0,102219:0:0:0:0:
192,192,100923,128,0,103416:0:0:0:0:
320,192,101072,128,0,101920:0:0:0:0:
64,192,101072,128,0,102219:0:0:0:0:
320,192,101970,128,0,103715:0:0:0:0:
448,192,102270,128,0,102818:0:0:0:0:
64,192,102270,128,0,103416:0:0:0:0:
448,192,102868,128,0,104014:0:0:0:0:
192,192,103466,128,0,104313:0:0:0:0:
64,192,103466,128,0,104613:0:0:0:0:
320,192,103765,128,0,104613:0:0:0:0:
448,192,104065,128,0,105211:0:0:0:0:
192,192,104364,128,0,105585:0:0:0:0:
64,192,104663,128,0,105286:0:0:0:0:
320,192,104663,128,0,105510:0:0:0:0:
448,192,105261,128,0,105361:0:0:0:0:
64,192,105336,128,0,105435:0:0:0:0:
448,192,105410,128,0,105810:0:0:0:0:
64,192,105486,128,0,105810:0:0:0:0:
320,192,105560,128,0,105660:0:0:0:0:
192,192,105635,128,0,105735:0:0:0:0:
320,192,105710,128,0,105810:0:0:0:0:
192,192,105785,128,0,107007:0:0:0:0:
320,192,105859,128,0,106109:0:0:0:0:
448,192,105859,128,0,107007:0:0:0:0:
64,192,105859,128,0,106109:0:0:0:0:
320,192,106159,128,0,106408:0:0:0:0:
64,192,106159,128,0,106408:0:0:0:0:
320,192,106458,128,0,106707:0:0:0:0:
64,192,106458,128,0,106707:0:0:0:0:
320,192,106757,128,0,109400:0:0:0:0:
64,192,106757,128,0,107007:0:0:0:0:
448,192,107056,128,0,107306:0:0:0:0:
192,192,107056,128,0,107306:0:0:0:0:
64,192,107056,128,0,108203:0:0:0:0:
192,192,107355,128,0,107605:0:0:0:0:
448,192,107355,128,0,107605:0:0:0:0:
448,192,107654,128,0,107904:0:0:0:0:
192,192,107654,128,0,107904:0:0:0:0:
448,192,107953,128,0,108203:0:0:0:0:
192,192,107953,128,0,108203:0:0:0:0:
448,192,108253,128,0,109400:0:0:0:0:
192,192,108253,128,0,108502:0:0:0:0:
64,192,108253,128,0,108502:0:0:0:0:
64,192,108552,128,0,108801:0:0:0:0:
192,192,108552,128,0,108801:0:0:0:0:
192,192,108851,128,0,109101:0:0:0:0:
64,192,108851,128,0,109101:0:0:0:0:
64,192,109150,128,0,109400:0:0:0:0:
192,192,109150,128,0,110148:0:0:0:0:
320,192,109450,128,0,109699:0:0:0:0:
448,192,109450,128,0,109699:0:0:0:0:
64,192,109450,128,0,110297:0:0:0:0:
320,192,109749,128,0,109998:0:0:0:0:
448,192,109749,128,0,109998:0:0:0:0:
448,192,110048,128,0,110297:0:0:0:0:
320,192,110048,128,0,110447:0:0:0:0:
192,192,110197,128,0,110522:0:0:0:0:
448,192,110347,128,0,110596:0:0:0:0:
64,192,110347,128,0,110596:0:0:0:0:
320,192,110497,128,0,110671:0:0:0:0:
192,192,110571,128,0,110746:0:0:0:0:
448,192,110647,128,0,110895:0:0:0:0:
64,192,110647,128,0,110821:0:0:0:0:
320,192,110721,128,0,110895:0:0:0:0:
192,192,110796,128,0,110946:0:0:0:0:
64,192,110870,128,0,111045:0:0:0:0:
320,192,110946,128,0,111120:0:0:0:0:
448,192,110946,128,0,111195:0:0:0:0:
192,192,110995,128,0,111195:0:0:0:0:
64,192,111095,128,0,111270:0:0:0:0:
320,192,111170,128,0,111345:0:0:0:0:
448,192,111245,128,0,111494:0:0:0:0:
192,192,111245,128,0,111419:0:0:0:0:
64,192,111319,128,0,111494:0:0:0:0:
320,192,111394,128,0,111569:0:0:0:0:
192,192,111469,128,0,111644:0:0:0:0:
448,192,111544,128,0,111718:0:0:0:0:
64,192,111544,128,0,111793:0:0:0:0:
320,192,111619,128,0,111868:0:0:0:0:
192,192,111693,128,0,111793:0:0:0:0:
448,192,111769,128,0,111943:0:0:0:0:
64,192,111843,128,0,112092:0:0:0:0:
192,192,111843,128,0,112017:0:0:0:0:
320,192,111918,128,0,112092:0:0:0:0:
448,192,111992,128,0,112167:0:0:0:0:
192,192,112068,128,0,112242:0:0:0:0:
320,192,112142,128,0,112317:0:0:0:0:
64,192,112142,128,0,112391:0:0:0:0:
448,192,112217,128,0,112391:0:0:0:0:
192,192,112291,128,0,112467:0:0:0:0:
320,192,112367,128,0,112541:0:0:0:0:
64,192,112441,128,0,112690:0:0:0:0:
448,192,112441,128,0,112616:0:0:0:0:
192,192,112516,128,0,112690:0:0:0:0:
320,192,112590,128,0,112766:0:0:0:0:
448,192,112666,128,0,112840:0:0:0:0:
192,192,112741,128,0,113065:0:0:0:0:
64,192,112741,128,0,112915:0:0:0:0:
320,192,112815,128,0,112990:0:0:0:0:
448,192,112890,128,0,112990:0:0:0:0:
64,192,112965,128,0,113139:0:0:0:0:
320,192,113040,128,0,113139:0:0:0:0:
448,192,113040,128,0,113214:0:0:0:0:
192,192,113114,128,0,113289:0:0:0:0:
64,192,113190,128,0,113289:0:0:0:0:
320,192,113190,128,0,113364:0:0:0:0:
448,192,113264,128,0,113439:0:0:0:0:
192,192,113339,128,0,113439:0:0:0:0:
64,192,113339,128,0,113513:0:0:0:0:
320,192,113413,128,0,113589:0:0:0:0:
448,192,113489,128,0,113589:0:0:0:0:
192,192,113489,128,0,113663:0:0:0:0:
64,192,113563,128,0,113663:0:0:0:0:
320,192,113638,128,0,113738:0:0:0:0:
448,192,113638,128,0,113738:0:0:0:0:
192,192,113712,128,0,113812:0:0:0:0:
64,192,113712,128,0,113812:0:0:0:0:
320,192,113788,128,0,113888:0:0:0:0:
448,192,113788,128,0,113888:0:0:0:0:
192,192,113863,128,0,113962:0:0:0:0:
64,192,113863,128,0,113962:0:0:0:0:
320,192,113937,128,0,114037:0:0:0:0:
448,192,113937,128,0,114037:0:0:0:0:
192,192,114012,128,0,114111:0:0:0:0:
64,192,114012,128,0,114111:0:0:0:0:
320,192,114087,128,0,114187:0:0:0:0:
448,192,114087,128,0,114187:0:0:0:0:
192,192,114162,128,0,114486:0:0:0:0:
64,192,114162,128,0,114486:0:0:0:0:
320,192,114236,128,0,114785:0:0:0:0:
448,192,114236,128,0,114486:0:0:0:0:
448,192,114535,128,0,114785:0:0:0:0:
192,192,114535,128,0,115084:0:0:0:0:
64,192,114535,128,0,115084:0:0:0:0:
320,192,114834,128,0,114934:0:0:0:0:
448,192,114834,128,0,114934:0:0:0:0:
320,192,114985,128,0,115084:0:0:0:0:
448,192,114985,128,0,115084:0:0:0:0:
64,192,115134,128,0,115383:0:0:0:0:
192,192,115134,128,0,115383:0:0:0:0:
320,192,115134,128,0,115683:0:0:0:0:
448,192,115134,128,0,115383:0:0:0:0:
64,192,115433,128,0,115532:0:0:0:0:
192,192,115433,128,0,115532:0:0:0:0:
448,192,115433,128,0,115532:0:0:0:0:
448,192,115583,128,0,115757:0:0:0:0:
192,192,115583,128,0,115832:0:0:0:0:
64,192,115583,128,0,115982:0:0:0:0:
320,192,115732,128,0,115907:0:0:0:0:
448,192,115807,128,0,115982:0:0:0:0:
192,192,115882,128,0,116406:0:0:0:0:
320,192,115957,128,0,116206:0:0:0:0:
448,192,116031,128,0,116406:0:0:0:0:
64,192,116031,128,0,116156:0:0:0:0:
64,192,116206,128,0,116580:0:0:0:0:
320,192,116256,128,0,116580:0:0:0:0:
192,192,116455,128,0,116879:0:0:0:0:
448,192,116455,128,0,116580:0:0:0:0:
64,192,116630,128,0,116730:0:0:0:0:
320,192,116630,128,0,116730:0:0:0:0:
448,192,116630,128,0,116730:0:0:0:0:
320,192,116779,128,0,117029:0:0:0:0:
448,192,116779,128,0,117178:0:0:0:0:
64,192,116779,128,0,116954:0:0:0:0:
192,192,116929,128,0,117104:0:0:0:0:
64,192,117004,128,0,117178:0:0:0:0:
320,192,117079,128,0,117577:0:0:0:0:
192,192,117153,128,0,117378:0:0:0:0:
448,192,117229,128,0,117378:0:0:0:0:
64,192,117229,128,0,117602:0:0:0:0:
192,192,117428,128,0,117777:0:0:0:0:
448,192,117428,128,0,117777:0:0:0:0:
320,192,117627,128,0,117777:0:0:0:0:
64,192,117652,128,0,118076:0:0:0:0:
192,192,117827,128,0,117927:0:0:0:0:
320,192,117827,128,0,117927:0:0:0:0:
448,192,117827,128,0,117927:0:0:0:0:
192,192,117976,128,0,118150:0:0:0:0:
320,192,117976,128,0,118226:0:0:0:0:
448,192,117976,128,0,118300:0:0:0:0:
64,192,118126,128,0,118375:0:0:0:0:
192,192,118201,128,0,118375:0:0:0:0:
320,192,118275,128,0,118599:0:0:0:0:
448,192,118350,128,0,118799:0:0:0:0:
64,192,118425,128,0,118550:0:0:0:0:
192,192,118425,128,0,118774:0:0:0:0:
64,192,118599,128,0,118973:0:0:0:0:
320,192,118650,128,0,118973:0:0:0:0:
192,192,118824,128,0,118973:0:0:0:0:
448,192,118849,128,0,119172:0:0:0:0:
320,192,119023,128,0,119397:0:0:0:0:
192,192,119023,128,0,119172:0:0:0:0:
64,192,119023,128,0,119172:0:0:0:0:
448,192,119223,128,0,119397:0:0:0:0:
192,192,119223,128,0,119397:0:0:0:0:
64,192,119223,128,0,119571:0:0:0:0:
192,192,119447,128,0,119771:0:0:0:0:
320,192,119447,128,0,119571:0:0:0:0:
448,192,119447,128,0,119571:0:0:0:0:
320,192,119622,128,0,119771:0:0:0:0:
448,192,119622,128,0,119771:0:0:0:0:
64,192,119622,128,0,119995:0:0:0:0:
192,192,119821,128,0,119995:0:0:0:0:
448,192,119821,128,0,119995:0:0:0:0:
320,192,119821,128,0,120170:0:0:0:0:
448,192,120046,128,0,120470:0:0:0:0:
192,192,120046,128,0,120170:0:0:0:0:
64,192,120046,128,0,120170:0:0:0:0:
320,192,120220,128,0,120320:0:0:0:0:
192,192,120220,128,0,120320:0:0:0:0:
64,192,120220,128,0,120320:0:0:0:0:
320,192,120370,128,0,120544:0:0:0:0:
192,192,120370,128,0,120619:0:0:0:0:
64,192,120370,128,0,120693:0:0:0:0:
448,192,120519,128,0,120769:0:0:0:0:
320,192,120594,128,0,120769:0:0:0:0:
192,192,120669,128,0,121192:0:0:0:0:
64,192,120744,128,0,120968:0:0:0:0:
320,192,120818,128,0,121192:0:0:0:0:
448,192,120818,128,0,120968:0:0:0:0:
448,192,121018,128,0,121367:0:0:0:0:
64,192,121018,128,0,121367:0:0:0:0:
320,192,121242,128,0,121367:0:0:0:0:
192,192,121242,128,0,121666:0:0:0:0:
320,192,121416,128,0,121516:0:0:0:0:
448,192,121416,128,0,121516:0:0:0:0:
64,192,121416,128,0,121516:0:0:0:0:
320,192,121567,128,0,121815:0:0:0:0:
448,192,121567,128,0,121965:0:0:0:0:
64,192,121567,128,0,121741:0:0:0:0:
192,192,121716,128,0,121890:0:0:0:0:
64,192,121790,128,0,121965:0:0:0:0:
320,192,121866,128,0,122389:0:0:0:0:
192,192,121940,128,0,122165:0:0:0:0:
448,192,122015,128,0,122165:0:0:0:0:
64,192,122015,128,0,122389:0:0:0:0:
448,192,122214,128,0,122564:0:0:0:0:
192,192,122214,128,0,122564:0:0:0:0:
64,192,122439,128,0,122564:0:0:0:0:
320,192,122439,128,0,122863:0:0:0:0:
448,192,122613,128,0,122713:0:0:0:0:
192,192,122613,128,0,122713:0:0:0:0:
64,192,122613,128,0,122713:0:0:0:0:
448,192,122763,128,0,122937:0:0:0:0:
192,192,122763,128,0,123012:0:0:0:0:
64,192,122763,128,0,123162:0:0:0:0:
320,192,122912,128,0,123087:0:0:0:0:
448,192,122988,128,0,123162:0:0:0:0:
192,192,123062,128,0,123586:0:0:0:0:
320,192,123137,128,0,123361:0:0:0:0:
448,192,123211,128,0,123586:0:0:0:0:
64,192,123211,128,0,123361:0:0:0:0:
320,192,123411,128,0,123760:0:0:0:0:
64,192,123411,128,0,123760:0:0:0:0:
448,192,123635,128,0,123760:0:0:0:0:
192,192,123635,128,0,123960:0:0:0:0:
64,192,123810,128,0,123960:0:0:0:0:
320,192,123810,128,0,123960:0:0:0:0:
448,192,123810,128,0,124184:0:0:0:0:
320,192,124010,128,0,124184:0:0:0:0:
64,192,124010,128,0,124184:0:0:0:0:
192,192,124010,128,0,124358:0:0:0:0:
320,192,124234,128,0,124358:0:0:0:0:
448,192,124234,128,0,124358:0:0:0:0:
64,192,124234,128,0,124558:0:0:0:0:
448,192,124409,128,0,124558:0:0:0:0:
320,192,124409,128,0,124783:0:0:0:0:
192,192,124409,128,0,124558:0:0:0:0:
64,192,124608,128,0,124957:0:0:0:0:
192,192,124608,128,0,124783:0:0:0:0:
448,192,124608,128,0,124783:0:0:0:0:
320,192,124832,128,0,125930:0:0:0:0:
192,192,124832,128,0,124957:0:0:0:0:
448,192,124832,128,0,124957:0:0:0:0:
192,192,125007,128,0,125256:0:0:0:0:
64,192,125007,128,0,125256:0:0:0:0:
448,192,125007,128,0,125256:0:0:0:0:
448,192,125306,128,0,125854:0:0:0:0:
192,192,125306,128,0,126004:0:0:0:0:
64,192,125306,128,0,126079:0:0:0:0:
448,192,125905,128,0,126153:0:0:0:0:
320,192,125979,128,0,126153:0:0:0:0:
192,192,126054,128,0,126153:0:0:0:0:
64,192,126129,128,0,127051:0:0:0:0:
192,192,126204,128,0,126452:0:0:0:0:
320,192,126204,128,0,126452:0:0:0:0:
448,192,126204,128,0,126452:0:0:0:0:
448,192,126503,128,0,127275:0:0:0:0:
320,192,126503,128,0,127201:0:0:0:0:
192,192,126503,128,0,127126:0:0:0:0:
64,192,127101,128,0,127350:0:0:0:0:
192,192,127176,128,0,127350:0:0:0:0:
320,192,127250,128,0,127350:0:0:0:0:
448,192,127326,128,0,128248:0:0:0:0:
320,192,127400,128,0,127650:0:0:0:0:
192,192,127400,128,0,127650:0:0:0:0:
64,192,127400,128,0,127650:0:0:0:0:
64,192,127699,128,0,128323:0:0:0:0:
192,192,127699,128,0,128397:0:0:0:0:
320,192,127699,128,0,128472:0:0:0:0:
448,192,128298,128,0,128547:0:0:0:0:
64,192,128372,128,0,128547:0:0:0:0:
192,192,128448,128,0,128547:0:0:0:0:
320,192,128522,128,0,128747:0:0:0:0:
448,192,128597,128,0,128747:0:0:0:0:
192,192,128597,128,0,128970:0:0:0:0:
64,192,128597,128,0,128747:0:0:0:0:
320,192,128796,128,0,128970:0:0:0:0:
448,192,128796,128,0,129146:0:0:0:0:
64,192,128796,128,0,128970:0:0:0:0:
192,192,129021,128,0,129146:0:0:0:0:
320,192,129021,128,0,129146:0:0:0:0:
64,192,129021,128,0,129345:0:0:0:0:
192,192,129195,128,0,129345:0:0:0:0:
448,192,129195,128,0,129345:0:0:0:0:
320,192,129195,128,0,129570:0:0:0:0:
64,192,129394,128,0,129570:0:0:0:0:
192,192,129394,128,0,129744:0:0:0:0:
448,192,129394,128,0,129570:0:0:0:0:
64,192,129619,128,0,129744:0:0:0:0:
320,192,129619,128,0,129744:0:0:0:0:
448,192,129619,128,0,130641:0:0:0:0:
320,192,129793,128,0,130043:0:0:0:0:
192,192,129793,128,0,130043:0:0:0:0:
64,192,129793,128,0,130043:0:0:0:0:
64,192,130092,128,0,130716:0:0:0:0:
192,192,130092,128,0,130790:0:0:0:0:
320,192,130092,128,0,130866:0:0:0:0:
448,192,130691,128,0,130940:0:0:0:0:
64,192,130766,128,0,130940:0:0:0:0:
192,192,130841,128,0,130940:0:0:0:0:
320,192,130915,128,0,131988:0:0:0:0:
448,192,130990,128,0,131240:0:0:0:0:
192,192,130990,128,0,131240:0:0:0:0:
64,192,130990,128,0,131240:0:0:0:0:
448,192,131290,128,0,131912:0:0:0:0:
192,192,131290,128,0,132063:0:0:0:0:
64,192,131290,128,0,131838:0:0:0:0:
64,192,131888,128,0,132137:0:0:0:0:
448,192,131963,128,0,132137:0:0:0:0:
320,192,132037,128,0,132137:0:0:0:0:
192,192,132112,128,0,132735:0:0:0:0:
320,192,132187,128,0,132436:0:0:0:0:
448,192,132187,128,0,132436:0:0:0:0:
64,192,132187,128,0,132436:0:0:0:0:
320,192,132487,128,0,132735:0:0:0:0:
448,192,132487,128,0,132935:0:0:0:0:
64,192,132487,128,0,132735:0:0:0:0:
64,192,132786,128,0,133159:0:0:0:0:
192,192,132786,128,0,132935:0:0:0:0:
320,192,132786,128,0,132935:0:0:0:0:
448,192,132985,128,0,133159:0:0:0:0:
192,192,132985,128,0,133159:0:0:0:0:
320,192,132985,128,0,133334:0:0:0:0:
192,192,133210,128,0,133533:0:0:0:0:
448,192,133210,128,0,133334:0:0:0:0:
64,192,133210,128,0,133334:0:0:0:0:
64,192,133384,128,0,133533:0:0:0:0:
320,192,133384,128,0,133533:0:0:0:0:
448,192,133384,128,0,133758:0:0:0:0:
320,192,133583,128,0,133758:0:0:0:0:
192,192,133583,128,0,133758:0:0:0:0:
64,192,133583,128,0,133932:0:0:0:0:
192,192,133808,128,0,133932:0:0:0:0:
320,192,133808,128,0,134131:0:0:0:0:
448,192,133808,128,0,133932:0:0:0:0:
448,192,133982,128,0,134131:0:0:0:0:
192,192,133982,128,0,134131:0:0:0:0:
64,192,133982,128,0,134356:0:0:0:0:
192,192,134182,128,0,134356:0:0:0:0:
320,192,134182,128,0,134356:0:0:0:0:
448,192,134182,128,0,134530:0:0:0:0:
64,192,134406,128,0,134530:0:0:0:0:
192,192,134406,128,0,134830:0:0:0:0:
320,192,134406,128,0,134530:0:0:0:0:
64,192,134580,128,0,134830:0:0:0:0:
320,192,134580,128,0,135503:0:0:0:0:
448,192,134580,128,0,134830:0:0:0:0:
192,192,134880,128,0,135129:0:0:0:0:
64,192,134880,128,0,135129:0:0:0:0:
448,192,134880,128,0,135578:0:0:0:0:
192,192,135179,128,0,135429:0:0:0:0:
64,192,135179,128,0,135429:0:0:0:0:
64,192,135478,128,0,135728:0:0:0:0:
192,192,135478,128,0,135652:0:0:0:0:
320,192,135552,128,0,135728:0:0:0:0:
448,192,135628,128,0,135728:0:0:0:0:
192,192,135702,128,0,136700:0:0:0:0:
320,192,135777,128,0,136027:0:0:0:0:
448,192,135777,128,0,136027:0:0:0:0:
64,192,135777,128,0,136027:0:0:0:0:
320,192,136076,128,0,136326:0:0:0:0:
448,192,136076,128,0,136326:0:0:0:0:
64,192,136076,128,0,136774:0:0:0:0:
320,192,136375,128,0,136625:0:0:0:0:
448,192,136375,128,0,136625:0:0:0:0:
448,192,136674,128,0,136924:0:0:0:0:
320,192,136674,128,0,136850:0:0:0:0:
192,192,136750,128,0,136924:0:0:0:0:
64,192,136825,128,0,136924:0:0:0:0:
320,192,136899,128,0,137896:0:0:0:0:
448,192,136974,128,0,137223:0:0:0:0:
192,192,136974,128,0,137223:0:0:0:0:
64,192,136974,128,0,137223:0:0:0:0:
64,192,137273,128,0,137971:0:0:0:0:
192,192,137273,128,0,137522:0:0:0:0:
448,192,137273,128,0,137522:0:0:0:0:
448,192,137572,128,0,137822:0:0:0:0:
192,192,137572,128,0,137822:0:0:0:0:
192,192,137871,128,0,138046:0:0:0:0:
448,192,137871,128,0,138121:0:0:0:0:
320,192,137947,128,0,138121:0:0:0:0:
64,192,138021,128,0,138121:0:0:0:0:
192,192,138096,128,0,138320:0:0:0:0:
320,192,138170,128,0,138420:0:0:0:0:
448,192,138170,128,0,138545:0:0:0:0:
64,192,138170,128,0,138420:0:0:0:0:
192,192,138370,128,0,138719:0:0:0:0:
320,192,138470,128,0,138918:0:0:0:0:
64,192,138470,128,0,138719:0:0:0:0:
448,192,138594,128,0,139018:0:0:0:0:
192,192,138769,128,0,139143:0:0:0:0:
64,192,138769,128,0,139018:0:0:0:0:
320,192,138969,128,0,139317:0:0:0:0:
448,192,139069,128,0,139317:0:0:0:0:
64,192,139069,128,0,139317:0:0:0:0:
192,192,139192,128,0,139392:0:0:0:0:
448,192,139368,128,0,139467:0:0:0:0:
320,192,139368,128,0,139542:0:0:0:0:
64,192,139368,128,0,139616:0:0:0:0:
192,192,139442,128,0,139616:0:0:0:0:
448,192,139517,128,0,139616:0:0:0:0:
320,192,139591,128,0,139691:0:0:0:0:
448,192,139667,128,0,139916:0:0:0:0:
192,192,139667,128,0,139767:0:0:0:0:
64,192,139667,128,0,139841:0:0:0:0:
320,192,139741,128,0,139916:0:0:0:0:
192,192,139816,128,0,139990:0:0:0:0:
64,192,139890,128,0,140066:0:0:0:0:
320,192,139966,128,0,140140:0:0:0:0:
448,192,139966,128,0,140215:0:0:0:0:
192,192,140040,128,0,140215:0:0:0:0:
64,192,140115,128,0,140290:0:0:0:0:
320,192,140190,128,0,140365:0:0:0:0:
448,192,140265,128,0,140514:0:0:0:0:
192,192,140265,128,0,140439:0:0:0:0:
64,192,140340,128,0,140514:0:0:0:0:
320,192,140414,128,0,140514:0:0:0:0:
192,192,140490,128,0,140589:0:0:0:0:
320,192,140564,128,0,140738:0:0:0:0:
448,192,140564,128,0,140813:0:0:0:0:
64,192,140564,128,0,140664:0:0:0:0:
192,192,140639,128,0,140813:0:0:0:0:
64,192,140713,128,0,140813:0:0:0:0:
320,192,140789,128,0,140889:0:0:0:0:
448,192,140863,128,0,140963:0:0:0:0:
192,192,140863,128,0,141038:0:0:0:0:
64,192,140863,128,0,141112:0:0:0:0:
320,192,140938,128,0,141112:0:0:0:0:
448,192,141012,128,0,141188:0:0:0:0:
192,192,141088,128,0,141262:0:0:0:0:
320,192,141162,128,0,141337:0:0:0:0:
64,192,141162,128,0,141411:0:0:0:0:
448,192,141237,128,0,141411:0:0:0:0:
192,192,141312,128,0,141487:0:0:0:0:
320,192,141387,128,0,141561:0:0:0:0:
448,192,141462,128,0,141636:0:0:0:0:
64,192,141462,128,0,141710:0:0:0:0:
192,192,141536,128,0,141710:0:0:0:0:
320,192,141611,128,0,141786:0:0:0:0:
448,192,141686,128,0,141860:0:0:0:0:
64,192,141761,128,0,141860:0:0:0:0:
192,192,141761,128,0,141935:0:0:0:0:
320,192,141835,128,0,142010:0:0:0:0:
448,192,141910,128,0,142010:0:0:0:0:
64,192,141910,128,0,142085:0:0:0:0:
192,192,141985,128,0,142160:0:0:0:0:
320,192,142060,128,0,142160:0:0:0:0:
448,192,142060,128,0,142234:0:0:0:0:
64,192,142134,128,0,142310:0:0:0:0:
192,192,142210,128,0,142310:0:0:0:0:
320,192,142210,128,0,142384:0:0:0:0:
448,192,142284,128,0,142384:0:0:0:0:
64,192,142359,128,0,142459:0:0:0:0:
192,192,142359,128,0,142459:0:0:0:0:
320,192,142434,128,0,142533:0:0:0:0:
448,192,142434,128,0,142533:0:0:0:0:
64,192,142509,128,0,142609:0:0:0:0:
192,192,142509,128,0,142609:0:0:0:0:
320,192,142584,128,0,142683:0:0:0:0:
448,192,142584,128,0,142683:0:0:0:0:
192,192,142658,128,0,142758:0:0:0:0:
64,192,142658,128,0,142758:0:0:0:0:
320,192,142733,128,0,142832:0:0:0:0:
448,192,142733,128,0,142832:0:0:0:0:
192,192,142808,128,0,142908:0:0:0:0:
64,192,142808,128,0,142908:0:0:0:0:
320,192,142883,128,0,143207:0:0:0:0:
448,192,142883,128,0,143207:0:0:0:0:
192,192,142957,128,0,143506:0:0:0:0:
64,192,142957,128,0,143207:0:0:0:0:
64,192,143256,128,0,143506:0:0:0:0:
320,192,143256,128,0,143805:0:0:0:0:
448,192,143256,128,0,143805:0:0:0:0:
192,192,143556,128,0,143655:0:0:0:0:
64,192,143556,128,0,143655:0:0:0:0:
64,192,143706,128,0,143805:0:0:0:0:
192,192,143706,128,0,143805:0:0:0:0:
64,192,143855,128,0,144104:0:0:0:0:
192,192,143855,128,0,144104:0:0:0:0:
320,192,143855,128,0,144104:0:0:0:0:
448,192,143855,128,0,144404:0:0:0:0:
320,192,144154,128,0,144254:0:0:0:0:
192,192,144154,128,0,144254:0:0:0:0:
64,192,144154,128,0,144254:0:0:0:0:
64,192,144304,128,0,144404:0:0:0:0:
192,192,144304,128,0,144478:0:0:0:0:
320,192,144304,128,0,144478:0:0:0:0:
448,192,144453,128,0,144553:0:0:0:0:
64,192,144453,128,0,144553:0:0:0:0:
320,192,144529,128,0,144628:0:0:0:0:
192,192,144529,128,0,144628:0:0:0:0:
448,192,144603,128,0,144703:0:0:0:0:
64,192,144603,128,0,144703:0:0:0:0:
192,192,144678,128,0,144777:0:0:0:0:
320,192,144678,128,0,144852:0:0:0:0:
448,192,144752,128,0,144852:0:0:0:0:
64,192,144752,128,0,144927:0:0:0:0:
192,192,144828,128,0,145002:0:0:0:0:
320,192,144902,128,0,145076:0:0:0:0:
448,192,144902,128,0,145002:0:0:0:0:
64,192,144977,128,0,145151:0:0:0:0:
192,192,145051,128,0,145151:0:0:0:0:
448,192,145051,128,0,145226:0:0:0:0:
320,192,145127,128,0,145301:0:0:0:0:
192,192,145201,128,0,145301:0:0:0:0:
64,192,145201,128,0,145301:0:0:0:0:
448,192,145276,128,0,145600:0:0:0:0:
320,192,145350,128,0,145450:0:0:0:0:
192,192,145350,128,0,145450:0:0:0:0:
64,192,145350,128,0,145450:0:0:0:0:
64,192,145500,128,0,145675:0:0:0:0:
192,192,145500,128,0,145675:0:0:0:0:
320,192,145500,128,0,145600:0:0:0:0:
448,192,145650,128,0,145750:0:0:0:0:
320,192,145650,128,0,145750:0:0:0:0:
192,192,145725,128,0,145825:0:0:0:0:
64,192,145725,128,0,145825:0:0:0:0:
320,192,145800,128,0,145899:0:0:0:0:
448,192,145800,128,0,145899:0:0:0:0:
192,192,145874,128,0,145974:0:0:0:0:
64,192,145874,128,0,146049:0:0:0:0:
448,192,145950,128,0,146049:0:0:0:0:
320,192,145950,128,0,146124:0:0:0:0:
192,192,146024,128,0,146198:0:0:0:0:
64,192,146099,128,0,146198:0:0:0:0:
448,192,146099,128,0,146273:0:0:0:0:
320,192,146173,128,0,146349:0:0:0:0:
192,192,146249,128,0,146349:0:0:0:0:
64,192,146249,128,0,146423:0:0:0:0:
448,192,146323,128,0,146498:0:0:0:0:
320,192,146398,128,0,146498:0:0:0:0:
192,192,146398,128,0,146498:0:0:0:0:
64,192,146472,128,0,146797:0:0:0:0:
192,192,146548,128,0,146648:0:0:0:0:
320,192,146548,128,0,146648:0:0:0:0:
448,192,146548,128,0,146648:0:0:0:0:
448,192,146697,128,0,146797:0:0:0:0:
320,192,146697,128,0,146871:0:0:0:0:
192,192,146697,128,0,146871:0:0:0:0:
448,192,146847,128,0,146947:0:0:0:0:
64,192,146847,128,0,146947:0:0:0:0:
192,192,146922,128,0,147021:0:0:0:0:
320,192,146922,128,0,147021:0:0:0:0:
448,192,146996,128,0,147096:0:0:0:0:
64,192,146996,128,0,147096:0:0:0:0:
192,192,147071,128,0,147170:0:0:0:0:
320,192,147071,128,0,147246:0:0:0:0:
448,192,147146,128,0,147246:0:0:0:0:
64,192,147146,128,0,147320:0:0:0:0:
192,192,147221,128,0,147395:0:0:0:0:
320,192,147295,128,0,147470:0:0:0:0:
448,192,147295,128,0,147395:0:0:0:0:
64,192,147370,128,0,147545:0:0:0:0:
192,192,147445,128,0,147545:0:0:0:0:
448,192,147445,128,0,147694:0:0:0:0:
320,192,147520,128,0,147620:0:0:0:0:
64,192,147594,128,0,147694:0:0:0:0:
192,192,147594,128,0,147770:0:0:0:0:
320,192,147670,128,0,147844:0:0:0:0:
448,192,147744,128,0,147844:0:0:0:0:
64,192,147744,128,0,147919:0:0:0:0:
192,192,147819,128,0,147993:0:0:0:0:
320,192,147894,128,0,148069:0:0:0:0:
448,192,147894,128,0,147993:0:0:0:0:
64,192,147969,128,0,148143:0:0:0:0:
192,192,148044,128,0,148143:0:0:0:0:
448,192,148044,128,0,148218:0:0:0:0:
320,192,148118,128,0,148368:0:0:0:0:
192,192,148193,128,0,148292:0:0:0:0:
64,192,148193,128,0,148292:0:0:0:0:
448,192,148268,128,0,148368:0:0:0:0:
192,192,148343,128,0,148442:0:0:0:0:
64,192,148343,128,0,148442:0:0:0:0:
320,192,148417,128,0,148517:0:0:0:0:
448,192,148417,128,0,148592:0:0:0:0:
192,192,148492,128,0,148667:0:0:0:0:
64,192,148492,128,0,148592:0:0:0:0:
320,192,148567,128,0,148667:0:0:0:0:
448,192,148642,128,0,148742:0:0:0:0:
64,192,148642,128,0,148742:0:0:0:0:
192,192,148716,128,0,148891:0:0:0:0:
320,192,148716,128,0,148816:0:0:0:0:
448,192,148791,128,0,148891:0:0:0:0:
64,192,148791,128,0,148891:0:0:0:0:
320,192,148866,128,0,149190:0:0:0:0:
448,192,148941,128,0,149041:0:0:0:0:
192,192,148941,128,0,149041:0:0:0:0:
64,192,148941,128,0,149041:0:0:0:0:
448,192,149090,128,0,149190:0:0:0:0:
192,192,149090,128,0,149265:0:0:0:0:
64,192,149090,128,0,149265:0:0:0:0:
320,192,149240,128,0,149340:0:0:0:0:
448,192,149240,128,0,149340:0:0:0:0:
192,192,149315,128,0,149414:0:0:0:0:
64,192,149315,128,0,149414:0:0:0:0:
320,192,149390,128,0,149490:0:0:0:0:
448,192,149390,128,0,149490:0:0:0:0:
192,192,149465,128,0,149564:0:0:0:0:
64,192,149465,128,0,149639:0:0:0:0:
320,192,149539,128,0,149714:0:0:0:0:
448,192,149539,128,0,149639:0:0:0:0:
192,192,149614,128,0,149789:0:0:0:0:
448,192,149689,128,0,149864:0:0:0:0:
64,192,149689,128,0,149789:0:0:0:0:
320,192,149764,128,0,149938:0:0:0:0:
192,192,149838,128,0,149938:0:0:0:0:
64,192,149838,128,0,150013:0:0:0:0:
448,192,149913,128,0,150088:0:0:0:0:
192,192,149988,128,0,150088:0:0:0:0:
320,192,149988,128,0,150088:0:0:0:0:
64,192,150063,128,0,150387:0:0:0:0:
192,192,150138,128,0,150237:0:0:0:0:
320,192,150138,128,0,150237:0:0:0:0:
448,192,150138,128,0,150237:0:0:0:0:
448,192,150288,128,0,150387:0:0:0:0:
320,192,150288,128,0,150462:0:0:0:0:
192,192,150288,128,0,150462:0:0:0:0:
64,192,150437,128,0,150536:0:0:0:0:
448,192,150437,128,0,150536:0:0:0:0:
320,192,150511,128,0,150611:0:0:0:0:
192,192,150511,128,0,150611:0:0:0:0:
448,192,150587,128,0,150686:0:0:0:0:
64,192,150587,128,0,150686:0:0:0:0:
320,192,150661,128,0,150761:0:0:0:0:
192,192,150661,128,0,150836:0:0:0:0:
64,192,150736,128,0,150836:0:0:0:0:
448,192,150736,128,0,150910:0:0:0:0:
320,192,150810,128,0,150986:0:0:0:0:
192,192,150886,128,0,151060:0:0:0:0:
64,192,150886,128,0,150986:0:0:0:0:
448,192,150960,128,0,151135:0:0:0:0:
320,192,151035,128,0,151210:0:0:0:0:
64,192,151035,128,0,151135:0:0:0:0:
192,192,151110,128,0,151285:0:0:0:0:
64,192,151185,128,0,151285:0:0:0:0:
448,192,151185,128,0,151285:0:0:0:0:
320,192,151260,128,0,151584:0:0:0:0:
448,192,151334,128,0,151434:0:0:0:0:
192,192,151334,128,0,151434:0:0:0:0:
64,192,151334,128,0,151434:0:0:0:0:
64,192,151484,128,0,151658:0:0:0:0:
192,192,151484,128,0,151658:0:0:0:0:
448,192,151484,128,0,151584:0:0:0:0:
320,192,151633,128,0,151733:0:0:0:0:
448,192,151633,128,0,151733:0:0:0:0:
192,192,151709,128,0,151808:0:0:0:0:
64,192,151709,128,0,151808:0:0:0:0:
320,192,151783,128,0,151883:0:0:0:0:
448,192,151783,128,0,151883:0:0:0:0:
192,192,151858,128,0,151958:0:0:0:0:
64,192,151858,128,0,152032:0:0:0:0:
320,192,151932,128,0,152032:0:0:0:0:
448,192,151932,128,0,152108:0:0:0:0:
192,192,152008,128,0,152182:0:0:0:0:
64,192,152082,128,0,152182:0:0:0:0:
320,192,152082,128,0,152257:0:0:0:0:
448,192,152157,128,0,152331:0:0:0:0:
64,192,152232,128,0,152331:0:0:0:0:
192,192,152232,128,0,152407:0:0:0:0:
320,192,152307,128,0,152481:0:0:0:0:
448,192,152382,128,0,152556:0:0:0:0:
64,192,152382,128,0,152481:0:0:0:0:
192,192,152456,128,0,152630:0:0:0:0:
320,192,152531,128,0,152706:0:0:0:0:
64,192,152531,128,0,152630:0:0:0:0:
448,192,152606,128,0,152780:0:0:0:0:
192,192,152681,128,0,152855:0:0:0:0:
64,192,152681,128,0,152855:0:0:0:0:
320,192,152755,128,0,152930:0:0:0:0:
448,192,152830,128,0,152930:0:0:0:0:
192,192,152905,128,0,153005:0:0:0:0:
64,192,152905,128,0,153080:0:0:0:0:
448,192,152980,128,0,153154:0:0:0:0:
320,192,152980,128,0,153080:0:0:0:0:
192,192,153054,128,0,153230:0:0:0:0:
64,192,153130,128,0,153230:0:0:0:0:
320,192,153130,128,0,153304:0:0:0:0:
448,192,153204,128,0,153379:0:0:0:0:
192,192,153279,128,0,153453:0:0:0:0:
64,192,153279,128,0,153379:0:0:0:0:
320,192,153354,128,0,153529:0:0:0:0:
448,192,153429,128,0,153529:0:0:0:0:
64,192,153429,128,0,153603:0:0:0:0:
192,192,153504,128,0,153678:0:0:0:0:
320,192,153578,128,0,153678:0:0:0:0:
448,192,153578,128,0,153678:0:0:0:0:
64,192,153653,128,0,153977:0:0:0:0:
192,192,153728,128,0,153828:0:0:0:0:
320,192,153728,128,0,153828:0:0:0:0:
448,192,153728,128,0,153828:0:0:0:0:
448,192,153877,128,0,153977:0:0:0:0:
320,192,153877,128,0,154052:0:0:0:0:
192,192,153877,128,0,154052:0:0:0:0:
64,192,154027,128,0,154127:0:0:0:0:
448,192,154027,128,0,154127:0:0:0:0:
320,192,154102,128,0,154202:0:0:0:0:
192,192,154102,128,0,154202:0:0:0:0:
64,192,154176,128,0,154276:0:0:0:0:
448,192,154176,128,0,154276:0:0:0:0:
192,192,154251,128,0,154351:0:0:0:0:
320,192,154251,128,0,154426:0:0:0:0:
448,192,154326,128,0,154426:0:0:0:0:
64,192,154326,128,0,154501:0:0:0:0:
192,192,154401,128,0,154575:0:0:0:0:
320,192,154476,128,0,154650:0:0:0:0:
448,192,154476,128,0,154575:0:0:0:0:
64,192,154550,128,0,154725:0:0:0:0:
192,192,154626,128,0,154725:0:0:0:0:
448,192,154626,128,0,154800:0:0:0:0:
320,192,154700,128,0,154874:0:0:0:0:
192,192,154775,128,0,154874:0:0:0:0:
64,192,154775,128,0,154874:0:0:0:0:
448,192,154850,128,0,155174:0:0:0:0:
320,192,154925,128,0,155024:0:0:0:0:
192,192,154925,128,0,155024:0:0:0:0:
64,192,154925,128,0,155024:0:0:0:0:
64,192,155074,128,0,155249:0:0:0:0:
192,192,155074,128,0,155249:0:0:0:0:
320,192,155074,128,0,155174:0:0:0:0:
448,192,155224,128,0,155324:0:0:0:0:
320,192,155224,128,0,155324:0:0:0:0:
192,192,155298,128,0,155398:0:0:0:0:
64,192,155298,128,0,155398:0:0:0:0:
320,192,155373,128,0,155473:0:0:0:0:
448,192,155373,128,0,155473:0:0:0:0:
192,192,155448,128,0,155548:0:0:0:0:
64,192,155448,128,0,155623:0:0:0:0:
320,192,155523,128,0,155697:0:0:0:0:
448,192,155523,128,0,155623:0:0:0:0:
192,192,155598,128,0,155772:0:0:0:0:
64,192,155672,128,0,155772:0:0:0:0:
448,192,155672,128,0,155847:0:0:0:0:
320,192,155748,128,0,155922:0:0:0:0:
192,192,155822,128,0,155922:0:0:0:0:
64,192,155822,128,0,155996:0:0:0:0:
448,192,155897,128,0,156071:0:0:0:0:
320,192,155971,128,0,156071:0:0:0:0:
192,192,155971,128,0,156071:0:0:0:0:
64,192,156047,128,0,156370:0:0:0:0:
192,192,156121,128,0,156221:0:0:0:0:
320,192,156121,128,0,156221:0:0:0:0:
448,192,156121,128,0,156221:0:0:0:0:
448,192,156270,128,0,156370:0:0:0:0:
320,192,156270,128,0,156446:0:0:0:0:
192,192,156270,128,0,156446:0:0:0:0:
64,192,156420,128,0,156520:0:0:0:0:
448,192,156420,128,0,156520:0:0:0:0:
320,192,156495,128,0,156595:0:0:0:0:
192,192,156495,128,0,156595:0:0:0:0:
448,192,156570,128,0,156670:0:0:0:0:
64,192,156570,128,0,156670:0:0:0:0:
192,192,156645,128,0,156819:0:0:0:0:
320,192,156645,128,0,156745:0:0:0:0:
448,192,156720,128,0,156894:0:0:0:0:
64,192,156720,128,0,156819:0:0:0:0:
320,192,156794,128,0,156969:0:0:0:0:
192,192,156870,128,0,157044:0:0:0:0:
64,192,156870,128,0,156969:0:0:0:0:
448,192,156944,128,0,157118:0:0:0:0:
320,192,157019,128,0,157118:0:0:0:0:
64,192,157019,128,0,157268:0:0:0:0:
192,192,157093,128,0,157193:0:0:0:0:
320,192,157169,128,0,157343:0:0:0:0:
448,192,157169,128,0,157268:0:0:0:0:
192,192,157243,128,0,157418:0:0:0:0:
64,192,157318,128,0,157418:0:0:0:0:
448,192,157318,128,0,157492:0:0:0:0:
320,192,157392,128,0,157568:0:0:0:0:
192,192,157468,128,0,157642:0:0:0:0:
64,192,157468,128,0,157568:0:0:0:0:
448,192,157542,128,0,157717:0:0:0:0:
320,192,157617,128,0,157717:0:0:0:0:
64,192,157617,128,0,157867:0:0:0:0:
192,192,157691,128,0,157791:0:0:0:0:
320,192,157767,128,0,157867:0:0:0:0:
448,192,157767,128,0,157941:0:0:0:0:
192,192,157842,128,0,158016:0:0:0:0:
320,192,157916,128,0,158090:0:0:0:0:
64,192,157916,128,0,158016:0:0:0:0:
448,192,157991,128,0,158166:0:0:0:0:
64,192,158066,128,0,158166:0:0:0:0:
192,192,158066,128,0,158240:0:0:0:0:
320,192,158141,128,0,158315:0:0:0:0:
448,192,158215,128,0,158315:0:0:0:0:
64,192,158215,128,0,158390:0:0:0:0:
192,192,158290,128,0,158465:0:0:0:0:
320,192,158365,128,0,158465:0:0:0:0:
448,192,158365,128,0,158465:0:0:0:0:
64,192,158440,128,0,158764:0:0:0:0:
192,192,158514,128,0,158614:0:0:0:0:
320,192,158514,128,0,158614:0:0:0:0:
448,192,158514,128,0,158614:0:0:0:0:
448,192,158664,128,0,158839:0:0:0:0:
320,192,158664,128,0,158839:0:0:0:0:
192,192,158664,128,0,158764:0:0:0:0:
64,192,158814,128,0,158913:0:0:0:0:
192,192,158814,128,0,158913:0:0:0:0:
320,192,158889,128,0,158989:0:0:0:0:
448,192,158889,128,0,158989:0:0:0:0:
64,192,158964,128,0,159063:0:0:0:0:
192,192,158964,128,0,159063:0:0:0:0:
320,192,159038,128,0,159138:0:0:0:0:
448,192,159038,128,0,159212:0:0:0:0:
192,192,159113,128,0,159288:0:0:0:0:
64,192,159113,128,0,159212:0:0:0:0:
320,192,159188,128,0,159362:0:0:0:0:
64,192,159263,128,0,159437:0:0:0:0:
448,192,159263,128,0,159362:0:0:0:0:
192,192,159337,128,0,159511:0:0:0:0:
320,192,159412,128,0,159511:0:0:0:0:
448,192,159412,128,0,159587:0:0:0:0:
64,192,159487,128,0,159662:0:0:0:0:
192,192,159562,128,0,159662:0:0:0:0:
320,192,159562,128,0,159662:0:0:0:0:
448,192,159636,128,0,159961:0:0:0:0:
320,192,159711,128,0,159811:0:0:0:0:
192,192,159711,128,0,159811:0:0:0:0:
64,192,159711,128,0,159811:0:0:0:0:
320,192,159861,128,0,160035:0:0:0:0:
64,192,159861,128,0,159961:0:0:0:0:
192,192,159861,128,0,160035:0:0:0:0:
64,192,160010,128,0,160110:0:0:0:0:
448,192,160010,128,0,160110:0:0:0:0:
320,192,160086,128,0,160185:0:0:0:0:
192,192,160086,128,0,160185:0:0:0:0:
64,192,160160,128,0,160260:0:0:0:0:
448,192,160160,128,0,160260:0:0:0:0:
192,192,160235,128,0,160410:0:0:0:0:
320,192,160235,128,0,160334:0:0:0:0:
64,192,160310,128,0,160410:0:0:0:0:
448,192,160310,128,0,160484:0:0:0:0:
320,192,160385,128,0,160559:0:0:0:0:
192,192,160459,128,0,160559:0:0:0:0:
64,192,160459,128,0,160634:0:0:0:0:
448,192,160534,128,0,160709:0:0:0:0:
320,192,160609,128,0,160709:0:0:0:0:
192,192,160609,128,0,160784:0:0:0:0:
64,192,160684,128,0,160858:0:0:0:0:
448,192,160758,128,0,160858:0:0:0:0:
320,192,160758,128,0,160858:0:0:0:0:
192,192,160833,128,0,161157:0:0:0:0:
64,192,160908,128,0,161008:0:0:0:0:
320,192,160908,128,0,161008:0:0:0:0:
448,192,160908,128,0,161008:0:0:0:0:
64,192,161058,128,0,161157:0:0:0:0:
448,192,161058,128,0,161232:0:0:0:0:
320,192,161058,128,0,161232:0:0:0:0:
192,192,161208,128,0,161307:0:0:0:0:
64,192,161208,128,0,161307:0:0:0:0:
320,192,161282,128,0,161382:0:0:0:0:
448,192,161282,128,0,161382:0:0:0:0:
192,192,161357,128,0,161456:0:0:0:0:
64,192,161357,128,0,161456:0:0:0:0:
320,192,161431,128,0,161531:0:0:0:0:
448,192,161431,128,0,161606:0:0:0:0:
192,192,161507,128,0,161681:0:0:0:0:
64,192,161507,128,0,161606:0:0:0:0:
320,192,161581,128,0,161756:0:0:0:0:
448,192,161656,128,0,161756:0:0:0:0:
64,192,161656,128,0,161830:0:0:0:0:
192,192,161730,128,0,161906:0:0:0:0:
320,192,161806,128,0,161980:0:0:0:0:
448,192,161806,128,0,161880:0:0:0:0:
64,192,161880,128,0,162055:0:0:0:0:
192,192,161955,128,0,162055:0:0:0:0:
448,192,161955,128,0,162055:0:0:0:0:
320,192,162030,128,0,162254:0:0:0:0:
64,192,162105,128,0,162254:0:0:0:0:
448,192,162105,128,0,162254:0:0:0:0:
192,192,162105,128,0,162479:0:0:0:0:
64,192,162304,128,0,162479:0:0:0:0:
320,192,162304,128,0,162479:0:0:0:0:
448,192,162304,128,0,162653:0:0:0:0:
320,192,162529,128,0,162653:0:0:0:0:
192,192,162529,128,0,162653:0:0:0:0:
64,192,162529,128,0,162852:0:0:0:0:
192,192,162703,128,0,162852:0:0:0:0:
320,192,162703,128,0,163077:0:0:0:0:
448,192,162703,128,0,162852:0:0:0:0:
64,192,162903,128,0,163077:0:0:0:0:
192,192,162903,128,0,163077:0:0:0:0:
448,192,162903,128,0,163251:0:0:0:0:
64,192,163127,128,0,163251:0:0:0:0:
320,192,163127,128,0,163327:0:0:0:0:
192,192,163127,128,0,163327:0:0:0:0:
64,192,163302,128,0,163401:0:0:0:0:
448,192,163302,128,0,163401:0:0:0:0:
192,192,163376,128,0,163476:0:0:0:0:
320,192,163376,128,0,163476:0:0:0:0:
448,192,163451,128,0,163550:0:0:0:0:
64,192,163451,128,0,163550:0:0:0:0:
320,192,163526,128,0,163700:0:0:0:0:
192,192,163526,128,0,163626:0:0:0:0:
448,192,163601,128,0,163700:0:0:0:0:
64,192,163601,128,0,163775:0:0:0:0:
192,192,163675,128,0,163850:0:0:0:0:
320,192,163750,128,0,163925:0:0:0:0:
448,192,163750,128,0,163850:0:0:0:0:
64,192,163825,128,0,164000:0:0:0:0:
192,192,163900,128,0,164000:0:0:0:0:
448,192,163900,128,0,164074:0:0:0:0:
320,192,163974,128,0,164150:0:0:0:0:
192,192,164050,128,0,164150:0:0:0:0:
64,192,164050,128,0,164224:0:0:0:0:
448,192,164124,128,0,164299:0:0:0:0:
320,192,164199,128,0,164299:0:0:0:0:
192,192,164199,128,0,164373:0:0:0:0:
64,192,164273,128,0,164523:0:0:0:0:
320,192,164349,128,0,164449:0:0:0:0:
448,192,164349,128,0,164449:0:0:0:0:
192,192,164424,128,0,164523:0:0:0:0:
448,192,164498,128,0,164598:0:0:0:0:
320,192,164498,128,0,164598:0:0:0:0:
192,192,164573,128,0,164672:0:0:0:0:
64,192,164573,128,0,164672:0:0:0:0:
320,192,164648,128,0,164748:0:0:0:0:
448,192,164648,128,0,164748:0:0:0:0:
192,192,164723,128,0,164822:0:0:0:0:
64,192,164723,128,0,164897:0:0:0:0:
320,192,164797,128,0,164971:0:0:0:0:
448,192,164797,128,0,164897:0:0:0:0:
192,192,164872,128,0,165047:0:0:0:0:
64,192,164947,128,0,165047:0:0:0:0:
448,192,164947,128,0,165122:0:0:0:0:
320,192,165022,128,0,165196:0:0:0:0:
192,192,165096,128,0,165271:0:0:0:0:
64,192,165096,128,0,165196:0:0:0:0:
448,192,165171,128,0,165346:0:0:0:0:
320,192,165246,128,0,165346:0:0:0:0:
64,192,165246,128,0,165495:0:0:0:0:
192,192,165321,128,0,165421:0:0:0:0:
320,192,165396,128,0,165495:0:0:0:0:
448,192,165396,128,0,165570:0:0:0:0:
192,192,165470,128,0,165645:0:0:0:0:
64,192,165546,128,0,165645:0:0:0:0:
320,192,165546,128,0,165720:0:0:0:0:
448,192,165620,128,0,165870:0:0:0:0:
192,192,165695,128,0,165794:0:0:0:0:
64,192,165695,128,0,165870:0:0:0:0:
320,192,165770,128,0,165944:0:0:0:0:
192,192,165845,128,0,166019:0:0:0:0:
448,192,165919,128,0,166169:0:0:0:0:
64,192,165919,128,0,166093:0:0:0:0:
320,192,165994,128,0,166093:0:0:0:0:
192,192,166069,128,0,166244:0:0:0:0:
64,192,166144,128,0,166244:0:0:0:0:
320,192,166144,128,0,166393:0:0:0:0:
448,192,166218,128,0,166318:0:0:0:0:
192,192,166293,128,0,166468:0:0:0:0:
64,192,166293,128,0,166543:0:0:0:0:
448,192,166368,128,0,166468:0:0:0:0:
320,192,166443,128,0,166617:0:0:0:0:
448,192,166518,128,0,166692:0:0:0:0:
192,192,166518,128,0,166692:0:0:0:0:
64,192,166592,128,0,166767:0:0:0:0:
320,192,166668,128,0,166842:0:0:0:0:
448,192,166742,128,0,166842:0:0:0:0:
192,192,166742,128,0,166916:0:0:0:0:
64,192,166817,128,0,167066:0:0:0:0:
448,192,166891,128,0,166991:0:0:0:0:
320,192,166891,128,0,167066:0:0:0:0:
192,192,166967,128,0,167141:0:0:0:0:
448,192,167041,128,0,167215:0:0:0:0:
64,192,167116,128,0,167290:0:0:0:0:
320,192,167116,128,0,167366:0:0:0:0:
192,192,167190,128,0,167290:0:0:0:0:
448,192,167266,128,0,167440:0:0:0:0:
192,192,167340,128,0,167440:0:0:0:0:
64,192,167340,128,0,167515:0:0:0:0:
320,192,167415,128,0,167590:0:0:0:0:
192,192,167490,128,0,167665:0:0:0:0:
448,192,167490,128,0,167739:0:0:0:0:
64,192,167565,128,0,167665:0:0:0:0:
320,192,167640,128,0,167814:0:0:0:0:
192,192,167714,128,0,167889:0:0:0:0:
64,192,167714,128,0,167889:0:0:0:0:
448,192,167790,128,0,167964:0:0:0:0:
320,192,167864,128,0,168113:0:0:0:0:
64,192,167939,128,0,168038:0:0:0:0:
192,192,167939,128,0,168038:0:0:0:0:
448,192,168013,128,0,168113:0:0:0:0:
64,192,168089,128,0,168188:0:0:0:0:
192,192,168089,128,0,168188:0:0:0:0:
320,192,168163,128,0,168263:0:0:0:0:
448,192,168163,128,0,168263:0:0:0:0:
192,192,168238,128,0,168338:0:0:0:0:
64,192,168238,128,0,168338:0:0:0:0:
320,192,168312,128,0,168488:0:0:0:0:
448,192,168312,128,0,168412:0:0:0:0:
192,192,168388,128,0,168562:0:0:0:0:
64,192,168388,128,0,168488:0:0:0:0:
448,192,168462,128,0,168637:0:0:0:0:
64,192,168537,128,0,168711:0:0:0:0:
320,192,168537,128,0,168637:0:0:0:0:
192,192,168611,128,0,168787:0:0:0:0:
320,192,168687,128,0,168861:0:0:0:0:
448,192,168687,128,0,168787:0:0:0:0:
64,192,168762,128,0,168936:0:0:0:0:
192,192,168836,128,0,168936:0:0:0:0:
448,192,168836,128,0,169010:0:0:0:0:
320,192,168911,128,0,169086:0:0:0:0:
192,192,168986,128,0,169160:0:0:0:0:
64,192,168986,128,0,169086:0:0:0:0:
448,192,169061,128,0,169235:0:0:0:0:
320,192,169135,128,0,169310:0:0:0:0:
64,192,169135,128,0,169235:0:0:0:0:
192,192,169210,128,0,169310:0:0:0:0:
64,192,169285,128,0,169385:0:0:0:0:
448,192,169285,128,0,169385:0:0:0:0:
192,192,169360,128,0,169460:0:0:0:0:
320,192,169360,128,0,169460:0:0:0:0:
64,192,169434,128,0,169534:0:0:0:0:
448,192,169434,128,0,169534:0:0:0:0:
320,192,169510,128,0,169610:0:0:0:0:
192,192,169510,128,0,169684:0:0:0:0:
64,192,169584,128,0,169759:0:0:0:0:
448,192,169584,128,0,169684:0:0:0:0:
320,192,169659,128,0,169833:0:0:0:0:
448,192,169733,128,0,169833:0:0:0:0:
192,192,169733,128,0,169909:0:0:0:0:
64,192,169809,128,0,169983:0:0:0:0:
448,192,169884,128,0,169983:0:0:0:0:
320,192,169884,128,0,170058:0:0:0:0:
192,192,169958,128,0,170132:0:0:0:0:
64,192,170033,128,0,170132:0:0:0:0:
448,192,170033,128,0,170208:0:0:0:0:
320,192,170108,128,0,170282:0:0:0:0:
192,192,170183,128,0,170282:0:0:0:0:
64,192,170183,128,0,170357:0:0:0:0:
448,192,170257,128,0,170431:0:0:0:0:
320,192,170332,128,0,170431:0:0:0:0:
192,192,170332,128,0,170507:0:0:0:0:
64,192,170407,128,0,170656:0:0:0:0:
448,192,170482,128,0,170656:0:0:0:0:
320,192,170482,128,0,170582:0:0:0:0:
192,192,170556,128,0,170731:0:0:0:0:
320,192,170631,128,0,170806:0:0:0:0:
448,192,170706,128,0,170881:0:0:0:0:
64,192,170706,128,0,170955:0:0:0:0:
192,192,170781,128,0,170881:0:0:0:0:
320,192,170855,128,0,171030:0:0:0:0:
448,192,170930,128,0,171030:0:0:0:0:
192,192,170930,128,0,171105:0:0:0:0:
64,192,171006,128,0,171254:0:0:0:0:
320,192,171080,128,0,171254:0:0:0:0:
448,192,171080,128,0,171180:0:0:0:0:
192,192,171155,128,0,171330:0:0:0:0:
448,192,171230,128,0,171404:0:0:0:0:
320,192,171305,128,0,171479:0:0:0:0:
64,192,171305,128,0,171479:0:0:0:0:
192,192,171379,128,0,171553:0:0:0:0:
448,192,171454,128,0,171629:0:0:0:0:
320,192,171529,128,0,171629:0:0:0:0:
64,192,171529,128,0,171853:0:0:0:0:
192,192,171604,128,0,171704:0:0:0:0:
448,192,171678,128,0,171853:0:0:0:0:
320,192,171678,128,0,171778:0:0:0:0:
192,192,171753,128,0,171928:0:0:0:0:
320,192,171828,128,0,172003:0:0:0:0:
448,192,171903,128,0,172152:0:0:0:0:
64,192,171903,128,0,172077:0:0:0:0:
192,192,171977,128,0,172077:0:0:0:0:
320,192,172052,128,0,172227:0:0:0:0:
64,192,172128,128,0,172227:0:0:0:0:
192,192,172128,128,0,172302:0:0:0:0:
448,192,172202,128,0,172376:0:0:0:0:
320,192,172277,128,0,172451:0:0:0:0:
64,192,172277,128,0,172526:0:0:0:0:
192,192,172351,128,0,172526:0:0:0:0:
448,192,172427,128,0,172826:0:0:0:0:
320,192,172501,128,0,172601:0:0:0:0:
64,192,172576,128,0,172675:0:0:0:0:
192,192,172576,128,0,172900:0:0:0:0:
320,192,172650,128,0,172750:0:0:0:0:
64,192,172726,128,0,172826:0:0:0:0:
320,192,172800,128,0,172900:0:0:0:0:
448,192,172875,128,0,172975:0:0:0:0:
64,192,172875,128,0,172975:0:0:0:0:
192,192,172950,128,0,173050:0:0:0:0:
320,192,172950,128,0,173050:0:0:0:0:
448,192,173025,128,0,173125:0:0:0:0:
64,192,173025,128,0,173125:0:0:0:0:
192,192,173100,128,0,173274:0:0:0:0:
320,192,173100,128,0,173199:0:0:0:0:
448,192,173174,128,0,173424:0:0:0:0:
64,192,173174,128,0,173274:0:0:0:0:
320,192,173250,128,0,173349:0:0:0:0:
192,192,173324,128,0,173424:0:0:0:0:
64,192,173324,128,0,173498:0:0:0:0:
320,192,173399,128,0,173573:0:0:0:0:
448,192,173473,128,0,173573:0:0:0:0:
192,192,173473,128,0,173648:0:0:0:0:
64,192,173549,128,0,173723:0:0:0:0:
448,192,173623,128,0,173723:0:0:0:0:
320,192,173623,128,0,173797:0:0:0:0:
192,192,173698,128,0,173872:0:0:0:0:
64,192,173772,128,0,173872:0:0:0:0:
448,192,173772,128,0,173948:0:0:0:0:
320,192,173848,128,0,174097:0:0:0:0:
192,192,173922,128,0,174022:0:0:0:0:
64,192,173922,128,0,174022:0:0:0:0:
448,192,173997,128,0,174097:0:0:0:0:
192,192,174071,128,0,174171:0:0:0:0:
64,192,174071,128,0,174171:0:0:0:0:
320,192,174147,128,0,174247:0:0:0:0:
448,192,174147,128,0,174247:0:0:0:0:
192,192,174222,128,0,174321:0:0:0:0:
64,192,174222,128,0,174321:0:0:0:0:
320,192,174296,128,0,174396:0:0:0:0:
448,192,174296,128,0,174470:0:0:0:0:
192,192,174371,128,0,174470:0:0:0:0:
64,192,174371,128,0,174546:0:0:0:0:
320,192,174446,128,0,174620:0:0:0:0:
448,192,174521,128,0,174620:0:0:0:0:
192,192,174521,128,0,174695:0:0:0:0:
64,192,174595,128,0,174770:0:0:0:0:
320,192,174670,128,0,174845:0:0:0:0:
448,192,174670,128,0,174770:0:0:0:0:
192,192,174745,128,0,174920:0:0:0:0:
64,192,174820,128,0,174920:0:0:0:0:
448,192,174820,128,0,174994:0:0:0:0:
320,192,174894,128,0,175070:0:0:0:0:
192,192,174970,128,0,175070:0:0:0:0:
64,192,174970,128,0,175144:0:0:0:0:
448,192,175044,128,0,175219:0:0:0:0:
320,192,175119,128,0,175219:0:0:0:0:
192,192,175119,128,0,175293:0:0:0:0:
64,192,175193,128,0,175369:0:0:0:0:
448,192,175269,128,0,175443:0:0:0:0:
320,192,175269,128,0,175443:0:0:0:0:
192,192,175344,128,0,175592:0:0:0:0:
64,192,175418,128,0,175518:0:0:0:0:
320,192,175493,128,0,175668:0:0:0:0:
448,192,175493,128,0,175742:0:0:0:0:
64,192,175568,128,0,175668:0:0:0:0:
192,192,175643,128,0,175817:0:0:0:0:
320,192,175717,128,0,175891:0:0:0:0:
64,192,175717,128,0,175817:0:0:0:0:
448,192,175792,128,0,176042:0:0:0:0:
64,192,175867,128,0,176042:0:0:0:0:
192,192,175867,128,0,175967:0:0:0:0:
320,192,175942,128,0,176116:0:0:0:0:
192,192,176016,128,0,176191:0:0:0:0:
448,192,176091,128,0,176266:0:0:0:0:
64,192,176091,128,0,176266:0:0:0:0:
320,192,176166,128,0,176341:0:0:0:0:
192,192,176241,128,0,176415:0:0:0:0:
64,192,176315,128,0,176415:0:0:0:0:
448,192,176315,128,0,176490:0:0:0:0:
320,192,176390,128,0,176714:0:0:0:0:
192,192,176466,128,0,176640:0:0:0:0:
64,192,176466,128,0,176565:0:0:0:0:
448,192,176540,128,0,176640:0:0:0:0:
64,192,176615,128,0,176864:0:0:0:0:
192,192,176690,128,0,176790:0:0:0:0:
448,192,176690,128,0,176864:0:0:0:0:
320,192,176765,128,0,176939:0:0:0:0:
192,192,176839,128,0,177013:0:0:0:0:
64,192,176914,128,0,177013:0:0:0:0:
448,192,176914,128,0,177089:0:0:0:0:
320,192,176989,128,0,177164:0:0:0:0:
192,192,177064,128,0,177238:0:0:0:0:
64,192,177064,128,0,177313:0:0:0:0:
448,192,177138,128,0,177238:0:0:0:0:
320,192,177213,128,0,177388:0:0:0:0:
192,192,177288,128,0,177463:0:0:0:0:
448,192,177288,128,0,177463:0:0:0:0:
64,192,177363,128,0,177537:0:0:0:0:
320,192,177437,128,0,177612:0:0:0:0:
448,192,177512,128,0,177612:0:0:0:0:
192,192,177512,128,0,177687:0:0:0:0:
64,192,177588,128,0,177687:0:0:0:0:
320,192,177662,128,0,177762:0:0:0:0:
448,192,177662,128,0,177762:0:0:0:0:
192,192,177737,128,0,177836:0:0:0:0:
64,192,177737,128,0,177836:0:0:0:0:
320,192,177811,128,0,177911:0:0:0:0:
448,192,177811,128,0,177911:0:0:0:0:
192,192,177887,128,0,177986:0:0:0:0:
64,192,177887,128,0,178061:0:0:0:0:
320,192,177961,128,0,178135:0:0:0:0:
448,192,177961,128,0,178061:0:0:0:0:
192,192,178036,128,0,178210:0:0:0:0:
64,192,178110,128,0,178210:0:0:0:0:
448,192,178110,128,0,178286:0:0:0:0:
320,192,178186,128,0,178360:0:0:0:0:
192,192,178260,128,0,178435:0:0:0:0:
64,192,178260,128,0,178360:0:0:0:0:
448,192,178335,128,0,178510:0:0:0:0:
320,192,178410,128,0,178510:0:0:0:0:
64,192,178410,128,0,178585:0:0:0:0:
192,192,178485,128,0,178659:0:0:0:0:
320,192,178559,128,0,178734:0:0:0:0:
448,192,178559,128,0,178659:0:0:0:0:
64,192,178634,128,0,178809:0:0:0:0:
192,192,178710,128,0,178884:0:0:0:0:
448,192,178710,128,0,178809:0:0:0:0:
320,192,178784,128,0,178884:0:0:0:0:
64,192,178859,128,0,178958:0:0:0:0:
448,192,178859,128,0,178958:0:0:0:0:
192,192,178933,128,0,179033:0:0:0:0:
320,192,178933,128,0,179033:0:0:0:0:
64,192,179009,128,0,179108:0:0:0:0:
448,192,179009,128,0,179108:0:0:0:0:
320,192,179083,128,0,179257:0:0:0:0:
192,192,179083,128,0,179183:0:0:0:0:
64,192,179158,128,0,179332:0:0:0:0:
448,192,179158,128,0,179257:0:0:0:0:
192,192,179232,128,0,179408:0:0:0:0:
320,192,179308,128,0,179482:0:0:0:0:
448,192,179308,128,0,179408:0:0:0:0:
64,192,179382,128,0,179557:0:0:0:0:
192,192,179457,128,0,179557:0:0:0:0:
448,192,179457,128,0,179707:0:0:0:0:
320,192,179531,128,0,179631:0:0:0:0:
192,192,179607,128,0,179707:0:0:0:0:
64,192,179607,128,0,179781:0:0:0:0:
320,192,179682,128,0,179856:0:0:0:0:
192,192,179756,128,0,179930:0:0:0:0:
448,192,179756,128,0,179856:0:0:0:0:
64,192,179831,128,0,180006:0:0:0:0:
448,192,179906,128,0,180080:0:0:0:0:
320,192,179906,128,0,180006:0:0:0:0:
192,192,179981,128,0,180155:0:0:0:0:
64,192,180055,128,0,180305:0:0:0:0:
320,192,180055,128,0,180230:0:0:0:0:
448,192,180130,128,0,180230:0:0:0:0:
192,192,180205,128,0,180379:0:0:0:0:
320,192,180280,128,0,180454:0:0:0:0:
448,192,180280,128,0,180454:0:0:0:0:
64,192,180354,128,0,180604:0:0:0:0:
192,192,180430,128,0,180530:0:0:0:0:
320,192,180504,128,0,180679:0:0:0:0:
448,192,180504,128,0,180604:0:0:0:0:
192,192,180579,128,0,180753:0:0:0:0:
64,192,180653,128,0,180829:0:0:0:0:
448,192,180653,128,0,180903:0:0:0:0:
320,192,180729,128,0,180829:0:0:0:0:
192,192,180804,128,0,180978:0:0:0:0:
64,192,180878,128,0,181052:0:0:0:0:
320,192,180878,128,0,181052:0:0:0:0:
448,192,180953,128,0,181128:0:0:0:0:
192,192,181028,128,0,181202:0:0:0:0:
64,192,181103,128,0,181202:0:0:0:0:
320,192,181103,128,0,181351:0:0:0:0:
448,192,181177,128,0,181501:0:0:0:0:
192,192,181252,128,0,181427:0:0:0:0:
64,192,181252,128,0,181651:0:0:0:0:
320,192,181402,128,0,181801:0:0:0:0:
192,192,181476,128,0,181726:0:0:0:0:
448,192,181551,128,0,181801:0:0:0:0:
64,192,181701,128,0,181875:0:0:0:0:
192,192,181775,128,0,181875:0:0:0:0:
320,192,181850,128,0,182000:0:0:0:0:
448,192,181850,128,0,181950:0:0:0:0:
192,192,181926,128,0,182025:0:0:0:0:
64,192,181926,128,0,182075:0:0:0:0:
448,192,182000,128,0,182100:0:0:0:0:
320,192,182050,128,0,182250:0:0:0:0:
192,192,182075,128,0,182174:0:0:0:0:
64,192,182125,128,0,182324:0:0:0:0:
448,192,182150,128,0,182399:0:0:0:0:
192,192,182225,128,0,182399:0:0:0:0:
320,192,182299,128,0,184194:0:0:0:0:
64,192,182374,128,0,183296:0:0:0:0:
192,192,182449,128,0,183595:0:0:0:0:
448,192,182449,128,0,183595:0:0:0:0:
64,192,183347,128,0,184792:0:0:0:0:
192,192,183646,128,0,184792:0:0:0:0:
448,192,183646,128,0,185690:0:0:0:0:
320,192,184244,128,0,185990:0:0:0:0:
64,192,184842,128,0,185990:0:0:0:0:
192,192,184842,128,0,186588:0:0:0:0:
448,192,185740,128,0,187186:0:0:0:0:
320,192,186039,128,0,186737:0:0:0:0:
64,192,186039,128,0,186887:0:0:0:0:
192,192,186637,128,0,187036:0:0:0:0:
320,192,186787,128,0,187186:0:0:0:0:
64,192,186936,128,0,188981:0:0:0:0:
192,192,187086,128,0,188383:0:0:0:0:
320,192,187235,128,0,188083:0:0:0:0:
448,192,187235,128,0,188383:0:0:0:0:
320,192,188133,128,0,188981:0:0:0:0:
192,192,188432,128,0,189579:0:0:0:0:
448,192,188432,128,0,189579:0:0:0:0:
320,192,189030,128,0,189878:0:0:0:0:
64,192,189030,128,0,190177:0:0:0:0:
192,192,189630,128,0,190477:0:0:0:0:
448,192,189630,128,0,190776:0:0:0:0:
320,192,189929,128,0,190776:0:0:0:0:
64,192,190228,128,0,191972:0:0:0:0:
192,192,190527,128,0,191374:0:0:0:0:
320,192,190826,128,0,192870:0:0:0:0:
448,192,190826,128,0,191972:0:0:0:0:
192,192,191424,128,0,193170:0:0:0:0:
64,192,192023,128,0,193170:0:0:0:0:
448,192,192023,128,0,194366:0:0:0:0:
320,192,192920,128,0,193768:0:0:0:0:
192,192,193219,128,0,195264:0:0:0:0:
64,192,193219,128,0,194366:0:0:0:0:
320,192,193817,128,0,195563:0:0:0:0:
448,192,194416,128,0,196759:0:0:0:0:
64,192,194416,128,0,195563:0:0:0:0:
192,192,195313,128,0,196161:0:0:0:0:
320,192,195612,128,0,196310:0:0:0:0:
64,192,195612,128,0,196460:0:0:0:0:
192,192,196211,128,0,196610:0:0:0:0:
320,192,196361,128,0,196759:0:0:0:0:
64,192,196510,128,0,197956:0:0:0:0:
192,192,196660,128,0,197956:0:0:0:0:
320,192,196810,128,0,197657:0:0:0:0:
448,192,196810,128,0,199153:0:0:0:0:
320,192,197707,128,0,199153:0:0:0:0:
64,192,198006,128,0,201596:0:0:0:0:
192,192,198006,128,0,201596:0:0:0:0:
448,192,199203,128,0,201596:0:0:0:0:
320,192,199203,128,0,201596:0:0:0:0:
