osu file format v14

[General]
AudioFilename: 3y3s.mp3
AudioLeadIn: 0
PreviewTime: 97113
Countdown: 0
SampleSet: Soft
StackLeniency: 0.7
Mode: 3
LetterboxInBreaks: 0
SpecialStyle: 0
WidescreenStoryboard: 1

[Editor]
DistanceSpacing: 1.2
BeatDivisor: 4
GridSize: 8
TimelineZoom: 0.9

[Metadata]
Title:3y3s
TitleUnicode:3y3s
Artist:Seiryu
ArtistUnicode:青龍
Creator:DanSparce
Version:5K EZ
Source:beatmania IIDX
Tags:16 empress eyes dance speed f-fly ポップンリズミン 青龍パック starmine infinitas exusia sirius one more extra stage ryutaro nakahara pop'n music
BeatmapID:870769
BeatmapSetID:397678

[Difficulty]
HPDrainRate:6
CircleSize:5
OverallDifficulty:6
ApproachRate:5
SliderMultiplier:1.4
SliderTickRate:1

[Events]
//Background and Video events
0,0,"seiryu - 3y3s.jpg",0,0
//Break Periods
//Storyboard Layer 0 (Background)
//Storyboard Layer 1 (Fail)
//Storyboard Layer 2 (Pass)
//Storyboard Layer 3 (Foreground)
//Storyboard Sound Samples
Sample,97742,0,"soft-hitwhistle.wav",60
Sample,100255,0,"soft-hitwhistle.wav",60
Sample,102140,0,"soft-hitwhistle.wav",60
Sample,102768,0,"soft-hitwhistle.wav",60
Sample,104653,0,"soft-hitwhistle.wav",60
Sample,105595,0,"soft-hitwhistle.wav",60

[TimingPoints]
2873,314.13612565445,4,2,1,60,1,0
97113,-100,4,2,1,60,0,1
105909,-100,4,2,1,60,0,0
107166,-100,4,2,1,60,0,1
117218,-100,4,2,1,50,0,0
119731,-111.111111111111,4,2,1,30,0,0

[HitObjects]
460,192,2872,5,0,0:0:0:40:finish.wav
51,192,2872,1,0,0:0:0:0:
256,192,3030,1,0,0:0:0:0:
153,192,3187,1,0,0:0:0:0:
358,192,3344,1,0,0:0:0:0:
460,192,3658,1,0,0:0:0:0:
358,192,3815,1,0,0:0:0:0:
51,192,3972,1,0,0:0:0:0:
153,192,4129,1,0,0:0:0:0:
256,192,4443,1,0,0:0:0:0:
358,192,4757,1,0,0:0:0:0:
460,192,5071,1,0,0:0:0:0:
51,192,5386,1,0,0:0:0:0:
358,192,5543,1,0,0:0:0:0:
153,192,5700,1,0,0:0:0:0:
460,192,5857,1,0,0:0:0:0:
51,192,6171,1,0,0:0:0:0:
256,192,6328,1,0,0:0:0:0:
460,192,6485,1,0,0:0:0:0:
256,192,6642,1,0,0:0:0:0:
153,192,6956,1,0,0:0:0:0:
358,192,7270,1,0,0:0:0:0:
51,192,7585,1,0,0:0:0:0:
460,192,7742,1,0,0:0:0:0:
51,192,8056,1,0,0:0:0:0:
256,192,8213,1,0,0:0:0:0:
460,192,8370,1,0,0:0:0:0:
358,192,8684,1,0,0:0:0:0:
153,192,8841,1,0,0:0:0:0:
256,192,8998,1,0,0:0:0:0:
51,192,9155,1,0,0:0:0:0:
153,192,9469,1,0,0:0:0:0:
358,192,9783,1,0,0:0:0:0:
256,192,10098,1,0,0:0:0:0:
460,192,10255,1,0,0:0:0:0:
153,192,10883,1,0,0:0:0:0:
358,192,11040,1,0,0:0:0:0:
51,192,11511,1,0,0:0:0:0:
256,192,11668,1,0,0:0:0:0:
153,192,12454,1,0,0:0:0:0:
256,192,12611,1,0,0:0:0:0:
358,192,12768,1,0,0:0:0:0:
51,192,14181,1,2,0:0:0:0:
460,192,14181,1,0,0:0:0:40:finish.wav
153,192,14496,1,2,0:0:0:0:
358,192,14810,1,2,0:0:0:0:
256,192,15124,1,2,0:0:0:0:
460,192,15438,1,2,0:0:0:0:
256,192,15752,1,2,0:0:0:0:
358,192,16066,1,2,0:0:0:0:
153,192,16380,1,2,0:0:0:0:
51,192,16694,1,2,0:0:0:0:
153,192,17009,1,2,0:0:0:0:
256,192,17323,1,2,0:0:0:0:
320,192,17637,1,2,0:0:0:0:
153,192,17951,1,2,0:0:0:0:
460,192,18265,1,2,0:0:0:0:
51,192,18579,1,2,0:0:0:0:
358,192,18893,1,2,0:0:0:0:
64,192,19208,1,10,0:0:0:0:
256,192,19522,1,10,0:0:0:0:
51,192,19836,1,10,0:0:0:0:
256,192,20150,1,10,0:0:0:0:
460,192,20464,1,10,0:0:0:0:
256,192,20778,1,10,0:0:0:0:
460,192,21092,1,10,0:0:0:0:
256,192,21407,1,10,0:0:0:0:
153,192,21721,1,10,0:0:0:0:
358,192,22035,1,10,0:0:0:0:
153,192,22349,1,10,0:0:0:0:
358,192,22663,1,10,0:0:0:0:
448,192,22977,1,0,0:0:0:40:finish.wav
51,192,22977,1,14,0:0:0:0:
153,192,23291,1,4,0:0:0:0:
256,192,23605,1,4,0:0:0:0:
358,192,23920,1,4,0:0:0:0:
51,192,24234,1,14,0:0:0:0:
460,192,24234,1,0,0:0:0:40:finish.wav
153,192,24548,1,14,0:0:0:0:
256,192,24862,1,14,0:0:0:0:
153,192,25176,1,14,0:0:0:0:
460,192,25490,1,14,0:0:0:0:
320,192,25804,1,14,0:0:0:0:
256,192,26119,1,14,0:0:0:0:
358,192,26433,1,14,0:0:0:0:
51,192,26747,1,14,0:0:0:0:
256,192,27061,1,14,0:0:0:0:
358,192,27375,1,14,0:0:0:0:
153,192,27689,1,14,0:0:0:0:
460,192,28003,1,14,0:0:0:0:
256,192,28318,1,14,0:0:0:0:
192,192,28632,1,14,0:0:0:0:
358,192,28946,1,14,0:0:0:0:
51,192,29260,1,14,0:0:0:0:
460,192,29260,1,0,0:0:0:40:finish.wav
153,192,29574,1,14,0:0:0:0:
256,192,29888,1,14,0:0:0:0:
358,192,30202,1,14,0:0:0:0:
51,192,30516,1,0,0:0:0:40:finish.wav
460,192,30516,1,14,0:0:0:0:
358,192,30831,1,14,0:0:0:0:
256,192,31145,1,14,0:0:0:0:
153,192,31459,1,14,0:0:0:0:
460,192,31773,1,0,0:0:0:40:finish.wav
51,192,31773,1,14,0:0:0:0:
256,192,32087,1,14,0:0:0:0:
460,192,32401,1,0,0:0:0:40:finish.wav
51,192,32401,1,14,0:0:0:0:
358,192,32715,1,0,0:0:0:40:finish.wav
153,192,32715,1,14,0:0:0:0:
460,192,33030,1,0,0:0:0:40:finish.wav
51,192,33030,1,14,0:0:0:0:
153,192,33344,1,12,0:0:0:0:
256,192,33658,1,12,0:0:0:0:
358,192,33972,1,12,0:0:0:0:
448,192,34286,128,0,35229:0:0:0:80:drum.wav
51,192,34286,1,0,0:0:0:40:finish.wav
256,192,35229,1,2,0:0:0:0:
153,192,35386,1,2,0:0:0:0:
64,192,35543,128,0,36485:0:0:0:80:drum.wav
256,192,36485,1,2,0:0:0:0:
358,192,36642,1,2,0:0:0:0:
460,192,36799,128,0,37742:0:0:0:80:drum.wav
51,192,36799,1,0,0:0:0:40:finish.wav
256,192,37742,1,2,0:0:0:0:
153,192,37899,1,2,0:0:0:0:
51,192,38056,128,0,38998:0:0:0:80:drum.wav
256,192,38998,1,2,0:0:0:0:
358,192,39155,1,2,0:0:0:0:
256,192,39312,1,0,0:0:0:40:finish.wav
51,192,39312,1,0,0:0:0:0:
358,192,39626,1,2,0:0:0:0:
358,192,40255,1,2,0:0:0:0:
460,192,40569,1,0,0:0:0:40:finish.wav
256,192,40569,1,0,0:0:0:0:
153,192,40883,1,2,0:0:0:0:
153,192,41511,1,2,0:0:0:0:
51,192,41825,1,0,0:0:0:40:finish.wav
460,192,41825,1,0,0:0:0:0:
153,192,41982,1,2,0:0:0:0:
256,192,42140,1,0,0:0:0:40:finish.wav
358,192,42297,1,2,0:0:0:0:
460,192,42454,1,0,0:0:0:40:finish.wav
358,192,42611,1,2,0:0:0:0:
256,192,42768,1,0,0:0:0:40:finish.wav
153,192,42925,1,2,0:0:0:0:
51,192,43082,1,0,0:0:0:80:drum.wav
460,192,43082,1,0,0:0:0:40:finish.wav
153,192,43396,1,0,0:0:0:80:drum.wav
256,192,43710,1,0,0:0:0:80:drum.wav
358,192,44024,1,0,0:0:0:80:drum.wav
51,192,44338,1,0,0:0:0:40:finish.wav
460,192,44338,1,2,0:0:0:0:
153,192,44653,1,2,0:0:0:0:
256,192,44967,1,2,0:0:0:0:
460,192,45124,1,0,0:0:0:0:
256,192,45281,1,2,0:0:0:0:
460,192,45438,1,0,0:0:0:0:
153,192,45595,1,2,0:0:0:0:
358,192,45909,1,2,0:0:0:0:
153,192,46223,128,2,46537:0:0:0:0:
358,192,46537,128,2,46852:0:0:0:0:
460,192,46852,1,2,0:0:0:0:
358,192,47166,1,2,0:0:0:0:
256,192,47480,1,2,0:0:0:0:
51,192,47637,1,0,0:0:0:0:
256,192,47794,1,2,0:0:0:0:
51,192,47951,1,0,0:0:0:0:
358,192,48108,1,2,0:0:0:0:
153,192,48422,1,2,0:0:0:0:
358,192,48736,128,2,49051:0:0:0:0:
153,192,49051,128,2,49365:0:0:0:0:
51,192,49365,1,10,0:0:0:0:
256,192,49679,1,10,0:0:0:0:
153,192,49993,1,10,0:0:0:0:
358,192,50150,1,0,0:0:0:0:
153,192,50307,1,10,0:0:0:0:
358,192,50464,1,0,0:0:0:0:
460,192,50621,1,10,0:0:0:0:
256,192,50935,1,10,0:0:0:0:
153,192,51249,128,10,51564:0:0:0:0:
358,192,51564,128,10,51878:0:0:0:0:
460,192,51878,1,10,0:0:0:0:
256,192,52192,1,10,0:0:0:0:
358,192,52506,1,10,0:0:0:0:
153,192,52663,1,0,0:0:0:0:
358,192,52820,1,10,0:0:0:0:
153,192,52977,1,0,0:0:0:0:
460,192,53134,1,0,0:0:0:40:finish.wav
51,192,53134,1,14,0:0:0:0:
153,192,53448,1,4,0:0:0:0:
256,192,53763,128,4,54077:0:0:0:0:
358,192,54077,128,4,54391:0:0:0:0:
460,192,54391,1,0,0:0:0:40:finish.wav
51,192,54391,1,14,0:0:0:0:
256,192,54705,1,14,0:0:0:0:
51,192,55019,1,14,0:0:0:0:
256,192,55333,1,14,0:0:0:0:
153,192,55647,1,14,0:0:0:0:
358,192,55962,1,14,0:0:0:0:
153,192,56276,1,14,0:0:0:0:
358,192,56590,1,14,0:0:0:0:
256,192,56904,1,14,0:0:0:0:
460,192,57218,1,14,0:0:0:0:
256,192,57532,1,14,0:0:0:0:
460,192,57846,1,14,0:0:0:0:
153,192,58160,1,14,0:0:0:0:
358,192,58475,1,14,0:0:0:0:
153,192,58789,1,14,0:0:0:0:
358,192,59103,1,14,0:0:0:0:
153,192,59417,1,0,0:0:0:40:finish.wav
51,192,59417,128,2,60359:0:0:0:0:
358,192,60359,1,2,0:0:0:0:
448,192,60359,1,0,0:0:0:40:finish.wav
153,192,60674,1,0,0:0:0:40:finish.wav
51,192,60674,128,2,61616:0:0:0:0:
358,192,61616,1,2,0:0:0:0:
460,192,61616,1,0,0:0:0:40:finish.wav
153,192,61930,1,0,0:0:0:40:finish.wav
51,192,61930,1,2,0:0:0:0:
256,192,62244,1,0,0:0:0:40:finish.wav
358,192,62558,1,0,0:0:0:40:finish.wav
460,192,62872,1,0,0:0:0:40:finish.wav
51,192,63187,128,2,65700:0:0:0:0:
153,192,63187,1,0,0:0:0:40:finish.wav
256,192,64443,128,0,65700:0:0:0:0:
460,192,64443,128,0,65700:0:0:0:0:
448,192,69469,1,0,0:0:0:40:finish.wav
51,192,69469,1,0,0:0:0:0:
153,192,69626,1,0,0:0:0:0:
358,192,69783,1,0,0:0:0:0:
256,192,69941,1,0,0:0:0:0:
153,192,70255,1,0,0:0:0:0:
460,192,70412,1,0,0:0:0:0:
51,192,70569,1,0,0:0:0:0:
358,192,70726,1,0,0:0:0:0:
460,192,71040,1,0,0:0:0:0:
51,192,71354,1,0,0:0:0:0:
153,192,71668,1,0,0:0:0:0:
256,192,71982,1,0,0:0:0:0:
358,192,72140,1,0,0:0:0:0:
460,192,72297,1,0,0:0:0:0:
51,192,72454,1,0,0:0:0:0:
153,192,72768,1,0,0:0:0:0:
358,192,72925,1,0,0:0:0:0:
256,192,73082,1,0,0:0:0:0:
460,192,73239,1,0,0:0:0:0:
153,192,73553,1,0,0:0:0:0:
358,192,73867,1,0,0:0:0:0:
51,192,74181,1,0,0:0:0:0:
256,192,74338,1,0,0:0:0:0:
153,192,74653,1,0,0:0:0:0:
256,192,74810,1,0,0:0:0:0:
358,192,74967,1,0,0:0:0:0:
256,192,75281,1,0,0:0:0:0:
460,192,75438,1,0,0:0:0:0:
153,192,75595,1,0,0:0:0:0:
358,192,75752,1,0,0:0:0:0:
51,192,76066,1,0,0:0:0:0:
153,192,76380,1,0,0:0:0:0:
256,192,76694,1,0,0:0:0:0:
460,192,76852,1,0,0:0:0:0:
153,192,77480,1,0,0:0:0:0:
358,192,77637,1,0,0:0:0:0:
51,192,78108,1,0,0:0:0:0:
256,192,78265,1,0,0:0:0:0:
153,192,79051,1,0,0:0:0:0:
256,192,79208,1,0,0:0:0:0:
358,192,79365,1,0,0:0:0:0:
460,192,79522,1,0,0:0:0:40:finish.wav
51,192,79522,1,8,0:0:0:0:
256,192,79836,1,8,0:0:0:0:
51,192,80150,1,8,0:0:0:0:
256,192,80464,1,8,0:0:0:0:
460,192,80778,1,8,0:0:0:0:
256,192,81092,1,8,0:0:0:0:
460,192,81407,1,8,0:0:0:0:
256,192,81721,1,8,0:0:0:0:
153,192,81878,1,8,0:0:0:0:
64,192,82035,1,8,0:0:0:0:
256,192,82349,1,8,0:0:0:0:
51,192,82663,1,8,0:0:0:0:
256,192,82977,1,8,0:0:0:0:
460,192,83291,1,8,0:0:0:0:
256,192,83605,1,8,0:0:0:0:
448,192,83920,1,8,0:0:0:0:
256,192,84234,1,8,0:0:0:0:
153,192,84391,1,8,0:0:0:0:
51,192,84548,1,8,0:0:0:0:
460,192,84548,1,0,0:0:0:40:finish.wav
153,192,84862,1,8,0:0:0:0:
358,192,85176,1,8,0:0:0:0:
256,192,85490,1,8,0:0:0:0:
448,192,85804,1,8,0:0:0:0:
64,192,85804,1,0,0:0:0:40:finish.wav
358,192,86119,1,8,0:0:0:0:
153,192,86433,1,8,0:0:0:0:
256,192,86747,1,8,0:0:0:0:
51,192,87061,1,8,0:0:0:0:
460,192,87061,1,0,0:0:0:40:finish.wav
153,192,87375,1,8,0:0:0:0:
256,192,87689,1,8,0:0:0:0:
460,192,87689,1,0,0:0:0:40:finish.wav
358,192,88003,1,8,0:0:0:0:
460,192,88318,1,8,0:0:0:0:
64,192,88318,1,0,0:0:0:40:finish.wav
358,192,88632,1,8,0:0:0:0:
51,192,88946,1,0,0:0:0:40:finish.wav
256,192,88946,1,8,0:0:0:0:
153,192,89260,1,8,0:0:0:0:
64,192,89574,1,0,0:0:0:40:finish.wav
460,192,89888,1,0,0:0:0:40:finish.wav
51,192,90202,1,0,0:0:0:40:finish.wav
460,192,90516,1,0,0:0:0:40:finish.wav
153,192,90831,1,0,0:0:0:40:finish.wav
358,192,91145,1,0,0:0:0:40:finish.wav
153,192,91459,1,0,0:0:0:40:finish.wav
358,192,91773,1,0,0:0:0:40:finish.wav
51,192,92087,1,0,0:0:0:40:finish.wav
153,192,92087,1,0,0:0:0:0:
256,192,92401,1,0,0:0:0:40:finish.wav
460,192,92715,1,0,0:0:0:40:finish.wav
256,192,93030,1,0,0:0:0:40:finish.wav
153,192,93344,1,0,0:0:0:40:finish.wav
256,192,93658,1,0,0:0:0:40:finish.wav
358,192,93972,1,0,0:0:0:40:finish.wav
256,192,94286,1,0,0:0:0:40:finish.wav
51,192,97113,1,2,0:0:0:0:
460,192,97113,1,0,0:0:0:40:finish.wav
153,192,97270,1,0,0:0:0:0:
358,192,97427,1,2,0:0:0:0:
256,192,97585,1,0,0:0:0:0:
460,192,97899,1,0,0:0:0:0:
153,192,98056,1,2,0:0:0:0:
358,192,98213,1,0,0:0:0:0:
51,192,98370,1,2,0:0:0:0:
192,192,98684,1,2,0:0:0:0:
256,192,98998,1,2,0:0:0:0:
358,192,99312,1,2,0:0:0:0:
460,192,99626,1,2,0:0:0:0:
358,192,99783,1,0,0:0:0:0:
192,192,99941,1,2,0:0:0:0:
256,192,100098,1,0,0:0:0:0:
64,192,100412,1,0,0:0:0:0:
320,192,100569,1,2,0:0:0:0:
192,192,100726,1,0,0:0:0:0:
448,192,100883,1,2,0:0:0:0:
358,192,101197,1,2,0:0:0:0:
256,192,101511,1,2,0:0:0:0:
153,192,101825,1,2,0:0:0:0:
358,192,101982,1,0,0:0:0:0:
51,192,102297,1,0,0:0:0:0:
256,192,102454,1,2,0:0:0:0:
460,192,102611,1,0,0:0:0:0:
51,192,102925,1,0,0:0:0:0:
358,192,103082,1,2,0:0:0:0:
153,192,103239,1,0,0:0:0:0:
460,192,103396,1,2,0:0:0:0:
358,192,103710,1,2,0:0:0:0:
153,192,104024,1,2,0:0:0:0:
256,192,104338,1,2,0:0:0:0:
460,192,104496,1,0,0:0:0:0:
153,192,105124,1,0,0:0:0:0:
358,192,105281,1,2,0:0:0:0:
51,192,105752,1,0,0:0:0:0:
256,192,105909,1,2,0:0:0:0:
460,192,105909,1,0,0:0:0:40:finish.wav
358,192,106223,1,4,0:0:0:0:
51,192,106537,1,4,0:0:0:0:
153,192,106694,1,0,0:0:0:0:
256,192,106852,1,4,0:0:0:0:
320,192,107009,1,0,0:0:0:0:
448,192,107166,1,6,0:0:0:0:
64,192,107166,1,0,0:0:0:40:finish.wav
256,192,107323,1,0,0:0:0:0:
192,192,107480,1,6,0:0:0:0:
358,192,107637,1,0,0:0:0:0:
256,192,107794,1,6,0:0:0:0:
460,192,107951,1,0,0:0:0:0:
358,192,108108,1,6,0:0:0:0:
256,192,108265,1,0,0:0:0:0:
153,192,108422,1,6,0:0:0:0:
358,192,108736,1,6,0:0:0:0:
153,192,109051,1,6,0:0:0:0:
358,192,109365,1,6,0:0:0:0:
460,192,109679,1,6,0:0:0:0:
256,192,109836,1,0,0:0:0:0:
358,192,109993,1,6,0:0:0:0:
153,192,110150,1,0,0:0:0:0:
256,192,110307,1,6,0:0:0:0:
51,192,110464,1,0,0:0:0:0:
153,192,110621,1,6,0:0:0:0:
256,192,110778,1,0,0:0:0:0:
358,192,110935,1,6,0:0:0:0:
192,192,111249,1,6,0:0:0:0:
358,192,111564,1,6,0:0:0:0:
153,192,111878,1,6,0:0:0:0:
256,192,112035,1,0,0:0:0:0:
64,192,112192,1,0,0:0:0:40:finish.wav
460,192,112192,1,0,0:0:0:0:
153,192,112506,1,4,0:0:0:0:
358,192,112820,1,4,0:0:0:0:
153,192,113134,1,0,0:0:0:40:finish.wav
51,192,113448,1,2,0:0:0:0:
460,192,113448,1,0,0:0:0:40:finish.wav
358,192,113763,1,4,0:0:0:0:
153,192,114077,1,4,0:0:0:0:
358,192,114391,1,0,0:0:0:40:finish.wav
64,192,114705,1,0,0:0:0:40:finish.wav
460,192,114705,1,2,0:0:0:0:
153,192,115019,1,0,0:0:0:40:finish.wav
256,192,115333,1,0,0:0:0:40:finish.wav
358,192,115647,1,0,0:0:0:40:finish.wav
460,192,115962,1,0,0:0:0:40:finish.wav
51,192,115962,1,2,0:0:0:0:
51,192,116747,1,0,0:0:0:0:
153,192,116904,1,0,0:0:0:0:
256,192,117061,1,0,0:0:0:0:
448,192,117218,128,4,122244:0:0:0:0:
320,192,117218,1,0,0:0:0:40:finish.wav
51,192,119731,128,4,122244:0:0:0:0:
256,192,122244,1,4,0:0:0:0:
