osu file format v14

[General]
AudioFilename: 3y3s.mp3
AudioLeadIn: 0
PreviewTime: 97113
Countdown: 0
SampleSet: Soft
StackLeniency: 0.7
Mode: 3
LetterboxInBreaks: 0
SpecialStyle: 0
WidescreenStoryboard: 1

[Editor]
DistanceSpacing: 1.2
BeatDivisor: 4
GridSize: 8
TimelineZoom: 2.1

[Metadata]
Title:3y3s
TitleUnicode:3y3s
Artist:Seiryu
ArtistUnicode:青龍
Creator:DanSparce
Version:4K MX
Source:beatmania IIDX
Tags:16 empress eyes dance speed f-fly ポップンリズミン 青龍パック starmine infinitas exusia sirius one more extra stage ryutaro nakahara pop'n music
BeatmapID:870768
BeatmapSetID:397678

[Difficulty]
HPDrainRate:8
CircleSize:4
OverallDifficulty:8
ApproachRate:5
SliderMultiplier:1.4
SliderTickRate:1

[Events]
//Background and Video events
0,0,"seiryu - 3y3s.jpg",0,0
//Break Periods
//Storyboard Layer 0 (Background)
//Storyboard Layer 1 (Fail)
//Storyboard Layer 2 (Pass)
//Storyboard Layer 3 (Foreground)
//Storyboard Sound Samples

[TimingPoints]
2873,314.13612565445,4,2,1,70,1,0
61930,-100,4,2,1,20,0,0
62244,-100,4,2,1,33,0,0
62558,-100,4,2,1,47,0,0
62872,-100,4,2,1,60,0,0
92715,-100,4,2,1,20,0,0
93030,-100,4,2,1,25,0,0
93344,-100,4,2,1,30,0,0
93658,-100,4,2,1,35,0,0
93972,-100,4,2,1,40,0,0
94286,-100,4,2,1,50,0,0
94600,-100,4,2,1,60,0,0
97113,-100,4,2,1,60,0,1
105909,-100,4,2,1,60,0,0
107166,-100,4,2,1,60,0,1
114077,-100,4,2,1,20,0,1
114391,-100,4,2,1,25,0,1
114705,-100,4,2,1,30,0,1
115019,-100,4,2,1,35,0,1
115333,-100,4,2,1,40,0,1
115647,-100,4,2,1,50,0,1
115962,-100,4,2,1,60,0,1
117218,-100,4,2,1,50,0,0
118475,-111.111111111111,4,2,1,40,0,0
119731,-125,4,2,1,30,0,0
120988,-142.857142857143,4,2,1,20,0,0

[HitObjects]
320,192,2872,5,0,0:0:0:0:
448,192,2872,5,0,0:0:0:0:
64,192,2872,1,0,0:0:0:40:finish.wav
192,192,3030,1,0,0:0:0:0:
64,192,3030,1,0,0:0:0:0:
64,192,3187,1,0,0:0:0:0:
320,192,3187,1,0,0:0:0:0:
448,192,3344,1,0,0:0:0:0:
192,192,3344,1,0,0:0:0:0:
320,192,3501,1,0,0:0:0:0:
64,192,3658,1,0,0:0:0:0:
192,192,3658,1,0,0:0:0:0:
192,192,3815,1,0,0:0:0:0:
320,192,3815,1,0,0:0:0:0:
320,192,3972,1,0,0:0:0:0:
448,192,3972,1,0,0:0:0:0:
192,192,4129,1,0,0:0:0:0:
448,192,4129,1,0,0:0:0:0:
448,192,4286,1,0,0:0:0:0:
320,192,4443,1,0,0:0:0:0:
64,192,4443,1,0,0:0:0:0:
64,192,4600,1,0,0:0:0:0:
192,192,4757,1,0,0:0:0:0:
448,192,4757,1,0,0:0:0:0:
448,192,4914,1,0,0:0:0:0:
320,192,5071,1,0,0:0:0:0:
64,192,5071,1,0,0:0:0:0:
64,192,5229,1,0,0:0:0:0:
64,192,5386,1,0,0:0:0:0:
192,192,5386,1,0,0:0:0:0:
192,192,5543,1,0,0:0:0:0:
320,192,5543,1,0,0:0:0:0:
64,192,5700,1,0,0:0:0:0:
320,192,5700,1,0,0:0:0:0:
192,192,5857,1,0,0:0:0:0:
448,192,5857,1,0,0:0:0:0:
320,192,6014,1,0,0:0:0:0:
64,192,6171,1,0,0:0:0:0:
192,192,6171,1,0,0:0:0:0:
320,192,6328,1,0,0:0:0:0:
448,192,6328,1,0,0:0:0:0:
192,192,6485,1,0,0:0:0:0:
320,192,6485,1,0,0:0:0:0:
192,192,6642,1,0,0:0:0:0:
64,192,6642,1,0,0:0:0:0:
64,192,6799,1,0,0:0:0:0:
320,192,6956,1,0,0:0:0:0:
448,192,6956,1,0,0:0:0:0:
448,192,7113,1,0,0:0:0:0:
192,192,7270,1,0,0:0:0:0:
64,192,7270,1,0,0:0:0:0:
64,192,7427,1,0,0:0:0:0:
320,192,7585,1,0,0:0:0:0:
448,192,7585,1,0,0:0:0:0:
64,192,7742,1,0,0:0:0:0:
192,192,7742,1,0,0:0:0:0:
448,192,7899,1,0,0:0:0:0:
192,192,8056,1,0,0:0:0:0:
320,192,8056,1,0,0:0:0:0:
320,192,8213,1,0,0:0:0:0:
64,192,8213,1,0,0:0:0:0:
192,192,8370,1,0,0:0:0:0:
448,192,8370,1,0,0:0:0:0:
320,192,8527,1,0,0:0:0:0:
192,192,8684,1,0,0:0:0:0:
64,192,8684,1,0,0:0:0:0:
320,192,8841,1,0,0:0:0:0:
192,192,8841,1,0,0:0:0:0:
448,192,8998,1,0,0:0:0:0:
64,192,8998,1,0,0:0:0:0:
448,192,9155,1,0,0:0:0:0:
320,192,9155,1,0,0:0:0:0:
320,192,9312,1,0,0:0:0:0:
192,192,9469,1,0,0:0:0:0:
64,192,9469,1,0,0:0:0:0:
192,192,9626,1,0,0:0:0:0:
448,192,9783,1,0,0:0:0:0:
320,192,9783,1,0,0:0:0:0:
320,192,9941,1,0,0:0:0:0:
64,192,10098,1,0,0:0:0:0:
192,192,10098,1,0,0:0:0:0:
192,192,10255,1,0,0:0:0:0:
320,192,10255,1,0,0:0:0:0:
64,192,10412,128,0,12925:0:0:0:0:
192,192,10569,1,0,0:0:0:0:
448,192,10726,1,0,0:0:0:0:
320,192,10883,1,0,0:0:0:0:
192,192,10883,1,0,0:0:0:0:
320,192,11040,1,0,0:0:0:0:
448,192,11040,1,0,0:0:0:0:
192,192,11197,1,0,0:0:0:0:
320,192,11354,1,0,0:0:0:0:
192,192,11511,1,0,0:0:0:0:
448,192,11511,1,0,0:0:0:0:
320,192,11668,1,0,0:0:0:0:
448,192,11668,1,0,0:0:0:0:
192,192,11825,1,0,0:0:0:0:
448,192,11982,1,0,0:0:0:0:
320,192,12140,1,0,0:0:0:0:
448,192,12297,1,0,0:0:0:0:
192,192,12454,1,0,0:0:0:0:
320,192,12454,1,0,0:0:0:0:
320,192,12611,1,0,0:0:0:0:
448,192,12611,1,0,0:0:0:0:
192,192,12768,1,0,0:0:0:0:
448,192,12768,1,0,0:0:0:0:
64,192,14181,1,0,0:0:0:40:finish.wav
192,192,14181,1,2,0:0:0:0:
448,192,14181,1,0,0:0:0:0:
320,192,14338,1,0,0:0:0:0:
448,192,14417,1,0,0:0:0:0:
320,192,14496,1,0,0:0:0:0:
64,192,14496,1,2,0:0:0:0:
192,192,14574,1,0,0:0:0:0:
320,192,14653,1,0,0:0:0:0:
192,192,14731,1,0,0:0:0:0:
448,192,14810,1,0,0:0:0:0:
64,192,14810,1,2,0:0:0:0:
320,192,14967,1,0,0:0:0:0:
192,192,15045,1,0,0:0:0:0:
64,192,15124,1,2,0:0:0:0:
448,192,15124,1,0,0:0:0:0:
192,192,15202,1,0,0:0:0:0:
448,192,15281,1,0,0:0:0:0:
320,192,15359,1,0,0:0:0:0:
64,192,15438,1,2,0:0:0:0:
192,192,15438,1,0,0:0:0:0:
448,192,15595,1,0,0:0:0:0:
320,192,15674,1,0,0:0:0:0:
192,192,15752,1,2,0:0:0:0:
448,192,15752,1,0,0:0:0:0:
64,192,15831,1,0,0:0:0:0:
192,192,15909,1,0,0:0:0:0:
320,192,15988,1,0,0:0:0:0:
448,192,16066,1,0,0:0:0:0:
64,192,16066,1,2,0:0:0:0:
192,192,16223,1,0,0:0:0:0:
64,192,16302,1,0,0:0:0:0:
320,192,16380,1,2,0:0:0:0:
448,192,16380,1,0,0:0:0:0:
64,192,16459,1,0,0:0:0:0:
192,192,16537,1,0,0:0:0:0:
320,192,16616,1,0,0:0:0:0:
64,192,16694,1,2,0:0:0:0:
448,192,16694,1,0,0:0:0:0:
320,192,16852,1,0,0:0:0:0:
192,192,16930,1,0,0:0:0:0:
448,192,17009,1,0,0:0:0:0:
64,192,17009,1,2,0:0:0:0:
192,192,17087,1,0,0:0:0:0:
320,192,17166,1,0,0:0:0:0:
448,192,17244,1,0,0:0:0:0:
320,192,17323,1,0,0:0:0:0:
64,192,17323,1,2,0:0:0:0:
448,192,17480,1,0,0:0:0:0:
320,192,17558,1,0,0:0:0:0:
64,192,17637,1,2,0:0:0:0:
192,192,17637,1,0,0:0:0:0:
448,192,17715,1,0,0:0:0:0:
320,192,17794,1,0,0:0:0:0:
192,192,17872,1,0,0:0:0:0:
448,192,17951,1,0,0:0:0:0:
64,192,17951,1,2,0:0:0:0:
320,192,18108,1,0,0:0:0:0:
192,192,18187,1,0,0:0:0:0:
448,192,18265,1,0,0:0:0:0:
64,192,18265,1,2,0:0:0:0:
320,192,18344,1,0,0:0:0:0:
192,192,18422,1,0,0:0:0:0:
64,192,18501,1,0,0:0:0:0:
448,192,18579,1,0,0:0:0:0:
192,192,18579,1,2,0:0:0:0:
320,192,18736,1,0,0:0:0:0:
192,192,18815,1,0,0:0:0:0:
64,192,18893,1,2,0:0:0:0:
448,192,18893,1,0,0:0:0:0:
192,192,18972,1,0,0:0:0:0:
320,192,19051,1,0,0:0:0:0:
192,192,19129,1,0,0:0:0:0:
64,192,19208,1,2,0:0:0:0:
448,192,19208,1,8,0:0:0:0:
192,192,19365,1,0,0:0:0:0:
320,192,19443,1,0,0:0:0:0:
64,192,19522,1,2,0:0:0:0:
448,192,19522,1,8,0:0:0:0:
320,192,19679,1,0,0:0:0:0:
192,192,19757,1,0,0:0:0:0:
64,192,19836,1,2,0:0:0:0:
448,192,19836,1,8,0:0:0:0:
320,192,19993,1,0,0:0:0:0:
448,192,20071,1,0,0:0:0:0:
64,192,20150,1,2,0:0:0:0:
320,192,20150,1,8,0:0:0:0:
192,192,20307,1,0,0:0:0:0:
64,192,20386,1,0,0:0:0:0:
192,192,20464,1,2,0:0:0:0:
448,192,20464,1,8,0:0:0:0:
320,192,20621,1,0,0:0:0:0:
192,192,20700,1,0,0:0:0:0:
320,192,20778,1,2,0:0:0:0:
448,192,20778,1,8,0:0:0:0:
192,192,20935,1,0,0:0:0:0:
320,192,21014,1,0,0:0:0:0:
64,192,21092,1,2,0:0:0:0:
192,192,21092,1,8,0:0:0:0:
320,192,21249,1,0,0:0:0:0:
448,192,21328,1,0,0:0:0:0:
320,192,21407,1,8,0:0:0:0:
64,192,21407,1,2,0:0:0:0:
192,192,21564,1,0,0:0:0:0:
64,192,21642,1,0,0:0:0:0:
192,192,21721,1,2,0:0:0:0:
448,192,21721,1,8,0:0:0:0:
64,192,21878,1,0,0:0:0:0:
448,192,21956,1,0,0:0:0:0:
192,192,22035,1,2,0:0:0:0:
320,192,22035,1,8,0:0:0:0:
448,192,22192,1,0,0:0:0:0:
64,192,22270,1,0,0:0:0:0:
192,192,22349,1,2,0:0:0:0:
320,192,22349,1,8,0:0:0:0:
448,192,22506,1,0,0:0:0:0:
192,192,22585,1,0,0:0:0:0:
64,192,22663,1,2,0:0:0:0:
320,192,22663,1,8,0:0:0:0:
192,192,22820,1,0,0:0:0:0:
320,192,22899,1,0,0:0:0:0:
448,192,22977,1,0,0:0:0:40:finish.wav
192,192,22977,1,4,0:0:0:0:
64,192,22977,1,10,0:0:0:0:
320,192,23291,1,4,0:0:0:0:
192,192,23605,1,4,0:0:0:0:
320,192,23920,1,4,0:0:0:0:
448,192,24234,1,4,0:0:0:0:
192,192,24234,1,10,0:0:0:0:
64,192,24234,1,0,0:0:0:40:finish.wav
320,192,24391,1,0,0:0:0:0:
448,192,24469,1,0,0:0:0:0:
320,192,24548,1,4,0:0:0:0:
64,192,24548,1,10,0:0:0:0:
192,192,24626,1,0,0:0:0:0:
64,192,24705,1,0,0:0:0:0:
192,192,24783,1,0,0:0:0:0:
64,192,24862,1,10,0:0:0:0:
448,192,24862,1,4,0:0:0:0:
320,192,24941,1,0,0:0:0:0:
192,192,25019,1,0,0:0:0:0:
64,192,25098,1,0,0:0:0:0:
192,192,25176,1,10,0:0:0:0:
448,192,25176,1,4,0:0:0:0:
320,192,25255,1,0,0:0:0:0:
192,192,25333,1,0,0:0:0:0:
320,192,25412,1,0,0:0:0:0:
64,192,25490,1,10,0:0:0:0:
448,192,25490,1,4,0:0:0:0:
192,192,25647,1,0,0:0:0:0:
320,192,25726,1,0,0:0:0:0:
448,192,25804,1,4,0:0:0:0:
64,192,25804,1,10,0:0:0:0:
192,192,25883,1,0,0:0:0:0:
320,192,25962,1,0,0:0:0:0:
192,192,26040,1,0,0:0:0:0:
448,192,26119,1,4,0:0:0:0:
64,192,26119,1,10,0:0:0:0:
320,192,26197,1,0,0:0:0:0:
192,192,26276,1,0,0:0:0:0:
320,192,26354,1,0,0:0:0:0:
192,192,26433,1,4,0:0:0:0:
64,192,26433,1,10,0:0:0:0:
320,192,26511,1,0,0:0:0:0:
448,192,26590,1,0,0:0:0:0:
320,192,26668,1,0,0:0:0:0:
192,192,26747,1,4,0:0:0:0:
64,192,26747,1,10,0:0:0:0:
320,192,26904,1,0,0:0:0:0:
192,192,26982,1,0,0:0:0:0:
64,192,27061,1,10,0:0:0:0:
448,192,27061,1,4,0:0:0:0:
192,192,27140,1,0,0:0:0:0:
320,192,27218,1,0,0:0:0:0:
448,192,27297,1,0,0:0:0:0:
320,192,27375,1,4,0:0:0:0:
64,192,27375,1,10,0:0:0:0:
192,192,27454,1,0,0:0:0:0:
448,192,27532,1,0,0:0:0:0:
320,192,27611,1,0,0:0:0:0:
64,192,27689,1,10,0:0:0:0:
448,192,27689,1,4,0:0:0:0:
192,192,27768,1,0,0:0:0:0:
320,192,27846,1,0,0:0:0:0:
448,192,27925,1,0,0:0:0:0:
64,192,28003,1,10,0:0:0:0:
320,192,28003,1,4,0:0:0:0:
448,192,28160,1,0,0:0:0:0:
320,192,28239,1,0,0:0:0:0:
192,192,28318,1,4,0:0:0:0:
64,192,28318,1,10,0:0:0:0:
320,192,28396,1,0,0:0:0:0:
192,192,28475,1,0,0:0:0:0:
320,192,28553,1,0,0:0:0:0:
448,192,28632,1,4,0:0:0:0:
64,192,28632,1,10,0:0:0:0:
192,192,28710,1,0,0:0:0:0:
320,192,28789,1,0,0:0:0:0:
192,192,28867,1,0,0:0:0:0:
64,192,28946,1,10,0:0:0:0:
448,192,28946,1,4,0:0:0:0:
320,192,29024,1,0,0:0:0:0:
192,192,29103,1,0,0:0:0:0:
320,192,29181,1,0,0:0:0:0:
448,192,29260,1,4,0:0:0:0:
192,192,29260,1,10,0:0:0:0:
64,192,29260,1,0,0:0:0:40:finish.wav
320,192,29417,1,0,0:0:0:0:
192,192,29496,1,0,0:0:0:0:
448,192,29574,1,4,0:0:0:0:
64,192,29574,1,10,0:0:0:0:
192,192,29653,1,0,0:0:0:0:
320,192,29731,1,0,0:0:0:0:
448,192,29810,1,0,0:0:0:0:
320,192,29888,1,4,0:0:0:0:
64,192,29888,1,10,0:0:0:0:
192,192,29967,1,0,0:0:0:0:
64,192,30045,1,0,0:0:0:0:
192,192,30124,1,0,0:0:0:0:
448,192,30202,1,4,0:0:0:0:
320,192,30202,1,10,0:0:0:0:
64,192,30281,1,0,0:0:0:0:
192,192,30359,1,0,0:0:0:0:
320,192,30438,1,0,0:0:0:0:
448,192,30516,1,0,0:0:0:40:finish.wav
64,192,30516,1,10,0:0:0:0:
192,192,30516,1,4,0:0:0:0:
320,192,30674,1,0,0:0:0:0:
192,192,30752,1,0,0:0:0:0:
64,192,30831,1,10,0:0:0:0:
320,192,30831,1,4,0:0:0:0:
448,192,30909,1,0,0:0:0:0:
320,192,30988,1,0,0:0:0:0:
192,192,31066,1,0,0:0:0:0:
64,192,31145,1,10,0:0:0:0:
448,192,31145,1,4,0:0:0:0:
192,192,31223,1,0,0:0:0:0:
320,192,31302,1,0,0:0:0:0:
448,192,31380,1,0,0:0:0:0:
192,192,31459,1,4,0:0:0:0:
64,192,31459,1,10,0:0:0:0:
320,192,31537,1,0,0:0:0:0:
448,192,31616,1,0,0:0:0:0:
320,192,31694,1,0,0:0:0:0:
192,192,31773,1,0,0:0:0:40:finish.wav
64,192,31773,1,10,0:0:0:0:
448,192,31773,1,4,0:0:0:0:
320,192,31930,1,0,0:0:0:0:
448,192,32009,1,0,0:0:0:0:
320,192,32087,1,4,0:0:0:0:
64,192,32087,1,10,0:0:0:0:
192,192,32166,1,0,0:0:0:0:
320,192,32244,1,0,0:0:0:0:
192,192,32323,1,0,0:0:0:0:
448,192,32401,1,4,0:0:0:0:
64,192,32401,1,10,0:0:0:0:
320,192,32401,1,0,0:0:0:40:finish.wav
192,192,32480,1,0,0:0:0:0:
320,192,32558,1,0,0:0:0:0:
448,192,32637,1,0,0:0:0:0:
320,192,32715,1,4,0:0:0:0:
64,192,32715,1,10,0:0:0:0:
192,192,32715,1,0,0:0:0:40:finish.wav
448,192,32794,1,0,0:0:0:0:
192,192,32872,1,0,0:0:0:0:
320,192,32951,1,0,0:0:0:0:
448,192,33030,1,4,0:0:0:0:
64,192,33030,1,10,0:0:0:0:
192,192,33030,1,0,0:0:0:40:finish.wav
320,192,33344,1,12,0:0:0:0:
64,192,33658,1,12,0:0:0:0:
192,192,33972,1,12,0:0:0:0:
448,192,34286,1,0,0:0:0:40:finish.wav
64,192,34286,1,0,0:0:0:80:drum.wav
320,192,34286,1,0,0:0:0:0:
192,192,34365,1,0,0:0:0:80:drum.wav
320,192,34522,1,0,0:0:0:80:drum.wav
448,192,34522,1,0,0:0:0:0:
192,192,34600,1,0,0:0:0:80:drum.wav
64,192,34757,1,0,0:0:0:80:drum.wav
320,192,34757,1,0,0:0:0:0:
192,192,34836,1,0,0:0:0:80:drum.wav
320,192,34993,1,0,0:0:0:80:drum.wav
448,192,34993,1,0,0:0:0:0:
192,192,35071,1,0,0:0:0:80:drum.wav
448,192,35229,1,2,0:0:0:0:
320,192,35229,1,0,0:0:0:80:drum.wav
64,192,35229,1,0,0:0:0:0:
192,192,35386,1,0,0:0:0:80:drum.wav
64,192,35386,1,2,0:0:0:0:
448,192,35386,1,0,0:0:0:0:
64,192,35543,1,0,0:0:0:0:
192,192,35543,1,0,0:0:0:80:drum.wav
320,192,35621,1,0,0:0:0:80:drum.wav
64,192,35778,1,0,0:0:0:80:drum.wav
448,192,35778,1,0,0:0:0:0:
320,192,35857,1,0,0:0:0:80:drum.wav
192,192,36014,1,0,0:0:0:80:drum.wav
64,192,36014,1,0,0:0:0:0:
320,192,36092,1,0,0:0:0:80:drum.wav
64,192,36249,1,0,0:0:0:80:drum.wav
448,192,36249,1,0,0:0:0:0:
320,192,36328,1,0,0:0:0:80:drum.wav
192,192,36485,1,0,0:0:0:80:drum.wav
64,192,36485,1,2,0:0:0:0:
448,192,36485,1,0,0:0:0:0:
320,192,36642,1,0,0:0:0:80:drum.wav
448,192,36642,1,2,0:0:0:0:
64,192,36642,1,0,0:0:0:0:
320,192,36799,1,0,0:0:0:0:
192,192,36799,1,0,0:0:0:40:finish.wav
64,192,36799,1,0,0:0:0:80:drum.wav
448,192,36878,1,0,0:0:0:80:drum.wav
320,192,37035,1,0,0:0:0:80:drum.wav
64,192,37035,1,0,0:0:0:0:
448,192,37113,1,0,0:0:0:80:drum.wav
192,192,37270,1,0,0:0:0:80:drum.wav
320,192,37270,1,0,0:0:0:0:
64,192,37349,1,0,0:0:0:80:drum.wav
192,192,37506,1,0,0:0:0:80:drum.wav
448,192,37506,1,0,0:0:0:0:
64,192,37585,1,0,0:0:0:80:drum.wav
448,192,37742,1,0,0:0:0:80:drum.wav
320,192,37742,1,2,0:0:0:0:
64,192,37742,1,0,0:0:0:0:
64,192,37899,1,0,0:0:0:80:drum.wav
192,192,37899,1,2,0:0:0:0:
448,192,37899,1,0,0:0:0:0:
64,192,38056,1,0,0:0:0:80:drum.wav
448,192,38056,1,0,0:0:0:0:
192,192,38134,1,0,0:0:0:80:drum.wav
320,192,38291,1,0,0:0:0:80:drum.wav
448,192,38291,1,0,0:0:0:0:
192,192,38370,1,0,0:0:0:80:drum.wav
64,192,38527,1,0,0:0:0:80:drum.wav
448,192,38527,1,0,0:0:0:0:
192,192,38605,1,0,0:0:0:80:drum.wav
320,192,38763,1,0,0:0:0:80:drum.wav
448,192,38763,1,0,0:0:0:0:
192,192,38841,1,0,0:0:0:80:drum.wav
448,192,38998,1,0,0:0:0:80:drum.wav
320,192,38998,1,2,0:0:0:0:
64,192,38998,1,0,0:0:0:0:
64,192,39155,1,0,0:0:0:80:drum.wav
192,192,39155,1,2,0:0:0:0:
448,192,39155,1,0,0:0:0:0:
64,192,39312,1,0,0:0:0:40:finish.wav
448,192,39312,1,0,0:0:0:80:drum.wav
192,192,39312,1,0,0:0:0:0:
320,192,39391,1,0,0:0:0:80:drum.wav
192,192,39548,1,0,0:0:0:80:drum.wav
64,192,39626,1,0,0:0:0:80:drum.wav
320,192,39626,1,2,0:0:0:0:
448,192,39626,1,0,0:0:0:0:
192,192,39783,1,0,0:0:0:80:drum.wav
64,192,39783,1,0,0:0:0:0:
320,192,39862,1,0,0:0:0:80:drum.wav
64,192,39941,1,0,0:0:0:80:drum.wav
448,192,39941,1,0,0:0:0:0:
192,192,40019,1,0,0:0:0:80:drum.wav
320,192,40176,1,0,0:0:0:80:drum.wav
448,192,40255,1,0,0:0:0:80:drum.wav
192,192,40255,1,2,0:0:0:0:
64,192,40255,1,0,0:0:0:0:
320,192,40412,1,0,0:0:0:80:drum.wav
448,192,40412,1,0,0:0:0:0:
192,192,40490,1,0,0:0:0:80:drum.wav
64,192,40569,1,0,0:0:0:80:drum.wav
448,192,40569,1,0,0:0:0:40:finish.wav
320,192,40569,1,0,0:0:0:0:
192,192,40647,1,0,0:0:0:80:drum.wav
320,192,40804,1,0,0:0:0:80:drum.wav
448,192,40883,1,0,0:0:0:80:drum.wav
64,192,40883,1,0,0:0:0:0:
192,192,40883,1,2,0:0:0:0:
320,192,41040,1,0,0:0:0:80:drum.wav
448,192,41040,1,0,0:0:0:0:
192,192,41119,1,0,0:0:0:80:drum.wav
64,192,41197,1,0,0:0:0:0:
448,192,41197,1,0,0:0:0:80:drum.wav
320,192,41276,1,0,0:0:0:80:drum.wav
192,192,41433,1,0,0:0:0:80:drum.wav
448,192,41511,1,2,0:0:0:0:
64,192,41511,1,0,0:0:0:80:drum.wav
320,192,41511,1,0,0:0:0:0:
192,192,41668,1,0,0:0:0:80:drum.wav
64,192,41668,1,0,0:0:0:0:
320,192,41747,1,0,0:0:0:80:drum.wav
64,192,41825,1,0,0:0:0:40:finish.wav
192,192,41825,1,0,0:0:0:80:drum.wav
448,192,41982,1,2,0:0:0:0:
320,192,41982,1,0,0:0:0:80:drum.wav
64,192,41982,1,0,0:0:0:0:
320,192,42140,1,0,0:0:0:80:drum.wav
448,192,42140,1,0,0:0:0:40:finish.wav
64,192,42297,1,2,0:0:0:0:
192,192,42297,1,0,0:0:0:80:drum.wav
448,192,42297,1,0,0:0:0:0:
320,192,42454,1,0,0:0:0:80:drum.wav
64,192,42454,1,0,0:0:0:40:finish.wav
64,192,42611,1,2,0:0:0:0:
192,192,42611,1,0,0:0:0:80:drum.wav
448,192,42611,1,0,0:0:0:0:
448,192,42768,1,0,0:0:0:40:finish.wav
192,192,42768,1,0,0:0:0:80:drum.wav
320,192,42925,1,0,0:0:0:80:drum.wav
448,192,42925,1,2,0:0:0:0:
64,192,42925,1,0,0:0:0:0:
448,192,43082,1,0,0:0:0:80:drum.wav
64,192,43082,1,0,0:0:0:40:finish.wav
192,192,43082,1,0,0:0:0:0:
320,192,43160,1,0,0:0:0:80:drum.wav
192,192,43239,128,0,43396:0:0:0:80:drum.wav
320,192,43318,128,0,43396:0:0:0:0:
64,192,43396,128,0,43475:0:0:0:80:drum.wav
192,192,43475,1,0,0:0:0:80:drum.wav
64,192,43553,128,0,43632:0:0:0:80:drum.wav
64,192,43710,1,0,0:0:0:80:drum.wav
192,192,43789,1,0,0:0:0:80:drum.wav
320,192,43867,1,0,0:0:0:80:drum.wav
448,192,43946,1,0,0:0:0:80:drum.wav
64,192,44024,1,0,0:0:0:0:
192,192,44024,1,0,0:0:0:80:drum.wav
320,192,44103,1,0,0:0:0:80:drum.wav
448,192,44103,1,0,0:0:0:0:
64,192,44181,1,0,0:0:0:0:
192,192,44181,1,0,0:0:0:80:drum.wav
320,192,44260,1,0,0:0:0:80:drum.wav
448,192,44260,1,0,0:0:0:0:
448,192,44338,1,0,0:0:0:0:
64,192,44338,1,0,0:0:0:40:finish.wav
192,192,44338,1,2,0:0:0:0:
320,192,44496,1,0,0:0:0:0:
192,192,44574,1,0,0:0:0:0:
448,192,44653,1,0,0:0:0:0:
64,192,44653,1,2,0:0:0:0:
192,192,44731,1,0,0:0:0:0:
320,192,44810,1,0,0:0:0:0:
192,192,44888,1,0,0:0:0:0:
64,192,44967,128,0,45281:0:0:0:0:
448,192,44967,1,2,0:0:0:0:
192,192,45124,128,0,45438:0:0:0:0:
320,192,45124,1,0,0:0:0:0:
320,192,45281,128,0,45438:0:0:0:0:
448,192,45281,1,2,0:0:0:0:
64,192,45438,1,0,0:0:0:0:
448,192,45438,1,0,0:0:0:0:
64,192,45595,1,2,0:0:0:0:
320,192,45595,1,0,0:0:0:0:
192,192,45752,1,0,0:0:0:0:
320,192,45831,1,0,0:0:0:0:
192,192,45909,1,2,0:0:0:0:
448,192,45909,1,0,0:0:0:0:
64,192,45988,1,0,0:0:0:0:
192,192,46066,1,0,0:0:0:0:
320,192,46145,1,0,0:0:0:0:
64,192,46223,128,0,46694:0:0:0:0:
448,192,46223,1,2,0:0:0:0:
192,192,46380,128,0,46694:0:0:0:0:
448,192,46537,128,0,46694:0:0:0:0:
320,192,46537,128,2,46694:0:0:0:0:
64,192,46852,1,2,0:0:0:0:
192,192,46852,1,0,0:0:0:0:
448,192,47009,1,0,0:0:0:0:
320,192,47087,1,0,0:0:0:0:
192,192,47166,1,0,0:0:0:0:
64,192,47166,1,2,0:0:0:0:
320,192,47244,1,0,0:0:0:0:
64,192,47323,1,0,0:0:0:0:
192,192,47401,1,0,0:0:0:0:
320,192,47480,1,2,0:0:0:0:
448,192,47480,128,0,47794:0:0:0:0:
320,192,47637,128,0,47951:0:0:0:0:
192,192,47637,1,0,0:0:0:0:
192,192,47794,128,0,47951:0:0:0:0:
64,192,47794,1,2,0:0:0:0:
448,192,47951,1,0,0:0:0:0:
64,192,47951,1,0,0:0:0:0:
64,192,48108,1,2,0:0:0:0:
448,192,48108,1,0,0:0:0:0:
320,192,48265,128,0,48422:0:0:0:0:
192,192,48344,1,0,0:0:0:0:
64,192,48422,1,2,0:0:0:0:
448,192,48422,1,0,0:0:0:0:
192,192,48501,1,0,0:0:0:0:
320,192,48579,128,0,48736:0:0:0:0:
192,192,48658,1,0,0:0:0:0:
448,192,48736,128,0,49208:0:0:0:0:
64,192,48736,1,2,0:0:0:0:
320,192,48893,128,0,49208:0:0:0:0:
192,192,48893,1,0,0:0:0:0:
192,192,49051,128,0,49208:0:0:0:0:
64,192,49051,128,2,49208:0:0:0:0:
64,192,49365,1,2,0:0:0:0:
320,192,49365,1,8,0:0:0:0:
448,192,49522,1,0,0:0:0:0:
320,192,49600,1,0,0:0:0:0:
64,192,49679,1,2,0:0:0:0:
192,192,49679,1,8,0:0:0:0:
448,192,49757,1,0,0:0:0:0:
320,192,49836,1,0,0:0:0:0:
192,192,49914,1,0,0:0:0:0:
64,192,49993,128,8,50307:0:0:0:0:
448,192,49993,1,2,0:0:0:0:
320,192,50150,128,0,50464:0:0:0:0:
192,192,50150,1,0,0:0:0:0:
448,192,50307,128,8,50464:0:0:0:0:
192,192,50307,1,2,0:0:0:0:
64,192,50464,1,0,0:0:0:0:
192,192,50464,1,0,0:0:0:0:
64,192,50621,1,2,0:0:0:0:
448,192,50621,1,8,0:0:0:0:
320,192,50778,1,0,0:0:0:0:
192,192,50857,1,0,0:0:0:0:
448,192,50935,1,8,0:0:0:0:
64,192,50935,1,2,0:0:0:0:
320,192,51014,1,0,0:0:0:0:
192,192,51092,1,0,0:0:0:0:
320,192,51171,1,0,0:0:0:0:
64,192,51249,128,8,51721:0:0:0:0:
448,192,51249,1,2,0:0:0:0:
320,192,51407,128,0,51721:0:0:0:0:
192,192,51564,128,2,51721:0:0:0:0:
448,192,51564,128,8,51721:0:0:0:0:
448,192,51878,1,8,0:0:0:0:
64,192,51878,1,2,0:0:0:0:
320,192,52035,1,0,0:0:0:0:
192,192,52113,1,0,0:0:0:0:
448,192,52192,1,8,0:0:0:0:
64,192,52192,1,2,0:0:0:0:
320,192,52270,1,0,0:0:0:0:
192,192,52349,1,0,0:0:0:0:
320,192,52427,1,0,0:0:0:0:
448,192,52506,128,8,52820:0:0:0:0:
64,192,52506,1,2,0:0:0:0:
192,192,52663,128,0,52977:0:0:0:0:
320,192,52663,1,0,0:0:0:0:
64,192,52820,128,8,52977:0:0:0:0:
320,192,52820,1,2,0:0:0:0:
320,192,52977,1,0,0:0:0:0:
448,192,52977,1,0,0:0:0:0:
64,192,53134,1,0,0:0:0:40:finish.wav
192,192,53134,1,2,0:0:0:0:
448,192,53134,1,8,0:0:0:0:
320,192,53291,128,0,53448:0:0:0:0:
192,192,53370,128,0,53448:0:0:0:0:
448,192,53448,128,12,53527:0:0:0:0:
448,192,53605,128,0,53684:0:0:0:0:
192,192,53763,1,12,0:0:0:0:
320,192,53920,1,0,0:0:0:0:
64,192,54077,1,12,0:0:0:0:
192,192,54077,1,0,0:0:0:0:
320,192,54155,1,0,0:0:0:0:
448,192,54155,1,0,0:0:0:0:
192,192,54234,1,0,0:0:0:0:
64,192,54234,1,0,0:0:0:0:
320,192,54312,1,0,0:0:0:0:
448,192,54312,1,0,0:0:0:0:
192,192,54391,1,10,0:0:0:0:
64,192,54391,1,0,0:0:0:40:finish.wav
448,192,54391,128,4,54705:0:0:0:0:
192,192,54548,1,0,0:0:0:0:
320,192,54548,128,0,54705:0:0:0:0:
64,192,54705,1,10,0:0:0:0:
192,192,54705,128,4,55019:0:0:0:0:
448,192,54862,1,0,0:0:0:0:
64,192,54862,128,0,55019:0:0:0:0:
320,192,55019,1,10,0:0:0:0:
448,192,55019,1,4,0:0:0:0:
448,192,55176,128,0,55333:0:0:0:0:
192,192,55176,1,0,0:0:0:0:
320,192,55333,128,4,55490:0:0:0:0:
64,192,55333,1,10,0:0:0:0:
192,192,55490,128,0,55647:0:0:0:0:
448,192,55490,1,0,0:0:0:0:
448,192,55647,1,4,0:0:0:0:
64,192,55647,1,10,0:0:0:0:
192,192,55804,128,0,55962:0:0:0:0:
320,192,55883,128,0,55962:0:0:0:0:
64,192,55962,128,4,56040:0:0:0:0:
448,192,55962,1,10,0:0:0:0:
320,192,56040,1,0,0:0:0:0:
448,192,56119,1,0,0:0:0:0:
64,192,56119,128,0,56197:0:0:0:0:
320,192,56197,1,0,0:0:0:0:
64,192,56276,128,10,56747:0:0:0:0:
192,192,56276,1,4,0:0:0:0:
448,192,56433,128,0,56747:0:0:0:0:
320,192,56590,128,4,56747:0:0:0:0:
192,192,56590,128,10,56747:0:0:0:0:
448,192,56904,1,10,0:0:0:0:
64,192,56904,128,4,57218:0:0:0:0:
320,192,57061,1,0,0:0:0:0:
192,192,57061,128,0,57218:0:0:0:0:
448,192,57218,1,10,0:0:0:0:
320,192,57218,128,4,57532:0:0:0:0:
192,192,57375,1,0,0:0:0:0:
448,192,57375,128,0,57532:0:0:0:0:
64,192,57532,1,10,0:0:0:0:
192,192,57532,1,4,0:0:0:0:
320,192,57689,1,0,0:0:0:0:
64,192,57689,128,0,57846:0:0:0:0:
448,192,57846,1,10,0:0:0:0:
192,192,57846,128,4,58003:0:0:0:0:
64,192,58003,1,0,0:0:0:0:
320,192,58003,128,0,58160:0:0:0:0:
64,192,58160,1,10,0:0:0:0:
448,192,58160,1,4,0:0:0:0:
320,192,58318,128,0,58475:0:0:0:0:
192,192,58396,128,0,58475:0:0:0:0:
448,192,58475,128,4,58553:0:0:0:0:
64,192,58475,1,10,0:0:0:0:
320,192,58553,1,0,0:0:0:0:
192,192,58632,1,0,0:0:0:0:
448,192,58632,128,0,58710:0:0:0:0:
64,192,58710,1,0,0:0:0:0:
192,192,58789,1,10,0:0:0:0:
448,192,58789,1,4,0:0:0:0:
320,192,58946,1,0,0:0:0:0:
64,192,59103,1,10,0:0:0:0:
192,192,59103,1,4,0:0:0:0:
320,192,59181,1,0,0:0:0:0:
448,192,59181,1,0,0:0:0:0:
64,192,59260,1,0,0:0:0:0:
192,192,59260,1,0,0:0:0:0:
320,192,59338,1,0,0:0:0:0:
448,192,59338,1,0,0:0:0:0:
64,192,59417,1,2,0:0:0:0:
448,192,59417,1,0,0:0:0:40:finish.wav
192,192,59417,1,0,0:0:0:0:
320,192,59496,1,0,0:0:0:0:
64,192,59496,1,2,0:0:0:0:
320,192,59653,1,0,0:0:0:0:
192,192,59653,1,2,0:0:0:0:
448,192,59731,1,0,0:0:0:0:
64,192,59731,1,2,0:0:0:0:
320,192,59888,1,0,0:0:0:0:
448,192,59888,1,2,0:0:0:0:
192,192,59967,1,2,0:0:0:0:
64,192,59967,1,0,0:0:0:0:
192,192,60124,1,0,0:0:0:0:
448,192,60124,1,2,0:0:0:0:
320,192,60202,1,2,0:0:0:0:
64,192,60202,1,0,0:0:0:0:
64,192,60359,128,2,60516:0:0:0:0:
448,192,60359,1,0,0:0:0:0:
320,192,60359,1,0,0:0:0:40:finish.wav
192,192,60516,128,0,60674:0:0:0:0:
448,192,60674,1,0,0:0:0:40:finish.wav
64,192,60674,1,2,0:0:0:0:
320,192,60674,1,0,0:0:0:0:
320,192,60752,1,0,0:0:0:0:
192,192,60752,1,2,0:0:0:0:
64,192,60909,1,2,0:0:0:0:
192,192,60909,1,0,0:0:0:0:
320,192,60988,1,2,0:0:0:0:
448,192,60988,1,0,0:0:0:0:
320,192,61145,1,2,0:0:0:0:
192,192,61145,1,0,0:0:0:0:
64,192,61223,1,0,0:0:0:0:
448,192,61223,1,2,0:0:0:0:
448,192,61380,1,2,0:0:0:0:
320,192,61380,1,0,0:0:0:0:
64,192,61459,1,0,0:0:0:0:
192,192,61459,1,2,0:0:0:0:
320,192,61616,1,2,0:0:0:0:
64,192,61616,1,0,0:0:0:40:finish.wav
448,192,61616,128,0,61694:0:0:0:0:
64,192,61773,1,0,0:0:0:40:finish.wav
320,192,61773,1,2,0:0:0:0:
448,192,61773,128,0,61852:0:0:0:0:
448,192,61930,1,0,0:0:0:40:finish.wav
64,192,61930,1,2,0:0:0:0:
192,192,62009,1,2,0:0:0:0:
320,192,62087,1,2,0:0:0:0:
448,192,62166,1,2,0:0:0:0:
64,192,62244,1,0,0:0:0:40:finish.wav
192,192,62244,1,2,0:0:0:0:
320,192,62323,1,2,0:0:0:0:
448,192,62401,1,2,0:0:0:0:
320,192,62480,1,2,0:0:0:0:
64,192,62558,1,2,0:0:0:0:
448,192,62558,1,0,0:0:0:40:finish.wav
192,192,62637,1,2,0:0:0:0:
320,192,62715,1,2,0:0:0:0:
448,192,62794,1,2,0:0:0:0:
64,192,62872,1,0,0:0:0:40:finish.wav
192,192,62872,1,2,0:0:0:0:
320,192,62951,1,2,0:0:0:0:
448,192,62951,1,0,0:0:0:0:
192,192,63030,1,2,0:0:0:0:
64,192,63030,1,0,0:0:0:0:
320,192,63108,1,2,0:0:0:0:
448,192,63108,1,0,0:0:0:0:
192,192,63187,1,2,0:0:0:0:
448,192,63187,1,0,0:0:0:40:finish.wav
64,192,63187,1,0,0:0:0:0:
320,192,63265,1,0,0:0:0:0:
192,192,63344,1,0,0:0:0:0:
64,192,63422,1,0,0:0:0:0:
448,192,63501,1,0,0:0:0:0:
320,192,63579,1,0,0:0:0:0:
64,192,63658,1,0,0:0:0:0:
192,192,63736,1,0,0:0:0:0:
320,192,63815,1,0,0:0:0:0:
448,192,63893,1,0,0:0:0:0:
64,192,63972,1,0,0:0:0:0:
192,192,64051,1,0,0:0:0:0:
448,192,64129,1,0,0:0:0:0:
320,192,64208,1,0,0:0:0:0:
192,192,64286,1,0,0:0:0:0:
64,192,64365,1,0,0:0:0:0:
448,192,64443,1,0,0:0:0:0:
320,192,64522,1,0,0:0:0:0:
64,192,64600,1,0,0:0:0:0:
192,192,64679,1,0,0:0:0:0:
320,192,64757,1,0,0:0:0:0:
448,192,64836,1,0,0:0:0:0:
64,192,64914,1,0,0:0:0:0:
192,192,64993,1,0,0:0:0:0:
448,192,65071,1,0,0:0:0:0:
320,192,65150,1,0,0:0:0:0:
192,192,65229,1,0,0:0:0:0:
64,192,65307,1,0,0:0:0:0:
448,192,65386,1,0,0:0:0:0:
320,192,65464,1,0,0:0:0:0:
64,192,65543,1,0,0:0:0:0:
192,192,65621,1,0,0:0:0:0:
192,192,68370,128,0,68527:0:0:0:0:
64,192,68684,128,0,68841:0:0:0:0:
192,192,68841,128,0,69312:0:0:0:0:
448,192,68998,128,0,69312:0:0:0:0:
320,192,69155,128,0,69312:0:0:0:0:
64,192,69155,128,0,69312:0:0:0:0:
448,192,69469,1,0,0:0:0:0:
64,192,69469,1,0,0:0:0:40:finish.wav
320,192,69469,1,0,0:0:0:0:
192,192,69626,1,0,0:0:0:0:
320,192,69626,1,0,0:0:0:0:
64,192,69783,1,0,0:0:0:0:
192,192,69783,1,0,0:0:0:0:
192,192,69941,1,0,0:0:0:0:
448,192,69941,1,0,0:0:0:0:
320,192,70098,1,0,0:0:0:0:
448,192,70255,1,0,0:0:0:0:
192,192,70255,1,0,0:0:0:0:
192,192,70412,1,0,0:0:0:0:
320,192,70412,1,0,0:0:0:0:
64,192,70569,1,0,0:0:0:0:
320,192,70569,1,0,0:0:0:0:
192,192,70726,1,0,0:0:0:0:
448,192,70726,1,0,0:0:0:0:
448,192,70883,1,0,0:0:0:0:
64,192,71040,1,0,0:0:0:0:
320,192,71040,1,0,0:0:0:0:
64,192,71197,1,0,0:0:0:0:
448,192,71354,1,0,0:0:0:0:
192,192,71354,1,0,0:0:0:0:
448,192,71511,1,0,0:0:0:0:
64,192,71668,1,0,0:0:0:0:
320,192,71668,1,0,0:0:0:0:
64,192,71825,1,0,0:0:0:0:
320,192,71982,1,0,0:0:0:0:
192,192,71982,1,0,0:0:0:0:
448,192,72140,1,0,0:0:0:0:
320,192,72140,1,0,0:0:0:0:
448,192,72297,1,0,0:0:0:0:
192,192,72297,1,0,0:0:0:0:
192,192,72454,1,0,0:0:0:0:
64,192,72454,1,0,0:0:0:0:
320,192,72611,1,0,0:0:0:0:
64,192,72768,1,0,0:0:0:0:
448,192,72768,1,0,0:0:0:0:
320,192,72925,1,0,0:0:0:0:
192,192,72925,1,0,0:0:0:0:
192,192,73082,1,0,0:0:0:0:
64,192,73082,1,0,0:0:0:0:
448,192,73239,1,0,0:0:0:0:
320,192,73239,1,0,0:0:0:0:
448,192,73396,1,0,0:0:0:0:
192,192,73553,1,0,0:0:0:0:
64,192,73553,1,0,0:0:0:0:
64,192,73710,1,0,0:0:0:0:
448,192,73867,1,0,0:0:0:0:
320,192,73867,1,0,0:0:0:0:
448,192,74024,1,0,0:0:0:0:
192,192,74181,1,0,0:0:0:0:
64,192,74181,1,0,0:0:0:0:
448,192,74338,1,0,0:0:0:0:
320,192,74338,1,0,0:0:0:0:
64,192,74496,1,0,0:0:0:0:
192,192,74653,1,0,0:0:0:0:
320,192,74653,1,0,0:0:0:0:
64,192,74810,1,0,0:0:0:0:
192,192,74810,1,0,0:0:0:0:
192,192,74967,1,0,0:0:0:0:
448,192,74967,1,0,0:0:0:0:
320,192,75124,1,0,0:0:0:0:
64,192,75281,1,0,0:0:0:0:
192,192,75281,1,0,0:0:0:0:
320,192,75438,1,0,0:0:0:0:
192,192,75438,1,0,0:0:0:0:
64,192,75595,1,0,0:0:0:0:
448,192,75595,1,0,0:0:0:0:
448,192,75752,1,0,0:0:0:0:
192,192,75752,1,0,0:0:0:0:
448,192,75909,1,0,0:0:0:0:
64,192,76066,1,0,0:0:0:0:
320,192,76066,1,0,0:0:0:0:
64,192,76223,1,0,0:0:0:0:
448,192,76380,1,0,0:0:0:0:
192,192,76380,1,0,0:0:0:0:
448,192,76537,1,0,0:0:0:0:
320,192,76694,1,0,0:0:0:0:
64,192,76694,1,0,0:0:0:0:
192,192,76852,1,0,0:0:0:0:
448,192,76852,1,0,0:0:0:0:
64,192,77009,1,0,0:0:0:0:
192,192,77166,1,0,0:0:0:0:
448,192,77323,1,0,0:0:0:0:
192,192,77480,1,0,0:0:0:0:
320,192,77480,1,0,0:0:0:0:
448,192,77637,1,0,0:0:0:0:
64,192,77637,1,0,0:0:0:0:
320,192,77794,1,0,0:0:0:0:
192,192,77951,1,0,0:0:0:0:
448,192,78108,1,0,0:0:0:0:
320,192,78108,1,0,0:0:0:0:
192,192,78265,1,0,0:0:0:0:
64,192,78265,128,0,79522:0:0:0:0:
320,192,78422,1,0,0:0:0:0:
448,192,78579,1,0,0:0:0:0:
320,192,78736,1,0,0:0:0:0:
192,192,78893,1,0,0:0:0:0:
192,192,79051,1,0,0:0:0:0:
320,192,79051,1,0,0:0:0:0:
320,192,79208,1,0,0:0:0:0:
448,192,79208,1,0,0:0:0:0:
448,192,79365,1,0,0:0:0:0:
192,192,79365,1,0,0:0:0:0:
448,192,79522,1,0,0:0:0:0:
320,192,79522,1,0,0:0:0:40:finish.wav
192,192,79522,1,8,0:0:0:0:
320,192,79679,1,0,0:0:0:0:
64,192,79679,1,0,0:0:0:0:
192,192,79836,1,8,0:0:0:0:
448,192,79836,1,0,0:0:0:0:
320,192,79993,1,0,0:0:0:0:
448,192,79993,1,0,0:0:0:0:
192,192,80150,1,8,0:0:0:0:
448,192,80307,1,0,0:0:0:0:
64,192,80307,1,0,0:0:0:0:
64,192,80464,1,8,0:0:0:0:
192,192,80464,1,0,0:0:0:0:
192,192,80621,1,0,0:0:0:0:
320,192,80621,1,0,0:0:0:0:
64,192,80778,1,8,0:0:0:0:
320,192,80778,1,0,0:0:0:0:
64,192,80935,1,0,0:0:0:0:
192,192,81092,1,0,0:0:0:0:
448,192,81092,1,8,0:0:0:0:
448,192,81249,1,0,0:0:0:0:
64,192,81407,1,8,0:0:0:0:
320,192,81407,1,0,0:0:0:0:
64,192,81564,1,0,0:0:0:0:
448,192,81721,1,8,0:0:0:0:
192,192,81721,1,0,0:0:0:0:
448,192,81878,1,8,0:0:0:0:
192,192,81878,1,0,0:0:0:0:
64,192,82035,1,8,0:0:0:0:
320,192,82035,1,0,0:0:0:0:
192,192,82192,1,0,0:0:0:0:
64,192,82192,1,0,0:0:0:0:
320,192,82349,1,0,0:0:0:0:
192,192,82349,1,8,0:0:0:0:
320,192,82506,1,0,0:0:0:0:
64,192,82506,1,0,0:0:0:0:
448,192,82663,1,8,0:0:0:0:
192,192,82820,1,0,0:0:0:0:
320,192,82820,1,0,0:0:0:0:
320,192,82977,1,0,0:0:0:0:
64,192,82977,1,8,0:0:0:0:
320,192,83134,1,0,0:0:0:0:
192,192,83134,1,0,0:0:0:0:
320,192,83291,1,8,0:0:0:0:
448,192,83291,1,0,0:0:0:0:
320,192,83448,1,0,0:0:0:0:
192,192,83605,1,8,0:0:0:0:
64,192,83605,1,0,0:0:0:0:
192,192,83763,1,0,0:0:0:0:
448,192,83920,1,0,0:0:0:0:
320,192,83920,1,8,0:0:0:0:
320,192,84077,1,0,0:0:0:0:
192,192,84234,1,8,0:0:0:0:
64,192,84234,1,0,0:0:0:0:
64,192,84391,1,0,0:0:0:0:
192,192,84391,1,8,0:0:0:0:
448,192,84548,1,0,0:0:0:0:
64,192,84548,1,8,0:0:0:0:
320,192,84548,1,0,0:0:0:40:finish.wav
192,192,84705,1,0,0:0:0:0:
448,192,84705,1,0,0:0:0:0:
64,192,84862,1,8,0:0:0:0:
192,192,84862,1,0,0:0:0:0:
320,192,85019,1,0,0:0:0:0:
192,192,85019,1,0,0:0:0:0:
448,192,85176,1,8,0:0:0:0:
320,192,85333,1,0,0:0:0:0:
64,192,85333,1,0,0:0:0:0:
192,192,85490,1,0,0:0:0:0:
64,192,85490,1,8,0:0:0:0:
320,192,85647,1,0,0:0:0:0:
192,192,85647,1,0,0:0:0:0:
192,192,85804,1,0,0:0:0:40:finish.wav
448,192,85804,1,0,0:0:0:0:
64,192,85804,1,8,0:0:0:0:
64,192,85962,1,0,0:0:0:0:
320,192,86119,1,0,0:0:0:0:
448,192,86119,1,8,0:0:0:0:
448,192,86276,1,0,0:0:0:0:
64,192,86433,1,8,0:0:0:0:
192,192,86433,1,0,0:0:0:0:
64,192,86590,1,0,0:0:0:0:
320,192,86747,1,0,0:0:0:0:
448,192,86747,1,8,0:0:0:0:
320,192,86904,1,0,0:0:0:0:
192,192,86904,1,0,0:0:0:0:
448,192,87061,1,0,0:0:0:0:
192,192,87061,1,8,0:0:0:0:
64,192,87061,1,0,0:0:0:40:finish.wav
320,192,87218,1,0,0:0:0:0:
448,192,87375,1,0,0:0:0:40:finish.wav
64,192,87375,1,0,0:0:0:0:
320,192,87375,1,8,0:0:0:0:
192,192,87532,1,0,0:0:0:0:
64,192,87532,1,0,0:0:0:0:
192,192,87689,1,0,0:0:0:0:
448,192,87689,1,8,0:0:0:0:
320,192,87689,1,0,0:0:0:40:finish.wav
64,192,87846,1,0,0:0:0:0:
64,192,88003,1,8,0:0:0:0:
192,192,88003,1,0,0:0:0:40:finish.wav
320,192,88003,1,0,0:0:0:0:
448,192,88160,1,0,0:0:0:0:
320,192,88160,1,0,0:0:0:0:
64,192,88318,1,0,0:0:0:40:finish.wav
448,192,88318,1,0,0:0:0:0:
192,192,88318,1,8,0:0:0:0:
320,192,88475,1,0,0:0:0:0:
448,192,88632,1,0,0:0:0:40:finish.wav
192,192,88632,1,0,0:0:0:0:
320,192,88632,1,8,0:0:0:0:
64,192,88789,1,0,0:0:0:0:
192,192,88946,1,8,0:0:0:0:
320,192,88946,1,0,0:0:0:0:
64,192,88946,1,0,0:0:0:40:finish.wav
448,192,89103,1,0,0:0:0:0:
320,192,89103,1,0,0:0:0:0:
448,192,89260,1,0,0:0:0:0:
192,192,89260,1,8,0:0:0:0:
64,192,89260,1,0,0:0:0:40:finish.wav
320,192,89417,1,0,0:0:0:0:
192,192,89417,1,0,0:0:0:0:
320,192,89574,1,0,0:0:0:0:
64,192,89574,1,0,0:0:0:40:finish.wav
64,192,89731,1,0,0:0:0:0:
192,192,89888,1,0,0:0:0:40:finish.wav
448,192,89888,1,0,0:0:0:0:
448,192,90045,1,0,0:0:0:0:
320,192,90045,1,0,0:0:0:0:
64,192,90202,1,0,0:0:0:40:finish.wav
192,192,90202,1,0,0:0:0:0:
192,192,90359,1,0,0:0:0:0:
320,192,90516,1,0,0:0:0:0:
448,192,90516,1,0,0:0:0:40:finish.wav
320,192,90674,1,0,0:0:0:0:
64,192,90674,1,0,0:0:0:0:
192,192,90831,1,0,0:0:0:40:finish.wav
448,192,90831,1,0,0:0:0:0:
192,192,90988,1,0,0:0:0:0:
320,192,91145,1,0,0:0:0:40:finish.wav
64,192,91145,1,0,0:0:0:0:
192,192,91302,1,0,0:0:0:0:
320,192,91302,1,0,0:0:0:0:
448,192,91459,1,0,0:0:0:0:
192,192,91459,1,0,0:0:0:40:finish.wav
192,192,91616,1,0,0:0:0:0:
64,192,91773,1,0,0:0:0:0:
320,192,91773,1,0,0:0:0:40:finish.wav
320,192,91930,1,0,0:0:0:0:
320,192,92087,1,0,0:0:0:0:
448,192,92087,1,0,0:0:0:40:finish.wav
64,192,92087,1,0,0:0:0:0:
448,192,92244,1,0,0:0:0:0:
64,192,92401,1,0,0:0:0:40:finish.wav
192,192,92401,1,0,0:0:0:0:
64,192,92558,1,0,0:0:0:0:
448,192,92715,1,2,0:0:0:0:
64,192,92715,1,2,0:0:0:40:finish.wav
320,192,92794,1,2,0:0:0:0:
192,192,92872,1,2,0:0:0:0:
320,192,92951,1,2,0:0:0:0:
448,192,93030,1,2,0:0:0:0:
64,192,93030,1,2,0:0:0:40:finish.wav
320,192,93108,1,2,0:0:0:0:
192,192,93187,1,2,0:0:0:0:
64,192,93265,1,2,0:0:0:0:
448,192,93344,1,2,0:0:0:0:
192,192,93344,1,2,0:0:0:40:finish.wav
320,192,93422,1,2,0:0:0:0:
64,192,93501,1,2,0:0:0:0:
192,192,93579,1,2,0:0:0:0:
448,192,93658,1,2,0:0:0:40:finish.wav
320,192,93658,1,2,0:0:0:0:
192,192,93736,1,2,0:0:0:0:
64,192,93815,1,2,0:0:0:0:
448,192,93893,1,2,0:0:0:0:
64,192,93972,1,2,0:0:0:0:
320,192,93972,1,2,0:0:0:40:finish.wav
192,192,94051,1,2,0:0:0:0:
320,192,94129,1,2,0:0:0:0:
448,192,94208,1,2,0:0:0:0:
64,192,94286,1,2,0:0:0:40:finish.wav
192,192,94286,1,2,0:0:0:0:
320,192,94365,1,2,0:0:0:0:
448,192,94365,1,0,0:0:0:0:
192,192,94443,1,2,0:0:0:0:
64,192,94443,1,0,0:0:0:0:
320,192,94522,1,2,0:0:0:0:
448,192,94522,1,0,0:0:0:0:
64,192,97113,1,2,0:0:0:0:
320,192,97113,1,0,0:0:0:40:finish.wav
448,192,97113,128,0,97427:0:0:0:0:
320,192,97270,1,0,0:0:0:0:
192,192,97270,128,0,97427:0:0:0:0:
64,192,97427,1,2,0:0:0:0:
320,192,97427,128,0,97742:0:0:0:0:
448,192,97585,1,0,0:0:0:0:
64,192,97585,128,0,97742:0:0:0:0:
192,192,97742,1,2,0:0:0:0:
448,192,97742,1,0,0:0:0:0:
448,192,97899,1,0,0:0:0:0:
320,192,97899,128,0,98056:0:0:0:0:
192,192,98056,128,0,98213:0:0:0:0:
64,192,98056,1,2,0:0:0:0:
320,192,98213,1,0,0:0:0:0:
64,192,98213,128,0,98370:0:0:0:0:
448,192,98370,128,0,98527:0:0:0:0:
192,192,98370,1,2,0:0:0:0:
64,192,98527,1,0,0:0:0:0:
448,192,98684,1,2,0:0:0:0:
320,192,98684,128,0,98841:0:0:0:0:
192,192,98841,1,0,0:0:0:0:
320,192,98998,1,2,0:0:0:0:
64,192,98998,128,0,99155:0:0:0:0:
448,192,99155,1,0,0:0:0:0:
320,192,99312,1,2,0:0:0:0:
192,192,99312,128,0,99469:0:0:0:0:
64,192,99469,1,0,0:0:0:0:
448,192,99626,128,0,99941:0:0:0:0:
320,192,99626,1,2,0:0:0:0:
320,192,99783,128,0,99941:0:0:0:0:
192,192,99783,1,0,0:0:0:0:
192,192,99941,128,0,100255:0:0:0:0:
64,192,99941,1,2,0:0:0:0:
64,192,100098,128,0,100255:0:0:0:0:
320,192,100098,1,0,0:0:0:0:
320,192,100255,1,2,0:0:0:0:
448,192,100255,1,0,0:0:0:0:
448,192,100412,128,0,100569:0:0:0:0:
64,192,100412,1,0,0:0:0:0:
320,192,100569,128,0,100726:0:0:0:0:
192,192,100569,1,2,0:0:0:0:
192,192,100726,128,0,100883:0:0:0:0:
448,192,100726,1,0,0:0:0:0:
64,192,100883,128,0,101040:0:0:0:0:
320,192,100883,1,2,0:0:0:0:
448,192,101040,1,0,0:0:0:0:
192,192,101197,128,0,101354:0:0:0:0:
320,192,101197,1,2,0:0:0:0:
448,192,101354,1,0,0:0:0:0:
320,192,101511,128,0,101668:0:0:0:0:
64,192,101511,1,2,0:0:0:0:
192,192,101668,1,0,0:0:0:0:
64,192,101825,1,2,0:0:0:0:
448,192,101825,128,0,101982:0:0:0:0:
192,192,101982,128,0,102140:0:0:0:0:
320,192,101982,1,0,0:0:0:0:
64,192,102140,1,2,0:0:0:0:
448,192,102140,1,0,0:0:0:0:
320,192,102297,1,0,0:0:0:0:
64,192,102297,128,0,102454:0:0:0:0:
448,192,102454,1,2,0:0:0:0:
192,192,102454,128,0,102611:0:0:0:0:
448,192,102611,1,0,0:0:0:0:
320,192,102611,128,0,102768:0:0:0:0:
192,192,102768,1,0,0:0:0:0:
64,192,102768,1,2,0:0:0:0:
448,192,102925,128,0,103082:0:0:0:0:
64,192,102925,1,0,0:0:0:0:
320,192,103082,128,2,103239:0:0:0:0:
192,192,103082,1,0,0:0:0:0:
192,192,103239,128,0,103396:0:0:0:0:
448,192,103239,1,0,0:0:0:0:
320,192,103396,1,2,0:0:0:0:
448,192,103396,128,0,103553:0:0:0:0:
192,192,103553,1,0,0:0:0:0:
320,192,103710,128,0,103867:0:0:0:0:
64,192,103710,1,2,0:0:0:0:
448,192,103867,1,0,0:0:0:0:
192,192,104024,128,0,104181:0:0:0:0:
64,192,104024,1,2,0:0:0:0:
448,192,104181,1,0,0:0:0:0:
64,192,104338,128,0,104496:0:0:0:0:
320,192,104338,1,2,0:0:0:0:
192,192,104496,128,0,104653:0:0:0:0:
448,192,104496,1,0,0:0:0:0:
64,192,104653,1,2,0:0:0:0:
448,192,104653,1,0,0:0:0:0:
320,192,104810,1,0,0:0:0:0:
64,192,104967,1,2,0:0:0:0:
448,192,104967,1,0,0:0:0:0:
64,192,105124,1,0,0:0:0:0:
192,192,105124,128,0,105281:0:0:0:0:
448,192,105281,1,2,0:0:0:0:
320,192,105281,128,0,105438:0:0:0:0:
64,192,105438,1,0,0:0:0:0:
192,192,105595,1,2,0:0:0:0:
448,192,105595,1,0,0:0:0:0:
320,192,105752,128,0,105909:0:0:0:0:
64,192,105752,1,0,0:0:0:0:
192,192,105909,1,6,0:0:0:0:
64,192,105909,1,0,0:0:0:40:finish.wav
448,192,105909,128,0,106066:0:0:0:0:
320,192,106223,1,4,0:0:0:0:
192,192,106537,1,4,0:0:0:0:
320,192,106694,1,0,0:0:0:0:
64,192,106694,128,0,106852:0:0:0:0:
448,192,106852,1,0,0:0:0:0:
192,192,106852,128,0,107009:0:0:0:0:
64,192,107009,1,0,0:0:0:0:
320,192,107009,128,0,107166:0:0:0:0:
448,192,107166,1,0,0:0:0:40:finish.wav
64,192,107166,128,4,107480:0:0:0:0:
192,192,107166,1,2,0:0:0:0:
320,192,107323,128,0,107480:0:0:0:0:
192,192,107323,1,0,0:0:0:0:
192,192,107480,128,4,107794:0:0:0:0:
448,192,107480,1,2,0:0:0:0:
448,192,107637,128,0,107794:0:0:0:0:
320,192,107637,1,0,0:0:0:0:
320,192,107794,1,4,0:0:0:0:
64,192,107794,1,2,0:0:0:0:
64,192,107951,128,0,108108:0:0:0:0:
320,192,107951,1,0,0:0:0:0:
192,192,108108,128,4,108265:0:0:0:0:
448,192,108108,1,2,0:0:0:0:
320,192,108265,128,0,108422:0:0:0:0:
448,192,108265,1,0,0:0:0:0:
448,192,108422,128,4,108579:0:0:0:0:
192,192,108422,1,2,0:0:0:0:
64,192,108579,1,0,0:0:0:0:
320,192,108736,128,4,108893:0:0:0:0:
448,192,108736,1,2,0:0:0:0:
64,192,108893,1,0,0:0:0:0:
192,192,109051,128,4,109208:0:0:0:0:
448,192,109051,1,2,0:0:0:0:
320,192,109208,1,0,0:0:0:0:
64,192,109365,128,4,109522:0:0:0:0:
192,192,109365,1,2,0:0:0:0:
320,192,109522,1,0,0:0:0:0:
64,192,109679,128,4,109993:0:0:0:0:
192,192,109679,1,2,0:0:0:0:
192,192,109836,128,0,109993:0:0:0:0:
320,192,109836,1,0,0:0:0:0:
320,192,109993,128,4,110307:0:0:0:0:
448,192,109993,1,2,0:0:0:0:
448,192,110150,128,0,110307:0:0:0:0:
192,192,110150,1,0,0:0:0:0:
64,192,110307,1,2,0:0:0:0:
192,192,110307,1,4,0:0:0:0:
192,192,110464,128,0,110621:0:0:0:0:
64,192,110464,1,0,0:0:0:0:
320,192,110621,128,4,110778:0:0:0:0:
448,192,110621,1,2,0:0:0:0:
448,192,110778,128,0,110935:0:0:0:0:
192,192,110778,1,0,0:0:0:0:
64,192,110935,128,4,111092:0:0:0:0:
192,192,110935,1,2,0:0:0:0:
320,192,111092,1,0,0:0:0:0:
192,192,111249,128,4,111407:0:0:0:0:
448,192,111249,1,2,0:0:0:0:
64,192,111407,1,0,0:0:0:0:
320,192,111564,128,4,111721:0:0:0:0:
448,192,111564,1,2,0:0:0:0:
64,192,111721,1,0,0:0:0:0:
448,192,111878,128,4,112035:0:0:0:0:
192,192,111878,1,2,0:0:0:0:
320,192,112035,128,0,112192:0:0:0:0:
64,192,112035,1,0,0:0:0:0:
448,192,112192,1,0,0:0:0:0:
192,192,112192,1,0,0:0:0:40:finish.wav
448,192,112349,128,0,112506:0:0:0:0:
64,192,112349,1,0,0:0:0:0:
320,192,112506,128,0,112663:0:0:0:0:
192,192,112506,1,4,0:0:0:0:
192,192,112663,128,0,112820:0:0:0:0:
64,192,112663,1,0,0:0:0:0:
320,192,112820,1,4,0:0:0:0:
64,192,112977,128,0,113134:0:0:0:0:
448,192,112977,1,0,0:0:0:0:
320,192,113134,1,0,0:0:0:40:finish.wav
192,192,113134,128,0,113291:0:0:0:0:
448,192,113291,1,0,0:0:0:0:
320,192,113291,128,0,113448:0:0:0:0:
448,192,113448,1,2,0:0:0:0:
64,192,113448,1,0,0:0:0:40:finish.wav
192,192,113448,1,0,0:0:0:0:
320,192,113605,1,0,0:0:0:0:
64,192,113763,1,4,0:0:0:0:
192,192,113763,1,0,0:0:0:0:
320,192,113920,1,0,0:0:0:0:
64,192,114077,1,2,0:0:0:0:
448,192,114077,1,4,0:0:0:0:
320,192,114155,1,2,0:0:0:0:
192,192,114234,1,2,0:0:0:0:
320,192,114312,1,2,0:0:0:0:
448,192,114391,1,0,0:0:0:40:finish.wav
64,192,114391,1,2,0:0:0:0:
192,192,114469,1,2,0:0:0:0:
320,192,114548,1,0,0:0:0:40:finish.wav
64,192,114548,1,2,0:0:0:0:
448,192,114626,1,2,0:0:0:0:
320,192,114705,1,0,0:0:0:40:finish.wav
64,192,114705,1,2,0:0:0:0:
448,192,114783,1,2,0:0:0:0:
320,192,114862,1,2,0:0:0:0:
64,192,114941,1,2,0:0:0:0:
448,192,115019,1,0,0:0:0:40:finish.wav
192,192,115019,1,2,0:0:0:0:
320,192,115098,1,2,0:0:0:0:
448,192,115176,1,2,0:0:0:0:
320,192,115255,1,2,0:0:0:0:
448,192,115333,1,0,0:0:0:40:finish.wav
64,192,115333,1,2,0:0:0:0:
192,192,115412,1,2,0:0:0:0:
448,192,115490,1,2,0:0:0:0:
320,192,115569,1,2,0:0:0:0:
192,192,115647,1,2,0:0:0:0:
64,192,115647,1,0,0:0:0:40:finish.wav
320,192,115726,1,2,0:0:0:0:
448,192,115726,1,0,0:0:0:0:
192,192,115804,1,2,0:0:0:0:
64,192,115804,1,0,0:0:0:0:
320,192,115883,1,2,0:0:0:0:
448,192,115883,1,0,0:0:0:0:
448,192,115962,1,0,0:0:0:0:
192,192,115962,1,2,0:0:0:0:
64,192,115962,1,0,0:0:0:40:finish.wav
320,192,116276,1,4,0:0:0:0:
192,192,116590,1,4,0:0:0:0:
448,192,116747,1,0,0:0:0:0:
64,192,116747,128,0,116904:0:0:0:0:
320,192,116904,1,4,0:0:0:0:
192,192,116904,128,0,117061:0:0:0:0:
448,192,117061,1,0,0:0:0:0:
320,192,117061,128,0,117218:0:0:0:0:
192,192,117218,1,0,0:0:0:0:
448,192,117218,1,0,0:0:0:40:finish.wav
64,192,117218,128,4,117532:0:0:0:0:
192,192,117532,128,4,117611:0:0:0:0:
64,192,117689,128,4,118003:0:0:0:0:
192,192,118003,128,4,118082:0:0:0:0:
192,192,118160,128,4,118239:0:0:0:0:
192,192,118318,128,4,118396:0:0:0:0:
448,192,118475,128,4,118789:0:0:0:0:
320,192,118789,128,0,118867:0:0:0:0:
448,192,118946,128,4,119260:0:0:0:0:
320,192,119260,128,4,119338:0:0:0:0:
320,192,119417,128,4,119496:0:0:0:0:
320,192,119574,128,4,119653:0:0:0:0:
64,192,119731,128,4,120045:0:0:0:0:
192,192,120045,128,4,120124:0:0:0:0:
64,192,120202,128,4,120516:0:0:0:0:
192,192,120516,128,4,120595:0:0:0:0:
192,192,120674,128,4,120752:0:0:0:0:
192,192,120831,128,4,120909:0:0:0:0:
448,192,120988,128,4,121302:0:0:0:0:
320,192,121302,128,4,121380:0:0:0:0:
448,192,121459,128,4,121773:0:0:0:0:
320,192,121773,128,4,121852:0:0:0:0:
320,192,121930,128,4,122009:0:0:0:0:
320,192,122087,128,4,122166:0:0:0:0:
64,192,122244,1,4,0:0:0:0:
