osu file format v14

[General]
AudioFilename: 3y3s.mp3
AudioLeadIn: 0
PreviewTime: 97113
Countdown: 0
SampleSet: Soft
StackLeniency: 0.7
Mode: 3
LetterboxInBreaks: 0
SpecialStyle: 0
WidescreenStoryboard: 1

[Editor]
DistanceSpacing: 1.2
BeatDivisor: 4
GridSize: 8
TimelineZoom: 1

[Metadata]
Title:3y3s
TitleUnicode:3y3s
Artist:Seiryu
ArtistUnicode:青龍
Creator:DanSparce
Version:4K EZ
Source:beatmania IIDX
Tags:16 empress eyes dance speed f-fly ポップンリズミン 青龍パック starmine infinitas exusia sirius one more extra stage ryutaro nakahara pop'n music
BeatmapID:865916
BeatmapSetID:397678

[Difficulty]
HPDrainRate:6
CircleSize:4
OverallDifficulty:6
ApproachRate:5
SliderMultiplier:1.4
SliderTickRate:1

[Events]
//Background and Video events
0,0,"seiryu - 3y3s.jpg",0,0
//Break Periods
//Storyboard Layer 0 (Background)
//Storyboard Layer 1 (Fail)
//Storyboard Layer 2 (Pass)
//Storyboard Layer 3 (Foreground)
//Storyboard Sound Samples
Sample,87375,0,"finish.wav",40
Sample,88003,0,"finish.wav",40
Sample,88632,0,"finish.wav",40
Sample,89260,0,"finish.wav",40
Sample,97742,0,"soft-hitwhistle.wav",60
Sample,100176,0,"soft-hitwhistle.wav",60
Sample,102140,0,"soft-hitwhistle.wav",60
Sample,102768,0,"soft-hitwhistle.wav",60
Sample,104653,0,"soft-hitwhistle.wav",60
Sample,104967,0,"soft-hitwhistle.wav",60
Sample,105595,0,"soft-hitwhistle.wav",60
Sample,107794,0,"soft-hitfinish.wav",40
Sample,107794,0,"soft-hitwhistle.wav",60
Sample,110307,0,"soft-hitfinish.wav",40
Sample,110307,0,"soft-hitwhistle.wav",60

[TimingPoints]
2873,314.13612565445,4,2,1,60,1,0
97113,-100,4,2,1,60,0,1
105909,-100,4,2,1,60,0,0
107166,-100,4,2,1,60,0,1
117218,-100,4,2,1,50,0,0
119731,-111.111111111111,4,2,1,30,0,0

[HitObjects]
448,192,2872,5,0,0:0:0:40:finish.wav
64,192,2872,1,0,0:0:0:0:
192,192,3030,1,0,0:0:0:0:
320,192,3187,1,0,0:0:0:0:
448,192,3344,1,0,0:0:0:0:
64,192,3658,1,0,0:0:0:0:
320,192,3815,1,0,0:0:0:0:
192,192,3972,1,0,0:0:0:0:
448,192,4129,1,0,0:0:0:0:
320,192,4443,1,0,0:0:0:0:
192,192,4757,1,0,0:0:0:0:
64,192,5071,1,0,0:0:0:0:
448,192,5386,1,0,0:0:0:0:
192,192,5543,1,0,0:0:0:0:
320,192,5700,1,0,0:0:0:0:
64,192,5857,1,0,0:0:0:0:
448,192,6171,1,0,0:0:0:0:
320,192,6328,1,0,0:0:0:0:
192,192,6485,1,0,0:0:0:0:
64,192,6642,1,0,0:0:0:0:
192,192,6956,1,0,0:0:0:0:
320,192,7270,1,0,0:0:0:0:
448,192,7585,1,0,0:0:0:0:
192,192,7742,1,0,0:0:0:0:
64,192,8056,1,0,0:0:0:0:
192,192,8213,1,0,0:0:0:0:
320,192,8370,1,0,0:0:0:0:
448,192,8684,1,0,0:0:0:0:
192,192,8841,1,0,0:0:0:0:
320,192,8998,1,0,0:0:0:0:
64,192,9155,1,0,0:0:0:0:
320,192,9469,1,0,0:0:0:0:
192,192,9783,1,0,0:0:0:0:
448,192,10098,1,0,0:0:0:0:
320,192,10255,1,0,0:0:0:0:
320,192,10883,1,0,0:0:0:0:
192,192,11040,1,0,0:0:0:0:
192,192,11511,1,0,0:0:0:0:
64,192,11668,1,0,0:0:0:0:
192,192,12454,1,0,0:0:0:0:
320,192,12611,1,0,0:0:0:0:
448,192,12768,1,0,0:0:0:0:
64,192,14181,1,2,0:0:0:0:
448,192,14181,1,0,0:0:0:40:finish.wav
192,192,14496,1,2,0:0:0:0:
320,192,14810,1,2,0:0:0:0:
448,192,15124,1,2,0:0:0:0:
64,192,15438,1,2,0:0:0:0:
320,192,15752,1,2,0:0:0:0:
192,192,16066,1,2,0:0:0:0:
448,192,16380,1,2,0:0:0:0:
320,192,16694,1,2,0:0:0:0:
192,192,17009,1,2,0:0:0:0:
64,192,17323,1,2,0:0:0:0:
448,192,17637,1,2,0:0:0:0:
192,192,17951,1,2,0:0:0:0:
448,192,18265,1,2,0:0:0:0:
64,192,18579,1,2,0:0:0:0:
320,192,18893,1,2,0:0:0:0:
64,192,19208,1,10,0:0:0:0:
320,192,19522,1,10,0:0:0:0:
64,192,19836,1,10,0:0:0:0:
320,192,20150,1,10,0:0:0:0:
192,192,20464,1,10,0:0:0:0:
448,192,20778,1,10,0:0:0:0:
192,192,21092,1,10,0:0:0:0:
448,192,21407,1,10,0:0:0:0:
192,192,21721,1,10,0:0:0:0:
320,192,22035,1,10,0:0:0:0:
192,192,22349,1,10,0:0:0:0:
320,192,22663,1,10,0:0:0:0:
448,192,22977,1,0,0:0:0:40:finish.wav
64,192,22977,1,10,0:0:0:0:
64,192,24234,1,14,0:0:0:0:
448,192,24234,1,0,0:0:0:40:finish.wav
192,192,24548,1,14,0:0:0:0:
448,192,24862,1,14,0:0:0:0:
320,192,25176,1,14,0:0:0:0:
64,192,25490,1,14,0:0:0:0:
320,192,25804,1,14,0:0:0:0:
64,192,26119,1,14,0:0:0:0:
320,192,26433,1,14,0:0:0:0:
192,192,26747,1,14,0:0:0:0:
448,192,27061,1,14,0:0:0:0:
192,192,27375,1,14,0:0:0:0:
448,192,27689,1,14,0:0:0:0:
64,192,28003,1,14,0:0:0:0:
448,192,28318,1,14,0:0:0:0:
192,192,28632,1,14,0:0:0:0:
320,192,28946,1,14,0:0:0:0:
448,192,29260,1,14,0:0:0:0:
64,192,29260,1,0,0:0:0:40:finish.wav
192,192,30516,1,0,0:0:0:40:finish.wav
320,192,30516,1,14,0:0:0:0:
64,192,31773,1,0,0:0:0:40:finish.wav
448,192,31773,1,14,0:0:0:0:
64,192,32401,1,0,0:0:0:40:finish.wav
192,192,32401,1,14,0:0:0:0:
320,192,32715,1,14,0:0:0:0:
448,192,32715,1,0,0:0:0:40:finish.wav
64,192,33030,1,0,0:0:0:40:finish.wav
192,192,33030,1,14,0:0:0:0:
448,192,34286,128,0,35229:0:0:0:80:drum.wav
64,192,34286,1,0,0:0:0:40:finish.wav
320,192,35229,1,2,0:0:0:0:
192,192,35386,1,2,0:0:0:0:
64,192,35543,128,0,36485:0:0:0:80:drum.wav
192,192,36485,1,2,0:0:0:0:
320,192,36642,1,2,0:0:0:0:
448,192,36799,128,0,37742:0:0:0:80:drum.wav
64,192,36799,1,0,0:0:0:40:finish.wav
192,192,37742,1,2,0:0:0:0:
320,192,37899,1,2,0:0:0:0:
64,192,38056,128,0,38998:0:0:0:80:drum.wav
320,192,38998,1,2,0:0:0:0:
192,192,39155,1,2,0:0:0:0:
448,192,39312,1,0,0:0:0:80:drum.wav
64,192,39312,1,0,0:0:0:40:finish.wav
320,192,39626,1,2,0:0:0:0:
320,192,40255,1,2,0:0:0:0:
448,192,40569,1,0,0:0:0:40:finish.wav
64,192,40569,1,0,0:0:0:80:drum.wav
192,192,40883,1,2,0:0:0:0:
192,192,41511,1,2,0:0:0:0:
448,192,41825,1,0,0:0:0:40:finish.wav
64,192,41825,1,0,0:0:0:0:
320,192,41982,1,2,0:0:0:0:
192,192,42140,1,0,0:0:0:40:finish.wav
64,192,42297,1,2,0:0:0:0:
448,192,42454,1,0,0:0:0:40:finish.wav
320,192,42611,1,2,0:0:0:0:
192,192,42768,1,0,0:0:0:40:finish.wav
320,192,42925,1,2,0:0:0:0:
448,192,43082,1,0,0:0:0:80:drum.wav
64,192,43082,1,0,0:0:0:40:finish.wav
320,192,44338,1,0,0:0:0:40:finish.wav
448,192,44338,1,2,0:0:0:0:
192,192,44653,1,2,0:0:0:0:
64,192,44967,128,2,45281:0:0:0:0:
320,192,45281,128,2,45595:0:0:0:0:
448,192,45595,1,2,0:0:0:0:
64,192,45909,1,2,0:0:0:0:
192,192,46223,128,2,46537:0:0:0:0:
448,192,46537,128,2,46852:0:0:0:0:
64,192,46852,1,2,0:0:0:0:
192,192,47166,1,2,0:0:0:0:
320,192,47480,128,2,47794:0:0:0:0:
64,192,47794,128,2,48108:0:0:0:0:
192,192,48108,1,2,0:0:0:0:
320,192,48422,1,2,0:0:0:0:
448,192,48736,128,2,49051:0:0:0:0:
192,192,49051,128,2,49365:0:0:0:0:
64,192,49365,1,10,0:0:0:0:
320,192,49679,1,10,0:0:0:0:
192,192,49993,128,10,50307:0:0:0:0:
448,192,50307,128,10,50621:0:0:0:0:
320,192,50621,1,10,0:0:0:0:
64,192,50935,1,10,0:0:0:0:
448,192,51249,128,10,51564:0:0:0:0:
192,192,51564,128,10,51878:0:0:0:0:
64,192,51878,1,10,0:0:0:0:
448,192,52192,1,10,0:0:0:0:
192,192,52506,128,10,52820:0:0:0:0:
320,192,52820,128,10,53134:0:0:0:0:
64,192,53134,1,0,0:0:0:40:finish.wav
448,192,53134,1,10,0:0:0:0:
64,192,54391,1,0,0:0:0:40:finish.wav
192,192,54391,1,14,0:0:0:0:
320,192,54705,1,14,0:0:0:0:
448,192,55019,1,14,0:0:0:0:
320,192,55333,1,14,0:0:0:0:
64,192,55647,1,14,0:0:0:0:
192,192,55962,1,14,0:0:0:0:
320,192,56276,1,14,0:0:0:0:
448,192,56590,1,14,0:0:0:0:
320,192,56904,1,14,0:0:0:0:
192,192,57218,1,14,0:0:0:0:
448,192,57532,1,14,0:0:0:0:
320,192,57846,1,14,0:0:0:0:
192,192,58160,1,14,0:0:0:0:
320,192,58475,1,14,0:0:0:0:
64,192,58789,1,14,0:0:0:0:
192,192,59103,1,14,0:0:0:0:
448,192,59417,1,0,0:0:0:40:finish.wav
320,192,59417,1,2,0:0:0:0:
192,192,59653,1,2,0:0:0:0:
64,192,59888,1,2,0:0:0:0:
192,192,60124,1,2,0:0:0:0:
320,192,60359,1,2,0:0:0:0:
448,192,60359,1,0,0:0:0:40:finish.wav
192,192,60674,1,2,0:0:0:0:
64,192,60674,1,0,0:0:0:40:finish.wav
320,192,60909,1,2,0:0:0:0:
448,192,61145,1,2,0:0:0:0:
320,192,61380,1,2,0:0:0:0:
192,192,61616,1,2,0:0:0:0:
64,192,61616,1,0,0:0:0:40:finish.wav
320,192,61930,1,0,0:0:0:40:finish.wav
448,192,61930,1,2,0:0:0:0:
192,192,62244,1,0,0:0:0:40:finish.wav
64,192,62558,1,0,0:0:0:40:finish.wav
192,192,62872,1,0,0:0:0:40:finish.wav
320,192,63187,1,0,0:0:0:40:finish.wav
448,192,63187,128,2,65700:0:0:0:0:
192,192,64443,128,0,65700:0:0:0:0:
448,192,69469,1,0,0:0:0:40:finish.wav
64,192,69469,1,0,0:0:0:0:
192,192,69626,1,0,0:0:0:0:
320,192,69783,1,0,0:0:0:0:
64,192,69941,1,0,0:0:0:0:
192,192,70255,1,0,0:0:0:0:
320,192,70412,1,0,0:0:0:0:
448,192,70569,1,0,0:0:0:0:
64,192,70726,1,0,0:0:0:0:
192,192,71040,1,0,0:0:0:0:
320,192,71354,1,0,0:0:0:0:
448,192,71668,1,0,0:0:0:0:
64,192,71982,1,0,0:0:0:0:
320,192,72140,1,0,0:0:0:0:
192,192,72297,1,0,0:0:0:0:
448,192,72454,1,0,0:0:0:0:
320,192,72768,1,0,0:0:0:0:
192,192,72925,1,0,0:0:0:0:
448,192,73082,1,0,0:0:0:0:
64,192,73239,1,0,0:0:0:0:
192,192,73553,1,0,0:0:0:0:
320,192,73867,1,0,0:0:0:0:
192,192,74181,1,0,0:0:0:0:
448,192,74338,1,0,0:0:0:0:
64,192,74653,1,0,0:0:0:0:
192,192,74810,1,0,0:0:0:0:
320,192,74967,1,0,0:0:0:0:
448,192,75281,1,0,0:0:0:0:
320,192,75438,1,0,0:0:0:0:
192,192,75595,1,0,0:0:0:0:
320,192,75752,1,0,0:0:0:0:
448,192,76066,1,0,0:0:0:0:
64,192,76380,1,0,0:0:0:0:
448,192,76694,1,0,0:0:0:0:
320,192,76852,1,0,0:0:0:0:
320,192,77480,1,0,0:0:0:0:
192,192,77637,1,0,0:0:0:0:
192,192,78108,1,0,0:0:0:0:
64,192,78265,1,0,0:0:0:0:
192,192,79051,1,0,0:0:0:0:
320,192,79208,1,0,0:0:0:0:
448,192,79365,1,0,0:0:0:0:
192,192,79522,1,0,0:0:0:40:finish.wav
64,192,79522,1,8,0:0:0:0:
320,192,79836,1,8,0:0:0:0:
192,192,80150,1,8,0:0:0:0:
448,192,80464,1,8,0:0:0:0:
64,192,80778,1,8,0:0:0:0:
320,192,81092,1,8,0:0:0:0:
192,192,81407,1,8,0:0:0:0:
448,192,81721,1,8,0:0:0:0:
64,192,82035,1,8,0:0:0:0:
192,192,82349,1,8,0:0:0:0:
320,192,82663,1,8,0:0:0:0:
448,192,82977,1,8,0:0:0:0:
320,192,83291,1,8,0:0:0:0:
64,192,83605,1,8,0:0:0:0:
448,192,83920,1,8,0:0:0:0:
192,192,84234,1,8,0:0:0:0:
64,192,84548,1,0,0:0:0:40:finish.wav
448,192,84548,1,8,0:0:0:0:
320,192,84862,1,8,0:0:0:0:
64,192,85176,1,8,0:0:0:0:
192,192,85490,1,8,0:0:0:0:
448,192,85804,1,8,0:0:0:0:
64,192,85804,1,0,0:0:0:40:finish.wav
192,192,86119,1,8,0:0:0:0:
320,192,86433,1,8,0:0:0:0:
192,192,86747,1,8,0:0:0:0:
448,192,87061,1,8,0:0:0:0:
64,192,87061,1,0,0:0:0:40:finish.wav
320,192,87375,1,8,0:0:0:0:
192,192,87689,1,8,0:0:0:0:
64,192,87689,1,0,0:0:0:40:finish.wav
320,192,88003,1,8,0:0:0:0:
64,192,88318,1,8,0:0:0:0:
448,192,88318,1,0,0:0:0:40:finish.wav
192,192,88632,1,8,0:0:0:0:
320,192,88946,1,8,0:0:0:0:
448,192,88946,1,0,0:0:0:40:finish.wav
192,192,89260,1,8,0:0:0:0:
64,192,89574,1,0,0:0:0:40:finish.wav
64,192,89888,1,0,0:0:0:40:finish.wav
192,192,90202,1,0,0:0:0:40:finish.wav
192,192,90516,1,0,0:0:0:40:finish.wav
320,192,90831,1,0,0:0:0:40:finish.wav
320,192,91145,1,0,0:0:0:40:finish.wav
448,192,91459,1,0,0:0:0:40:finish.wav
448,192,91773,1,0,0:0:0:40:finish.wav
64,192,92087,1,0,0:0:0:40:finish.wav
320,192,92087,1,0,0:0:0:0:
64,192,92401,1,0,0:0:0:40:finish.wav
192,192,92715,1,0,0:0:0:40:finish.wav
192,192,93030,1,0,0:0:0:40:finish.wav
320,192,93344,1,0,0:0:0:40:finish.wav
320,192,93658,1,0,0:0:0:40:finish.wav
448,192,93972,1,0,0:0:0:40:finish.wav
448,192,94286,1,0,0:0:0:40:finish.wav
448,192,97113,1,2,0:0:0:0:
64,192,97113,1,0,0:0:0:40:finish.wav
320,192,97270,1,0,0:0:0:0:
192,192,97427,1,2,0:0:0:0:
320,192,97585,1,0,0:0:0:0:
64,192,97899,1,0,0:0:0:0:
320,192,98056,1,2,0:0:0:0:
192,192,98213,1,0,0:0:0:0:
448,192,98370,1,2,0:0:0:0:
320,192,98684,1,2,0:0:0:0:
192,192,98998,1,2,0:0:0:0:
64,192,99312,1,2,0:0:0:0:
192,192,99626,1,2,0:0:0:0:
448,192,99783,1,0,0:0:0:0:
64,192,99941,1,2,0:0:0:0:
320,192,100098,1,0,0:0:0:0:
192,192,100412,1,0,0:0:0:0:
320,192,100569,1,2,0:0:0:0:
64,192,100726,1,0,0:0:0:0:
448,192,100883,1,2,0:0:0:0:
320,192,101197,1,2,0:0:0:0:
192,192,101511,1,2,0:0:0:0:
64,192,101825,1,2,0:0:0:0:
320,192,101982,1,0,0:0:0:0:
192,192,102297,1,0,0:0:0:0:
320,192,102454,1,2,0:0:0:0:
448,192,102611,1,0,0:0:0:0:
64,192,102925,1,0,0:0:0:0:
192,192,103082,1,2,0:0:0:0:
320,192,103239,1,0,0:0:0:0:
448,192,103396,1,2,0:0:0:0:
192,192,103710,1,2,0:0:0:0:
320,192,104024,1,2,0:0:0:0:
448,192,104338,1,2,0:0:0:0:
320,192,104496,1,0,0:0:0:0:
320,192,105124,1,0,0:0:0:0:
192,192,105281,1,2,0:0:0:0:
192,192,105752,1,0,0:0:0:0:
64,192,105909,1,2,0:0:0:0:
448,192,105909,1,0,0:0:0:40:finish.wav
64,192,106694,1,0,0:0:0:0:
192,192,106852,1,0,0:0:0:0:
320,192,107009,1,0,0:0:0:0:
448,192,107166,1,6,0:0:0:0:
64,192,107166,1,0,0:0:0:40:finish.wav
320,192,107323,1,0,0:0:0:0:
192,192,107480,1,6,0:0:0:0:
448,192,107637,1,0,0:0:0:0:
64,192,107951,1,0,0:0:0:0:
448,192,108108,1,6,0:0:0:0:
192,192,108265,1,0,0:0:0:0:
320,192,108422,1,6,0:0:0:0:
64,192,108736,1,6,0:0:0:0:
448,192,109051,1,6,0:0:0:0:
192,192,109365,1,6,0:0:0:0:
320,192,109679,1,6,0:0:0:0:
448,192,109836,1,0,0:0:0:0:
192,192,109993,1,6,0:0:0:0:
64,192,110150,1,0,0:0:0:0:
192,192,110464,1,0,0:0:0:0:
320,192,110621,1,6,0:0:0:0:
448,192,110778,1,0,0:0:0:0:
64,192,110935,1,6,0:0:0:0:
192,192,111249,1,6,0:0:0:0:
448,192,111564,1,6,0:0:0:0:
320,192,111878,1,6,0:0:0:0:
192,192,112035,1,0,0:0:0:0:
448,192,112192,1,0,0:0:0:40:finish.wav
64,192,112192,1,0,0:0:0:0:
192,192,113134,1,0,0:0:0:40:finish.wav
448,192,113448,1,2,0:0:0:0:
64,192,113448,1,0,0:0:0:40:finish.wav
64,192,114391,1,0,0:0:0:40:finish.wav
320,192,114705,1,0,0:0:0:40:finish.wav
448,192,114705,1,2,0:0:0:0:
192,192,115019,1,0,0:0:0:40:finish.wav
448,192,115333,1,0,0:0:0:40:finish.wav
320,192,115647,1,0,0:0:0:40:finish.wav
64,192,115962,1,0,0:0:0:40:finish.wav
192,192,115962,1,2,0:0:0:0:
64,192,116747,1,0,0:0:0:0:
192,192,116904,1,0,0:0:0:0:
320,192,117061,1,0,0:0:0:0:
64,192,117218,128,4,119731:0:0:0:0:
448,192,117218,1,0,0:0:0:40:finish.wav
448,192,119731,128,4,122244:0:0:0:0:
64,192,122244,1,4,0:0:0:0:
