osu file format v14

[General]
AudioFilename: audio.mp3
AudioLeadIn: 0
PreviewTime: -1
Countdown: 1
SampleSet: None
StackLeniency: 0.0005
Mode: 0
LetterboxInBreaks: 0
WidescreenStoryboard: 0

[Editor]
DistanceSpacing: 0.5
BeatDivisor: 4
GridSize: 16
TimelineZoom: 1

[Metadata]
Title:3y3s (BD MIX)
TitleUnicode:3y3s (BD MIX)
Artist:Seiryu
ArtistUnicode:青龍
Creator:blueloniess
Version:bluelon
Source:
Tags:3y3s blueloniess Seiryu 青龍
BeatmapID:1556354
BeatmapSetID:737423

[Difficulty]
HPDrainRate:4
CircleSize:4
OverallDifficulty:9
ApproachRate:9.6
SliderMultiplier:1.8
SliderTickRate:1

[Events]
//Background and Video events
0,0,"45.jpg",0,0
//Break Periods
2,79839,89182
2,131356,137559
//Storyboard Layer 0 (Background)
//Storyboard Layer 1 (Fail)
//Storyboard Layer 2 (Pass)
//Storyboard Layer 3 (Foreground)
//Storyboard Sound Samples

[TimingPoints]
2990,314.13612565445,4,3,0,50,1,0
24351,-83.3333333333333,4,3,0,50,0,0
29377,-83.3333333333333,4,3,0,70,0,0
33304,-83.3333333333333,4,3,0,50,0,0
54508,-83.3333333333333,4,3,0,70,0,0
64560,-66.6666666666667,4,3,0,50,0,0
72728,-66.6666666666667,4,3,0,30,0,0
72885,-66.6666666666667,4,3,0,40,0,0
73042,-66.6666666666667,4,3,0,50,0,0
73199,-66.6666666666667,4,3,0,60,0,0
73356,-66.6666666666667,4,3,0,70,0,0
73513,-100,4,3,0,50,0,0
73827,-90.9090909090909,4,3,0,55,0,0
74141,-83.3333333333333,4,3,0,60,0,0
74455,-76.9230769230769,4,3,0,65,0,0
74770,-71.4285714285714,4,3,0,70,0,0
75084,-66.6666666666667,4,3,0,75,0,0
75398,-62.5,4,3,0,80,0,0
75712,-58.8235294117647,4,3,0,85,0,0
75869,-100,4,3,0,50,0,0
90948,-133.333333333333,4,3,0,50,0,0
92204,-100,4,3,0,50,0,0
93461,-133.333333333333,4,3,0,50,0,0
94717,-100,4,3,0,50,0,0
95974,-133.333333333333,4,3,0,50,0,0
97230,-100,4,3,0,50,0,0
102885,-200,4,3,0,30,0,0
103513,-133.333333333333,4,3,0,40,0,0
103827,-100,4,3,0,50,0,0
104141,-80,4,3,0,60,0,0
104455,-66.6666666666667,4,3,0,70,0,0
104770,-100,4,3,0,50,0,0
107283,-50,4,3,0,80,0,1
122361,-66.6666666666667,4,3,0,50,0,0
123775,-100,4,3,0,30,0,0
124246,-83.3333333333333,4,3,0,50,0,0
124560,-71.4285714285714,4,3,0,70,0,0
124874,-133.333333333333,4,3,0,30,0,0
125188,-100,4,3,0,50,0,0
125503,-80,4,3,0,70,0,0
125817,-66.6666666666667,4,3,0,90,0,0
126288,-66.6666666666667,4,3,0,50,0,0
127387,-400,4,3,0,50,0,0
132414,-400,4,3,0,20,0,0
138068,-200,4,3,0,35,0,0
147492,-100,4,3,0,50,0,0
157544,-66.6666666666667,4,3,0,50,0,0
160058,-66.6666666666667,4,3,0,20,0,0
160372,-66.6666666666667,4,3,0,30,0,0
160686,-66.6666666666667,4,3,0,40,0,0
161000,-66.6666666666667,4,3,0,50,0,0
161314,-66.6666666666667,4,3,0,60,0,0
161628,-66.6666666666667,4,3,0,70,0,0
161942,-66.6666666666667,4,3,0,80,0,0
165084,-66.6666666666667,4,3,0,10,0,0
166497,-50,4,3,0,50,0,0
166537,-50,4,3,0,5,0,0
166811,-50,4,3,0,50,0,0
166851,-50,4,3,0,5,0,0
167126,-50,4,3,0,50,0,0
167165,-50,4,3,0,5,0,0
167440,-50,4,3,0,50,0,0
167479,-50,4,3,0,5,0,0
167754,-50,4,3,0,50,0,0
167793,-50,4,3,0,5,0,0
168068,-50,4,3,0,50,0,0
168107,-50,4,3,0,5,0,0
168225,-50,4,3,0,50,0,0
168264,-50,4,3,0,5,0,0
168382,-50,4,3,0,50,0,0
168421,-50,4,3,0,5,0,0
168539,-50,4,3,0,50,0,0
168853,-50,4,3,0,70,0,1
188958,-66.6666666666667,4,3,0,50,0,0
197754,-66.6666666666667,4,3,0,40,0,0
199010,-83.3333333333333,4,3,0,50,0,0
206550,-200,4,3,0,30,0,0
206864,-133.333333333333,4,3,0,45,0,0
207178,-100,4,3,0,60,0,0
207492,-80,4,3,0,75,0,0
207806,-100,4,3,0,90,0,0
207963,-100,4,3,0,50,0,0

[HitObjects]
134,130,2989,5,0,0:0:0:0:
216,166,3147,1,0,0:0:0:0:
261,88,3304,1,0,0:0:0:0:
55,54,3461,2,0,L|72:248,1,180
118,309,3932,2,0,P|169:284|215:279,1,90
402,342,4246,6,0,P|305:342|295:345,1,90
323,150,4560,2,0,P|420:150|430:147,1,90
469,208,4874,2,0,P|469:305|472:315,1,90
261,279,5188,2,0,P|265:234|259:189,1,90
447,73,5503,5,0,0:0:0:0:
373,125,5660,1,0,0:0:0:0:
370,35,5817,1,0,0:0:0:0:
469,208,5974,2,0,L|269:230,1,180
210,185,6445,2,0,P|165:143|154:105,1,90
337,59,6759,6,0,L|349:162,1,90
220,274,7073,2,0,L|208:171,1,90
166,102,7387,2,0,L|256:92,1,90
379,216,7702,1,0,0:0:0:0:
379,216,7859,2,0,L|174:239,1,180
22,255,8330,1,0,0:0:0:0:
174,330,8487,2,0,P|109:267|148:154,1,180
234,139,8958,2,0,P|268:76|268:42,1,90
200,236,9272,6,0,L|289:225,1,90
154,101,9586,2,0,L|118:183,1,90
323,131,9900,2,0,L|269:58,1,90
174,330,10215,5,0,0:0:0:0:
174,330,10372,1,0,0:0:0:0:
338,54,11000,5,0,0:0:0:0:
338,54,11157,1,0,0:0:0:0:
444,195,11628,5,0,0:0:0:0:
444,195,11785,1,0,0:0:0:0:
73,193,12571,5,0,0:0:0:0:
73,193,12728,1,0,0:0:0:0:
73,193,12885,1,0,0:0:0:0:
133,126,13042,5,0,0:0:0:0:
204,181,13199,1,0,0:0:0:0:
271,121,13356,1,0,0:0:0:0:
135,231,13513,2,0,P|204:276|282:209,1,180
352,83,13984,2,0,P|366:144|378:173,1,90
446,322,14298,5,0,0:0:0:0:
446,322,14455,1,0,0:0:0:0:
473,174,14613,1,0,0:0:0:0:
473,174,14770,1,0,0:0:0:0:
348,339,14927,1,0,0:0:0:0:
348,339,15084,1,0,0:0:0:0:
276,227,15241,1,0,0:0:0:0:
276,227,15398,1,0,0:0:0:0:
405,83,15555,6,0,P|333:85|297:76,1,90
144,152,15869,2,0,P|216:150|252:159,1,90
385,249,16340,5,0,0:0:0:0:
355,333,16497,1,0,0:0:0:0:
265,331,16654,1,0,0:0:0:0:
199,268,16811,2,0,P|147:257|90:262,1,90
76,343,17126,2,0,P|128:354|185:349,1,90
273,240,17440,2,0,B|325:211|388:203|388:203|362:228|359:275,1,180
451,268,17911,6,0,P|463:174|395:108,1,180
492,33,18382,1,0,0:0:0:0:
307,150,18539,2,0,B|231:145|192:92|192:92|196:128|214:162,1,180
288,45,19010,1,0,0:0:0:0:
329,258,19168,1,0,0:0:0:0:
148,314,19325,6,0,L|111:213,1,90
202,137,19639,2,0,L|307:155,1,90
329,258,19953,2,0,L|260:340,1,90
341,67,20267,5,0,0:0:0:0:
223,48,20424,2,0,P|156:61|120:185,1,180
148,314,21052,5,0,0:0:0:0:
266,333,21209,2,0,P|333:320|369:196,1,180
234,93,21681,5,0,0:0:0:0:
134,134,21838,2,0,L|150:342,1,180
377,225,22623,1,0,0:0:0:0:
481,273,22780,1,0,0:0:0:0:
266,333,22937,5,0,0:0:0:0:
148,133,24351,1,0,0:0:0:0:
148,133,24429,1,0,0:0:0:0:
148,133,24508,1,0,0:0:0:0:
148,133,24586,1,0,0:0:0:0:
148,133,24665,1,0,0:0:0:0:
148,133,24743,1,0,0:0:0:0:
148,133,24822,1,0,0:0:0:0:
148,133,24900,1,0,0:0:0:0:
148,133,24979,1,0,0:0:0:0:
148,133,25058,1,0,0:0:0:0:
148,133,25136,1,0,0:0:0:0:
148,133,25215,1,0,0:0:0:0:
148,133,25293,1,0,0:0:0:0:
148,133,25372,1,0,0:0:0:0:
148,133,25450,1,0,0:0:0:0:
148,133,25529,1,0,0:0:0:0:
148,133,25607,5,0,0:0:0:0:
148,133,25685,1,0,0:0:0:0:
148,133,25764,1,0,0:0:0:0:
148,133,25842,1,0,0:0:0:0:
148,133,25921,1,0,0:0:0:0:
148,133,25999,1,0,0:0:0:0:
148,133,26078,1,0,0:0:0:0:
148,133,26156,1,0,0:0:0:0:
148,133,26235,1,0,0:0:0:0:
148,133,26314,1,0,0:0:0:0:
148,133,26392,1,0,0:0:0:0:
148,133,26471,1,0,0:0:0:0:
148,133,26549,1,0,0:0:0:0:
148,133,26628,1,0,0:0:0:0:
148,133,26706,1,0,0:0:0:0:
148,133,26785,1,0,0:0:0:0:
148,133,26864,5,0,0:0:0:0:
148,133,26942,1,0,0:0:0:0:
148,133,27021,1,0,0:0:0:0:
148,133,27099,1,0,0:0:0:0:
148,133,27178,1,0,0:0:0:0:
148,133,27256,1,0,0:0:0:0:
148,133,27335,1,0,0:0:0:0:
148,133,27413,1,0,0:0:0:0:
148,133,27492,1,0,0:0:0:0:
148,133,27571,1,0,0:0:0:0:
148,133,27649,1,0,0:0:0:0:
148,133,27728,1,0,0:0:0:0:
148,133,27806,1,0,0:0:0:0:
148,133,27885,1,0,0:0:0:0:
148,133,27963,1,0,0:0:0:0:
148,133,28042,1,0,0:0:0:0:
148,133,28120,5,0,0:0:0:0:
148,133,28198,1,0,0:0:0:0:
148,133,28277,1,0,0:0:0:0:
148,133,28355,1,0,0:0:0:0:
148,133,28434,1,0,0:0:0:0:
148,133,28512,1,0,0:0:0:0:
148,133,28591,1,0,0:0:0:0:
148,133,28669,1,0,0:0:0:0:
148,133,28748,1,0,0:0:0:0:
148,133,28827,1,0,0:0:0:0:
148,133,28905,1,0,0:0:0:0:
148,133,28984,1,0,0:0:0:0:
148,133,29062,1,0,0:0:0:0:
148,133,29141,1,0,0:0:0:0:
148,133,29219,1,0,0:0:0:0:
148,133,29298,1,0,0:0:0:0:
148,133,29377,5,0,0:0:0:0:
173,141,29455,1,0,0:0:0:0:
199,146,29534,1,0,0:0:0:0:
226,146,29613,1,0,0:0:0:0:
252,141,29691,1,0,0:0:0:0:
276,128,29770,1,0,0:0:0:0:
298,114,29848,1,0,0:0:0:0:
324,107,29927,1,0,0:0:0:0:
350,110,30005,1,0,0:0:0:0:
374,121,30084,1,0,0:0:0:0:
394,138,30162,1,0,0:0:0:0:
406,162,30241,1,0,0:0:0:0:
409,188,30319,1,0,0:0:0:0:
426,167,30398,1,0,0:0:0:0:
440,144,30476,1,0,0:0:0:0:
453,120,30555,1,0,0:0:0:0:
465,96,30633,5,0,0:0:0:0:
464,68,30712,1,0,0:0:0:0:
441,52,30791,1,0,0:0:0:0:
414,52,30869,1,0,0:0:0:0:
388,62,30948,1,0,0:0:0:0:
370,82,31026,1,0,0:0:0:0:
366,108,31105,1,0,0:0:0:0:
373,133,31183,1,0,0:0:0:0:
387,155,31262,1,0,0:0:0:0:
402,176,31340,1,0,0:0:0:0:
414,200,31419,1,0,0:0:0:0:
421,225,31497,1,0,0:0:0:0:
416,251,31576,1,0,0:0:0:0:
403,274,31654,1,0,0:0:0:0:
378,286,31733,1,0,0:0:0:0:
351,288,31811,1,0,0:0:0:0:
326,277,31890,5,0,0:0:0:0:
302,263,31969,1,0,0:0:0:0:
275,256,32047,1,0,0:0:0:0:
248,260,32126,1,0,0:0:0:0:
223,269,32204,1,0,0:0:0:0:
197,279,32283,1,0,0:0:0:0:
172,289,32361,1,0,0:0:0:0:
145,294,32440,1,0,0:0:0:0:
118,293,32518,1,0,0:0:0:0:
92,282,32597,1,0,0:0:0:0:
73,263,32675,1,0,0:0:0:0:
62,237,32754,1,0,0:0:0:0:
65,210,32832,1,0,0:0:0:0:
84,191,32911,1,0,0:0:0:0:
110,186,32989,1,0,0:0:0:0:
135,196,33068,1,0,0:0:0:0:
156,213,33147,6,0,L|158:274,1,53.9999983520508
148,133,33303,1,0,0:0:0:0:
148,133,33381,1,0,0:0:0:0:
148,133,33460,1,0,0:0:0:0:
148,133,33538,1,0,0:0:0:0:
148,133,33617,1,0,0:0:0:0:
148,133,33695,1,0,0:0:0:0:
148,133,33774,1,0,0:0:0:0:
148,133,33853,1,0,0:0:0:0:
148,133,33931,1,0,0:0:0:0:
148,133,34010,1,0,0:0:0:0:
148,133,34088,1,0,0:0:0:0:
148,133,34167,1,0,0:0:0:0:
148,133,34245,1,0,0:0:0:0:
148,133,34324,1,0,0:0:0:0:
148,133,34403,5,0,0:0:0:0:
148,133,34482,1,0,0:0:0:0:
148,133,34560,2,0,L|85:138,1,53.9999983520508
208,58,34717,1,0,0:0:0:0:
208,58,34796,1,0,0:0:0:0:
208,58,34874,2,0,L|264:65,1,53.9999983520508
175,204,35031,1,0,0:0:0:0:
175,204,35110,1,0,0:0:0:0:
175,204,35188,2,0,L|106:220,1,53.9999983520508
250,141,35346,1,0,0:0:0:0:
250,141,35424,1,0,0:0:0:0:
250,141,35503,2,0,L|303:158,1,53.9999983520508
380,267,35660,5,0,0:0:0:0:
380,267,35738,1,0,0:0:0:0:
380,267,35817,2,0,P|320:275|306:273,1,53.9999983520508
250,141,35974,1,0,0:0:0:0:
250,141,36052,1,0,0:0:0:0:
250,141,36131,2,0,P|187:141|163:147,1,53.9999983520508
49,234,36288,1,0,0:0:0:0:
49,234,36366,1,0,0:0:0:0:
49,234,36445,2,0,L|57:297,1,53.9999983520508
201,350,36602,1,0,0:0:0:0:
201,350,36681,1,0,0:0:0:0:
201,350,36759,2,0,P|267:350|283:346,1,53.9999983520508
328,233,36916,5,0,0:0:0:0:
328,233,36995,1,0,0:0:0:0:
328,233,37073,2,0,P|349:293|363:312,1,53.9999983520508
184,233,37230,5,0,0:0:0:0:
184,233,37309,1,0,0:0:0:0:
184,233,37387,2,0,P|122:222|98:224,1,53.9999983520508
255,109,37544,5,0,0:0:0:0:
255,109,37623,1,0,0:0:0:0:
255,109,37701,2,0,P|296:60|306:39,1,53.9999983520508
132,222,37859,1,0,0:0:0:0:
132,222,37937,1,0,0:0:0:0:
132,222,38016,2,0,P|130:281|135:308,1,53.9999983520508
343,284,38173,1,0,0:0:0:0:
343,284,38251,1,0,0:0:0:0:
343,284,38330,2,0,P|396:256|416:238,1,53.9999983520508
292,69,38487,1,0,0:0:0:0:
292,69,38565,1,0,0:0:0:0:
292,69,38644,2,0,P|241:38|216:29,1,53.9999983520508
126,74,38801,5,0,0:0:0:0:
126,74,38880,1,0,0:0:0:0:
126,74,38958,2,0,L|112:146,1,53.9999983520508
200,279,39115,1,0,0:0:0:0:
200,279,39194,1,0,0:0:0:0:
200,279,39272,2,0,L|186:199,1,53.9999983520508
200,140,39429,6,0,L|284:183,1,53.9999983520508
366,212,39586,2,0,L|441:247,1,53.9999983520508
364,37,39743,1,0,0:0:0:0:
337,42,39822,1,0,0:0:0:0:
310,46,39900,1,0,0:0:0:0:
283,51,39979,1,0,0:0:0:0:
256,56,40058,6,0,L|179:67,1,53.9999983520508
32,95,40215,2,0,L|21:37,1,53.9999983520508
98,197,40372,2,0,L|110:133,1,53.9999983520508
50,306,40529,2,0,L|26:235,1,53.9999983520508
126,380,40686,5,0,0:0:0:0:
146,363,40764,1,0,0:0:0:0:
170,350,40843,2,0,P|226:348|246:352,1,53.9999983520508
375,277,41000,2,0,P|321:288|289:285,1,53.9999983520508
165,217,41157,2,0,P|235:232|249:232,1,53.9999983520508
384,152,41314,2,0,P|330:174|315:174,1,53.9999983520508
164,80,41471,2,0,P|238:101|245:100,1,53.9999983520508
450,32,41628,1,0,0:0:0:0:
450,32,41707,1,0,0:0:0:0:
450,32,41785,2,0,L|450:92,1,53.9999983520508
403,231,41942,5,0,0:0:0:0:
383,250,42021,1,0,0:0:0:0:
361,265,42099,1,0,0:0:0:0:
334,271,42178,1,0,0:0:0:0:
307,265,42257,2,0,P|235:249|219:252,1,53.9999983520508
73,201,42414,2,0,P|140:190|150:176,1,53.9999983520508
263,102,42571,2,0,P|269:128|263:154,1,53.9999983520508
178,345,42728,2,0,P|165:285|172:261,1,53.9999983520508
262,154,42885,1,0,0:0:0:0:
262,154,42963,1,0,0:0:0:0:
262,154,43042,1,0,0:0:0:0:
262,154,43120,1,0,0:0:0:0:
262,154,43199,2,0,L|268:224,1,53.9999983520508
148,133,43356,6,0,L|153:193,13,53.9999983520508
152,186,44455,6,0,L|191:195,31,26.9999991760254
178,192,45712,6,0,L|202:180,47,17.9999994506836
194,183,46969,5,0,0:0:0:0:
317,110,47911,1,0,0:0:0:0:
317,110,48068,1,0,0:0:0:0:
317,110,49168,1,0,0:0:0:0:
317,110,49325,1,0,0:0:0:0:
399,234,49482,5,0,0:0:0:0:
399,234,50738,5,0,0:0:0:0:
399,234,51995,5,0,0:0:0:0:
399,234,52309,5,0,0:0:0:0:
399,234,52623,5,0,0:0:0:0:
399,234,52937,5,0,0:0:0:0:
399,234,53251,5,0,0:0:0:0:
296,305,53408,2,0,L|298:367,1,53.9999983520508
178,244,53565,1,0,0:0:0:0:
288,140,53722,1,0,0:0:0:0:
460,237,53880,5,0,0:0:0:0:
297,358,54037,1,0,0:0:0:0:
70,287,54194,2,0,L|60:225,3,53.9999983520508
145,57,54508,5,0,0:0:0:0:
145,57,54586,1,0,0:0:0:0:
145,57,54665,2,0,L|146:115,1,53.9999983520508
235,223,54822,1,0,0:0:0:0:
235,223,54900,1,0,0:0:0:0:
235,223,54979,2,0,L|236:161,1,53.9999983520508
313,38,55136,6,0,L|317:115,1,53.9999983520508
384,252,55293,2,0,L|382:188,1,53.9999983520508
437,30,55450,6,0,L|439:95,1,53.9999983520508
488,278,55607,2,0,L|490:207,1,53.9999983520508
263,77,55764,5,0,0:0:0:0:
263,77,55843,1,0,0:0:0:0:
263,77,55921,2,0,L|321:93,1,53.9999983520508
434,183,56079,1,0,0:0:0:0:
434,183,56158,1,0,0:0:0:0:
434,183,56236,2,0,L|376:199,1,53.9999983520508
182,273,56393,6,0,L|262:298,1,53.9999983520508
415,352,56550,2,0,L|398:293,1,53.9999983520508
263,77,56707,2,0,L|241:213,1,107.999996704102
209,335,57021,5,0,0:0:0:0:
209,335,57099,1,0,0:0:0:0:
209,335,57178,2,0,L|138:357,1,53.9999983520508
41,217,57335,1,0,0:0:0:0:
41,217,57414,1,0,0:0:0:0:
41,217,57492,2,0,L|108:230,1,53.9999983520508
201,96,57649,6,0,L|118:116,1,53.9999983520508
26,215,57806,2,0,L|95:224,1,53.9999983520508
290,171,57963,2,0,L|228:173,1,53.9999983520508
144,318,58120,2,0,L|214:315,1,53.9999983520508
390,208,58277,5,0,0:0:0:0:
390,208,58356,1,0,0:0:0:0:
390,208,58435,2,0,L|393:135,1,53.9999983520508
199,41,58592,2,0,L|200:107,1,53.9999983520508
269,285,58749,1,0,0:0:0:0:
399,86,58906,5,0,0:0:0:0:
169,213,59063,1,0,0:0:0:0:
348,343,59220,2,0,L|352:214,1,107.999996704102
110,62,59534,5,0,0:0:0:0:
110,62,59613,1,0,0:0:0:0:
110,62,59691,2,0,L|104:133,1,53.9999983520508
115,276,59848,1,0,0:0:0:0:
222,171,60005,1,0,0:0:0:0:
9,198,60162,6,0,L|15:269,1,53.9999983520508
226,334,60319,2,0,L|225:262,1,53.9999983520508
105,115,60476,1,0,0:0:0:0:
254,45,60633,2,0,L|502:71,1,215.999993408203
470,197,61105,5,0,0:0:0:0:
470,197,61183,1,0,0:0:0:0:
470,197,61262,2,0,L|461:289,1,53.9999983520508
319,359,61419,1,0,0:0:0:0:
222,187,61576,1,0,0:0:0:0:
446,141,61733,2,0,L|434:261,1,107.999996704102
372,355,62047,5,0,0:0:0:0:
372,355,62126,1,0,0:0:0:0:
372,355,62204,2,0,L|301:359,1,53.9999983520508
69,304,62361,1,0,0:0:0:0:
170,183,62518,1,0,0:0:0:0:
230,326,62675,5,0,0:0:0:0:
39,186,62832,1,0,0:0:0:0:
141,21,62989,1,0,0:0:0:0:
350,82,63147,2,0,P|387:136|315:276,1,215.999993408203
337,265,63539,1,0,0:0:0:0:
337,265,63618,1,0,0:0:0:0:
164,145,63775,1,0,0:0:0:0:
158,171,63853,1,0,0:0:0:0:
152,197,63932,1,0,0:0:0:0:
346,34,64089,1,0,0:0:0:0:
360,86,64168,1,0,0:0:0:0:
370,138,64246,1,0,0:0:0:0:
344,215,64325,5,0,0:0:0:0:
271,249,64403,1,0,0:0:0:0:
190,258,64482,1,0,0:0:0:0:
94,226,64560,6,0,L|74:72,1,135.000005149842
215,4,64874,1,0,0:0:0:0:
360,86,65031,2,0,L|338:381,1,270.000010299683
94,226,65503,6,0,L|74:72,1,135.000005149842
215,4,65817,1,0,0:0:0:0:
360,86,65974,2,0,L|352:189,1,67.5000025749208
339,355,66131,1,0,0:0:0:0:
76,92,66288,2,0,L|83:195,1,67.5000025749208
97,361,66445,5,0,0:0:0:0:
339,355,66602,1,0,0:0:0:0:
81,159,66759,6,0,L|98:292,1,135.000005149842
76,92,67073,6,0,L|94:226,1,135.000005149842
97,361,67387,1,0,0:0:0:0:
339,355,67544,2,0,L|360:86,1,270.000010299683
76,92,68016,2,0,L|94:226,1,135.000005149842
339,355,68330,1,0,0:0:0:0:
76,92,68487,2,0,L|83:195,1,67.5000025749208
97,361,68644,1,0,0:0:0:0:
360,86,68801,2,0,L|352:189,1,67.5000025749208
339,355,68958,5,0,0:0:0:0:
81,159,69115,1,0,0:0:0:0:
360,86,69272,1,0,0:0:0:0:
354,153,69351,1,0,0:0:0:0:
348,219,69429,1,0,0:0:0:0:
343,286,69508,1,0,0:0:0:0:
336,352,69586,6,0,L|407:340,1,67.5000025749208
491,258,69743,2,0,L|404:241,1,67.5000025749208
176,352,69900,6,0,L|105:340,1,67.5000025749208
21,258,70057,2,0,L|108:241,1,67.5000025749208
336,352,70215,6,0,L|407:340,1,67.5000025749208
491,258,70372,2,0,L|404:241,1,67.5000025749208
269,339,70529,6,0,L|340:327,1,67.5000025749208
424,245,70686,2,0,L|337:228,1,67.5000025749208
176,352,70843,6,0,L|105:340,1,67.5000025749208
21,258,71000,2,0,L|108:241,1,67.5000025749208
242,339,71157,6,0,L|171:327,1,67.5000025749208
87,245,71314,2,0,L|174:228,1,67.5000025749208
336,352,71471,6,0,L|407:340,1,67.5000025749208
491,258,71628,2,0,L|404:241,1,67.5000025749208
176,352,71785,6,0,L|105:340,1,67.5000025749208
21,258,71942,2,0,L|108:241,1,67.5000025749208
336,352,72099,6,0,L|407:340,7,67.5000025749208
491,258,72728,2,0,L|404:241,7,67.5000025749208
424,245,73356,6,0,L|455:251,95,22.5000008583069
446,249,75869,5,0,0:0:0:0:
252,197,79639,5,0,0:0:0:0:
110,85,89691,6,0,L|115:199,2,90
357,210,90162,2,0,P|275:246|186:239,1,180
35,234,90633,2,0,L|47:348,1,90
308,330,90948,6,0,P|247:326|228:336,1,67.5000025749208
371,214,91262,2,0,P|362:246|368:279,1,67.5000025749208
242,158,91576,2,0,P|274:166|307:160,1,67.5000025749208
189,279,91890,2,0,P|197:246|191:213,1,67.5000025749208
153,143,92126,5,0,0:0:0:0:
153,143,92204,2,0,L|243:158,1,90
336,68,92518,1,0,0:0:0:0:
446,135,92675,2,0,P|417:247|407:349,1,180
505,233,93147,1,0,0:0:0:0:
279,236,93304,1,0,0:0:0:0:
306,383,93461,6,0,P|323:337|323:311,1,67.5000025749208
232,188,93775,2,0,P|263:225|285:238,1,67.5000025749208
450,216,94089,2,0,P|401:224|379:237,1,67.5000025749208
223,325,94403,1,0,0:0:0:0:
95,279,94560,2,0,L|78:114,1,135.000005149842
234,49,95031,1,0,0:0:0:0:
170,148,95188,2,0,P|103:149|58:137,1,90
12,53,95503,1,0,0:0:0:0:
95,278,95660,1,0,0:0:0:0:
234,49,95817,1,0,0:0:0:0:
10,134,95974,6,0,L|38:199,1,67.5000025749208
113,68,96288,2,0,L|42:59,1,67.5000025749208
117,205,96602,2,0,L|159:148,1,67.5000025749208
328,338,96916,1,0,0:0:0:0:
328,338,97073,1,0,0:0:0:0:
441,43,97702,1,0,0:0:0:0:
441,43,97859,1,0,0:0:0:0:
166,174,98330,1,0,0:0:0:0:
166,174,98487,1,0,0:0:0:0:
352,323,99272,6,0,P|399:314|444:312,2,90
231,230,99743,6,0,P|186:226|176:109,1,180
50,68,100215,1,0,0:0:0:0:
50,68,100372,2,0,P|61:124|64:254,1,180
141,308,100843,1,0,0:0:0:0:
228,216,101000,2,0,P|228:300|327:311,1,180
201,117,101471,1,0,0:0:0:0:
141,308,101628,2,0,B|244:308|244:252|337:250,1,180
301,343,102099,1,0,0:0:0:0:
172,221,102257,6,0,L|166:183,15,22.5
168,198,102885,6,0,L|136:207,1,22.5
47,138,103042,2,0,L|80:140,1,22.5
385,153,103199,2,0,L|428:161,1,22.5
335,66,103356,2,0,L|303:74,1,22.5
173,232,103513,6,0,L|166:184,1,33.7500012874604
300,193,103670,2,0,L|302:146,1,33.7500012874604
165,79,103827,2,0,L|160:132,1,45
286,277,103984,2,0,L|276:340,1,45
398,118,104141,6,0,L|343:97,1,56.25
219,173,104298,2,0,L|237:238,1,56.25
392,302,104455,2,0,L|440:243,1,67.5000025749208
88,172,104613,2,0,L|94:258,1,67.5000025749208
81,124,107283,5,0,0:0:0:0:
264,49,107440,1,0,0:0:0:0:
353,217,107597,1,0,0:0:0:0:
169,302,107754,1,0,0:0:0:0:
264,49,107911,1,0,0:0:0:0:
353,217,108068,1,0,0:0:0:0:
81,124,108225,1,0,0:0:0:0:
169,302,108382,1,0,0:0:0:0:
166,51,108539,5,0,0:0:0:0:
114,253,108696,1,0,0:0:0:0:
372,69,108853,1,0,0:0:0:0:
403,263,109010,1,0,0:0:0:0:
90,78,109168,5,0,0:0:0:0:
154,304,109325,1,0,0:0:0:0:
396,90,109482,1,0,0:0:0:0:
326,317,109639,1,0,0:0:0:0:
91,185,109796,5,0,0:0:0:0:
291,116,109953,1,0,0:0:0:0:
257,333,110110,1,0,0:0:0:0:
91,185,110267,1,0,0:0:0:0:
284,25,110424,1,0,0:0:0:0:
298,243,110581,1,0,0:0:0:0:
91,185,110738,1,0,0:0:0:0:
284,25,110895,1,0,0:0:0:0:
473,217,111052,5,0,0:0:0:0:
104,283,111209,1,0,0:0:0:0:
472,279,111366,5,0,0:0:0:0:
62,199,111524,1,0,0:0:0:0:
444,134,111681,5,0,0:0:0:0:
104,283,111838,1,0,0:0:0:0:
447,258,111995,5,0,0:0:0:0:
58,129,112152,1,0,0:0:0:0:
252,49,112309,5,0,0:0:0:0:
395,175,112466,1,0,0:0:0:0:
194,191,112623,1,0,0:0:0:0:
430,46,112780,1,0,0:0:0:0:
345,340,112937,1,0,0:0:0:0:
54,179,113094,1,0,0:0:0:0:
324,190,113251,1,0,0:0:0:0:
99,306,113408,1,0,0:0:0:0:
128,45,113565,5,0,0:0:0:0:
223,339,113722,1,0,0:0:0:0:
253,40,113880,5,0,0:0:0:0:
139,351,114037,1,0,0:0:0:0:
125,33,114194,5,0,0:0:0:0:
248,353,114351,1,0,0:0:0:0:
278,27,114508,5,0,0:0:0:0:
135,335,114665,1,0,0:0:0:0:
134,340,114822,1,0,0:0:0:0:
48,124,114979,1,0,0:0:0:0:
253,240,115136,1,0,0:0:0:0:
15,276,115293,1,0,0:0:0:0:
15,276,115450,1,0,0:0:0:0:
199,151,115607,1,0,0:0:0:0:
189,319,115764,1,0,0:0:0:0:
57,166,115921,1,0,0:0:0:0:
57,166,116079,1,0,0:0:0:0:
211,21,116236,1,0,0:0:0:0:
211,21,116550,1,0,0:0:0:0:
211,21,116864,5,0,0:0:0:0:
338,176,117021,1,0,0:0:0:0:
342,49,117178,1,0,0:0:0:0:
119,168,117335,5,0,0:0:0:0:
282,293,117492,1,0,0:0:0:0:
469,231,117649,1,0,0:0:0:0:
255,150,117806,1,0,0:0:0:0:
364,384,117963,1,0,0:0:0:0:
361,105,118120,1,0,0:0:0:0:
146,301,118277,1,0,0:0:0:0:
449,263,118435,1,0,0:0:0:0:
342,49,118592,5,0,0:0:0:0:
447,228,118749,1,0,0:0:0:0:
252,38,118906,5,0,0:0:0:0:
362,309,119063,1,0,0:0:0:0:
169,64,119220,5,0,0:0:0:0:
185,322,119377,1,0,0:0:0:0:
90,72,119534,5,0,0:0:0:0:
41,305,119691,1,0,0:0:0:0:
240,179,119848,5,0,0:0:0:0:
0,158,120005,1,0,0:0:0:0:
124,363,120162,1,0,0:0:0:0:
204,94,120319,1,0,0:0:0:0:
14,263,120476,1,0,0:0:0:0:
260,233,120633,1,0,0:0:0:0:
202,31,120791,1,0,0:0:0:0:
19,129,120948,1,0,0:0:0:0:
72,337,121105,5,0,0:0:0:0:
19,129,121262,1,0,0:0:0:0:
166,337,121419,5,0,0:0:0:0:
114,30,121576,1,0,0:0:0:0:
307,340,121733,5,0,0:0:0:0:
328,25,121890,1,0,0:0:0:0:
408,337,122047,5,0,0:0:0:0:
477,120,122204,1,0,0:0:0:0:
477,120,122518,1,0,0:0:0:0:
477,120,122832,1,0,0:0:0:0:
477,120,123147,1,0,0:0:0:0:
477,120,123461,1,0,0:0:0:0:
477,120,123775,1,0,0:0:0:0:
477,120,124089,1,0,0:0:0:0:
381,170,124246,6,0,L|307:171,3,53.9999983520508
245,126,124560,2,0,L|158:144,1,62.9999980773926
69,139,124717,2,0,L|32:73,1,62.9999980773926
112,14,124874,6,0,L|172:25,5,33.7500012874604
215,96,125346,6,0,L|205:155,1,45
150,264,125503,2,0,L|161:321,1,56.25
288,263,125660,2,0,L|302:205,3,56.25
352,99,125974,2,0,P|422:63|452:70,1,67.5000025749208
461,211,126131,2,0,L|433:286,1,67.5000025749208
298,351,126288,5,0,0:0:0:0:
298,351,126602,1,0,0:0:0:0:
298,351,126916,1,0,0:0:0:0:
298,351,127230,1,0,0:0:0:0:
298,351,127387,6,0,L|291:345,96,5.625
201,110,138068,6,0,L|140:111,2,45
279,65,138539,2,0,P|290:108|271:163,1,90
156,302,140581,6,0,L|151:252,2,45
296,354,141052,2,0,P|253:369|193:363,1,90
382,99,143094,6,0,L|435:97,2,45
302,49,143565,2,0,P|290:92|301:150,1,90
364,273,145607,6,0,L|428:270,2,45
285,235,146079,2,0,P|275:271|291:322,1,90
88,79,147492,5,0,0:0:0:0:
216,169,147649,1,0,0:0:0:0:
199,50,147806,1,0,0:0:0:0:
116,192,147963,2,0,P|157:253|282:249,1,180
216,169,148435,1,0,0:0:0:0:
210,372,148592,1,0,0:0:0:0:
367,257,148749,1,0,0:0:0:0:
424,79,150005,5,0,0:0:0:0:
296,169,150162,1,0,0:0:0:0:
313,50,150319,1,0,0:0:0:0:
396,192,150476,2,0,P|355:253|230:249,1,180
296,169,150948,1,0,0:0:0:0:
302,372,151105,1,0,0:0:0:0:
145,257,151262,1,0,0:0:0:0:
88,79,152518,5,0,0:0:0:0:
216,169,152675,1,0,0:0:0:0:
199,50,152832,1,0,0:0:0:0:
116,192,152989,2,0,P|157:253|282:249,1,180
216,169,153461,1,0,0:0:0:0:
210,372,153618,1,0,0:0:0:0:
367,257,153775,1,0,0:0:0:0:
428,80,155031,6,0,L|429:102,63,22.5
428,80,157544,6,0,L|428:152,31,67.5000025749208
428,80,160058,6,0,L|428:100,112,16.8750006437302
428,96,162571,6,0,L|417:57,64,33.7500012874604
120,50,166497,6,0,L|131:93,1,45
122,50,166811,2,0,L|138:109,1,45
125,39,167126,2,0,L|134:98,1,45
128,35,167440,2,0,L|136:88,1,45
134,30,167754,2,0,L|142:85,1,45
141,29,168068,2,0,L|144:76,1,45
152,17,168225,2,0,L|159:76,1,45
173,11,168382,2,0,L|182:79,1,45
190,1,168539,6,0,L|204:102,2,90
356,46,168853,5,0,0:0:0:0:
256,275,169010,1,0,0:0:0:0:
202,90,169168,1,0,0:0:0:0:
481,187,169325,2,0,P|450:307|243:213,1,360
96,157,169796,2,0,L|68:353,1,180
255,274,170110,5,0,0:0:0:0:
49,24,170267,1,0,0:0:0:0:
70,335,170424,1,0,0:0:0:0:
96,157,170581,2,0,P|251:121|236:291,1,360
435,384,171052,2,0,L|398:171,1,180
402,45,171366,5,0,0:0:0:0:
256,276,171524,1,0,0:0:0:0:
470,164,171681,1,0,0:0:0:0:
178,195,171838,2,0,P|156:297|379:311,1,360
283,168,172309,2,0,P|221:69|112:80,1,180
21,314,172623,5,0,0:0:0:0:
272,267,172780,1,0,0:0:0:0:
455,114,172937,5,0,0:0:0:0:
158,151,173094,1,0,0:0:0:0:
307,384,173251,6,0,L|325:178,1,180
124,57,173565,5,0,0:0:0:0:
149,333,173722,2,0,P|251:333|236:95,1,360
34,61,174194,2,0,P|31:147|98:202,1,180
182,13,174508,1,0,0:0:0:0:
416,233,174665,5,0,0:0:0:0:
98,202,174822,1,0,0:0:0:0:
338,89,174979,1,0,0:0:0:0:
128,49,175136,5,0,0:0:0:0:
203,325,175293,1,0,0:0:0:0:
401,78,175450,5,0,0:0:0:0:
351,318,175607,1,0,0:0:0:0:
131,213,175764,5,0,0:0:0:0:
381,81,175921,1,0,0:0:0:0:
384,326,176079,1,0,0:0:0:0:
91,118,176236,1,0,0:0:0:0:
361,55,176393,5,0,0:0:0:0:
235,248,176550,1,0,0:0:0:0:
174,89,176707,1,0,0:0:0:0:
417,75,176864,5,0,0:0:0:0:
216,228,177021,1,0,0:0:0:0:
233,28,177178,1,0,0:0:0:0:
376,161,177335,5,0,0:0:0:0:
133,191,177492,1,0,0:0:0:0:
307,29,177649,5,0,0:0:0:0:
210,282,177806,1,0,0:0:0:0:
125,105,177963,1,0,0:0:0:0:
363,94,178120,5,0,0:0:0:0:
225,29,178435,1,0,0:0:0:0:
281,208,178749,1,0,0:0:0:0:
33,294,178906,6,0,P|131:318|214:281,1,180
281,208,179220,1,0,0:0:0:0:
275,286,179377,2,0,P|205:218|355:234,1,360
431,81,179848,2,0,P|476:202|468:279,1,180
279,366,180162,5,0,0:0:0:0:
146,190,180319,1,0,0:0:0:0:
396,196,180476,1,0,0:0:0:0:
148,333,180633,5,0,0:0:0:0:
207,79,180791,1,0,0:0:0:0:
377,254,180948,1,0,0:0:0:0:
59,167,181105,1,0,0:0:0:0:
360,88,181262,1,0,0:0:0:0:
182,350,181419,6,0,L|148:137,1,180
329,128,181733,1,0,0:0:0:0:
290,200,181890,2,0,P|399:168|261:85,1,360
462,250,182361,2,0,P|500:156|496:73,1,180
176,229,182675,5,0,0:0:0:0:
371,351,182832,1,0,0:0:0:0:
315,85,182989,1,0,0:0:0:0:
274,264,183147,1,0,0:0:0:0:
415,229,183304,1,0,0:0:0:0:
213,113,183461,1,0,0:0:0:0:
187,280,183618,1,0,0:0:0:0:
115,225,183775,2,0,P|108:326|267:241,1,360
176,86,184246,1,0,0:0:0:0:
18,208,184403,2,0,P|13:299|39:392,1,180
226,225,184717,5,0,0:0:0:0:
121,69,184874,1,0,0:0:0:0:
18,208,185031,1,0,0:0:0:0:
267,78,185188,6,0,P|357:72|501:101,1,180
226,225,185503,2,0,P|136:231|-8:202,1,180
193,38,185817,1,0,0:0:0:0:
338,352,185974,1,0,0:0:0:0:
193,38,186131,1,0,0:0:0:0:
338,352,186288,1,0,0:0:0:0:
512,210,186445,2,0,P|404:257|315:223,1,180
140,69,186759,1,0,0:0:0:0:
340,68,186916,5,0,0:0:0:0:
283,364,187073,2,0,L|253:176,1,180
227,38,187387,1,0,0:0:0:0:
24,258,187544,5,0,0:0:0:0:
150,364,187702,2,0,L|176:172,1,180
52,44,188173,1,0,0:0:0:0:
52,44,188487,1,0,0:0:0:0:
173,170,188644,1,0,0:0:0:0:
180,37,188801,1,0,0:0:0:0:
55,174,188958,6,0,L|50:197,64,16.8750006437302
75,73,190372,1,0,0:0:0:0:
157,266,190529,1,0,0:0:0:0:
207,75,190686,1,0,0:0:0:0:
233,273,190843,5,0,0:0:0:0:
207,75,191000,1,0,0:0:0:0:
157,266,191157,1,0,0:0:0:0:
75,73,191314,1,0,0:0:0:0:
105,358,191471,5,0,0:0:0:0:
95,84,192728,5,0,0:0:0:0:
139,209,192885,1,0,0:0:0:0:
205,81,193042,1,0,0:0:0:0:
260,213,193199,1,0,0:0:0:0:
326,80,193356,1,0,0:0:0:0:
139,209,193513,1,0,0:0:0:0:
326,80,193670,1,0,0:0:0:0:
260,213,193827,5,0,0:0:0:0:
95,84,193984,1,0,0:0:0:0:
46,262,195241,5,0,0:0:0:0:
114,148,195398,1,0,0:0:0:0:
174,270,195555,1,0,0:0:0:0:
239,148,195712,1,0,0:0:0:0:
286,270,195869,1,0,0:0:0:0:
114,148,196026,1,0,0:0:0:0:
361,158,196183,1,0,0:0:0:0:
174,270,196340,5,0,0:0:0:0:
179,59,196497,1,0,0:0:0:0:
346,145,196969,1,0,0:0:0:0:
346,145,197126,1,0,0:0:0:0:
112,90,197597,1,0,0:0:0:0:
112,90,197754,6,0,L|105:129,31,33.7500012874604
112,90,199010,6,0,L|109:104,64,13.4999995880127
282,171,200424,5,0,0:0:0:0:
226,37,200581,1,0,0:0:0:0:
0,237,200738,2,0,P|96:252|177:123,1,215.999993408203
314,351,201209,2,0,P|235:324|202:271,1,107.999996704102
56,125,201524,1,0,0:0:0:0:
353,83,202780,5,0,0:0:0:0:
281,270,202937,1,0,0:0:0:0:
175,17,203094,2,0,P|239:56|279:190,1,215.999993408203
450,122,203565,2,0,P|381:85|334:85,1,107.999996704102
134,160,203880,1,0,0:0:0:0:
261,343,204037,5,0,0:0:0:0:
261,343,204194,1,0,0:0:0:0:
261,343,204508,1,0,0:0:0:0:
261,343,204822,1,0,0:0:0:0:
261,343,205136,1,0,0:0:0:0:
261,343,205450,1,0,0:0:0:0:
261,343,205764,1,0,0:0:0:0:
377,336,205921,5,0,0:0:0:0:
383,309,206000,1,0,0:0:0:0:
389,282,206079,1,0,0:0:0:0:
395,256,206157,1,0,0:0:0:0:
401,229,206236,1,0,0:0:0:0:
407,203,206314,1,0,0:0:0:0:
414,176,206393,1,0,0:0:0:0:
421,150,206471,1,0,0:0:0:0:
425,139,206550,2,0,L|437:100,3,22.5
358,55,206864,6,0,L|361:100,3,33.7500012874604
269,92,207178,2,0,L|279:42,3,45
186,69,207492,2,0,L|194:138,3,56.25
121,201,207806,5,0,0:0:0:0:
62,88,207963,1,0,0:0:0:0:
62,88,208277,1,0,0:0:0:0:
62,88,208592,1,0,0:0:0:0:
62,88,208906,1,0,0:0:0:0:
256,192,209063,12,0,217859,0:0:0:0:
