osu file format v14

[General]
AudioFilename: audio.mp3
AudioLeadIn: 0
PreviewTime: 157527
Countdown: 0
SampleSet: Normal
StackLeniency: 0.7
Mode: 1
LetterboxInBreaks: 0
WidescreenStoryboard: 0

[Editor]
Bookmarks: 27,115,203,291,380,11674,22968,34262,45556,56850,68144,90732,113321,124615,135909,135997,136085,136174,136262,136350,136438,136527,136615,136703,136791,136879,136968,137056,137144,137232,137321,137409,137497,137585,137674,144379,144468,144556,144644,144732,144821,144909,144997,145085,145174,145262,145350,145438,145527,145615,145703,145791,147203,158497,169791,181085,203674,205791,205879,205968,206056,206144,206232,206321,206409,206497
DistanceSpacing: 1
BeatDivisor: 4
GridSize: 32
TimelineZoom: 1.2

[Metadata]
Title:Starlight Wonder
TitleUnicode:スターライト・ワンダー
Artist:Seina
ArtistUnicode:Seina
Creator:Sotarks
Version:Yasuho's Muzukashii
Source:
Tags:紫音 lee future bass kirara magic shion aikawa japanese female vocalist electronic kowari smokelind elinor eli [_eli_] basensorex vulkin yasuho surono リーシオン vtuber virtual youtuber
BeatmapID:2554510
BeatmapSetID:1221223

[Difficulty]
HPDrainRate:6
CircleSize:2
OverallDifficulty:5
ApproachRate:10
SliderMultiplier:1.4
SliderTickRate:1

[Events]
//Background and Video events
0,0,"bg.jpg",0,-20
//Break Periods
//Storyboard Layer 0 (Background)
//Storyboard Layer 1 (Fail)
//Storyboard Layer 2 (Pass)
//Storyboard Layer 3 (Foreground)
//Storyboard Layer 4 (Overlay)
//Storyboard Sound Samples

[TimingPoints]
380,352.941176470588,4,1,0,32,1,0
380,-100,4,1,0,32,0,0
11674,-100,4,1,0,42,0,0
34262,-100,4,1,0,52,0,0
45556,-100,4,1,0,62,0,0
56850,-100,4,1,0,72,0,0
66732,-100,4,1,0,52,0,0
67438,-100,4,1,0,72,0,0
68144,-100,4,1,0,82,0,1
90732,-100,4,1,0,82,0,0
102027,-100,4,1,0,82,0,0
102379,-100,4,1,0,82,0,0
113321,-100,4,1,0,52,0,0
147203,-100,4,1,0,72,0,0
157085,-100,4,1,0,52,0,0
157791,-100,4,1,0,72,0,0
158144,-100,4,1,0,62,0,0
158497,-100,4,1,0,82,0,1
181085,-100,4,1,0,82,0,0
205791,-100,4,1,0,22,0,0

[Colours]
Combo1 : 253,255,210
Combo2 : 165,214,222
Combo3 : 116,126,201
Combo4 : 98,239,255
Combo5 : 24,74,192
Combo6 : 249,176,255
Combo7 : 255,4,162
Combo8 : 247,255,74

[HitObjects]
254,194,380,5,12,0:0:0:0:
255,195,1791,1,0,0:0:0:0:
251,193,3203,1,8,0:0:0:0:
253,194,6027,1,0,0:0:0:0:
258,188,7438,1,8,0:0:0:0:
258,188,8850,1,0,0:0:0:0:
258,188,11674,1,8,0:0:0:0:
258,188,12027,1,8,0:0:0:0:
258,188,13085,1,0,0:0:0:0:
258,188,13438,1,8,0:0:0:0:
258,188,14497,1,8,0:0:0:0:
258,188,14850,1,8,0:0:0:0:
257,189,15909,1,8,0:0:0:0:
257,189,16438,1,8,0:0:0:0:
257,189,16968,1,8,0:0:0:0:
257,189,17321,1,0,0:0:0:0:
251,188,17674,1,0,0:0:0:0:
255,192,18732,1,0,0:0:0:0:
255,192,19085,1,8,0:0:0:0:
255,192,20144,1,0,0:0:0:0:
255,192,20321,1,8,0:0:0:0:
255,192,20497,1,8,0:0:0:0:
255,188,21556,1,8,0:0:0:0:
255,188,21732,1,0,0:0:0:0:
255,188,21909,1,0,0:0:0:0:
242,188,22085,1,8,0:0:0:0:
257,188,22968,1,0,0:0:0:0:
261,190,23674,1,8,0:0:0:0:
265,196,24027,1,8,0:0:0:0:
265,196,24203,1,8,0:0:0:0:
265,196,24379,1,0,0:0:0:0:
269,193,25085,1,8,0:0:0:0:
269,193,25438,1,0,0:0:0:0:
269,193,25615,1,8,0:0:0:0:
269,193,25791,1,8,0:0:0:0:
269,193,26497,1,8,0:0:0:0:
269,193,27732,1,0,0:0:0:0:
256,187,27909,1,8,0:0:0:0:
256,187,28262,1,8,0:0:0:0:
254,196,28615,1,0,0:0:0:0:
255,192,29321,1,8,0:0:0:0:
259,186,29497,1,8,0:0:0:0:
259,186,29674,1,0,0:0:0:0:
259,186,30027,1,8,0:0:0:0:
253,186,30379,1,0,0:0:0:0:
253,186,30556,1,8,0:0:0:0:
253,186,31085,1,8,0:0:0:0:
253,186,31262,1,0,0:0:0:0:
253,186,31438,1,0,0:0:0:0:
249,185,31615,1,8,0:0:0:0:
249,185,31791,1,0,0:0:0:0:
250,188,32144,1,8,0:0:0:0:
262,190,33556,1,8,0:0:0:0:
262,190,33909,1,0,0:0:0:0:
262,190,34085,1,8,0:0:0:0:
262,190,34174,1,8,0:0:0:0:
262,190,34262,1,8,0:0:0:0:
257,190,34615,1,0,0:0:0:0:
261,191,34968,1,8,0:0:0:0:
249,191,35497,1,0,0:0:0:0:
249,191,35674,1,0,0:0:0:0:
254,191,36027,1,0,0:0:0:0:
254,199,36379,1,8,0:0:0:0:
252,199,37085,1,0,0:0:0:0:
252,199,37438,1,8,0:0:0:0:
252,199,37791,1,0,0:0:0:0:
251,198,38144,1,0,0:0:0:0:
251,198,38321,1,0,0:0:0:0:
251,198,38850,1,0,0:0:0:0:
257,188,39203,1,8,0:0:0:0:
258,187,39909,1,0,0:0:0:0:
251,192,40262,1,8,0:0:0:0:
251,192,40615,1,8,0:0:0:0:
251,192,41144,1,0,0:0:0:0:
251,192,41321,1,0,0:0:0:0:
256,186,41674,1,0,0:0:0:0:
256,186,42027,1,8,0:0:0:0:
258,183,42732,1,0,0:0:0:0:
258,183,43085,1,0,0:0:0:0:
258,183,43438,1,8,0:0:0:0:
260,181,44144,1,8,0:0:0:0:
260,181,44321,1,0,0:0:0:0:
260,181,44497,1,0,0:0:0:0:
257,187,44850,1,8,0:0:0:0:
259,189,45203,1,0,0:0:0:0:
260,189,45556,1,4,0:0:0:0:
255,190,46085,1,8,0:0:0:0:
254,203,46615,1,8,0:0:0:0:
254,203,46791,1,0,0:0:0:0:
254,203,46879,1,0,0:0:0:0:
254,203,46968,1,0,0:0:0:0:
254,203,47497,1,0,0:0:0:0:
246,199,47674,1,8,0:0:0:0:
255,198,48027,1,8,0:0:0:0:
255,198,48203,1,0,0:0:0:0:
255,198,48291,1,0,0:0:0:0:
255,198,48379,1,0,0:0:0:0:
260,199,48909,1,0,0:0:0:0:
260,199,49438,1,0,0:0:0:0:
260,199,49615,1,8,0:0:0:0:
260,199,49703,1,8,0:0:0:0:
260,199,49791,1,8,0:0:0:0:
248,192,50321,1,0,0:0:0:0:
248,192,50497,1,8,0:0:0:0:
248,192,50585,1,8,0:0:0:0:
248,192,50674,1,8,0:0:0:0:
248,192,50850,1,0,0:0:0:0:
248,192,51027,1,8,0:0:0:0:
248,192,51203,1,0,0:0:0:0:
249,188,51732,1,0,0:0:0:0:
249,188,51909,1,8,0:0:0:0:
249,188,52085,1,8,0:0:0:0:
249,188,52438,1,8,0:0:0:0:
249,188,52527,1,8,0:0:0:0:
249,188,52615,1,8,0:0:0:0:
251,186,52968,1,0,0:0:0:0:
251,186,53144,1,8,0:0:0:0:
251,186,53321,1,8,0:0:0:0:
251,186,53674,1,0,0:0:0:0:
253,186,54027,1,8,0:0:0:0:
254,186,54379,1,0,0:0:0:0:
254,186,54556,1,8,0:0:0:0:
256,188,55085,1,8,0:0:0:0:
256,188,55262,1,0,0:0:0:0:
262,187,55968,1,0,0:0:0:0:
262,187,56144,1,8,0:0:0:0:
262,187,56321,1,8,0:0:0:0:
262,187,56409,1,8,0:0:0:0:
262,187,56497,1,8,0:0:0:0:
262,187,56674,1,0,0:0:0:0:
268,190,56850,1,12,0:0:0:0:
262,183,57203,1,8,0:0:0:0:
262,183,57732,1,0,0:0:0:0:
262,183,57909,1,8,0:0:0:0:
269,189,58262,1,8,0:0:0:0:
269,183,58615,1,0,0:0:0:0:
269,183,59144,1,8,0:0:0:0:
269,183,59497,1,0,0:0:0:0:
269,183,59674,1,8,0:0:0:0:
256,192,60027,1,0,0:0:0:0:
256,192,60379,1,8,0:0:0:0:
256,192,60556,1,0,0:0:0:0:
256,192,60909,1,0,0:0:0:0:
256,192,61085,1,8,0:0:0:0:
258,192,61438,1,8,0:0:0:0:
258,191,61968,1,8,0:0:0:0:
258,191,62144,1,0,0:0:0:0:
258,191,62497,1,8,0:0:0:0:
258,191,62850,1,0,0:0:0:0:
258,191,63203,1,0,0:0:0:0:
258,191,63556,1,0,0:0:0:0:
258,191,63732,1,8,0:0:0:0:
258,191,63909,1,0,0:0:0:0:
253,185,64262,1,8,0:0:0:0:
253,185,64615,1,0,0:0:0:0:
254,181,64968,1,8,0:0:0:0:
254,181,65321,1,0,0:0:0:0:
254,181,65409,1,0,0:0:0:0:
254,181,65497,1,0,0:0:0:0:
254,181,65674,1,8,0:0:0:0:
255,181,65850,1,0,0:0:0:0:
238,187,66027,1,0,0:0:0:0:
255,181,66203,1,8,0:0:0:0:
255,181,66379,1,0,0:0:0:0:
255,181,66556,1,8,0:0:0:0:
262,182,66909,1,8,0:0:0:0:
263,182,67262,1,8,0:0:0:0:
263,182,67350,1,8,0:0:0:0:
263,182,67438,1,8,0:0:0:0:
263,182,67615,1,0,0:0:0:0:
263,182,67791,1,8,0:0:0:0:
263,182,67968,1,0,0:0:0:0:
148,329,68144,1,12,0:0:0:0:
252,191,68497,1,0,0:0:0:0:
285,196,68850,1,0,0:0:0:0:
285,196,69027,1,8,0:0:0:0:
261,183,69379,1,8,0:0:0:0:
254,187,69732,1,0,0:0:0:0:
254,187,69909,1,8,0:0:0:0:
254,187,70085,1,8,0:0:0:0:
254,187,70438,1,8,0:0:0:0:
254,187,70615,1,0,0:0:0:0:
254,187,70791,1,0,0:0:0:0:
254,187,70968,1,8,0:0:0:0:
248,190,71321,1,0,0:0:0:0:
248,190,71497,1,0,0:0:0:0:
248,190,71585,1,0,0:0:0:0:
248,190,71674,1,0,0:0:0:0:
248,190,71850,1,8,0:0:0:0:
248,190,72027,1,0,0:0:0:0:
241,189,72203,1,8,0:0:0:0:
244,187,72732,1,0,0:0:0:0:
265,187,73085,1,8,0:0:0:0:
265,187,73262,1,0,0:0:0:0:
265,187,73438,1,8,0:0:0:0:
265,187,73615,1,0,0:0:0:0:
265,187,73703,1,0,0:0:0:0:
265,187,73791,1,0,0:0:0:0:
288,192,74144,1,8,0:0:0:0:
225,190,74321,1,0,0:0:0:0:
225,190,74409,1,0,0:0:0:0:
240,196,74497,1,0,0:0:0:0:
225,190,74674,1,8,0:0:0:0:
240,196,74850,1,0,0:0:0:0:
240,196,75027,1,8,0:0:0:0:
243,197,75203,1,0,0:0:0:0:
253,192,75732,1,8,0:0:0:0:
255,191,75909,1,0,0:0:0:0:
249,192,76262,1,8,0:0:0:0:
249,192,76438,1,8,0:0:0:0:
249,192,76615,1,0,0:0:0:0:
248,194,76968,1,0,0:0:0:0:
252,192,77144,1,8,0:0:0:0:
270,217,77497,1,0,0:0:0:0:
252,192,77674,1,8,0:0:0:0:
252,192,77850,1,0,0:0:0:0:
246,200,77938,1,0,0:0:0:0:
252,192,78027,1,0,0:0:0:0:
251,190,78379,1,8,0:0:0:0:
104,267,78556,1,0,0:0:0:0:
251,190,78909,1,0,0:0:0:0:
251,190,79085,1,8,0:0:0:0:
251,190,79262,1,8,0:0:0:0:
251,190,79350,1,8,0:0:0:0:
251,190,79438,1,8,0:0:0:0:
251,190,79791,1,0,0:0:0:0:
221,217,80144,1,0,0:0:0:0:
236,202,80321,1,8,0:0:0:0:
253,186,80674,1,0,0:0:0:0:
240,191,81027,1,8,0:0:0:0:
201,197,81203,1,0,0:0:0:0:
199,190,81379,1,8,0:0:0:0:
199,190,81732,1,8,0:0:0:0:
224,186,81909,1,0,0:0:0:0:
240,191,82085,1,8,0:0:0:0:
240,191,82174,1,8,0:0:0:0:
241,191,82262,1,8,0:0:0:0:
241,191,82791,1,0,0:0:0:0:
241,191,82968,1,8,0:0:0:0:
241,191,83144,1,0,0:0:0:0:
241,191,83321,1,0,0:0:0:0:
207,186,83497,1,8,0:0:0:0:
207,186,83585,1,8,0:0:0:0:
251,192,83674,1,8,0:0:0:0:
276,196,84027,1,0,0:0:0:0:
248,198,84379,1,8,0:0:0:0:
248,198,84556,1,0,0:0:0:0:
234,198,84732,1,0,0:0:0:0:
248,198,84909,1,8,0:0:0:0:
252,192,85438,1,0,0:0:0:0:
252,192,85615,1,8,0:0:0:0:
252,192,85791,1,8,0:0:0:0:
252,192,86144,1,8,0:0:0:0:
252,192,86321,1,0,0:0:0:0:
260,190,86850,1,8,0:0:0:0:
260,190,87027,1,0,0:0:0:0:
260,190,87203,1,8,0:0:0:0:
268,197,87556,1,8,0:0:0:0:
268,197,87733,1,0,0:0:0:0:
260,190,87821,1,0,0:0:0:0:
260,190,87909,1,0,0:0:0:0:
279,181,88085,1,0,0:0:0:0:
260,190,88262,1,8,0:0:0:0:
261,190,88615,1,0,0:0:0:0:
246,188,88968,1,0,0:0:0:0:
261,190,89144,1,8,0:0:0:0:
261,190,89232,1,8,0:0:0:0:
261,190,89321,1,8,0:0:0:0:
261,190,89674,1,0,0:0:0:0:
261,190,89850,1,8,0:0:0:0:
267,187,90203,1,8,0:0:0:0:
267,187,90379,1,8,0:0:0:0:
267,188,90556,1,0,0:0:0:0:
267,188,90644,1,0,0:0:0:0:
267,188,90732,1,0,0:0:0:0:
271,187,91085,1,0,0:0:0:0:
271,187,91438,1,8,0:0:0:0:
271,187,91791,1,0,0:0:0:0:
271,187,92144,1,8,0:0:0:0:
271,187,92321,1,8,0:0:0:0:
271,187,92497,1,0,0:0:0:0:
271,187,92585,1,0,0:0:0:0:
271,187,92674,1,0,0:0:0:0:
271,187,92850,1,8,0:0:0:0:
271,187,93027,1,0,0:0:0:0:
271,187,93203,1,8,0:0:0:0:
256,186,93556,1,8,0:0:0:0:
231,188,93732,1,0,0:0:0:0:
246,192,93909,1,0,0:0:0:0:
250,193,94262,1,0,0:0:0:0:
257,196,94615,1,0,0:0:0:0:
253,180,94791,1,8,0:0:0:0:
253,180,94879,1,8,0:0:0:0:
253,180,94968,1,8,0:0:0:0:
253,178,95321,1,0,0:0:0:0:
253,178,95497,1,0,0:0:0:0:
253,178,95850,1,8,0:0:0:0:
253,178,96027,1,0,0:0:0:0:
246,166,96556,1,0,0:0:0:0:
246,166,96732,1,8,0:0:0:0:
246,166,96909,1,0,0:0:0:0:
246,166,97085,1,8,0:0:0:0:
248,168,97262,1,0,0:0:0:0:
248,168,97615,1,8,0:0:0:0:
254,189,97968,1,0,0:0:0:0:
254,189,98144,1,8,0:0:0:0:
254,189,98321,1,0,0:0:0:0:
254,189,98497,1,8,0:0:0:0:
254,189,98674,1,0,0:0:0:0:
254,189,98850,1,8,0:0:0:0:
254,189,99027,1,8,0:0:0:0:
254,189,99379,1,8,0:0:0:0:
227,184,99556,1,0,0:0:0:0:
256,183,99732,1,0,0:0:0:0:
256,195,100085,1,8,0:0:0:0:
205,224,100438,1,0,0:0:0:0:
225,197,100615,1,12,0:0:0:0:
211,195,100968,1,0,0:0:0:0:
216,199,101085,1,8,0:0:0:0:
200,201,101203,1,8,0:0:0:0:
169,177,101321,1,8,0:0:0:0:
217,198,101674,1,0,0:0:0:0:
217,199,102027,1,4,0:0:0:0:
196,194,102379,1,8,0:0:0:0:
201,194,102732,1,0,0:0:0:0:
201,194,102909,1,8,0:0:0:0:
201,194,103085,1,8,0:0:0:0:
204,195,103438,1,0,0:0:0:0:
204,195,103791,1,8,0:0:0:0:
204,195,103968,1,0,0:0:0:0:
200,188,104321,1,8,0:0:0:0:
200,188,104497,1,0,0:0:0:0:
212,195,104850,1,8,0:0:0:0:
221,186,105203,1,8,0:0:0:0:
221,186,105379,1,0,0:0:0:0:
211,196,105556,1,8,0:0:0:0:
211,196,105909,1,0,0:0:0:0:
211,196,106262,1,8,0:0:0:0:
211,196,106438,1,8,0:0:0:0:
189,173,106527,1,8,0:0:0:0:
190,173,106615,1,8,0:0:0:0:
190,173,106791,1,0,0:0:0:0:
194,172,107144,1,0,0:0:0:0:
194,172,107321,1,8,0:0:0:0:
194,172,107497,1,0,0:0:0:0:
189,166,107674,1,8,0:0:0:0:
224,189,108027,1,8,0:0:0:0:
224,189,108203,1,0,0:0:0:0:
224,189,108379,1,8,0:0:0:0:
224,187,108909,1,8,0:0:0:0:
224,187,109262,1,0,0:0:0:0:
224,187,109438,1,8,0:0:0:0:
224,187,109615,1,0,0:0:0:0:
224,187,109791,1,8,0:0:0:0:
224,187,109968,1,0,0:0:0:0:
224,187,110144,1,8,0:0:0:0:
224,187,110321,1,8,0:0:0:0:
158,213,110674,1,0,0:0:0:0:
182,209,110850,1,8,0:0:0:0:
182,209,111027,1,0,0:0:0:0:
182,209,111115,1,0,0:0:0:0:
182,209,111203,1,0,0:0:0:0:
182,209,111379,1,8,0:0:0:0:
182,209,111556,1,0,0:0:0:0:
182,209,111909,1,8,0:0:0:0:
182,209,112085,1,8,0:0:0:0:
182,209,112262,1,8,0:0:0:0:
182,209,112615,1,0,0:0:0:0:
182,209,112703,1,0,0:0:0:0:
182,209,112791,1,0,0:0:0:0:
198,170,112968,1,8,0:0:0:0:
198,170,113144,1,0,0:0:0:0:
198,170,113321,1,4,0:0:0:0:
259,187,113674,1,8,0:0:0:0:
239,194,114203,1,0,0:0:0:0:
239,194,114379,1,8,0:0:0:0:
249,198,114732,1,0,0:0:0:0:
249,198,115085,1,8,0:0:0:0:
252,200,115615,1,0,0:0:0:0:
252,200,115791,1,8,0:0:0:0:
252,200,116144,1,0,0:0:0:0:
252,200,116497,1,8,0:0:0:0:
253,200,117027,1,0,0:0:0:0:
253,200,117203,1,8,0:0:0:0:
253,200,117556,1,0,0:0:0:0:
253,200,117909,1,8,0:0:0:0:
212,178,118438,1,0,0:0:0:0:
212,178,118615,1,8,0:0:0:0:
213,180,118968,1,0,0:0:0:0:
213,180,119321,1,8,0:0:0:0:
214,186,119850,1,0,0:0:0:0:
214,186,120027,1,8,0:0:0:0:
214,186,120379,1,0,0:0:0:0:
219,182,120732,1,8,0:0:0:0:
220,184,121262,1,0,0:0:0:0:
220,184,121438,1,8,0:0:0:0:
220,184,121791,1,0,0:0:0:0:
220,184,121968,1,0,0:0:0:0:
220,184,122144,1,8,0:0:0:0:
225,180,122674,1,0,0:0:0:0:
225,180,122850,1,8,0:0:0:0:
225,180,123203,1,0,0:0:0:0:
225,180,123379,1,0,0:0:0:0:
225,180,123556,1,8,0:0:0:0:
225,180,123909,1,0,0:0:0:0:
225,180,124085,1,0,0:0:0:0:
225,180,124262,1,8,0:0:0:0:
225,180,124438,1,0,0:0:0:0:
225,180,124615,1,8,0:0:0:0:
240,192,124968,1,8,0:0:0:0:
242,193,125497,1,0,0:0:0:0:
204,190,125674,1,8,0:0:0:0:
205,173,126027,1,0,0:0:0:0:
217,191,126379,1,8,0:0:0:0:
217,191,126909,1,0,0:0:0:0:
176,203,127085,1,8,0:0:0:0:
177,204,127438,1,0,0:0:0:0:
177,204,127791,1,8,0:0:0:0:
177,204,128321,1,0,0:0:0:0:
177,204,128497,1,8,0:0:0:0:
177,204,128850,1,0,0:0:0:0:
177,204,129203,1,8,0:0:0:0:
177,204,129379,1,8,0:0:0:0:
177,204,129556,1,0,0:0:0:0:
177,204,129732,1,0,0:0:0:0:
177,204,129909,1,8,0:0:0:0:
177,204,130262,1,0,0:0:0:0:
177,204,130615,1,8,0:0:0:0:
177,204,130968,1,0,0:0:0:0:
177,204,131144,1,8,0:0:0:0:
170,200,131321,1,8,0:0:0:0:
170,200,131674,1,0,0:0:0:0:
172,195,132027,1,8,0:0:0:0:
172,195,132556,1,0,0:0:0:0:
172,195,132732,1,8,0:0:0:0:
172,195,133085,1,0,0:0:0:0:
172,195,133438,1,8,0:0:0:0:
173,195,133968,1,0,0:0:0:0:
173,195,134144,1,8,0:0:0:0:
173,195,134497,1,0,0:0:0:0:
173,195,134674,1,0,0:0:0:0:
173,195,134850,1,8,0:0:0:0:
173,195,135027,1,8,0:0:0:0:
206,195,135909,1,0,0:0:0:0:
206,195,136262,1,8,0:0:0:0:
206,195,136438,1,8,0:0:0:0:
206,195,136615,1,0,0:0:0:0:
198,179,136968,1,8,0:0:0:0:
198,179,137144,1,0,0:0:0:0:
198,179,137321,1,8,0:0:0:0:
198,179,137674,1,8,0:0:0:0:
198,179,138027,1,0,0:0:0:0:
198,179,138203,1,8,0:0:0:0:
198,179,138379,1,8,0:0:0:0:
198,179,138556,1,0,0:0:0:0:
198,179,138909,1,0,0:0:0:0:
198,179,139085,1,8,0:0:0:0:
198,179,139438,1,8,0:0:0:0:
198,179,139615,1,0,0:0:0:0:
198,179,139791,1,0,0:0:0:0:
198,179,139968,1,0,0:0:0:0:
198,179,140144,1,8,0:0:0:0:
198,179,140497,1,0,0:0:0:0:
198,179,140674,1,8,0:0:0:0:
196,179,141027,1,0,0:0:0:0:
196,179,141203,1,8,0:0:0:0:
196,178,141556,1,0,0:0:0:0:
196,178,141909,1,8,0:0:0:0:
196,178,142085,1,0,0:0:0:0:
196,178,142262,1,8,0:0:0:0:
196,178,142438,1,8,0:0:0:0:
196,178,142615,1,0,0:0:0:0:
196,178,142968,1,0,0:0:0:0:
196,178,143321,1,8,0:0:0:0:
196,178,143497,1,8,0:0:0:0:
196,178,143674,1,0,0:0:0:0:
196,178,144027,1,8,0:0:0:0:
196,178,144203,1,8,0:0:0:0:
196,178,144379,1,0,0:0:0:0:
261,185,144732,1,8,0:0:0:0:
261,185,144909,1,0,0:0:0:0:
231,164,145438,1,8,0:0:0:0:
186,132,145615,1,8,0:0:0:0:
186,132,145791,1,0,0:0:0:0:
186,168,146144,1,8,0:0:0:0:
186,168,146321,1,0,0:0:0:0:
186,167,146850,1,0,0:0:0:0:
186,167,147203,1,12,0:0:0:0:
228,208,147556,1,8,0:0:0:0:
228,208,147732,1,8,0:0:0:0:
162,210,148262,1,8,0:0:0:0:
233,166,148615,1,0,0:0:0:0:
229,207,148968,1,8,0:0:0:0:
229,207,149144,1,8,0:0:0:0:
211,196,149497,1,0,0:0:0:0:
228,210,149674,1,8,0:0:0:0:
228,210,149850,1,0,0:0:0:0:
228,210,149938,1,0,0:0:0:0:
228,210,150027,1,0,0:0:0:0:
205,212,150379,1,8,0:0:0:0:
212,196,150732,1,8,0:0:0:0:
212,196,150909,1,0,0:0:0:0:
228,210,151085,1,8,0:0:0:0:
145,207,151262,1,0,0:0:0:0:
145,207,151615,1,0,0:0:0:0:
204,217,151791,1,8,0:0:0:0:
196,202,152144,1,0,0:0:0:0:
196,202,152321,1,0,0:0:0:0:
196,202,152497,1,8,0:0:0:0:
196,202,152850,1,0,0:0:0:0:
194,208,153203,1,0,0:0:0:0:
194,208,153556,1,0,0:0:0:0:
194,208,153909,1,0,0:0:0:0:
187,202,154085,1,8,0:0:0:0:
194,208,154262,1,0,0:0:0:0:
229,166,154615,1,8,0:0:0:0:
194,208,154968,1,8,0:0:0:0:
206,211,155144,1,0,0:0:0:0:
194,208,155321,1,8,0:0:0:0:
194,208,155674,1,0,0:0:0:0:
194,208,155762,1,0,0:0:0:0:
194,208,155850,1,0,0:0:0:0:
133,178,156027,1,0,0:0:0:0:
133,178,156203,1,0,0:0:0:0:
194,208,156379,1,8,0:0:0:0:
190,181,156556,1,8,0:0:0:0:
191,187,156644,1,8,0:0:0:0:
191,187,156732,1,8,0:0:0:0:
191,187,156909,1,0,0:0:0:0:
208,143,157615,1,0,0:0:0:0:
221,190,157791,1,12,0:0:0:0:
263,202,158144,1,0,0:0:0:0:
233,186,158232,1,0,0:0:0:0:
233,186,158321,1,0,0:0:0:0:
233,186,158497,1,12,0:0:0:0:
251,193,159027,1,0,0:0:0:0:
251,193,159203,1,8,0:0:0:0:
252,193,159732,1,8,0:0:0:0:
253,193,160085,1,0,0:0:0:0:
253,193,160262,1,8,0:0:0:0:
253,193,160438,1,0,0:0:0:0:
253,192,160615,1,8,0:0:0:0:
253,192,160968,1,0,0:0:0:0:
253,192,161144,1,8,0:0:0:0:
253,192,161321,1,0,0:0:0:0:
237,183,161850,1,0,0:0:0:0:
237,183,162027,1,8,0:0:0:0:
125,187,162203,1,0,0:0:0:0:
125,187,162291,1,0,0:0:0:0:
125,187,162379,1,0,0:0:0:0:
126,187,162909,1,0,0:0:0:0:
126,187,163262,1,0,0:0:0:0:
126,187,163438,1,8,0:0:0:0:
125,173,163615,1,8,0:0:0:0:
125,173,163791,1,0,0:0:0:0:
125,173,163879,1,0,0:0:0:0:
125,173,163968,1,0,0:0:0:0:
125,173,164144,1,8,0:0:0:0:
207,192,164674,1,0,0:0:0:0:
207,192,164850,1,8,0:0:0:0:
235,220,165027,1,0,0:0:0:0:
206,187,165203,1,8,0:0:0:0:
227,177,165379,1,0,0:0:0:0:
221,163,165732,1,8,0:0:0:0:
221,163,166085,1,0,0:0:0:0:
191,164,166262,1,8,0:0:0:0:
235,220,166615,1,0,0:0:0:0:
216,263,166791,1,8,0:0:0:0:
211,170,166968,1,8,0:0:0:0:
211,167,167321,1,0,0:0:0:0:
235,220,167497,1,0,0:0:0:0:
211,167,167674,1,8,0:0:0:0:
211,167,167850,1,0,0:0:0:0:
211,167,168203,1,12,0:0:0:0:
245,189,168556,1,0,0:0:0:0:
221,182,168732,1,0,0:0:0:0:
226,181,168909,1,12,0:0:0:0:
137,198,169262,1,0,0:0:0:0:
145,199,169438,1,8,0:0:0:0:
145,199,169615,1,0,0:0:0:0:
145,199,169703,1,0,0:0:0:0:
145,199,169791,1,0,0:0:0:0:
239,191,170144,1,0,0:0:0:0:
237,190,170497,1,8,0:0:0:0:
230,181,170674,1,8,0:0:0:0:
219,211,170850,1,0,0:0:0:0:
237,185,171027,1,8,0:0:0:0:
229,170,171379,1,0,0:0:0:0:
241,171,171556,1,0,0:0:0:0:
241,171,171732,1,8,0:0:0:0:
230,170,172085,1,8,0:0:0:0:
241,171,172262,1,0,0:0:0:0:
241,171,172438,1,8,0:0:0:0:
227,182,172527,1,8,0:0:0:0:
241,171,172615,1,8,0:0:0:0:
208,185,173144,1,0,0:0:0:0:
233,206,173321,1,8,0:0:0:0:
213,204,173497,1,8,0:0:0:0:
233,206,173674,1,0,0:0:0:0:
248,202,173850,1,8,0:0:0:0:
233,206,173938,1,8,0:0:0:0:
243,182,174027,1,8,0:0:0:0:
232,187,174379,1,0,0:0:0:0:
241,188,174732,1,8,0:0:0:0:
223,156,174909,1,8,0:0:0:0:
223,156,175085,1,0,0:0:0:0:
223,156,175262,1,8,0:0:0:0:
223,156,175438,1,0,0:0:0:0:
282,199,175968,1,0,0:0:0:0:
212,197,176144,1,8,0:0:0:0:
212,197,176321,1,0,0:0:0:0:
212,197,176497,1,8,0:0:0:0:
212,197,176674,1,8,0:0:0:0:
212,197,176850,1,0,0:0:0:0:
233,202,177203,1,0,0:0:0:0:
233,202,177556,1,8,0:0:0:0:
233,202,177732,1,0,0:0:0:0:
218,207,177909,1,0,0:0:0:0:
233,202,178085,1,0,0:0:0:0:
233,202,178262,1,8,0:0:0:0:
187,181,178438,1,8,0:0:0:0:
222,153,178615,1,0,0:0:0:0:
227,166,178968,1,0,0:0:0:0:
227,166,179497,1,8,0:0:0:0:
227,162,179674,1,0,0:0:0:0:
227,162,179762,1,0,0:0:0:0:
227,162,179850,1,0,0:0:0:0:
227,162,180027,1,8,0:0:0:0:
227,162,180203,1,0,0:0:0:0:
224,227,180379,1,8,0:0:0:0:
230,160,180556,1,0,0:0:0:0:
230,160,180732,1,0,0:0:0:0:
230,160,180909,1,8,0:0:0:0:
230,160,180997,1,8,0:0:0:0:
230,160,181085,1,8,0:0:0:0:
270,196,181438,1,0,0:0:0:0:
236,182,181791,1,8,0:0:0:0:
236,182,182144,1,0,0:0:0:0:
240,181,182497,1,8,0:0:0:0:
240,181,182674,1,8,0:0:0:0:
240,181,182850,1,0,0:0:0:0:
202,207,183027,1,0,0:0:0:0:
206,205,183379,1,0,0:0:0:0:
206,205,183556,1,8,0:0:0:0:
245,195,183909,1,8,0:0:0:0:
245,195,184262,1,0,0:0:0:0:
245,195,184615,1,8,0:0:0:0:
216,169,184968,1,0,0:0:0:0:
203,209,185321,1,8,0:0:0:0:
203,209,185497,1,0,0:0:0:0:
203,209,185674,1,8,0:0:0:0:
204,209,185850,1,8,0:0:0:0:
204,209,185938,1,8,0:0:0:0:
204,209,186027,1,8,0:0:0:0:
168,196,186203,1,0,0:0:0:0:
175,192,186379,1,8,0:0:0:0:
175,192,186909,1,0,0:0:0:0:
175,192,187085,1,8,0:0:0:0:
175,192,187262,1,8,0:0:0:0:
175,192,187350,1,8,0:0:0:0:
175,192,187438,1,8,0:0:0:0:
175,192,187615,1,0,0:0:0:0:
175,192,187968,1,8,0:0:0:0:
211,200,188321,1,0,0:0:0:0:
212,200,188497,1,8,0:0:0:0:
200,197,188674,1,0,0:0:0:0:
211,191,188850,1,8,0:0:0:0:
211,191,189027,1,0,0:0:0:0:
179,192,189203,1,8,0:0:0:0:
211,191,189379,1,8,0:0:0:0:
211,191,189732,1,0,0:0:0:0:
212,191,189909,1,8,0:0:0:0:
212,191,190085,1,0,0:0:0:0:
212,191,190174,1,0,0:0:0:0:
212,191,190262,1,0,0:0:0:0:
212,191,190438,1,8,0:0:0:0:
212,191,190615,1,0,0:0:0:0:
214,189,190968,1,4,0:0:0:0:
210,192,191321,1,0,0:0:0:0:
210,192,191438,1,8,0:0:0:0:
210,192,191556,1,8,0:0:0:0:
210,192,191674,1,8,0:0:0:0:
211,191,192027,1,0,0:0:0:0:
182,199,192379,1,12,0:0:0:0:
168,197,192732,1,0,0:0:0:0:
201,212,193085,1,8,0:0:0:0:
196,201,193438,1,0,0:0:0:0:
210,179,193791,1,8,0:0:0:0:
210,179,193968,1,8,0:0:0:0:
210,179,194144,1,0,0:0:0:0:
210,179,194321,1,0,0:0:0:0:
214,177,194674,1,0,0:0:0:0:
214,177,194850,1,8,0:0:0:0:
211,173,195203,1,8,0:0:0:0:
211,173,195556,1,0,0:0:0:0:
211,173,195732,1,8,0:0:0:0:
211,173,196262,1,0,0:0:0:0:
211,173,196615,1,8,0:0:0:0:
211,173,196791,1,0,0:0:0:0:
211,173,196879,1,0,0:0:0:0:
211,173,196968,1,0,0:0:0:0:
211,173,197144,1,8,0:0:0:0:
211,172,197497,1,0,0:0:0:0:
211,172,197674,1,8,0:0:0:0:
211,172,198027,1,0,0:0:0:0:
211,172,198203,1,0,0:0:0:0:
211,172,198379,1,8,0:0:0:0:
211,172,198732,1,8,0:0:0:0:
211,172,198909,1,0,0:0:0:0:
171,168,199262,1,8,0:0:0:0:
171,168,199350,1,8,0:0:0:0:
171,168,199438,1,8,0:0:0:0:
171,179,199615,1,0,0:0:0:0:
181,175,199791,1,8,0:0:0:0:
181,175,199968,1,0,0:0:0:0:
181,175,200144,1,8,0:0:0:0:
180,174,200497,1,8,0:0:0:0:
180,174,200674,1,0,0:0:0:0:
180,174,200762,1,0,0:0:0:0:
180,174,200850,1,0,0:0:0:0:
182,173,201203,1,8,0:0:0:0:
182,173,201379,1,0,0:0:0:0:
182,173,201556,1,8,0:0:0:0:
182,173,201909,1,8,0:0:0:0:
182,173,202085,1,0,0:0:0:0:
182,173,202174,1,0,0:0:0:0:
182,173,202262,1,0,0:0:0:0:
184,173,202615,1,8,0:0:0:0:
184,173,202791,1,0,0:0:0:0:
184,173,202968,1,0,0:0:0:0:
184,173,203144,1,8,0:0:0:0:
184,173,203321,1,0,0:0:0:0:
184,173,203497,1,8,0:0:0:0:
184,173,203585,1,8,0:0:0:0:
184,173,203674,1,8,0:0:0:0:
256,192,203850,12,0,205791,0:0:0:0:
