osu file format v14

[General]
AudioFilename: audio.mp3
AudioLeadIn: 0
PreviewTime: 157527
Countdown: 0
SampleSet: Soft
StackLeniency: 0.7
Mode: 0
LetterboxInBreaks: 0
WidescreenStoryboard: 1

[Editor]
Bookmarks: 27,115,203,291,380,11674,22968,34262,45556,56850,68144,90732,113321,124615,136262,136350,136438,136527,136615,136703,136791,136879,136968,137056,137144,137232,137321,137409,137497,137585,137674,144379,144468,144556,144644,144732,144821,144909,144997,145085,145174,145262,145350,145438,145527,145615,145703,145791,147203,158497,169791,181085,203674,205791,205879,205968,206056,206144,206232,206321,206409,206497
DistanceSpacing: 1
BeatDivisor: 4
GridSize: 32
TimelineZoom: 1

[Metadata]
Title:Starlight Wonder
TitleUnicode:スターライト・ワンダー
Artist:Seina
ArtistUnicode:Seina
Creator:Sotarks
Version:Kowari's Expert
Source:
Tags:紫音 lee future bass kirara magic shion aikawa japanese female vocalist electronic kowari smokelind elinor eli [_eli_] basensorex vulkin yasuho surono リーシオン vtuber virtual youtuber
BeatmapID:2540412
BeatmapSetID:1221223

[Difficulty]
HPDrainRate:5.5
CircleSize:3.8
OverallDifficulty:8.2
ApproachRate:9
SliderMultiplier:1.6
SliderTickRate:1

[Events]
//Background and Video events
0,0,"bg.jpg",0,0
//Break Periods
2,136109,145191
//Storyboard Layer 0 (Background)
//Storyboard Layer 1 (Fail)
//Storyboard Layer 2 (Pass)
//Storyboard Layer 3 (Foreground)
//Storyboard Layer 4 (Overlay)
//Storyboard Sound Samples

[TimingPoints]
380,352.941176470588,4,2,22,32,1,0
380,-166.666666666667,4,2,22,32,0,0
11674,-133.333333333333,4,2,22,42,0,0
22968,-125,4,2,22,42,0,0
26497,-200,4,2,22,42,0,0
27909,-125,4,2,22,42,0,0
32144,-200,4,2,22,42,0,0
33556,-125,4,2,22,42,0,0
34262,-111.111111111111,4,2,22,52,0,0
45556,-100,4,2,22,62,0,0
56850,-100,4,2,22,72,0,0
66732,-100,4,2,22,52,0,0
67438,-100,4,2,22,72,0,0
68144,-90.9090909090909,4,2,22,82,0,1
90732,-100,4,2,22,82,0,0
101321,-83.3333333333333,4,2,22,82,0,0
101674,-71.4285714285714,4,2,22,82,0,0
102027,-100,4,2,22,82,0,0
113321,-111.111111111111,4,2,22,52,0,0
134497,-142.857142857143,4,2,22,52,0,0
147203,-111.111111111111,4,2,22,72,0,0
157085,-111.111111111111,4,2,22,52,0,0
157791,-111.111111111111,4,2,22,72,0,0
158144,-83.3333333333333,4,2,22,62,0,0
158497,-90.9090909090909,4,2,22,82,0,1
181085,-100,4,2,22,82,0,0
191674,-83.3333333333333,4,2,22,82,0,0
192027,-71.4285714285714,4,2,22,82,0,0
192379,-100,4,2,22,82,0,0
203674,-200,4,2,22,82,0,0
205791,-200,4,2,22,22,0,0

[Colours]
Combo1 : 253,255,210
Combo2 : 165,214,222
Combo3 : 116,126,201
Combo4 : 98,239,255
Combo5 : 24,74,192
Combo6 : 249,176,255
Combo7 : 255,4,162
Combo8 : 247,255,74

[HitObjects]
19,71,380,6,0,B|47:63|65:45|65:45|78:168|175:161|175:161|225:77|158:22,2,383.99998828125,6|2|2,1:2|0:0|0:0,0:2:0:0:
396,246,6027,6,0,B|415:230|457:233|457:233|421:184|359:177|320:196|320:196|296:313|398:336,2,383.99998828125,2|2|2,0:0|0:0|0:0,0:0:0:0:
250,20,11674,102,0,L|240:95,1,60.0000022888184,6|0,0:0|0:0,0:0:0:0:
290,156,12027,2,0,P|256:131|174:145,1,120.000004577637,2|0,0:0|0:0,0:0:0:0:
167,233,12556,2,0,P|201:258|283:244,1,120.000004577637,2|0,0:0|0:0,0:0:0:0:
360,220,13085,6,0,P|376:254|370:290,1,60.0000022888184,2|0,0:0|0:0,0:0:0:0:
461,337,13438,2,0,L|475:202,1,120.000004577637,2|0,0:0|0:0,0:0:0:0:
409,151,13968,2,0,L|395:16,1,120.000004577637,2|0,0:0|0:0,0:0:0:0:
299,9,14497,102,0,L|286:84,1,60.0000022888184,2|0,0:0|0:0,0:0:0:0:
287,173,14850,2,0,B|188:172|230:110|104:116,1,180.000006866455,2|2,0:0|0:0,0:0:0:0:
14,323,15909,6,0,L|3:391,2,60.0000022888184,2|0|0,0:0|0:0|0:0,0:0:0:0:
108,333,16438,2,0,L|98:273,2,60.0000022888184,2|0|0,0:0|0:0|0:0,0:0:0:0:
194,352,16968,1,2,0:0:0:0:
273,191,17321,102,0,P|305:173|351:170,1,60.0000022888184,2|0,0:0|0:0,0:0:0:0:
333,79,17674,1,2,0:0:0:0:
333,79,17850,2,0,P|368:88|403:119,1,60.0000022888184,0|2,0:0|0:0,0:0:0:0:
452,22,18203,2,0,P|478:69|483:137,1,120.000004577637,2|0,0:0|0:0,0:0:0:0:
505,239,18732,6,0,L|428:221,1,60.0000022888184,2|2,0:0|0:0,0:0:0:0:
385,310,19085,1,2,0:0:0:0:
385,310,19262,2,0,L|343:242,1,60.0000022888184,0|2,0:0|0:0,0:0:0:0:
250,298,19615,2,0,L|279:173,1,120.000004577637,2|0,0:0|0:0,0:0:0:0:
209,1,20144,102,0,P|173:14|144:49,1,60.0000022888184,2|2,0:0|0:0,0:0:0:0:
157,132,20497,1,2,0:0:0:0:
157,132,20674,2,0,P|186:156|231:164,1,60.0000022888184,0|2,0:0|0:0,0:0:0:0:
280,114,21027,1,2,0:0:0:0:
280,114,21204,2,0,P|286:76|270:33,1,60.0000022888184
69,130,21556,6,0,L|-3:146,2,60.0000022888184,2|2|2,0:0|0:0|0:0,0:0:0:0:
176,242,22085,2,0,L|248:258,2,60.0000022888184,2|0|0,0:0|0:0|0:0,0:0:0:0:
65,340,22615,1,0,0:0:0:0:
65,340,22968,102,0,B|135:318|125:371|202:347,1,128,2|0,0:0|0:0,0:0:0:0:
247,269,23497,1,0,0:0:0:0:
344,367,23674,2,0,L|325:287,1,64,2|0,3:0|0:0,0:0:0:0:
439,227,24027,2,0,L|424:289,1,64,0|2,0:0|0:0,0:0:0:0:
364,144,24379,6,0,P|411:113|494:134,1,128
338,230,24909,1,2,0:0:0:0:
338,230,25085,2,0,L|208:199,1,128,0|0,3:0|0:0,0:0:0:0:
94,288,25615,101,2,0:0:0:0:
94,288,25791,2,0,P|134:267|163:264,1,64
211,384,26144,2,0,P|172:359|155:336,1,64
217,186,26497,6,0,P|239:132|78:91,1,280,0|0,3:0|0:0,0:0:0:0:
19,154,27909,2,0,L|35:232,1,64,2|0,3:0|0:0,0:0:0:0:
105,281,28262,2,0,L|117:218,1,64,2|0,0:0|0:0,0:0:0:0:
178,340,28615,102,0,B|243:346|226:303|321:312,1,128
420,361,29144,1,0,0:0:0:0:
394,212,29321,2,0,L|376:294,1,64,2|0,3:0|0:0,0:0:0:0:
337,136,29674,1,0,0:0:0:0:
479,232,29850,1,2,0:0:0:0:
290,222,30027,6,0,B|241:211|241:211|223:189|223:189|162:177,1,128
50,309,30556,2,0,P|111:316|163:260,1,128,2|0,0:0|0:0,0:0:0:0:
75,161,31085,2,0,L|86:240,1,64,0|2,0:0|0:0,0:0:0:0:
139,83,31438,2,0,P|101:67|65:69,1,64
174,174,31791,2,0,L|244:157,1,64,2|0,0:0|0:0,0:0:0:0:
313,58,32144,102,0,B|347:-12|458:5|458:5|483:91|427:118,1,280,0|0,3:0|0:0,0:0:0:0:
456,204,33556,2,0,P|414:197|384:183,1,64,10|0,0:0|3:0,0:0:0:0:
373,163,33821,1,0,3:0:0:0:
373,163,33909,2,0,L|363:239,1,64,0|4,3:0|0:3,0:0:0:0:
305,363,34262,6,0,B|289:328|289:328|298:273,1,71.9999978027344,4|0,1:2|0:0,0:2:0:0:
451,295,34615,2,0,L|368:321,1,71.9999978027344,0|0,0:2|3:2,0:0:0:0:
238,214,34968,2,0,P|285:191|368:233,1,143.999995605469,10|0,0:2|0:2,0:2:0:0:
232,315,35497,101,0,0:2:0:0:
232,315,35674,2,0,L|145:298,1,71.9999978027344,2|0,0:2|3:2,0:0:0:0:
46,234,36027,2,0,L|133:217,1,71.9999978027344,0|0,1:2|0:2,0:2:0:0:
195,72,36379,1,10,0:2:0:0:
50,137,36556,1,0,0:2:0:0:
215,232,36732,2,0,P|218:192|205:153,1,71.9999978027344,0|0,0:2|0:2,0:0:0:0:
96,52,37085,6,0,B|171:66|157:17|247:36,1,143.999995605469,2|0,1:2|0:2,0:2:0:0:
343,127,37615,1,0,0:2:0:0:
228,203,37791,2,0,L|240:115,1,71.9999978027344,8|0,0:2|0:0,0:2:0:0:
350,12,38144,2,0,L|359:83,1,71.9999978027344,0|0,0:2|3:2,0:0:0:0:
365,110,38409,1,0,3:2:0:0:
365,110,38497,1,0,3:2:0:0:
459,235,38674,101,0,3:2:0:0:
512,82,38850,2,0,P|469:73|435:86,1,71.9999978027344,0|0,1:2|0:2,0:0:0:0:
358,238,39203,1,10,0:2:0:0:
488,163,39379,1,0,0:2:0:0:
352,71,39556,2,0,L|367:152,1,71.9999978027344,2|0,0:2|0:2,0:2:0:0:
407,329,39909,6,0,B|351:319|351:319|322:340|322:340|252:328,1,143.999995605469,0|0,1:2|0:2,0:2:0:0:
138,296,40438,1,0,3:2:0:0:
235,168,40615,2,0,P|260:201|265:246,1,71.9999978027344,10|0,0:2|0:2,0:2:0:0:
96,200,40968,2,0,P|112:161|148:135,1,71.9999978027344,0|0,0:2|0:2,0:2:0:0:
149,302,41321,101,2,3:2:0:0:
9,241,41497,1,0,3:2:0:0:
9,241,41585,1,0,3:2:0:0:
9,241,41674,2,0,L|0:152,1,71.9999978027344,0|0,1:2|0:2,0:2:0:0:
163,83,42027,2,0,L|155:154,1,71.9999978027344,10|0,0:2|0:2,0:2:0:0:
124,298,42379,1,0,0:2:0:0:
75,137,42556,1,2,0:2:0:0:
211,247,42732,6,0,B|288:254|265:205|366:214,1,143.999995605469,0|0,1:2|0:2,0:0:0:0:
410,354,43262,1,0,0:2:0:0:
410,354,43438,2,0,P|359:334|345:302,1,71.9999978027344,8|0,0:2|0:2,0:2:0:0:
438,189,43791,2,0,L|423:272,1,71.9999978027344,0|0,0:2|3:2,0:0:0:0:
423,275,44056,1,0,3:2:0:0:
423,275,44144,1,0,3:2:0:0:
368,112,44321,101,0,3:2:0:0:
368,112,44409,1,0,3:2:0:0:
368,112,44497,2,0,L|356:29,1,71.9999978027344,0|0,1:2|0:2,0:0:0:0:
288,174,44850,1,8,0:2:0:0:
465,104,45027,1,0,0:2:0:0:
267,62,45203,2,0,P|226:75|198:99,1,71.9999978027344,0|0,0:2|0:2,0:2:0:0:
287,323,45556,86,0,B|324:273|324:273|287:171,1,160,6|0,1:2|0:2,0:2:0:0:
123,230,46085,1,2,3:2:0:0:
123,230,46174,1,0,3:2:0:0:
123,230,46262,2,0,L|211:254,1,80,0|0,3:2|0:2,0:2:0:0:
291,87,46615,2,0,L|203:111,1,80,2|0,3:2|3:2,0:2:0:0:
192,116,46879,1,0,3:2:0:0:
192,116,46968,1,0,3:2:0:0:
59,6,47144,6,0,P|104:10|140:41,1,80,2|0,0:2|0:2,0:0:0:0:
188,200,47497,1,2,1:2:0:0:
7,139,47674,2,0,P|41:107|82:101,1,80,8|0,0:2|0:2,0:2:0:0:
152,281,48027,2,0,L|68:259,1,80,0|0,3:2|3:2,0:2:0:0:
51,258,48291,1,0,3:2:0:0:
51,258,48379,102,0,B|104:233|104:233|71:336,1,160,2|0,1:2|0:2,0:2:0:0:
231,376,48909,2,0,B|316:372|290:324|381:329,1,160,2|0,1:2|0:2,0:2:0:0:
213,230,49438,1,2,1:2:0:0:
400,153,49615,1,0,3:2:0:0:
400,153,49703,1,0,3:2:0:0:
400,153,49791,1,2,1:2:0:0:
312,47,49968,6,0,B|261:89|261:89|298:196,1,160,0|2,0:0|3:2,0:0:0:0:
373,317,50497,1,8,1:3:0:0:
373,317,50585,1,8,0:3:0:0:
373,317,50674,2,0,L|380:264,1,40,8|8,0:3|0:3,0:0:0:0:
456,172,50850,1,4,0:3:0:0:
456,172,50938,1,4,0:3:0:0:
456,172,51027,2,0,L|463:225,1,40,4|4,0:3|0:3,0:0:0:0:
286,260,51203,102,0,L|193:244,1,80,2|0,1:2|3:2,0:2:0:0:
181,241,51468,1,0,3:2:0:0:
181,241,51556,1,0,3:2:0:0:
339,176,51732,1,2,3:2:0:0:
206,350,51909,1,8,0:2:0:0:
173,122,52085,1,2,3:2:0:0:
290,294,52262,1,2,3:2:0:0:
255,71,52438,5,0,3:2:0:0:
255,71,52527,1,0,3:2:0:0:
255,71,52615,2,0,P|215:41|110:63,1,160,2|0,1:2|0:2,0:2:0:0:
4,197,53144,1,2,3:2:0:0:
175,246,53321,2,0,L|166:149,1,80,8|0,0:2|3:2,0:0:0:0:
78,341,53674,1,2,3:2:0:0:
285,260,53850,1,2,0:2:0:0:
85,170,54027,102,0,P|67:226|72:258,1,80,0|0,1:2|0:2,0:2:0:0:
242,347,54379,1,2,0:2:0:0:
173,130,54556,1,0,3:2:0:0:
4,313,54732,2,0,P|56:343|147:291,1,160,8|2,0:2|3:2,0:2:0:0:
254,132,55262,6,0,L|263:222,1,80,2|0,1:2|3:2,0:0:0:0:
333,356,55615,2,0,L|340:276,1,80,0|0,0:0|0:2,0:0:0:0:
367,113,55968,1,2,1:2:0:0:
440,284,56144,1,8,3:2:0:0:
454,85,56321,1,10,3:2:0:0:
454,85,56409,1,8,3:2:0:0:
454,85,56497,1,0,1:2:0:0:
341,249,56674,1,8,3:2:0:0:
341,249,56762,1,8,3:2:0:0:
341,249,56850,70,0,B|258:227|261:291|174:260,1,160,6|8,1:2|0:2,0:2:0:0:
150,125,57379,2,0,P|194:144|214:179,1,80,0|0,3:2|3:2,0:0:0:0:
44,239,57732,1,8,0:2:0:0:
77,65,57909,2,0,P|115:36|155:36,1,80,0|8,3:2|3:2,0:0:0:0:
168,50,58174,1,8,3:2:0:0:
168,50,58262,6,0,B|225:57|225:57|257:35|257:35|329:44,1,160,2|8,1:2|0:2,0:2:0:0:
384,179,58791,2,0,L|293:157,1,80,0|0,0:2|0:2,0:0:0:0:
496,131,59144,1,8,0:2:0:0:
395,288,59321,2,0,L|304:266,1,80,2|2,0:2|1:2,0:0:0:0:
110,331,59674,102,0,P|166:346|235:267,1,160,0|8,1:2|0:2,0:2:0:0:
136,171,60203,2,0,L|150:253,1,80,0|2,3:2|0:2,0:0:0:0:
194,92,60556,1,8,0:2:0:0:
33,231,60732,2,0,L|46:152,1,80,2|2,0:2|3:2,0:0:0:0:
140,0,61085,6,0,B|192:35|192:35|163:149,1,160,0|8,1:2|3:2,0:2:0:0:
301,201,61615,2,0,P|293:153|260:116,1,80,0|0,3:2|0:0,0:2:0:0:
155,277,61968,1,8,0:2:0:0:
338,287,62144,2,0,P|375:256|391:208,1,80,2|0,3:2|0:2,0:0:0:0:
352,32,62497,102,0,L|446:52,1,80,2|0,1:2|3:2,0:0:0:0:
236,109,62850,2,0,L|142:129,1,80,0|0,1:2|3:2,0:0:0:0:
384,151,63203,2,0,L|478:171,1,80,0|0,1:2|3:2,0:0:0:0:
268,228,63556,2,0,L|174:248,1,80,2|2,1:2|3:2,0:0:0:0:
368,362,63909,6,0,P|378:315|367:274,1,80,0|0,1:2|3:2,0:0:0:0:
166,164,64262,1,0,1:2:0:0:
252,373,64438,1,0,3:2:0:0:
421,184,64615,2,0,P|374:174|333:185,1,80,0|0,1:2|3:2,0:0:0:0:
145,324,64968,1,2,1:2:0:0:
371,284,65144,1,2,3:2:0:0:
258,103,65321,101,4,1:3:0:0:
258,103,65409,1,0,1:2:0:0:
258,103,65497,2,0,L|249:163,1,40,0|0,1:2|1:2,1:2:0:0:
137,280,65674,1,4,1:3:0:0:
137,280,65762,1,0,1:2:0:0:
137,280,65850,2,0,L|128:220,1,40,0|0,1:2|1:2,1:2:0:0:
117,87,66027,5,4,1:3:0:0:
101,65,66115,1,0,1:2:0:0:
78,56,66203,1,0,1:2:0:0:
52,62,66291,1,0,1:2:0:0:
33,80,66379,2,0,L|40:137,3,40,0|0|0|0,1:2|1:2|1:2|1:2,0:0:0:0:
82,277,67438,37,10,1:3:0:0:
82,277,67527,1,8,0:3:0:0:
82,277,67615,2,0,L|91:327,1,40,8|8,0:3|0:3,0:0:0:0:
277,226,67791,1,4,0:3:0:0:
277,226,67880,1,4,0:3:0:0:
277,226,67968,2,4,L|287:173,1,40,4|4,0:3|0:3,0:3:0:0:
177,53,68144,22,0,L|190:156,1,88.000002685547,6|0,1:2|3:2,0:2:0:0:
253,337,68497,2,0,L|264:249,1,88.000002685547,10|0,0:2|3:2,0:2:0:0:
302,51,68850,1,2,1:2:0:0:
160,227,69027,1,2,3:2:0:0:
367,150,69203,1,8,0:2:0:0:
151,115,69379,6,0,P|103:133|80:171,1,88.000002685547,2|0,3:2|1:2,0:2:0:0:
257,244,69732,2,0,P|265:193|244:154,1,88.000002685547,2|8,3:2|0:2,0:0:0:0:
116,320,70085,2,0,L|219:344,1,88.000002685547,2|0,3:2|1:2,0:2:0:0:
365,206,70438,1,2,3:2:0:0:
154,228,70615,1,8,0:2:0:0:
346,330,70791,1,2,3:2:0:0:
265,129,70968,102,0,L|247:230,1,88.000002685547,0|0,1:2|3:2,0:2:0:0:
409,65,71321,2,0,L|427:166,1,88.000002685547,8|0,0:2|3:2,0:2:0:0:
467,361,71674,1,2,1:2:0:0:
334,180,71850,1,2,3:2:0:0:
512,269,72027,1,10,0:2:0:0:
318,294,72203,6,0,B|215:285|257:358|137:331,1,176.000005371094,2|0,3:2|3:2,0:0:0:0:
98,180,72732,2,0,P|147:199|171:242,1,88.000002685547,8|0,0:2|3:2,0:2:0:0:
5,276,73085,1,2,1:2:0:0:
134,83,73262,1,2,3:2:0:0:
121,313,73438,1,10,0:2:0:0:
20,105,73615,1,2,3:2:0:0:
202,244,73791,102,0,L|294:228,1,88.000002685547,0|0,1:2|3:2,0:2:0:0:
391,72,74144,2,0,L|299:56,1,88.000002685547,8|0,0:2|3:2,0:2:0:0:
399,222,74497,1,2,1:2:0:0:
484,20,74674,1,2,3:2:0:0:
299,144,74850,1,10,0:2:0:0:
512,129,75027,1,2,3:2:0:0:
351,2,75203,6,0,L|366:88,1,88.000002685547,0|0,1:2|3:2,0:2:0:0:
209,218,75556,2,0,L|224:132,1,88.000002685547,8|0,0:2|3:2,0:2:0:0:
295,306,75909,1,2,1:2:0:0:
93,186,76085,1,2,3:2:0:0:
329,163,76262,1,10,0:2:0:0:
128,292,76438,102,0,P|73:293|36:274,1,88.000002685547,2|0,3:2|1:2,0:2:0:0:
177,112,76791,2,0,P|205:159|207:200,1,88.000002685547,2|8,3:2|0:2,0:0:0:0:
0,156,77144,2,0,P|26:107|61:85,1,88.000002685547,2|0,3:2|1:2,0:2:0:0:
257,38,77497,1,2,3:2:0:0:
108,200,77674,1,8,0:2:0:0:
137,2,77850,1,2,3:2:0:0:
317,214,78027,21,12,0:2:0:0:
95,97,78203,1,8,1:3:0:0:
151,328,78379,1,8,1:3:0:0:
267,85,78556,5,12,0:2:0:0:
48,233,78732,1,4,1:3:0:0:
272,298,78909,1,4,1:3:0:0:
119,78,79085,101,12,0:2:0:0:
178,361,79262,1,8,1:3:0:0:
178,361,79350,1,8,1:3:0:0:
178,361,79438,86,0,L|276:341,1,88.000002685547,6|0,1:2|3:2,0:2:0:0:
463,265,79791,2,0,L|365:245,1,88.000002685547,10|0,0:2|3:2,0:2:0:0:
189,191,80144,1,2,1:2:0:0:
425,128,80321,1,2,3:2:0:0:
267,296,80497,1,8,0:2:0:0:
265,54,80674,6,0,P|310:104|316:143,1,88.000002685547,2|0,3:2|1:2,0:2:0:0:
107,134,81027,2,0,P|127:70|158:45,1,88.000002685547,2|8,3:2|0:2,0:0:0:0:
199,268,81379,2,0,L|97:287,1,88.000002685547,2|0,3:2|1:2,0:2:0:0:
0,124,81732,1,2,3:2:0:0:
202,168,81909,1,8,0:2:0:0:
14,308,82085,1,2,3:2:0:0:
89,65,82262,102,0,B|135:117|135:117|98:227,1,176.000005371094,0|8,1:2|0:2,0:2:0:0:
284,346,82791,1,0,3:2:0:0:
225,115,82968,1,2,1:2:0:0:
133,340,83144,1,2,3:2:0:0:
327,188,83321,1,10,0:2:0:0:
86,216,83497,1,2,3:2:0:0:
293,360,83674,6,0,B|358:348|358:348|383:316|383:316|470:300,2,176.000005371094,0|8|2,1:2|0:2|1:2,0:2:0:0:
153,169,84556,1,2,3:2:0:0:
266,358,84732,1,10,0:2:0:0:
298,105,84909,1,2,3:2:0:0:
88,252,85085,102,0,P|128:273|191:260,1,88.000002685547,0|0,1:2|3:2,0:2:0:0:
306,82,85438,2,0,P|262:79|224:100,1,88.000002685547,8|0,0:2|3:2,0:2:0:0:
370,250,85791,1,2,1:2:0:0:
424,31,85968,1,2,3:2:0:0:
263,180,86144,1,10,0:2:0:0:
490,147,86321,1,2,3:2:0:0:
294,2,86497,6,0,L|310:117,1,88.000002685547,0|0,1:2|3:2,0:2:0:0:
170,261,86850,2,0,L|182:173,1,88.000002685547,8|0,0:2|3:2,0:2:0:0:
215,0,87203,1,2,1:2:0:0:
84,181,87379,1,2,3:2:0:0:
311,111,87556,1,10,0:2:0:0:
101,89,87732,102,0,P|55:93|12:118,1,88.000002685547,2|0,3:2|1:2,0:2:0:0:
149,256,88085,1,2,3:2:0:0:
192,62,88262,2,0,P|153:17|107:5,1,88.000002685547,10|0,0:2|3:2,0:2:0:0:
193,181,88615,2,0,L|294:163,1,88.000002685547,0|0,1:2|3:2,0:0:0:0:
398,4,88968,1,8,0:2:0:0:
200,87,89144,1,2,3:2:0:0:
346,243,89321,38,0,B|387:193|387:193|352:80,1,176.000005371094,14|6,0:2|1:3,0:0:0:0:
256,287,89850,2,0,P|289:331|408:318,1,176.000005371094,14|10,0:2|1:3,0:0:0:0:
284,169,90379,1,14,0:2:0:0:
179,336,90556,1,4,1:3:0:0:
179,336,90644,1,4,1:3:0:0:
179,336,90732,6,0,B|91:347|119:283|1:298,1,160,6|8,1:2|0:2,0:2:0:0:
1,113,91262,1,8,0:3:0:0:
169,232,91438,2,0,L|194:60,1,160,2|8,1:2|0:2,0:2:0:0:
86,187,91968,1,4,0:3:0:0:
269,133,92144,5,2,1:2:0:0:
91,46,92321,1,2,0:2:0:0:
199,245,92497,1,10,0:2:0:0:
198,1,92674,2,0,P|247:-15|351:36,1,160,2|2,0:2|0:2,0:2:0:0:
280,178,93203,2,0,L|266:83,1,80,10|0,0:2|0:2,0:2:0:0:
447,14,93556,102,0,B|487:63|487:63|458:170,1,160,2|8,1:2|0:2,0:2:0:0:
346,334,94085,1,8,0:3:0:0:
485,262,94262,2,0,B|395:273|419:213|310:241,1,160,2|8,1:2|0:2,0:2:0:0:
192,342,94791,1,4,0:3:0:0:
272,142,94968,5,2,1:2:0:0:
307,356,95144,1,2,0:2:0:0:
161,185,95321,1,10,0:2:0:0:
375,274,95497,2,0,L|395:103,1,160,2|2,0:2|0:2,0:2:0:0:
229,5,96027,2,0,L|244:110,1,80,10|0,0:2|0:0,0:2:0:0:
114,217,96379,102,0,P|118:179|156:133,1,80,0|2,1:2|0:2,0:0:0:0:
225,297,96732,1,10,0:2:0:0:
22,242,96909,1,2,0:2:0:0:
246,290,97085,1,2,1:2:0:0:
78,368,97262,2,0,L|-5:382,1,80,2|8,0:2|0:2,0:2:0:0:
140,170,97615,6,0,B|205:181|205:181|228:207|228:207|301:220,1,160,2|2,0:2|0:2,0:2:0:0:
441,126,98144,1,10,0:2:0:0:
354,293,98321,1,2,0:2:0:0:
430,108,98497,1,2,1:2:0:0:
465,328,98674,1,2,0:2:0:0:
350,145,98850,1,10,0:2:0:0:
279,354,99027,102,0,P|228:373|188:355,1,80,2|0,0:2|1:2,0:2:0:0:
179,208,99379,2,0,P|220:242|225:286,1,80,2|8,0:2|0:2,0:0:0:0:
101,373,99732,2,0,P|110:319|145:293,1,80,2|0,0:2|1:2,0:2:0:0:
305,281,100085,2,0,L|210:262,1,80,2|8,0:2|0:2,0:0:0:0:
44,174,100438,6,0,L|139:155,1,80,2|4,0:2|1:2,0:2:0:0:
284,131,100791,1,2,0:2:0:0:
166,0,100968,85,2,3:2:0:0:
159,26,101085,2,0,P|169:64|198:87,1,53.3333333333333,2|2,0:2|0:2,0:0:0:0:
181,206,101321,101,2,3:2:0:0:
205,230,101438,2,0,P|241:232|284:215,1,63.9999980468751,2|2,0:2|0:2,0:0:0:0:
384,281,101674,5,14,3:2:0:0:
414,249,101791,2,0,P|425:201|409:159,1,74.6666643880209,2|2,0:2|0:2,0:0:0:0:
330,0,102027,6,0,B|320:60|320:60|335:95|335:95|322:162,1,160,6|8,1:2|0:2,0:2:0:0:
296,320,102556,1,8,0:3:0:0:
137,193,102732,2,0,P|175:159|215:151,1,80,2|0,1:2|0:0,0:2:0:0:
206,338,103085,2,0,P|157:322|130:291,1,80,8|4,0:2|0:3,0:0:0:0:
98,102,103438,5,2,1:2:0:0:
31,323,103615,1,2,0:2:0:0:
6,80,103791,1,10,0:2:0:0:
135,280,103968,2,0,L|298:249,1,160,2|2,0:2|0:2,0:2:0:0:
475,179,104497,2,0,L|381:163,1,80,10|0,0:2|0:2,0:2:0:0:
242,54,104850,102,0,B|264:43|285:25|285:25|249:150,1,160,6|8,1:2|0:2,0:2:0:0:
206,297,105379,1,4,1:2:0:0:
147,125,105556,2,0,P|105:108|55:124,1,80,2|0,0:2|0:2,0:2:0:0:
20,287,105909,2,0,P|62:304|112:288,1,80,8|0,0:2|0:2,0:2:0:0:
250,134,106262,5,6,1:2:0:0:
282,368,106438,1,6,1:3:0:0:
282,368,106527,1,4,1:3:0:0:
282,368,106615,1,10,0:2:0:0:
132,168,106791,2,0,P|132:99|214:38,1,160,6|10,1:2|1:3,0:2:0:0:
303,224,107321,2,0,L|218:248,1,80,12|2,0:2|0:2,0:0:0:0:
361,125,107674,102,0,P|404:168|412:202,1,80,4|2,1:2|0:2,0:0:0:0:
304,351,108027,1,10,0:2:0:0:
478,259,108203,1,2,0:2:0:0:
287,335,108379,1,2,1:2:0:0:
485,384,108556,2,0,L|472:286,1,80,2|8,0:2|0:2,0:2:0:0:
394,78,108909,6,0,B|348:120|348:120|371:216,1,160,2|2,0:2|0:2,0:2:0:0:
184,303,109438,1,10,0:2:0:0:
246,114,109615,1,2,0:2:0:0:
198,322,109791,1,2,1:2:0:0:
116,121,109968,1,2,0:2:0:0:
274,266,110144,1,10,0:2:0:0:
275,11,110321,102,0,P|221:7|192:27,1,80,2|0,0:2|1:2,0:2:0:0:
109,209,110674,1,2,0:2:0:0:
300,132,110850,1,8,0:2:0:0:
80,76,111027,1,0,0:2:0:0:
198,276,111203,2,0,L|207:184,1,80,2|0,1:2|0:2,0:0:0:0:
206,11,111556,1,10,0:2:0:0:
92,223,111732,1,2,0:2:0:0:
311,139,111909,5,0,1:2:0:0:
60,80,112085,1,0,1:2:0:0:
250,275,112262,1,0,1:2:0:0:
189,1,112438,1,0,1:2:0:0:
53,246,112615,1,8,1:3:0:0:
40,283,112703,1,0,1:2:0:0:
50,321,112791,1,0,1:2:0:0:
81,346,112879,1,0,1:2:0:0:
120,349,112968,2,0,L|175:335,3,40,8|4|4|4,1:2|1:3|1:3|1:3,0:0:0:0:
191,313,113321,6,0,B|271:308|250:353|342:344,1,143.999995605469,2|8,1:2|0:2,0:0:0:0:
472,291,113850,1,0,0:0:0:0:
365,188,114027,2,0,P|329:217|315:256,1,71.9999978027344,0|0,0:2|1:2,0:0:0:0:
462,194,114379,2,0,P|454:148|428:116,1,71.9999978027344,8|0,0:2|0:2,0:2:0:0:
320,8,114732,6,0,B|359:47|359:47|457:29,1,143.999995605469,2|8,1:2|0:2,0:2:0:0:
316,128,115262,2,0,P|289:161|189:159,1,143.999995605469,0|0,0:0|1:2,0:0:0:0:
224,19,115791,2,0,L|242:94,1,71.9999978027344,8|0,0:2|0:0,0:0:0:0:
93,183,116144,102,0,B|103:126|103:126|124:106|124:106|136:37,2,143.999995605469,2|8|0,1:2|0:2|0:2,0:0:0:0:
148,316,117027,1,0,1:2:0:0:
253,199,117203,2,0,P|206:201|175:219,1,71.9999978027344,8|0,0:2|0:0,0:0:0:0:
295,384,117556,6,0,P|338:335|304:238,1,143.999995605469,0|8,1:2|0:2,0:2:0:0:
194,181,118085,1,0,0:0:0:0:
315,89,118262,2,0,L|298:168,1,71.9999978027344,0|0,0:2|1:2,0:0:0:0:
200,283,118615,2,0,L|184:212,1,71.9999978027344,8|0,0:2|0:0,0:0:0:0:
68,83,118968,102,0,B|104:126|104:126|203:102,1,143.999995605469,2|8,1:2|0:2,0:0:0:0:
298,17,119497,1,0,0:0:0:0:
362,148,119674,2,0,P|316:137|286:101,1,71.9999978027344,0|0,0:2|1:2,0:0:0:0:
434,27,120027,2,0,P|447:72|431:116,1,71.9999978027344,8|0,0:2|0:2,0:2:0:0:
351,257,120379,6,0,P|380:230|484:252,1,143.999995605469,2|8,1:2|0:2,0:2:0:0:
359,361,120909,2,0,B|305:354|305:354|281:327|281:327|211:317,1,143.999995605469,0|0,0:0|1:2,0:0:0:0:
99,259,121438,2,0,L|173:241,1,71.9999978027344,8|0,0:2|0:0,0:0:0:0:
196,105,121791,102,0,P|155:120|134:147,1,71.9999978027344,2|0,1:2|3:2,0:0:0:0:
268,219,122144,1,8,0:2:0:0:
268,219,122321,2,0,B|343:228|326:182|420:203,1,143.999995605469,0|0,3:2|1:2,0:0:0:0:
498,104,122850,2,0,P|450:89|428:62,1,71.9999978027344,8|0,0:2|0:0,0:0:0:0:
330,3,123203,6,0,L|337:85,1,71.9999978027344,0|0,1:2|3:2,0:0:0:0:
223,133,123556,2,0,L|229:61,1,71.9999978027344,8|0,0:2|3:2,0:0:0:0:
303,207,123909,1,8,0:2:0:0:
131,124,124085,1,0,3:2:0:0:
322,194,124262,1,8,0:2:0:0:
166,255,124438,1,12,0:3:0:0:
258,89,124615,102,0,P|314:61|395:106,1,143.999995605469,2|10,1:2|0:2,0:2:0:0:
462,238,125144,1,0,0:0:0:0:
305,245,125321,2,0,L|319:158,1,71.9999978027344,2|0,0:2|1:2,0:0:0:0:
404,303,125674,2,0,L|415:374,1,71.9999978027344,8|0,0:2|3:2,0:0:0:0:
243,275,126027,6,0,P|282:247|320:246,1,71.9999978027344,2|0,1:2|0:2,0:2:0:0:
250,384,126379,2,0,B|198:374|198:374|178:351|178:351|109:336,1,143.999995605469,10|2,0:2|0:2,0:2:0:0:
0,287,126909,1,0,1:2:0:0:
109,174,127085,2,0,L|119:257,1,71.9999978027344,8|0,0:2|3:2,0:0:0:0:
18,121,127438,102,0,P|44:82|145:72,1,143.999995605469,2|10,1:2|0:2,0:2:0:0:
262,166,127968,2,0,B|215:137|215:137|233:42,1,143.999995605469,0|0,3:2|1:2,0:0:0:0:
356,163,128497,2,0,P|349:217|325:242,1,71.9999978027344,8|0,0:2|3:2,0:0:0:0:
183,193,128850,6,0,L|255:177,1,71.9999978027344,0|0,1:2|0:2,0:2:0:0:
340,328,129203,2,0,L|268:312,1,71.9999978027344,10|0,0:2|0:2,0:2:0:0:
104,267,129556,1,2,0:2:0:0:
275,200,129732,1,0,1:2:0:0:
191,346,129909,2,0,P|183:303|194:272,1,71.9999978027344,10|0,0:2|3:2,0:0:0:0:
303,124,130262,102,0,L|311:202,1,71.9999978027344,2|0,1:2|0:2,0:2:0:0:
192,64,130615,2,0,L|184:135,1,71.9999978027344,10|0,0:2|0:0,0:2:0:0:
387,99,130968,2,0,P|322:32|278:37,1,143.999995605469,2|8,0:2|0:2,0:0:0:0:
317,192,131497,1,0,0:2:0:0:
470,164,131674,6,0,P|488:119|483:83,1,71.9999978027344,2|0,1:2|0:2,0:2:0:0:
400,236,132027,2,0,L|414:325,1,71.9999978027344,8|0,0:2|0:0,0:2:0:0:
280,384,132379,2,0,L|291:312,1,71.9999978027344,2|0,0:2|1:2,0:0:0:0:
321,156,132732,1,8,0:2:0:0:
389,324,132909,1,2,0:2:0:0:
237,226,133085,102,0,B|161:211|174:257|87:238,1,143.999995605469,2|10,1:2|0:2,0:2:0:0:
0,94,133615,2,0,P|65:91|117:163,1,143.999995605469,0|0,3:2|1:2,0:0:0:0:
11,249,134144,2,0,P|14:203|35:173,1,71.9999978027344,8|0,0:2|3:2,0:0:0:0:
156,51,134497,6,0,B|210:14|264:40|264:40|266:79|239:103,2,167.999994873047,2|2|0,1:2|0:0|0:0,0:0:0:0:
0,26,135909,1,0,3:0:0:0:
189,354,145791,102,0,B|233:347|256:306|256:306|286:354|335:346,2,167.999994873047,8|4|8,1:3|1:3|1:2,0:2:0:0:
359,121,147203,54,0,L|333:283,1,143.999995605469,6|8,1:2|0:2,0:2:0:0:
290,50,147732,2,0,P|335:28|368:26,1,71.9999978027344,0|0,3:2|3:2,0:0:0:0:
268,184,148085,1,8,0:2:0:0:
191,79,148262,2,0,P|194:29|209:0,1,71.9999978027344,0|8,0:2|3:2,0:0:0:0:
228,6,148527,1,8,3:2:0:0:
228,6,148615,6,0,B|177:17|177:17|140:7|140:7|71:23,1,143.999995605469,2|8,1:2|0:2,0:2:0:0:
121,205,149144,2,0,L|136:131,1,71.9999978027344,0|0,0:2|0:2,0:0:0:0:
21,220,149497,1,8,0:2:0:0:
171,286,149674,2,0,P|202:250|210:211,1,71.9999978027344,2|2,0:2|1:2,0:0:0:0:
78,318,150027,102,0,P|108:368|200:373,1,143.999995605469,0|8,1:2|0:2,0:2:0:0:
293,243,150556,2,0,L|305:328,1,71.9999978027344,0|2,0:2|0:2,0:0:0:0:
205,187,150909,1,8,0:2:0:0:
388,255,151085,2,0,L|398:183,1,71.9999978027344,2|2,0:2|3:2,0:0:0:0:
408,148,151350,1,0,3:2:0:0:
408,148,151438,6,0,B|357:172|357:172|261:129,1,143.999995605469,0|8,1:2|3:2,0:2:0:0:
210,10,151968,2,0,P|252:23|274:59,1,71.9999978027344,0|0,3:2|0:0,0:0:0:0:
253,221,152321,1,8,0:2:0:0:
134,116,152497,2,0,P|179:92|211:92,1,71.9999978027344,2|0,3:2|0:2,0:0:0:0:
144,290,152850,102,0,L|125:206,1,71.9999978027344,2|0,1:2|3:2,0:0:0:0:
316,247,153203,2,0,L|301:318,1,71.9999978027344,0|0,1:2|3:2,0:0:0:0:
55,341,153556,2,0,L|36:257,1,71.9999978027344,0|0,1:2|3:2,0:0:0:0:
241,178,153909,2,0,L|226:249,1,71.9999978027344,2|2,1:2|3:2,0:0:0:0:
177,82,154262,6,0,P|215:67|259:68,1,71.9999978027344,0|0,1:2|3:2,0:0:0:0:
398,222,154615,1,0,1:2:0:0:
220,162,154791,1,0,3:2:0:0:
362,29,154968,2,0,P|364:71|348:110,1,71.9999978027344,0|0,1:2|3:2,0:0:0:0:
235,265,155321,1,2,1:2:0:0:
257,65,155497,1,2,3:2:0:0:
411,208,155674,101,4,1:3:0:0:
411,208,155762,1,0,1:2:0:0:
411,208,155850,2,0,L|358:199,1,35.9999989013672,0|0,1:2|1:2,1:2:0:0:
286,351,156027,1,4,1:3:0:0:
286,351,156115,1,0,1:2:0:0:
286,351,156203,2,0,L|339:342,1,35.9999989013672,0|0,1:2|1:2,1:2:0:0:
180,207,156379,1,4,1:3:0:0:
147,221,156467,1,0,1:2:0:0:
125,249,156555,1,0,1:2:0:0:
118,284,156643,1,0,1:2:0:0:
129,318,156732,2,0,L|141:363,3,35.9999989013672,0|0|0|0,1:2|1:2|1:2|1:2,0:0:0:0:
468,142,157791,70,0,P|432:159|468:153,1,107.999996704102,10|0,0:3|0:2,0:2:0:0:
450,147,158144,102,0,B|407:152|407:152|392:162|392:162|326:169,1,95.9999970703126,0|0,3:2|3:2,0:2:0:0:
127,190,158497,85,6,1:2:0:0:
224,8,158674,2,0,B|267:59|267:59|232:186,1,176.000005371094,2|2,3:2|1:2,0:2:0:0:
159,343,159203,1,10,0:2:0:0:
104,111,159379,1,0,0:2:0:0:
260,281,159556,1,2,0:2:0:0:
32,290,159732,2,0,P|25:237|41:201,1,88.000002685547,2|0,1:2|0:0,0:2:0:0:
219,59,160085,85,2,1:2:0:0:
0,123,160262,1,2,0:2:0:0:
197,211,160438,1,2,1:2:0:0:
104,10,160615,2,0,L|88:101,1,88.000002685547,10|0,0:2|0:2,0:2:0:0:
249,280,160968,1,10,1:3:0:0:
199,43,161144,1,6,1:3:0:0:
125,284,161321,21,0,1:2:0:0:
269,111,161497,2,0,B|368:88|351:155|454:123,1,176.000005371094,2|2,3:2|0:2,0:2:0:0:
284,234,162027,1,10,0:2:0:0:
380,9,162203,1,2,1:2:0:0:
401,267,162379,1,2,1:2:0:0:
279,26,162556,86,0,P|231:12|188:25,1,88.000002685547,2|0,0:2|0:0,0:2:0:0:
258,200,162909,2,0,P|294:165|304:121,1,88.000002685547,2|0,1:2|0:0,0:2:0:0:
107,185,163262,1,2,1:2:0:0:
338,293,163438,1,10,0:2:0:0:
180,80,163615,1,2,1:2:0:0:
242,355,163791,1,2,0:2:0:0:
295,74,163968,1,2,0:2:0:0:
140,312,164144,21,0,1:2:0:0:
141,29,164321,2,0,P|97:6|2:74,1,176.000005371094,2|2,3:2|1:2,0:2:0:0:
132,232,164850,1,10,0:2:0:0:
270,20,165027,1,2,0:2:0:0:
49,159,165203,1,2,0:2:0:0:
289,210,165379,2,0,L|270:103,1,88.000002685547,2|0,0:2|0:2,0:2:0:0:
204,318,165732,86,0,P|246:340|297:336,1,88.000002685547,2|0,1:2|0:0,0:2:0:0:
445,161,166085,1,2,1:2:0:0:
201,221,166262,1,10,0:2:0:0:
461,286,166438,1,0,0:2:0:0:
278,88,166615,2,0,L|298:189,1,88.000002685547,2|0,0:2|0:2,0:0:0:0:
367,378,166968,21,2,1:2:0:0:
425,109,167144,1,2,0:2:0:0:
288,318,167321,1,2,1:2:0:0:
356,36,167497,1,2,0:2:0:0:
433,321,167674,1,10,0:2:0:0:
274,84,167850,2,0,B|234:73|234:73|186:91,1,88.000002685547,2|0,1:2|0:0,0:2:0:0:
209,309,168203,86,0,P|273:319|310:203,1,176.000005371094,6|0,1:2|1:2,0:2:0:0:
159,69,168732,1,8,0:2:0:0:
117,349,168909,2,0,L|95:241,1,88.000002685547,6|0,1:2|0:0,0:2:0:0:
41,52,169262,1,0,1:2:0:0:
0,304,169438,1,8,0:2:0:0:
139,96,169615,1,0,1:2:0:0:
139,96,169703,1,0,1:2:0:0:
139,96,169791,86,0,P|182:79|234:81,1,88.000002685547,6|0,1:2|3:2,0:2:0:0:
270,270,170144,2,0,P|233:241|209:195,1,88.000002685547,10|0,0:2|3:2,0:2:0:0:
426,176,170497,1,2,1:2:0:0:
285,369,170674,1,2,3:2:0:0:
294,128,170850,1,8,0:2:0:0:
403,354,171027,6,0,L|418:255,1,88.000002685547,2|0,3:2|1:2,0:2:0:0:
232,194,171379,2,0,L|245:281,1,88.000002685547,2|8,3:2|0:2,0:0:0:0:
323,86,171732,2,0,P|275:58|235:62,1,88.000002685547,2|0,3:2|1:2,0:2:0:0:
114,232,172085,1,2,3:2:0:0:
331,182,172262,1,8,0:2:0:0:
123,85,172438,1,2,3:2:0:0:
193,343,172615,102,0,B|246:307|246:307|231:182,1,176.000005371094,0|8,1:2|0:2,0:2:0:0:
185,2,173144,1,0,3:2:0:0:
124,236,173321,1,2,1:2:0:0:
260,54,173497,1,2,3:2:0:0:
202,291,173674,1,10,0:2:0:0:
138,71,173850,1,2,3:2:0:0:
291,243,174027,6,0,P|338:258|400:238,1,88.000002685547,0|0,1:2|3:2,0:2:0:0:
498,89,174379,2,0,P|451:104|389:84,1,88.000002685547,8|0,0:2|3:2,0:2:0:0:
223,52,174732,1,2,1:2:0:0:
381,222,174909,1,2,3:2:0:0:
360,0,175085,1,10,0:2:0:0:
263,211,175262,1,2,3:2:0:0:
169,6,175438,102,0,L|79:0,1,88.000002685547,0|0,1:2|3:2,0:2:0:0:
258,172,175791,2,0,L|348:166,1,88.000002685547,8|0,0:2|3:2,0:2:0:0:
148,249,176144,1,2,1:2:0:0:
283,48,176321,1,2,3:2:0:0:
286,292,176497,1,10,0:2:0:0:
156,91,176674,1,2,3:2:0:0:
383,216,176850,6,0,P|398:268|388:313,1,88.000002685547,0|0,1:2|3:2,0:2:0:0:
191,363,177203,2,0,L|210:254,1,88.000002685547,8|0,0:2|3:2,0:2:0:0:
244,63,177556,1,2,1:2:0:0:
90,246,177732,1,2,3:2:0:0:
315,156,177909,1,10,0:2:0:0:
115,30,178085,102,0,L|135:118,1,88.000002685547,2|0,3:2|1:2,0:2:0:0:
283,261,178438,1,2,3:2:0:0:
412,87,178615,2,0,L|324:67,1,88.000002685547,10|0,0:2|3:2,0:2:0:0:
197,207,178968,2,0,P|179:257|185:299,1,88.000002685547,0|0,1:2|3:2,0:0:0:0:
353,172,179321,1,8,0:2:0:0:
111,91,179497,1,2,3:2:0:0:
292,277,179674,5,14,1:3:0:0:
292,277,179762,1,0,1:3:0:0:
292,277,179850,2,0,L|284:228,3,44.0000013427735,0|0|14|0,1:3|1:3|1:3|1:3,0:0:0:0:
246,139,180203,2,0,L|257:40,1,88.000002685547,6|0,1:2|0:0,0:0:0:0:
159,270,180556,1,2,1:2:0:0:
366,147,180732,1,14,0:2:0:0:
161,31,180909,1,2,1:2:0:0:
161,31,180997,1,0,1:2:0:0:
161,31,181085,38,0,P|74:26|21:106,1,160,6|8,1:2|0:2,0:2:0:0:
0,240,181615,1,8,0:3:0:0:
148,287,181791,2,0,B|170:228|170:228|124:128,1,160,2|8,1:2|0:2,0:2:0:0:
48,333,182321,1,4,0:3:0:0:
269,251,182497,5,2,1:2:0:0:
48,170,182674,1,2,0:2:0:0:
146,377,182850,1,10,0:2:0:0:
194,133,183027,2,0,B|291:120|257:180|347:168,1,160,2|2,0:2|0:2,0:2:0:0:
256,351,183556,2,0,L|242:256,1,80,10|0,0:2|0:2,0:2:0:0:
423,73,183909,102,0,B|463:122|463:122|434:229,1,160,2|8,1:2|0:2,0:2:0:0:
373,381,184438,1,8,0:3:0:0:
200,202,184615,2,0,B|260:193|260:193|283:165|283:165|369:154,1,160,2|8,1:2|0:2,0:2:0:0:
225,310,185144,1,4,0:3:0:0:
163,85,185321,5,2,1:2:0:0:
326,270,185497,1,2,0:2:0:0:
115,202,185674,1,10,0:2:0:0:
293,27,185850,2,0,L|274:185,1,160,2|2,0:2|0:2,0:2:0:0:
181,351,186380,2,0,L|166:246,1,80,10|0,0:2|0:0,0:2:0:0:
104,40,186732,102,0,P|82:73|77:112,1,80,0|2,1:2|0:2,0:0:0:0:
240,231,187085,1,10,0:2:0:0:
197,31,187262,1,2,0:2:0:0:
253,250,187438,1,2,1:2:0:0:
324,78,187615,2,0,L|337:0,1,80,2|8,0:2|0:2,0:2:0:0:
491,142,187968,6,0,B|404:144|426:193|316:189,1,160,2|2,0:2|0:2,0:2:0:0:
234,304,188497,1,10,0:2:0:0:
435,252,188674,1,2,0:2:0:0:
223,322,188850,1,2,1:2:0:0:
422,366,189027,1,2,0:2:0:0:
310,171,189203,1,10,0:2:0:0:
159,367,189380,102,0,P|108:386|68:368,1,80,2|0,0:2|1:2,0:2:0:0:
221,268,189732,2,0,P|262:302|267:346,1,80,2|8,0:2|0:2,0:0:0:0:
101,268,190085,2,0,P|110:214|145:188,1,80,2|0,0:2|1:2,0:2:0:0:
264,93,190438,2,0,L|245:188,1,80,2|8,0:2|0:2,0:0:0:0:
75,273,190791,6,0,L|59:194,1,80,2|4,0:2|1:2,0:2:0:0:
27,30,191144,1,2,0:2:0:0:
162,251,191321,69,2,3:2:0:0:
188,258,191438,2,0,P|226:248|249:219,1,53.3333333333333,2|2,0:2|0:2,0:0:0:0:
165,43,191674,5,2,3:2:0:0:
136,60,191791,2,0,P|126:94|134:140,1,63.9999980468751,2|2,0:2|0:2,0:0:0:0:
322,159,192027,101,14,3:2:0:0:
324,115,192144,2,0,P|301:71|262:49,1,74.6666643880209,2|2,0:2|0:2,0:0:0:0:
297,296,192380,22,0,B|390:321|366:259|465:288,1,160,6|8,1:2|0:2,0:2:0:0:
507,84,192909,1,8,0:3:0:0:
311,127,193085,2,0,L|330:217,1,80,2|0,1:2|0:0,0:2:0:0:
407,45,193438,2,0,P|376:19|338:9,1,80,8|4,0:2|0:3,0:0:0:0:
214,212,193791,5,2,1:2:0:0:
439,122,193968,1,2,0:2:0:0:
214,39,194144,1,10,0:2:0:0:
310,265,194321,2,0,B|348:217|348:217|311:86,1,160,2|2,0:2|0:2,0:2:0:0:
110,177,194850,2,0,L|188:190,1,80,10|0,0:2|0:2,0:2:0:0:
360,18,195203,102,0,P|293:1|214:73,1,160,6|8,1:2|0:2,0:2:0:0:
188,283,195732,1,4,1:2:0:0:
98,100,195909,2,0,L|73:-3,1,80,2|0,0:2|0:2,0:2:0:0:
305,140,196262,2,0,L|286:217,1,80,8|0,0:2|0:2,0:2:0:0:
131,356,196615,5,6,1:2:0:0:
369,284,196791,1,6,1:3:0:0:
369,284,196880,1,4,1:3:0:0:
369,284,196968,1,10,0:2:0:0:
168,106,197144,2,0,L|198:286,1,160,6|10,1:2|1:3,0:2:0:0:
387,166,197674,2,0,P|351:138|302:142,1,80,12|2,0:2|0:2,0:0:0:0:
289,343,198027,102,0,L|311:249,1,80,4|2,1:2|0:2,0:0:0:0:
355,31,198380,1,10,0:2:0:0:
430,238,198556,1,2,0:2:0:0:
338,47,198732,1,2,1:2:0:0:
222,217,198909,2,0,P|180:234|137:228,1,80,2|8,0:2|0:2,0:2:0:0:
99,15,199262,6,0,B|156:35|156:35|172:154,1,160,2|2,0:2|0:2,0:2:0:0:
14,310,199791,1,10,0:2:0:0:
242,307,199968,1,2,0:2:0:0:
28,291,200144,1,2,1:2:0:0:
242,179,200321,1,2,0:2:0:0:
123,381,200497,1,10,0:2:0:0:
78,138,200674,102,0,L|98:219,1,80,2|0,0:2|1:2,0:2:0:0:
250,337,201027,1,2,0:2:0:0:
238,112,201203,1,8,0:2:0:0:
82,311,201380,2,0,L|175:287,1,80,2|0,0:2|1:2,0:2:0:0:
364,242,201733,1,2,0:2:0:0:
137,135,201909,1,10,0:2:0:0:
264,343,202086,1,2,0:2:0:0:
261,82,202262,6,0,P|303:52|347:51,1,80,0|0,1:2|0:0,0:0:0:0:
321,243,202615,2,0,P|274:221|251:184,1,80,8|2,0:2|0:2,0:0:0:0:
435,70,202967,1,2,1:2:0:0:
392,298,203144,1,2,0:0:0:0:
324,52,203321,2,0,L|339:139,1,80,10|0,0:2|0:0,0:0:0:0:
226,328,203674,102,0,B|203:306|196:277|196:277|159:346|45:416|-81:287|-4:121|142:167|99:262,1,480,6|0,1:2|0:0,0:0:0:0:
