osu file format v14

[General]
AudioFilename: audio.mp3
AudioLeadIn: 0
PreviewTime: 157527
Countdown: 0
SampleSet: Soft
StackLeniency: 0.4
Mode: 0
LetterboxInBreaks: 0
WidescreenStoryboard: 1

[Editor]
Bookmarks: 11674,22968,34262,45556,56850,62497,68144,90732,102027,113321,124615,136262,147203,158497,169791,181085,192379
DistanceSpacing: 1.3
BeatDivisor: 4
GridSize: 32
TimelineZoom: 1.6

[Metadata]
Title:Starlight Wonder
TitleUnicode:スターライト・ワンダー
Artist:Seina
ArtistUnicode:Seina
Creator:Sotarks
Version:Eli's Hard
Source:
Tags:紫音 lee future bass kirara magic shion aikawa japanese female vocalist electronic kowari smokelind elinor eli [_eli_] basensorex vulkin yasuho surono リーシオン vtuber virtual youtuber
BeatmapID:2544866
BeatmapSetID:1221223

[Difficulty]
HPDrainRate:4.6
CircleSize:3.6
OverallDifficulty:6.5
ApproachRate:8
SliderMultiplier:1.4
SliderTickRate:1

[Events]
//Background and Video events
0,0,"bg.jpg",0,0
//Break Periods
2,3403,5277
2,9050,10924
2,136461,145041
//Storyboard Layer 0 (Background)
//Storyboard Layer 1 (Fail)
//Storyboard Layer 2 (Pass)
//Storyboard Layer 3 (Foreground)
//Storyboard Layer 4 (Overlay)
//Storyboard Sound Samples

[TimingPoints]
380,352.941176470588,4,2,22,32,1,0
380,-250.000000000001,4,2,22,32,0,0
11674,-125,4,2,22,42,0,0
22968,-125,4,2,22,42,0,0
34262,-117.647058823529,4,2,22,52,0,0
45556,-111.111111111111,4,2,22,62,0,0
56850,-111.111111111111,4,2,22,72,0,0
66732,-111.111111111111,4,2,22,52,0,0
67438,-111.111111111111,4,2,22,72,0,0
68144,-100,4,2,22,82,0,1
90732,-100,4,2,22,82,0,0
113321,-125,4,2,22,52,0,0
124615,-125,4,2,22,52,0,0
147203,-111.111111111111,4,2,22,72,0,0
157085,-111.111111111111,4,2,22,52,0,0
157791,-111.111111111111,4,2,22,72,0,0
158144,-111.111111111111,4,2,22,62,0,0
158497,-100,4,2,22,82,0,1
169791,-100,4,2,22,82,0,1
181085,-100,4,2,22,82,0,0
203674,-250,4,2,22,82,0,0
205791,-125,4,2,22,22,0,0

[Colours]
Combo1 : 253,255,210
Combo2 : 165,214,222
Combo3 : 116,126,201
Combo4 : 98,239,255
Combo5 : 24,74,192
Combo6 : 249,176,255
Combo7 : 255,4,162
Combo8 : 247,255,74

[HitObjects]
37,122,380,6,0,L|65:347,2,224,6|2|2,1:2|0:0|0:0,0:2:0:0:
284,36,6027,6,0,B|408:36|356:124|480:124,2,224,2|2|2,0:0|0:0|0:0,0:0:0:0:
48,44,11674,102,0,L|56:100,1,56,6|0,0:0|0:0,0:0:0:0:
72,172,12027,2,0,P|104:224|248:184,1,224,2|0,0:0|0:0,0:0:0:0:
300,60,13085,2,0,L|360:68,1,56,2|0,0:0|0:0,0:0:0:0:
428,84,13438,2,0,P|452:136|368:280,1,224,2|0,0:0|0:0,0:0:0:0:
256,344,14497,6,0,L|200:328,1,56,2|0,0:0|0:0,0:0:0:0:
136,292,14850,2,0,P|136:232|272:212,1,224,2|0,0:0|0:0,0:0:0:0:
412,236,15909,2,0,L|404:296,2,56,2|0|0,0:0|0:0|0:0,0:0:0:0:
368,176,16438,2,0,L|360:120,2,56,2|0|0,0:0|0:0|0:0,0:0:0:0:
328,240,16968,1,2,0:0:0:0:
228,344,17321,102,0,L|168:336,1,56,2|0,0:0|0:0,0:0:0:0:
104,308,17674,2,0,P|76:192|148:116,1,224,2|0,0:0|0:0,0:0:0:0:
276,76,18732,2,0,L|344:88,1,56,2|2,0:0|0:0,0:0:0:0:
404,104,19085,2,0,P|428:188|320:232,1,224,2|0,0:0|0:0,0:0:0:0:
176,212,20144,6,0,L|160:152,1,56,2|2,0:0|0:0,0:0:0:0:
148,84,20497,2,0,B|264:44|264:148|360:108,1,224,2|0,0:0|0:0,0:0:0:0:
432,236,21556,2,0,L|488:220,2,56,2|2|2,0:0|0:0|0:0,0:0:0:0:
384,292,22085,2,0,L|328:276,2,56,2|0|0,0:0|0:0|0:0,0:0:0:0:
436,344,22615,1,0,0:0:0:0:
380,208,22968,101,2,0:0:0:0:
124,344,23674,2,0,L|68:328,1,56,2|0,3:0|0:0,0:0:0:0:
28,268,24027,1,0,0:0:0:0:
28,268,24203,2,0,P|16:208|32:160,1,112,2|0,0:0|0:0,0:0:0:0:
72,100,24732,1,0,0:0:0:0:
72,100,24909,2,0,B|132:96|120:136|180:132,1,112,2|0,0:0|0:0,0:0:0:0:
244,108,25438,1,0,0:0:0:0:
244,108,25615,1,2,0:0:0:0:
304,152,25791,6,0,P|348:228|280:336,2,224,0|0|0,0:0|3:0|0:0,0:0:0:0:
112,52,27732,1,0,0:0:0:0:
112,52,27909,2,0,L|104:108,1,56,2|0,3:0|0:0,0:0:0:0:
52,160,28262,2,0,L|72:280,1,112,2|0,0:0|0:0,0:0:0:0:
352,340,29321,102,0,L|408:352,2,56,2|0|0,3:0|0:0|0:0,0:0:0:0:
284,312,29850,2,0,P|264:260|284:208,1,112,2|0,0:0|0:0,0:0:0:0:
348,176,30379,1,0,0:0:0:0:
348,176,30556,2,0,L|460:160,1,112,2|0,0:0|0:0,0:0:0:0:
488,92,31085,1,0,0:0:0:0:
488,92,31262,2,0,P|488:64|476:40,1,56,2|0,0:0|0:0,0:0:0:0:
404,32,31615,5,0,0:0:0:0:
404,32,31791,2,0,B|352:24|352:68|296:56,1,112,2|0,0:0|3:0,0:0:0:0:
40,344,33379,1,0,0:0:0:0:
40,344,33556,2,0,L|52:284,1,56,10|0,0:0|3:0,0:0:0:0:
60,252,33821,1,0,3:0:0:0:
60,252,33909,2,0,L|128:240,1,56,0|4,3:0|0:3,0:0:0:0:
216,252,34262,102,0,B|280:256|260:296|320:300,1,119.000002269745,4|0,1:2|0:2,0:2:0:0:
396,288,34791,1,0,3:2:0:0:
396,288,34968,2,0,L|408:164,1,119.000002269745,10|0,0:2|0:2,0:2:0:0:
412,92,35497,1,0,0:2:0:0:
412,92,35674,2,0,P|368:60|308:76,1,119.000002269745,2|0,0:2|1:2,0:0:0:0:
252,128,36203,1,0,0:2:0:0:
252,128,36379,2,0,L|236:248,1,119.000002269745,10|0,0:2|0:2,0:2:0:0:
188,308,36909,1,0,0:2:0:0:
188,308,37085,6,0,B|128:296|136:340|72:328,1,119.000002269745,2|0,1:2|0:2,0:2:0:0:
32,264,37615,1,0,0:2:0:0:
32,264,37791,2,0,P|12:204|44:152,1,119.000002269745,8|0,0:2|0:2,0:2:0:0:
100,112,38321,1,0,3:2:0:0:
100,112,38497,2,0,L|232:132,1,119.000002269745,0|0,3:2|1:2,0:0:0:0:
292,148,39027,1,0,0:2:0:0:
344,92,39203,2,0,P|376:76|408:76,1,59.5000011348725,10|0,0:2|0:2,0:0:0:0:
468,112,39556,2,0,P|480:144|480:172,1,59.5000011348725,2|0,0:2|0:2,0:2:0:0:
440,236,39909,102,0,L|452:296,2,59.5000011348725,0|0|0,1:2|0:0|0:2,0:2:0:0:
368,204,40438,1,0,3:2:0:0:
368,204,40615,2,0,B|304:208|328:252|264:256,1,119.000002269745,10|0,0:2|0:2,0:2:0:0:
192,232,41144,1,0,0:2:0:0:
192,232,41321,2,0,L|176:352,1,119.000002269745,2|0,3:2|1:2,0:0:0:0:
100,352,41850,1,0,0:2:0:0:
100,352,42027,2,0,P|52:300|52:252,1,119.000002269745,10|0,0:2|0:2,0:2:0:0:
68,180,42556,6,0,L|128:164,1,59.5000011348725,2|0,0:2|1:2,0:0:0:0:
176,104,42909,2,0,L|244:120,1,59.5000011348725,2|0,0:2|0:2,0:0:0:0:
300,160,43262,1,0,0:2:0:0:
300,160,43438,2,0,L|420:144,1,119.000002269745,8|0,0:2|0:2,0:2:0:0:
480,192,43968,1,0,3:2:0:0:
480,192,44144,2,0,P|484:224|476:252,1,59.5000011348725,0|0,3:2|3:2,0:0:0:0:
420,304,44497,2,0,L|360:288,1,59.5000011348725,0|0,1:2|0:2,0:0:0:0:
308,232,44850,2,0,B|244:236|264:284|208:288,1,119.000002269745,8|0,0:2|0:2,0:0:0:0:
112,316,45379,1,0,0:2:0:0:
42,226,45556,70,0,P|19:158|43:112,1,125.999996154785,6|0,1:2|0:2,0:2:0:0:
117,80,46085,1,2,3:2:0:0:
117,80,46174,1,0,3:2:0:0:
117,80,46262,2,0,L|250:89,1,125.999996154785,0|2,3:2|3:2,0:2:0:0:
324,112,46791,1,0,3:2:0:0:
324,112,46879,1,0,3:2:0:0:
324,112,46968,5,0,3:2:0:0:
392,160,47144,1,2,0:2:0:0:
392,160,47321,2,0,P|400:188|400:224,1,62.9999980773926,0|2,0:2|1:2,0:0:0:0:
380,300,47674,1,8,0:2:0:0:
380,300,47850,2,0,P|352:316|320:316,1,62.9999980773926,0|0,0:2|3:2,0:0:0:0:
244,288,48203,1,0,3:2:0:0:
244,288,48291,1,0,3:2:0:0:
244,288,48379,102,0,B|184:288|200:344|136:344,1,125.999996154785,2|0,1:2|0:2,0:2:0:0:
64,308,48909,2,0,L|48:184,1,125.999996154785,2|0,1:2|0:2,0:2:0:0:
80,108,49438,1,2,1:2:0:0:
152,68,49615,1,0,3:2:0:0:
152,68,49703,1,0,3:2:0:0:
152,68,49791,6,0,P|224:68|264:100,1,125.999996154785,2|0,1:2|0:2,0:2:0:0:
320,160,50321,1,2,3:2:0:0:
392,124,50497,1,8,1:3:0:0:
392,124,50585,1,8,0:3:0:0:
392,124,50674,1,8,0:3:0:0:
448,184,50850,2,0,L|484:176,2,31.4999990386963,4|4|4,0:3|0:3|0:3,0:0:0:0:
376,224,51203,102,0,L|360:292,1,62.9999980773926,2|0,1:2|3:2,0:2:0:0:
292,328,51556,2,0,L|277:266,1,62.9999980773926,0|2,3:2|3:2,0:0:0:0:
232,196,51909,1,8,0:2:0:0:
232,196,52085,2,0,L|168:208,1,62.9999980773926,2|2,3:2|3:2,0:0:0:0:
88,196,52438,1,0,3:2:0:0:
88,196,52527,1,0,3:2:0:0:
88,196,52615,6,0,P|76:168|76:132,1,62.9999980773926,2|0,1:2|0:0,0:2:0:0:
92,56,52968,2,0,P|124:32|156:32,1,62.9999980773926,0|2,0:2|3:2,0:0:0:0:
220,68,53321,2,0,P|252:88|280:88,1,62.9999980773926,8|0,0:2|3:2,0:0:0:0:
336,32,53674,2,0,P|372:24|400:32,1,62.9999980773926,2|2,3:2|0:2,0:0:0:0:
456,88,54027,101,0,1:2:0:0:
456,88,54203,1,0,0:2:0:0:
472,168,54379,2,0,P|460:220|448:292,1,125.999996154785,2|8,0:2|0:2,0:2:0:0:
292,348,55085,1,2,3:2:0:0:
292,348,55262,6,0,B|228:344|248:296|184:292,1,125.999996154785,2|0,1:2|0:0,0:0:0:0:
104,304,55791,1,0,0:2:0:0:
104,304,55968,2,0,P|88:268|88:244,1,62.9999980773926,2|8,1:2|3:2,0:0:0:0:
84,162,56321,1,10,3:2:0:0:
84,162,56409,1,8,3:2:0:0:
84,162,56497,1,0,1:2:0:0:
191,123,56674,1,8,3:2:0:0:
191,123,56762,1,8,3:2:0:0:
191,123,56850,70,0,B|255:123|239:171|303:171,1,125.999996154785,6|8,1:2|0:2,0:2:0:0:
375,133,57379,2,0,P|375:73|323:33,1,125.999996154785,0|8,3:2|0:2,0:0:0:0:
244,31,57909,1,0,3:2:0:0:
166,56,58085,5,8,3:2:0:0:
166,56,58174,1,8,3:2:0:0:
166,56,58262,2,0,L|154:196,1,125.999996154785,2|8,1:2|0:2,0:2:0:0:
82,219,58791,2,0,L|114:343,1,125.999996154785,0|8,0:2|0:2,0:0:0:0:
194,358,59321,1,2,0:2:0:0:
194,358,59497,1,2,1:2:0:0:
258,307,59674,102,0,B|326:307|306:355|370:355,1,125.999996154785,0|8,1:2|0:2,0:2:0:0:
441,315,60203,1,0,3:2:0:0:
452,232,60379,2,0,L|392:216,1,62.9999980773926,2|8,0:2|0:2,0:0:0:0:
312,192,60732,1,2,0:2:0:0:
312,192,60909,6,0,L|320:128,1,62.9999980773926,2|0,3:2|1:2,0:0:0:0:
287,53,61262,2,0,P|231:25|179:53,1,125.999996154785,2|0,3:2|3:2,0:0:0:0:
132,120,61791,2,0,L|144:188,1,62.9999980773926,0|8,0:0|0:2,0:0:0:0:
206,233,62144,2,0,L|190:301,1,62.9999980773926,2|0,3:2|0:2,0:0:0:0:
98,355,62497,102,0,P|38:355|10:299,1,125.999996154785,2|0,1:2|1:2,0:0:0:0:
14,219,63027,1,0,3:2:0:0:
14,219,63203,2,0,P|46:195|78:195,1,62.9999980773926,0|0,1:2|3:2,0:0:0:0:
148,214,63556,1,2,1:2:0:0:
148,214,63732,6,0,P|182:232|209:232,1,62.9999980773926,2|0,3:2|1:2,0:0:0:0:
259,170,64085,1,0,3:2:0:0:
259,170,64262,2,0,L|274:109,1,62.9999980773926,0|0,1:2|3:2,0:0:0:0:
353,87,64615,2,0,L|364:151,1,62.9999980773926,0|0,1:2|3:2,0:0:0:0:
382,229,64968,1,2,1:2:0:0:
382,229,65144,1,2,3:2:0:0:
281,282,65321,102,0,L|245:290,7,31.4999990386963,4|0|0|0|4|0|0|0,1:3|1:2|1:2|1:2|1:3|1:2|1:2|1:2,0:0:0:0:
213,322,66027,2,0,L|177:314,7,31.4999990386963,4|0|0|0|0|0|0|0,1:3|1:2|1:2|1:2|1:2|1:2|1:2|1:2,0:0:0:0:
64,349,66909,53,0,0:2:0:0:
41,104,67438,2,0,L|73:92,3,31.4999990386963,10|8|8|8,1:3|0:3|0:3|0:3,0:0:0:0:
108,84,67791,2,4,L|144:96,3,31.4999990386963,4|4|4|4,0:3|0:3|0:3|0:3,0:3:0:0:
180,108,68144,22,0,L|248:84,1,70,6|0,1:2|3:2,0:2:0:0:
336,80,68497,2,0,L|408:104,1,70,10|0,0:2|3:2,0:2:0:0:
480,148,68850,1,2,1:2:0:0:
480,240,69027,2,0,P|480:280|468:312,1,70,2|8,3:2|0:2,0:0:0:0:
388,348,69379,6,0,L|320:332,1,70,2|0,3:2|1:2,0:2:0:0:
280,248,69732,2,0,L|208:264,1,70,2|8,3:2|0:2,0:0:0:0:
144,324,70085,2,0,P|116:344|80:344,1,70,2|0,3:2|1:2,0:2:0:0:
12,284,70438,2,0,P|4:244|12:216,1,70,2|8,3:2|0:2,0:0:0:0:
60,140,70791,1,2,3:2:0:0:
140,180,70968,102,0,L|208:168,1,70,0|0,1:2|3:2,0:2:0:0:
256,92,71321,2,0,L|184:80,1,70,8|0,0:2|3:2,0:2:0:0:
100,56,71674,1,2,1:2:0:0:
100,56,71850,1,2,3:2:0:0:
60,140,72027,1,10,0:2:0:0:
140,180,72203,6,0,B|216:168|204:224|272:212,1,140,2|0,3:2|3:2,0:0:0:0:
360,204,72732,2,0,L|376:272,1,70,8|0,0:2|3:2,0:2:0:0:
440,336,73085,1,2,1:2:0:0:
440,336,73262,1,2,3:2:0:0:
496,264,73438,1,10,0:2:0:0:
488,172,73615,102,0,P|448:124|372:124,1,140,2|0,3:2|3:2,0:0:0:0:
296,172,74144,2,0,L|284:252,1,70,8|0,0:2|3:2,0:2:0:0:
268,332,74497,1,2,1:2:0:0:
196,272,74674,1,2,3:2:0:0:
196,272,74850,1,10,0:2:0:0:
152,352,75027,6,0,B|96:352|112:292|28:292,1,140,2|0,3:2|3:2,0:0:0:0:
0,208,75556,2,0,P|28:184|64:180,1,70,8|0,0:2|3:2,0:2:0:0:
152,184,75909,1,2,1:2:0:0:
152,184,76085,1,2,3:2:0:0:
220,244,76262,1,10,0:2:0:0:
276,172,76438,102,0,L|288:104,1,70,2|0,3:2|1:2,0:2:0:0:
352,40,76791,2,0,L|428:52,1,70,2|8,3:2|0:2,0:0:0:0:
480,120,77144,2,0,P|480:160|468:188,1,70,2|0,3:2|1:2,0:2:0:0:
404,252,77497,2,0,P|364:252|340:236,1,70,2|8,3:2|0:2,0:0:0:0:
276,172,77850,1,2,3:2:0:0:
192,96,78027,22,0,B|116:100|144:152|72:156,1,140,12|8,0:2|1:3,0:0:0:0:
9,250,78556,2,0,L|25:318,1,70,12|4,0:2|1:3,0:0:0:0:
107,357,78909,1,4,1:3:0:0:
156,281,79085,1,12,0:2:0:0:
240,357,79262,1,8,1:3:0:0:
240,357,79350,1,8,1:3:0:0:
240,357,79438,86,0,L|312:337,1,70,6|0,1:2|3:2,0:2:0:0:
348,256,79791,2,0,L|416:272,1,70,10|0,0:2|3:2,0:2:0:0:
489,217,80144,1,2,1:2:0:0:
460,128,80321,2,0,P|420:104|392:104,1,70,2|8,3:2|0:2,0:0:0:0:
312,132,80674,6,0,P|304:164|296:200,1,70,2|0,3:2|1:2,0:2:0:0:
220,248,81027,2,0,P|212:213|203:179,1,70,2|8,3:2|0:2,0:0:0:0:
172,96,81379,2,0,P|140:80|104:88,1,70,2|0,3:2|1:2,0:2:0:0:
36,140,81732,2,0,P|32:192|40:212,1,70,2|8,3:2|0:2,0:0:0:0:
84,288,82085,102,0,B|160:276|136:344|212:328,1,140,2|0,3:2|3:2,0:0:0:0:
292,284,82615,1,8,0:2:0:0:
292,284,82791,1,0,3:2:0:0:
284,192,82968,2,0,L|212:184,1,70,2|2,1:2|3:2,0:0:0:0:
124,172,83321,1,10,0:2:0:0:
140,84,83497,6,0,P|172:40|256:40,1,140,2|0,3:2|3:2,0:0:0:0:
324,96,84027,2,0,L|332:168,1,70,8|0,0:2|3:2,0:2:0:0:
392,232,84379,2,0,L|372:300,1,70,2|2,1:2|3:2,0:0:0:0:
292,344,84732,1,10,0:2:0:0:
292,344,84909,1,2,3:2:0:0:
260,260,85085,102,0,P|228:240|196:240,1,70,0|0,1:2|3:2,0:2:0:0:
140,312,85438,2,0,P|112:332|76:332,1,70,8|0,0:2|3:2,0:2:0:0:
16,264,85791,2,0,L|8:192,1,70,2|2,1:2|3:2,0:0:0:0:
28,104,86144,1,10,0:2:0:0:
28,104,86321,1,2,3:2:0:0:
116,72,86497,6,0,P|156:72|184:88,1,70,0|0,1:2|3:2,0:2:0:0:
228,164,86850,2,0,P|260:184|292:184,1,70,8|0,0:2|3:2,0:2:0:0:
376,156,87203,1,2,1:2:0:0:
376,156,87379,1,2,3:2:0:0:
352,68,87556,1,10,0:2:0:0:
272,24,87732,102,0,L|256:92,1,70,2|0,3:2|1:2,0:2:0:0:
224,176,88085,1,2,3:2:0:0:
164,108,88262,2,0,L|148:40,1,70,10|0,0:2|3:2,0:2:0:0:
56,24,88615,2,0,L|44:96,1,70,0|0,1:2|3:2,0:0:0:0:
40,184,88968,1,8,0:2:0:0:
40,184,89144,1,2,3:2:0:0:
124,260,89321,38,0,B|200:248|184:308|256:296,1,140,14|6,0:2|1:3,0:0:0:0:
352,236,89850,2,0,P|352:164|296:136,1,140,14|10,0:2|1:3,0:0:0:0:
208,148,90379,1,14,0:2:0:0:
229,36,90556,1,4,1:3:0:0:
229,36,90644,1,4,1:3:0:0:
229,36,90732,6,0,P|288:17|365:27,1,140,6|8,1:2|0:2,0:2:0:0:
447,65,91262,1,8,0:3:0:0:
447,65,91438,2,0,L|463:209,1,140,2|8,1:2|0:2,0:2:0:0:
439,293,91968,1,4,0:3:0:0:
439,293,92144,6,0,P|401:298|367:309,1,70,2|2,1:2|0:2,0:0:0:0:
284,336,92497,1,10,0:2:0:0:
284,336,92674,2,0,L|276:264,1,70,2|0,0:2|1:2,0:2:0:0:
188,240,93027,1,2,0:2:0:0:
188,240,93203,2,0,L|196:168,1,70,10|0,0:2|0:2,0:2:0:0:
240,92,93556,102,0,B|316:80|304:140|372:132,1,140,2|8,1:2|0:2,0:2:0:0:
460,140,94085,1,8,0:3:0:0:
460,140,94262,2,0,P|488:80|440:32,1,140,2|8,1:2|0:2,0:2:0:0:
352,36,94791,1,4,0:3:0:0:
352,36,94968,6,0,L|340:108,1,70,2|2,1:2|0:2,0:0:0:0:
280,172,95321,1,10,0:2:0:0:
280,172,95497,2,0,L|292:240,1,70,2|0,0:2|1:2,0:2:0:0:
248,320,95850,1,2,0:2:0:0:
248,320,96027,2,0,P|188:348|120:324,1,140,10|0,0:2|1:2,0:2:0:0:
80,244,96556,101,2,0:2:0:0:
80,244,96732,2,0,L|152:220,1,70,10|2,0:2|0:2,0:0:0:0:
208,152,97085,2,0,L|276:164,1,70,2|2,1:2|0:2,0:0:0:0:
364,136,97438,1,8,0:2:0:0:
364,136,97615,6,0,P|364:60|308:32,1,140,2|2,0:2|0:2,0:2:0:0:
224,32,98144,2,0,L|152:44,1,70,10|2,0:2|0:2,0:0:0:0:
76,88,98497,2,0,L|68:164,1,70,2|2,1:2|0:2,0:0:0:0:
74,247,98850,1,10,0:2:0:0:
74,247,99027,102,0,P|110:271|138:271,1,70,2|0,0:2|1:2,0:2:0:0:
197,204,99379,2,0,P|233:180|261:180,1,70,2|8,0:2|0:2,0:0:0:0:
330,236,99732,2,0,L|342:304,1,70,2|0,0:2|1:2,0:2:0:0:
405,370,100085,2,0,L|475:355,1,70,2|8,0:2|0:2,0:0:0:0:
510,272,100438,1,2,0:2:0:0:
487,162,100615,6,0,L|471:90,1,70,4|2,1:2|0:2,0:0:0:0:
387,57,100968,86,0,L|391:11,2,46.6666666666667,2|2|2,3:2|0:2|0:2,0:0:0:0:
314,112,101321,2,0,L|318:158,2,46.6666666666667,2|2|2,3:2|0:2|0:2,0:0:0:0:
241,57,101674,2,0,L|245:11,2,46.6666666666667,14|2|2,3:2|0:2|0:2,0:0:0:0:
141,108,102027,6,0,P|99:161|99:232,1,140,6|8,1:2|0:2,0:2:0:0:
146,308,102556,1,8,0:3:0:0:
146,308,102732,2,0,B|222:296|210:352|278:344,1,140,2|8,1:2|0:2,0:2:0:0:
317,264,103262,1,4,0:3:0:0:
317,264,103438,6,0,L|309:192,1,70,2|2,1:2|0:2,0:0:0:0:
342,109,103791,1,10,0:2:0:0:
342,109,103968,2,0,L|414:117,1,70,2|0,0:2|1:2,0:2:0:0:
497,146,104321,1,2,0:2:0:0:
497,146,104497,2,0,L|485:214,1,70,10|0,0:2|0:2,0:2:0:0:
444,320,104850,102,0,P|388:352|324:316,1,140,6|8,1:2|0:2,0:2:0:0:
276,220,105379,1,4,1:2:0:0:
276,220,105556,2,0,P|216:187|151:214,1,140,2|8,0:2|0:2,0:2:0:0:
79,265,106085,1,0,0:2:0:0:
48,156,106262,5,6,1:2:0:0:
48,156,106438,2,0,L|42:119,2,35,6|4|10,1:3|1:3|0:2,0:0:0:0:
156,191,106791,2,0,L|224:207,1,70,6|0,1:2|0:2,0:2:0:0:
286,274,107144,2,0,L|355:261,1,70,10|12,1:3|0:2,0:0:0:0:
444,244,107497,1,2,0:2:0:0:
428,133,107674,102,0,L|416:61,1,70,4|2,1:2|0:2,0:0:0:0:
332,28,108027,2,0,P|296:28|268:48,1,70,10|2,0:2|0:2,0:0:0:0:
211,116,108379,2,0,P|175:116|147:96,1,70,2|2,1:2|0:2,0:0:0:0:
72,52,108732,1,8,0:2:0:0:
72,52,108909,6,0,L|60:192,1,140,2|2,0:2|0:2,0:2:0:0:
92,276,109438,2,0,P|124:296|156:296,1,70,10|2,0:2|0:2,0:0:0:0:
188,212,109791,2,0,P|220:192|252:192,1,70,2|2,1:2|0:2,0:0:0:0:
332,232,110144,1,10,0:2:0:0:
332,232,110321,102,0,L|344:304,1,70,2|0,0:2|1:2,0:2:0:0:
428,336,110674,2,0,L|440:264,1,70,2|8,0:2|0:2,0:0:0:0:
455,175,111027,1,0,0:2:0:0:
455,175,111203,2,0,P|427:156|392:155,1,70,2|0,1:2|0:2,0:0:0:0:
312,196,111556,1,10,0:2:0:0:
232,152,111732,6,0,B|160:156|188:212|112:216,1,140,2|0,0:2|1:2,0:0:0:0:
40,160,112262,1,0,1:2:0:0:
40,160,112438,1,0,1:2:0:0:
60,72,112615,2,0,L|96:64,3,35,8|0|0|0,1:3|1:2|1:2|1:2,0:0:0:0:
132,40,112968,2,0,L|166:47,3,35,8|4|4|4,1:2|1:3|1:3|1:3,0:0:0:0:
192,72,113321,6,0,L|312:48,1,112,2|8,1:2|0:2,0:0:0:0:
448,44,114027,2,0,P|456:76|456:100,1,56,0|0,0:2|1:2,0:0:0:0:
436,168,114379,1,8,0:2:0:0:
436,168,114556,2,0,L|320:184,1,112,0|0,0:2|0:2,0:0:0:0:
252,196,115085,1,8,0:2:0:0:
252,196,115262,2,0,P|252:260|284:296,1,112,0|0,0:0|1:2,0:0:0:0:
336,344,115791,1,8,0:2:0:0:
336,344,115968,6,0,L|220:328,1,112
188,264,116497,1,8,0:2:0:0:
36,224,117027,1,0,1:2:0:0:
36,224,117203,2,0,L|40:168,1,56,8|0,0:2|0:0,0:0:0:0:
44,96,117556,2,0,P|72:56|132:56,1,112,0|8,1:2|0:2,0:2:0:0:
188,100,118085,1,0,0:0:0:0:
188,100,118262,2,0,L|250:88,1,56,0|0,0:2|1:2,0:0:0:0:
308,124,118615,2,0,L|368:136,1,56,8|0,0:2|0:0,0:0:0:0:
432,112,118968,102,0,P|432:64|376:32,1,112,2|8,1:2|0:2,0:0:0:0:
236,36,119674,2,0,L|176:44,1,56,0|0,0:2|1:2,0:0:0:0:
112,64,120027,1,8,0:2:0:0:
112,64,120203,2,0,P|100:120|116:176,1,112,0|0,0:2|0:2,0:0:0:0:
156,232,120732,1,8,0:2:0:0:
156,232,120909,2,0,L|268:208,1,112,0|0,0:0|1:2,0:0:0:0:
336,228,121438,1,8,0:2:0:0:
336,228,121615,6,0,P|356:276|340:336,1,112,0|0,0:0|3:2,0:0:0:0:
272,356,122144,2,0,B|216:356|228:316|168:316,1,112,8|0,0:2|0:0,0:0:0:0:
96,316,122674,1,0,1:2:0:0:
96,316,122850,1,8,0:2:0:0:
20,228,123203,2,0,P|56:184|116:184,1,112,0|8,1:2|0:2,0:0:0:0:
180,184,123732,1,0,3:2:0:0:
180,184,123909,2,0,L|188:240,1,56,8|0,0:2|3:2,0:0:0:0:
200,272,124173,1,0,3:2:0:0:
200,272,124262,2,0,L|260:264,1,56,8|12,0:2|0:3,0:0:0:0:
360,220,124615,102,0,P|360:156|324:132,1,112,2|10,1:2|0:2,0:2:0:0:
252,116,125144,1,0,0:0:0:0:
252,116,125321,2,0,B|196:124|212:168|160:172,1,112,2|8,0:2|0:2,0:0:0:0:
92,140,125850,1,0,3:2:0:0:
92,140,126027,6,0,P|68:84|88:36,1,112,2|10,1:2|0:2,0:2:0:0:
156,20,126556,1,0,0:0:0:0:
156,20,126732,2,0,L|268:32,1,112,2|8,0:2|0:2,0:0:0:0:
312,92,127262,1,0,3:2:0:0:
312,92,127438,102,0,L|424:64,2,112,2|10|0,1:2|0:2|0:0,0:2:0:0:
248,128,128321,1,0,1:2:0:0:
248,128,128497,2,0,L|236:188,1,56,8|0,0:2|3:2,0:0:0:0:
176,220,128850,6,0,L|188:280,1,56,0|0,1:2|0:2,0:2:0:0:
220,340,129203,1,10,0:2:0:0:
220,340,129379,2,0,L|280:348,2,56,0|2|0,0:2|0:2|1:2,0:0:0:0:
148,340,129909,2,0,L|93:354,1,56,10|0,0:2|3:2,0:0:0:0:
36,312,130262,102,0,P|20:260|36:200,1,112,2|10,1:2|0:2,0:2:0:0:
68,140,130791,1,0,0:0:0:0:
68,140,130968,2,0,B|136:132|124:180|172:176,1,112,2|8,0:2|0:2,0:0:0:0:
244,176,131497,1,0,0:2:0:0:
244,176,131674,6,0,L|264:292,1,112,2|8,1:2|0:2,0:2:0:0:
312,340,132203,1,0,0:0:0:0:
312,340,132379,2,0,P|372:340|400:300,1,112,2|8,0:2|0:2,0:0:0:0:
412,228,132909,102,0,L|416:172,1,56,2|2,0:2|1:2,0:0:0:0:
384,108,133262,1,0,0:2:0:0:
384,108,133438,2,0,P|308:92|272:80,1,112,10|0,0:2|0:0,0:0:0:0:
204,64,133968,1,0,1:2:0:0:
204,64,134144,2,0,L|192:128,1,56,8|0,0:2|3:2,0:0:0:0:
136,164,134497,6,0,P|152:216|168:276,1,112,2|0,1:2|0:0,0:0:0:0:
216,328,135027,2,0,B|276:316|276:360|324:352,1,112,2|0,0:0|0:0,0:0:0:0:
376,304,135556,102,0,L|392:192,2,112,0|0|0,0:0|3:0|0:0,0:0:0:0:
476,36,145791,6,0,B|420:32|424:72|368:68,1,112,8|0,1:3|3:2,0:2:0:0:
300,48,146321,2,0,L|284:168,1,112,4|0,1:3|0:2,0:2:0:0:
276,232,146850,1,8,1:2:0:0:
156,340,147203,38,0,P|100:340|60:288,1,125.999996154785,6|8,1:2|0:2,0:2:0:0:
48,208,147732,1,0,3:2:0:0:
48,208,147909,2,0,L|188:168,1,125.999996154785,0|0,3:2|0:2,0:0:0:0:
252,184,148438,1,8,3:2:0:0:
252,184,148527,1,8,3:2:0:0:
252,184,148615,6,0,P|276:240|288:304,1,125.999996154785,2|8,1:2|0:2,0:2:0:0:
360,344,149144,1,0,0:2:0:0:
360,344,149321,2,0,P|396:344|420:328,1,62.9999980773926,0|8,0:2|0:2,0:0:0:0:
452,256,149674,1,2,0:2:0:0:
452,256,149850,1,2,1:2:0:0:
400,192,150027,102,0,B|336:176|348:228|276:212,1,125.999996154785,0|8,1:2|0:2,0:2:0:0:
216,160,150556,1,0,0:2:0:0:
216,160,150732,2,0,L|232:88,2,62.9999980773926,2|8|2,0:2|0:2|0:2,0:0:0:0:
160,220,151262,2,0,L|176:284,1,62.9999980773926,2|0,3:2|1:2,0:0:0:0:
240,332,151615,6,0,B|312:320|296:368|368:352,1,125.999996154785,2|0,3:2|3:2,0:0:0:0:
424,304,152144,1,0,0:0:0:0:
424,304,152321,1,8,0:2:0:0:
396,228,152497,2,0,P|364:208|332:208,1,62.9999980773926,2|0,3:2|0:2,0:0:0:0:
300,224,152762,1,0,0:0:0:0:
300,224,152850,102,0,P|268:244|236:244,1,62.9999980773926,2|0,1:2|3:2,0:0:0:0:
176,200,153203,2,0,L|168:136,1,62.9999980773926,0|0,1:2|3:2,0:0:0:0:
212,68,153556,2,0,L|276:80,1,62.9999980773926,0|0,1:2|3:2,0:0:0:0:
356,80,153909,1,2,1:2:0:0:
356,80,154085,6,0,P|396:132|396:192,1,125.999996154785,2|0,3:2|3:2,0:0:0:0:
360,264,154615,2,0,L|292:280,1,62.9999980773926,0|0,1:2|3:2,0:0:0:0:
248,340,154968,2,0,L|184:324,1,62.9999980773926,0|0,1:2|3:2,0:0:0:0:
132,264,155321,1,2,1:2:0:0:
132,264,155497,1,2,3:2:0:0:
214,186,155674,102,0,L|206:150,7,31.4999990386963,4|0|0|0|4|0|0|0,1:3|1:2|1:2|1:2|1:3|1:2|1:2|1:2,0:0:0:0:
178,126,156379,2,0,L|186:90,7,31.4999990386963,4|0|0|0|0|0|0|0,1:3|1:2|1:2|1:2|1:2|1:2|1:2|1:2,0:0:0:0:
75,38,157262,69,0,0:2:0:0:
24,193,157615,1,0,0:2:0:0:
24,193,157791,2,0,P|24:229|36:253,1,62.9999980773926,10|0,0:3|0:0,0:2:0:0:
100,302,158144,1,0,3:2:0:0:
100,302,158321,1,0,3:2:0:0:
200,248,158497,69,6,1:2:0:0:
200,248,158674,2,0,B|272:236|272:292|332:284,1,140,2|2,3:2|1:2,0:2:0:0:
412,240,159203,2,0,L|420:168,1,70,10|0,0:2|0:2,0:2:0:0:
404,80,159556,1,2,0:2:0:0:
328,28,159732,86,0,L|192:64,1,140,2|2,1:2|1:2,0:2:0:0:
140,136,160262,2,0,L|212:148,1,70,2|2,0:2|1:2,0:0:0:0:
272,212,160615,2,0,L|260:284,1,70,10|0,0:2|0:2,0:2:0:0:
196,348,160968,1,10,1:3:0:0:
104,344,161144,22,0,P|64:344|40:324,1,70,6|0,1:3|1:2,0:0:0:0:
12,240,161497,2,0,L|20:168,1,70,2|0,3:2|0:0,0:2:0:0:
64,92,161850,1,2,0:2:0:0:
152,108,162027,2,0,L|164:176,1,70,10|2,0:2|1:2,0:0:0:0:
244,224,162379,1,2,1:2:0:0:
300,152,162556,86,0,P|340:136|372:136,1,70,2|0,0:2|0:0,0:2:0:0:
452,164,162909,2,0,P|464:192|464:240,1,70,2|0,1:2|0:0,0:2:0:0:
440,320,163262,1,2,1:2:0:0:
352,344,163438,2,0,L|276:328,1,70,10|2,0:2|1:2,0:0:0:0:
196,300,163791,1,2,0:2:0:0:
204,208,163968,22,0,P|236:184|264:184,1,70,2|0,0:2|1:2,0:2:0:0:
352,216,164321,2,0,P|384:240|412:240,1,70,2|0,3:2|0:0,0:2:0:0:
480,176,164674,1,2,1:2:0:0:
476,84,164850,2,0,L|408:72,1,70,10|2,0:2|0:2,0:0:0:0:
316,88,165203,1,2,0:2:0:0:
244,32,165379,86,0,L|176:48,1,70,2|0,0:2|0:2,0:2:0:0:
124,124,165732,2,0,L|192:144,1,70,2|0,1:2|0:0,0:2:0:0:
280,160,166085,1,2,1:2:0:0:
344,228,166262,2,0,P|344:272|336:296,1,70,10|0,0:2|0:2,0:0:0:0:
260,344,166615,2,0,P|220:344|192:324,1,70,2|0,0:2|0:2,0:0:0:0:
144,252,166968,21,2,1:2:0:0:
144,252,167144,1,2,0:2:0:0:
180,168,167321,1,2,1:2:0:0:
180,168,167497,1,2,0:2:0:0:
260,212,167674,1,10,0:2:0:0:
324,148,167850,2,0,L|300:76,1,70,2|0,1:2|0:0,0:2:0:0:
200,28,168203,86,0,B|124:28|152:88|76:88,1,140,6|0,1:2|1:2,0:2:0:0:
32,164,168732,1,8,0:2:0:0:
80,268,168909,2,0,P|141:245|216:228,1,140,6|0,1:2|1:2,0:2:0:0:
304,248,169438,1,8,0:2:0:0:
397,315,169615,1,0,1:2:0:0:
397,315,169703,1,0,1:2:0:0:
397,315,169791,86,0,P|433:335|461:335,1,70,6|0,1:2|3:2,0:2:0:0:
495,250,170144,2,0,P|495:210|479:182,1,70,10|0,0:2|3:2,0:2:0:0:
403,136,170497,1,2,1:2:0:0:
332,192,170674,2,0,L|264:180,1,70,2|8,3:2|0:2,0:0:0:0:
172,180,171027,6,0,P|164:212|156:248,1,70,2|0,3:2|1:2,0:2:0:0:
80,300,171380,2,0,P|72:265|63:231,1,70,2|8,3:2|0:2,0:0:0:0:
60,140,171732,2,0,P|92:124|128:132,1,70,2|0,3:2|1:2,0:2:0:0:
200,180,172085,2,0,P|232:196|268:188,1,70,2|8,3:2|0:2,0:0:0:0:
320,116,172438,102,0,B|396:104|372:172|448:156,1,140,2|0,3:2|3:2,0:0:0:0:
476,244,172968,1,8,0:2:0:0:
476,244,173144,1,0,3:2:0:0:
444,332,173321,2,0,L|372:344,1,70,2|2,1:2|3:2,0:0:0:0:
284,332,173674,1,10,0:2:0:0:
204,292,173850,6,0,P|248:241|316:245,1,140,2|0,3:2|3:2,0:0:0:0:
396,200,174380,2,0,L|380:132,1,70,8|0,0:2|3:2,0:2:0:0:
312,72,174732,2,0,L|300:140,1,70,2|2,1:2|3:2,0:0:0:0:
284,232,175085,1,10,0:2:0:0:
284,232,175262,1,2,3:2:0:0:
200,196,175438,102,0,P|168:176|136:176,1,70,0|0,1:2|3:2,0:2:0:0:
60,224,175791,2,0,P|52:264|60:292,1,70,8|0,0:2|3:2,0:2:0:0:
132,348,176144,2,0,L|200:332,1,70,2|2,1:2|3:2,0:0:0:0:
292,324,176497,1,10,0:2:0:0:
292,324,176674,1,2,3:2:0:0:
380,340,176850,6,0,P|400:304|400:276,1,70,0|0,1:2|3:2,0:2:0:0:
372,188,177203,2,0,P|340:164|312:164,1,70,8|0,0:2|3:2,0:2:0:0:
236,216,177556,1,2,1:2:0:0:
236,216,177732,1,2,3:2:0:0:
184,140,177909,1,10,0:2:0:0:
132,216,178085,102,0,L|116:284,1,70,2|0,3:2|1:2,0:2:0:0:
56,352,178438,1,2,3:2:0:0:
20,268,178615,2,0,L|8:196,1,70,10|0,0:2|3:2,0:2:0:0:
32,112,178968,2,0,L|104:96,1,70,0|0,1:2|3:2,0:0:0:0:
172,152,179321,1,8,0:2:0:0:
172,152,179497,1,2,3:2:0:0:
260,56,179674,5,14,1:3:0:0:
260,56,179762,1,0,1:3:0:0:
260,56,179850,2,0,P|292:36|328:36,1,70,0|14,1:3|1:3,0:0:0:0:
420,96,180203,2,0,L|440:236,1,140,6|2,1:2|1:2,0:0:0:0:
440,324,180732,1,14,0:2:0:0:
330,292,180909,1,2,1:2:0:0:
330,292,180997,1,0,1:2:0:0:
330,292,181085,38,0,B|266:284|278:340|202:332,1,140,6|8,1:2|0:2,0:2:0:0:
132,271,181615,1,8,0:3:0:0:
132,271,181791,2,0,L|116:131,1,140,2|8,1:2|0:2,0:2:0:0:
87,44,182321,1,4,0:3:0:0:
87,44,182497,6,0,P|49:49|15:60,1,70,2|2,1:2|0:2,0:0:0:0:
11,149,182850,1,10,0:2:0:0:
11,149,183027,2,0,P|15:185|23:217,1,70,2|0,0:2|1:2,0:2:0:0:
84,288,183380,1,2,0:2:0:0:
84,288,183556,2,0,P|120:284|152:276,1,70,10|0,0:2|0:2,0:2:0:0:
238,245,183909,102,0,B|314:233|302:293|370:285,1,140,2|8,1:2|0:2,0:2:0:0:
435,225,184438,1,8,0:3:0:0:
435,225,184615,2,0,P|463:165|429:104,1,140,2|8,1:2|0:2,0:2:0:0:
347,66,185144,1,4,0:3:0:0:
347,66,185321,6,0,L|335:138,1,70,2|2,1:2|0:2,0:0:0:0:
250,168,185674,1,10,0:2:0:0:
250,168,185850,2,0,L|238:100,1,70,2|0,0:2|1:2,0:2:0:0:
168,39,186203,1,2,0:2:0:0:
168,39,186380,2,0,P|88:39|60:87,1,140,10|0,0:2|1:2,0:2:0:0:
56,172,186909,101,2,0:2:0:0:
56,172,187085,2,0,L|124:200,1,70,10|2,0:2|0:2,0:0:0:0:
176,272,187438,2,0,L|248:256,1,70,2|2,1:2|0:2,0:0:0:0:
332,228,187791,1,8,0:2:0:0:
332,228,187968,6,0,P|343:149|356:84,1,140,2|2,0:2|0:2,0:2:0:0:
416,24,188497,2,0,L|488:36,1,70,10|2,0:2|0:2,0:0:0:0:
500,124,188850,2,0,L|488:192,1,70,2|2,1:2|0:2,0:0:0:0:
460,280,189203,1,10,0:2:0:0:
460,280,189380,102,0,P|425:276|398:255,1,70,2|0,0:2|1:2,0:2:0:0:
340,188,189732,2,0,P|304:188|276:208,1,70,2|8,0:2|0:2,0:0:0:0:
227,283,190085,2,0,L|215:351,1,70,2|0,0:2|1:2,0:2:0:0:
124,363,190438,2,0,L|52:352,1,70,2|8,0:2|0:2,0:0:0:0:
12,271,190791,1,2,0:2:0:0:
53,166,190968,6,0,L|121:148,1,70,4|2,1:2|0:2,0:0:0:0:
205,114,191321,70,0,L|199:65,2,46.6666666666667,2|2|2,3:2|0:2|0:2,0:0:0:0:
276,170,191674,2,0,L|271:217,2,46.6666666666667,2|2|2,3:2|0:2|0:2,0:0:0:0:
345,110,192027,2,0,L|340:63,2,46.6666666666667,14|2|2,3:2|0:2|0:2,0:0:0:0:
436,178,192380,22,0,P|460:242|432:306,1,140,6|8,1:2|0:2,0:2:0:0:
341,303,192909,1,8,0:3:0:0:
341,303,193085,2,0,B|265:291|277:347|209:339,1,140,2|8,1:2|0:2,0:2:0:0:
139,281,193615,1,4,0:3:0:0:
139,281,193791,6,0,L|131:350,1,70,2|2,1:2|0:2,0:0:0:0:
40,358,194144,1,10,0:2:0:0:
40,358,194321,2,0,L|32:288,1,70,2|0,0:2|1:2,0:2:0:0:
21,197,194674,1,2,0:2:0:0:
21,197,194850,2,0,L|89:185,1,70,10|0,0:2|0:2,0:2:0:0:
183,249,195203,102,0,P|239:281|303:245,1,140,6|8,1:2|0:2,0:2:0:0:
335,142,195732,1,4,1:2:0:0:
335,142,195909,2,0,P|395:109|453:142,1,140,2|8,0:2|0:2,0:2:0:0:
486,225,196438,1,0,0:2:0:0:
421,317,196615,5,6,1:2:0:0:
421,317,196791,2,0,L|428:351,2,35,6|4|10,1:3|1:3|0:2,0:0:0:0:
338,240,197144,2,0,L|320:316,1,70,6|0,1:2|0:2,0:2:0:0:
238,344,197497,2,0,L|228:273,1,70,10|12,1:3|0:2,0:0:0:0:
209,185,197850,1,2,0:2:0:0:
317,153,198027,102,0,L|388:139,1,70,4|2,1:2|0:2,0:0:0:0:
369,49,198380,2,0,P|339:29|305:29,1,70,10|2,0:2|0:2,0:0:0:0:
228,76,198732,2,0,P|192:76|164:56,1,70,2|2,1:2|0:2,0:0:0:0:
73,53,199085,1,8,0:2:0:0:
73,53,199262,6,0,P|33:109|45:177,1,140,2|2,0:2|0:2,0:2:0:0:
91,253,199791,2,0,L|159:277,1,70,10|2,0:2|0:2,0:0:0:0:
199,195,200144,2,0,L|271:179,1,70,2|2,1:2|0:2,0:0:0:0:
332,232,200497,1,10,0:2:0:0:
332,232,200674,102,0,L|344:304,1,70,2|0,0:2|1:2,0:2:0:0:
428,336,201027,2,0,L|440:264,1,70,2|8,0:2|0:2,0:0:0:0:
480,184,201379,2,0,L|460:112,1,70,2|0,0:2|1:2,0:2:0:0:
392,56,201732,1,2,0:2:0:0:
392,56,201909,1,10,0:2:0:0:
305,28,202085,6,0,B|233:32|261:88|185:92,1,140,2|0,0:2|0:0,0:0:0:0:
95,79,202615,1,8,0:2:0:0:
95,79,202791,1,2,0:2:0:0:
35,148,202968,2,0,L|55:216,1,70,2|2,1:2|0:0,0:0:0:0:
119,280,203321,2,0,L|139:212,1,70,10|0,0:2|0:0,0:0:0:0:
191,114,203674,102,0,B|371:82|287:254|495:210,1,336,6|0,1:2|0:0,0:0:0:0:
