osu file format v14

[General]
AudioFilename: audio.mp3
AudioLeadIn: 0
PreviewTime: 41333
Countdown: 0
SampleSet: Soft
StackLeniency: 0.7
Mode: 3
LetterboxInBreaks: 0
SpecialStyle: 0
WidescreenStoryboard: 1

[Editor]
Bookmarks: 5919,13138,27574,42010,56446,70882,78100
DistanceSpacing: 1.1
BeatDivisor: 4
GridSize: 16
TimelineZoom: 0.8999999

[Metadata]
Title:Magical World (Short Ver.)
TitleUnicode:Magical World (Short Ver.)
Artist:Seina
ArtistUnicode:Seina
Creator:Irone OSU
Version:ilv_Rem's Easy
Source:Arrowmancer
Tags:ilv_Rem Japanese Jpop J-pop pop Video Game Music VGM Electronic Kirara Magic Shion Lee リーシオン 李紫音 VirtualGOD LeeShionVG vtuber virtual youtuber Seina_Aikawa Arrowmancer OST Vol.1 Witches in Space WaifuLabs SizigiStudios Mobile Game Black Cat Colored Pencil Animation Japan GIKUTAS Ruwl beebo
BeatmapID:3862115
BeatmapSetID:1762751

[Difficulty]
HPDrainRate:6.5
CircleSize:7
OverallDifficulty:6.5
ApproachRate:2
SliderMultiplier:1.4
SliderTickRate:1

[Events]
//Background and Video events
0,0,"arrowmancer x2.png",0,0
Video,0,"video.mp4"
//Break Periods
//Storyboard Layer 0 (Background)
//Storyboard Layer 1 (Fail)
//Storyboard Layer 2 (Pass)
//Storyboard Layer 3 (Foreground)
//Storyboard Layer 4 (Overlay)
//Storyboard Sound Samples
Sample,13589,0,"clap04.wav",60
Sample,14491,0,"clap04.wav",60
Sample,15393,0,"clap04.wav",60
Sample,16295,0,"clap04.wav",60
Sample,17198,0,"clap04.wav",60
Sample,18100,0,"clap04.wav",60
Sample,19002,0,"clap04.wav",60
Sample,19904,0,"clap04.wav",60
Sample,20807,0,"clap04.wav",60
Sample,21709,0,"clap04.wav",60
Sample,22611,0,"clap04.wav",60
Sample,23513,0,"clap04.wav",60
Sample,24416,0,"clap04.wav",60
Sample,25318,0,"clap04.wav",60
Sample,72235,0,"clap04.wav",60
Sample,74040,0,"clap04.wav",60
Sample,75844,0,"clap04.wav",60

[TimingPoints]
5920,451.127819548872,4,2,1,60,1,0
42010,-100,4,2,1,60,0,1
54641,-100,4,2,1,60,0,0
56446,-100,4,2,1,60,0,1
70882,-100,4,2,1,60,0,0

[HitObjects]
36,192,5017,5,0,0:0:0:0:
475,192,5468,1,0,0:0:0:0:
36,192,5919,1,2,0:0:0:0:
256,192,5919,1,0,0:0:0:0:
329,192,6145,1,0,0:0:0:0:
402,192,6371,1,10,0:0:0:0:
109,192,6822,1,2,0:0:0:0:
182,192,7160,1,0,0:0:0:0:
329,192,7498,1,0,0:0:0:0:
36,192,7724,1,2,0:0:0:0:
256,192,7724,1,0,0:0:0:0:
182,192,8175,1,10,0:0:0:0:
475,192,8401,1,0,0:0:0:0:
475,192,8626,1,2,0:0:0:0:
109,192,9077,1,10,0:0:0:0:
329,192,9529,1,2,0:0:0:0:
475,192,9529,1,0,0:0:0:0:
256,192,9754,1,0,0:0:0:0:
182,192,9980,1,10,0:0:0:0:
402,192,10431,1,2,0:0:0:0:
256,192,10769,1,0,0:0:0:0:
109,192,11107,1,0,0:0:0:0:
329,192,11333,1,2,0:0:0:0:
36,192,11784,1,2,0:0:0:0:
36,192,12235,1,2,0:0:0:0:
36,192,12686,1,2,0:0:0:0:
36,192,13138,1,2,0:0:0:0:
402,192,13363,1,0,0:0:0:0:
256,192,13589,1,2,0:0:0:0:
475,192,13814,1,0,0:0:0:0:
36,192,14040,1,2,0:0:0:0:
329,192,14491,1,2,0:0:0:0:
182,192,14716,1,0,0:0:0:0:
36,192,14942,1,2,0:0:0:0:
256,192,15168,1,0,0:0:0:0:
475,192,15393,1,2,0:0:0:0:
329,192,15619,1,0,0:0:0:0:
182,192,16070,1,0,0:0:0:0:
256,192,16295,1,2,0:0:0:0:
36,192,16747,1,2,0:0:0:0:
329,192,16972,1,0,0:0:0:0:
402,192,17198,1,2,0:0:0:0:
182,192,17423,1,0,0:0:0:0:
475,192,17649,1,2,0:0:0:0:
256,192,18100,1,2,0:0:0:0:
109,192,18326,1,0,0:0:0:0:
475,192,18551,1,2,0:0:0:0:
329,192,18777,1,0,0:0:0:0:
182,192,19002,1,2,0:0:0:0:
36,192,19228,1,0,0:0:0:0:
402,192,19679,1,0,0:0:0:0:
182,192,19904,1,2,0:0:0:0:
475,192,20356,1,2,0:0:0:0:
109,192,20581,1,0,0:0:0:0:
182,192,20807,1,2,0:0:0:0:
402,192,21032,1,0,0:0:0:0:
36,192,21258,1,2,0:0:0:0:
256,192,21709,1,2,0:0:0:0:
329,192,21935,1,0,0:0:0:0:
475,192,22160,1,2,0:0:0:0:
109,192,22386,1,0,0:0:0:0:
182,192,22611,1,2,0:0:0:0:
329,192,22837,1,0,0:0:0:0:
182,192,23288,1,0,0:0:0:0:
402,192,23513,1,2,0:0:0:0:
36,192,23739,1,0,0:0:0:0:
109,192,24190,1,0,0:0:0:0:
182,192,24416,1,2,0:0:0:0:
402,192,24641,128,0,25092:0:0:0:0:
256,192,25092,1,0,0:0:0:0:
182,192,25318,1,2,0:0:0:0:
36,192,25544,1,0,0:0:0:0:
329,192,25995,128,0,26671:0:0:0:0:
36,192,26897,1,0,0:0:0:0:
109,192,27123,1,0,0:0:0:0:
182,192,27348,1,0,0:0:0:0:
256,192,27574,1,2,0:0:0:0:
475,192,27574,128,4,28250:0:0:0:0:
182,192,28701,1,0,0:0:0:0:
329,192,28927,1,0,0:0:0:0:
402,192,29153,1,0,0:0:0:0:
36,192,29378,128,0,30055:0:0:0:0:
256,192,30506,1,0,0:0:0:0:
182,192,30732,1,0,0:0:0:0:
109,192,30957,1,0,0:0:0:0:
475,192,31183,128,0,31634:0:0:0:0:
36,192,31634,1,0,0:0:0:0:
109,192,31859,1,0,0:0:0:0:
329,192,32310,1,0,0:0:0:0:
329,192,32536,1,0,0:0:0:0:
256,192,32762,128,0,33664:0:0:0:0:
329,192,34115,1,0,0:0:0:0:
402,192,34341,1,0,0:0:0:0:
475,192,34566,128,0,35468:0:0:0:0:
329,192,35919,1,0,0:0:0:0:
182,192,36145,1,0,0:0:0:0:
36,192,36371,1,0,0:0:0:0:
256,192,36596,128,0,37273:0:0:0:0:
329,192,37273,128,0,37724:0:0:0:0:
329,192,38175,1,0,0:0:0:0:
36,192,38401,1,0,0:0:0:0:
182,192,38852,1,0,0:0:0:0:
182,192,39077,1,0,0:0:0:0:
475,192,39980,1,0,0:0:0:0:
256,192,40205,1,0,0:0:0:0:
329,192,41107,1,0,0:0:0:0:
182,192,41333,1,0,0:0:0:0:
402,192,41559,1,0,0:0:0:0:
329,192,41784,1,0,0:0:0:0:
36,192,42010,128,2,42461:0:0:0:0:
256,192,42010,1,4,0:0:0:0:
475,192,42461,128,10,42912:0:0:0:0:
109,192,42912,128,2,43363:0:0:0:0:
475,192,43363,1,10,0:0:0:0:
329,192,43589,1,0,0:0:0:0:
36,192,43814,1,2,0:0:0:0:
182,192,44040,1,0,0:0:0:0:
402,192,44265,1,10,0:0:0:0:
256,192,44491,1,0,0:0:0:0:
109,192,44942,1,0,0:0:0:0:
256,192,45168,1,10,0:0:0:0:
402,192,45393,1,0,0:0:0:0:
36,192,45619,128,2,46070:0:0:0:0:
329,192,46070,128,10,46521:0:0:0:0:
109,192,46521,128,2,46972:0:0:0:0:
402,192,46972,1,10,0:0:0:0:
475,192,47198,1,0,0:0:0:0:
256,192,47423,128,2,47874:0:0:0:0:
182,192,47874,128,10,48326:0:0:0:0:
109,192,48326,128,2,48777:0:0:0:0:
329,192,48777,1,10,0:0:0:0:
402,192,49002,1,0,0:0:0:0:
256,192,49228,128,2,49679:0:0:0:0:
36,192,49679,128,10,50130:0:0:0:0:
329,192,50130,1,2,0:0:0:0:
182,192,50581,1,10,0:0:0:0:
109,192,50807,1,0,0:0:0:0:
402,192,51032,1,2,0:0:0:0:
36,192,51258,1,0,0:0:0:0:
256,192,51483,1,10,0:0:0:0:
475,192,51709,1,0,0:0:0:0:
475,192,52160,1,0,0:0:0:0:
329,192,52386,1,10,0:0:0:0:
182,192,52611,1,0,0:0:0:0:
36,192,52837,128,2,53288:0:0:0:0:
329,192,53513,1,0,0:0:0:0:
182,192,53739,128,2,54190:0:0:0:0:
402,192,54416,1,0,0:0:0:0:
256,192,54641,128,0,55318:0:0:0:0:
402,192,55769,1,0,0:0:0:0:
256,192,55995,1,0,0:0:0:0:
109,192,56220,1,0,0:0:0:0:
36,192,56446,128,2,56897:0:0:0:0:
475,192,56446,1,0,0:0:0:0:
182,192,56897,1,10,0:0:0:0:
402,192,57123,1,0,0:0:0:0:
402,192,57348,128,2,57799:0:0:0:0:
256,192,57799,1,10,0:0:0:0:
182,192,58025,1,0,0:0:0:0:
109,192,58250,128,2,58701:0:0:0:0:
329,192,58927,1,0,0:0:0:0:
329,192,59153,1,2,0:0:0:0:
36,192,59378,1,0,0:0:0:0:
109,192,59604,1,10,0:0:0:0:
182,192,59829,1,0,0:0:0:0:
475,192,60055,128,2,60506:0:0:0:0:
36,192,60506,1,10,0:0:0:0:
256,192,60732,1,0,0:0:0:0:
256,192,60957,128,2,61408:0:0:0:0:
402,192,61634,1,0,0:0:0:0:
329,192,61859,1,2,0:0:0:0:
182,192,62085,1,0,0:0:0:0:
36,192,62310,1,10,0:0:0:0:
182,192,62536,1,0,0:0:0:0:
329,192,62762,128,2,63213:0:0:0:0:
109,192,63213,1,10,0:0:0:0:
256,192,63438,1,0,0:0:0:0:
402,192,63664,128,2,64115:0:0:0:0:
329,192,64115,1,10,0:0:0:0:
182,192,64341,1,0,0:0:0:0:
109,192,64566,128,2,65017:0:0:0:0:
329,192,65243,1,0,0:0:0:0:
475,192,65468,1,2,0:0:0:0:
36,192,65694,1,0,0:0:0:0:
402,192,65919,1,10,0:0:0:0:
109,192,66145,1,0,0:0:0:0:
329,192,66371,128,2,66822:0:0:0:0:
475,192,66822,1,10,0:0:0:0:
182,192,67047,1,0,0:0:0:0:
36,192,67273,128,2,67724:0:0:0:0:
256,192,67724,128,10,68175:0:0:0:0:
475,192,68175,1,2,0:0:0:0:
402,192,68401,1,0,0:0:0:0:
36,192,68626,1,10,0:0:0:0:
109,192,68852,1,0,0:0:0:0:
182,192,69077,1,2,0:0:0:0:
182,192,69529,1,2,0:0:0:0:
475,192,69980,1,0,0:0:0:0:
475,192,70431,1,0,0:0:0:0:
256,192,70656,1,8,0:0:0:0:
36,192,70882,1,2,0:0:0:0:
182,192,71220,1,0,0:0:0:0:
329,192,71559,1,0,0:0:0:0:
109,192,71784,1,2,0:0:0:0:
182,192,72010,1,0,0:0:0:0:
256,192,72235,1,2,0:0:0:0:
475,192,72686,1,2,0:0:0:0:
256,192,73025,1,0,0:0:0:0:
36,192,73363,1,0,0:0:0:0:
329,192,73589,1,2,0:0:0:0:
402,192,73814,1,0,0:0:0:0:
475,192,74040,1,2,0:0:0:0:
182,192,74491,1,2,0:0:0:0:
109,192,74829,1,0,0:0:0:0:
36,192,75168,1,0,0:0:0:0:
402,192,75393,1,2,0:0:0:0:
256,192,75619,1,0,0:0:0:0:
109,192,75844,1,2,0:0:0:0:
475,192,76295,1,0,0:0:0:0:
402,192,76634,1,0,0:0:0:0:
36,192,76972,1,0,0:0:0:0:
329,192,77198,1,0,0:0:0:0:
402,192,77423,1,0,0:0:0:0:
329,192,77649,1,0,0:0:0:0:
256,192,77874,1,0,0:0:0:0:
