osu file format v14

[General]
AudioFilename: audio.mp3
AudioLeadIn: 0
PreviewTime: 6129
Countdown: 0
SampleSet: Soft
StackLeniency: 0.7
Mode: 3
LetterboxInBreaks: 0
SpecialStyle: 0
WidescreenStoryboard: 1

[Editor]
DistanceSpacing: 1.8
BeatDivisor: 4
GridSize: 32
TimelineZoom: 0.9999999

[Metadata]
Title:Yuki no Hana
TitleUnicode:雪の華
Artist:Seifuu Meigetsu
ArtistUnicode:清風明月
Creator:Ihram-San
Version:7K Snow Memories
Source:
Tags:Dragon and Flame Story Seifuumeigetsu j-pop jpop 葉月ゆら Hatsuki Yura Drop Ryuu to Honou Honoo no Monogatari 竜と炎の物語 C85 Comiket 85 Japanese Piano Pop novelty Snow Flowers FerdiXIA- Nezu-
BeatmapID:3939688
BeatmapSetID:1660169

[Difficulty]
HPDrainRate:8
CircleSize:7
OverallDifficulty:8
ApproachRate:5
SliderMultiplier:1.4
SliderTickRate:1

[Events]
//Background and Video events
0,0,"Snow.jpg",0,0
//Break Periods
//Storyboard Layer 0 (Background)
//Storyboard Layer 1 (Fail)
//Storyboard Layer 2 (Pass)
//Storyboard Layer 3 (Foreground)
//Storyboard Layer 4 (Overlay)
//Storyboard Sound Samples
Sample,1481,0,"F#5S_Gb5S_s.wav",70
Sample,6552,0,"E6S_s.wav",70
Sample,7819,0,"E6S_s.wav",70
Sample,7819,0,"G5S_s.wav",70
Sample,9087,0,"E6S_s.wav",70
Sample,12044,0,"G5S_s.wav",70
Sample,12890,0,"G4S_s.wav",70
Sample,14157,0,"E5S_s.wav",70
Sample,16692,0,"E6S_s.wav",70
Sample,16904,0,"A3S_s.wav",70
Sample,17115,0,"E4S_s.wav",70
Sample,17749,0,"E5S_s.wav",70
Sample,17960,0,"G5S_s.wav",70
Sample,17960,0,"G6S_s.wav",70
Sample,18171,0,"F#6S_Gb6S_s.wav",70
Sample,18383,0,"E6S_s.wav",70
Sample,19228,0,"G5S_s.wav",70
Sample,19228,0,"G6S_s.wav",70
Sample,19861,0,"F#6S_Gb6S_s.wav",70
Sample,20073,0,"E6S_s.wav",70
Sample,20284,0,"G5S_s.wav",70
Sample,20495,0,"G5S_s.wav",70
Sample,26199,0,"E6S_s.wav",70
Sample,27678,0,"C7S_s.wav",70
Sample,27890,0,"E5S_s.wav",70
Sample,29368,0,"F#5S_Gb5S_s.wav",70
Sample,29368,0,"F#6S_Gb6S_s.wav",70
Sample,30214,0,"D7S_s.wav",70
Sample,30425,0,"F#5S_Gb5S_s.wav",70
Sample,31904,0,"D6S_s.wav",70
Sample,31904,0,"G3S_s.wav",70
Sample,32749,0,"G7S_s.wav",70
Sample,32960,0,"G7S_s.wav",70
Sample,34439,0,"E6S_s.wav",70
Sample,34439,0,"G5S_s.wav",70
Sample,34439,0,"G6S_s.wav",70
Sample,35284,0,"G7S_s.wav",70
Sample,35495,0,"G7S_s.wav",70
Sample,37608,0,"A5S_s.wav",70
Sample,37819,0,"F6S_s.wav",70
Sample,38664,0,"C6S_s.wav",70
Sample,38664,0,"C7S_s.wav",70
Sample,39932,0,"A#4S_Bb4S_s.wav",70
Sample,40143,0,"F6S_s.wav",70
Sample,40354,0,"D6S_s.wav",70
Sample,40988,0,"F6S_s.wav",70
Sample,41199,0,"F6S_s.wav",70
Sample,41833,0,"F5S_s.wav",70
Sample,42044,0,"G6S_s.wav",70
Sample,42890,0,"C6S_s.wav",70
Sample,43312,0,"G5S_s.wav",70
Sample,44580,0,"F6S_s.wav",70
Sample,49650,0,"E6S_s.wav",70
Sample,50918,0,"E6S_s.wav",70
Sample,50918,0,"G5S_s.wav",70
Sample,50918,0,"G6S_s.wav",70
Sample,52185,0,"G6S_s.wav",70
Sample,52185,0,"C6S_s.wav",70
Sample,52185,0,"E6S_s.wav",70
Sample,53453,0,"G4S_s.wav",70
Sample,55988,0,"G4S_s.wav",70
Sample,57256,0,"C#5S_Db5S_s.wav",70
Sample,57256,0,"E5S_s.wav",70
Sample,59791,0,"E6S_s.wav",70
Sample,60002,0,"A3S_s.wav",70
Sample,60214,0,"E4S_s.wav",70
Sample,60847,0,"E5S_s.wav",70
Sample,61059,0,"G5S_s.wav",70
Sample,61059,0,"G6S_s.wav",70
Sample,61270,0,"F#6S_Gb6S_s.wav",70
Sample,61481,0,"E6S_s.wav",70
Sample,62326,0,"G5S_s.wav",70
Sample,62326,0,"G6S_s.wav",70
Sample,62960,0,"F#6S_Gb6S_s.wav",70
Sample,63171,0,"E6S_s.wav",70
Sample,63383,0,"G5S_s.wav",70
Sample,63594,0,"G5S_s.wav",70
Sample,64756,0,"F6S_s.wav",70
Sample,64809,0,"A6S_s.wav",70
Sample,66023,0,"D6S_s.wav",70
Sample,66076,0,"A6S_s.wav",70
Sample,66129,0,"G4S_s.wav",70
Sample,67397,0,"E7S_s.wav",70
Sample,72467,0,"E7S_s.wav",70
Sample,77537,0,"E7S_s.wav",70
Sample,78805,0,"F6S_s.wav",70
Sample,80073,0,"G#5S_Ab5S_s.wav",70
Sample,80073,0,"E5S_s.wav",70
Sample,80073,0,"E6S_s.wav",70
Sample,82608,0,"E4S_s.wav",70
Sample,82608,0,"G6S_s.wav",70

[TimingPoints]
214,422.535211267606,3,2,1,30,1,0

[HitObjects]
36,192,214,5,0,0:0:0:70:A5S_s.wav
402,192,214,1,0,0:0:0:70:C7S_s.wav
475,192,214,128,0,1059:0:0:0:0:
109,192,425,1,0,0:0:0:70:E6S_s.wav
182,192,636,1,0,0:0:0:70:A6S_s.wav
256,192,847,1,0,0:0:0:70:C7S_s.wav
36,192,1059,128,0,1481:0:0:0:70:B6S_s.wav
109,192,1059,1,0,0:0:0:70:G5S_s.wav
402,192,1059,1,0,0:0:0:0:
329,192,1270,1,0,0:0:0:70:G6S_s.wav
182,192,1481,1,0,0:0:0:70:A6S_s.wav
256,192,1481,128,0,2537:0:0:0:70:D5S_s.wav
475,192,1481,1,0,0:0:0:70:D6S_s.wav
329,192,2537,1,0,0:0:0:70:D7S_s.wav
402,192,2643,1,0,0:0:0:70:E7S_s.wav
36,192,2749,128,0,3594:0:0:0:70:D6S_s.wav
109,192,2749,1,0,0:0:0:70:F7S_s.wav
475,192,2749,1,0,0:0:0:0:
402,192,2960,1,0,0:0:0:70:A6S_s.wav
329,192,3171,1,0,0:0:0:70:D7S_s.wav
256,192,3383,1,0,0:0:0:70:F7S_s.wav
109,192,3594,1,0,0:0:0:70:C6S_s.wav
402,192,3594,1,0,0:0:0:70:E7S_s.wav
475,192,3594,128,0,4016:0:0:0:0:
182,192,3805,1,0,0:0:0:70:C7S_s.wav
36,192,4016,1,0,0:0:0:70:D7S_s.wav
256,192,4016,128,0,5284:0:0:0:70:G5S_s.wav
329,192,4016,1,0,0:0:0:0:
475,192,5115,1,0,0:0:0:70:C8S_s.wav
402,192,5199,1,0,0:0:0:70:D8S_s.wav
182,192,5284,1,0,0:0:0:70:G8S_s.wav
329,192,5284,1,0,0:0:0:0:
402,192,6129,128,0,6552:0:0:0:0:
36,192,6552,128,0,7185:0:0:0:70:A4S_s.wav
256,192,6552,1,0,0:0:0:70:A6S_s.wav
475,192,6552,1,0,0:0:0:70:C6S_s.wav
329,192,6974,1,0,0:0:0:70:E5S_s.wav
109,192,7185,128,0,7397:0:0:0:0:
182,192,7397,1,0,0:0:0:70:A5S_s.wav
475,192,7397,128,0,7819:0:0:0:0:
36,192,7819,1,0,0:0:0:70:B5S_s.wav
329,192,7819,1,0,0:0:0:70:E4S_s.wav
402,192,7819,128,0,8453:0:0:0:70:E5S_s.wav
109,192,8030,1,0,0:0:0:70:F#5S_Gb5S_s.wav
182,192,8242,1,0,0:0:0:70:G5S_s.wav
256,192,8453,1,0,0:0:0:70:E5S_s.wav
182,192,8664,128,0,8875:0:0:0:70:B4S_s.wav
329,192,8664,1,0,0:0:0:0:
109,192,8875,128,0,9087:0:0:0:0:
36,192,9087,128,0,9721:0:0:0:70:C4S_s.wav
475,192,9087,1,0,0:0:0:70:C5S_s.wav
256,192,9087,1,0,0:0:0:0:
329,192,9509,1,0,0:0:0:70:G4S_s.wav
475,192,9721,128,0,9932:0:0:0:0:
402,192,9932,128,0,10354:0:0:0:70:E5S_s.wav
182,192,10354,1,0,0:0:0:70:B5S_s.wav
256,192,10354,1,0,0:0:0:70:D6S_s.wav
329,192,10354,128,0,10988:0:0:0:70:G4S_s.wav
109,192,10566,1,0,0:0:0:70:D5S_s.wav
36,192,10777,1,0,0:0:0:70:G5S_s.wav
475,192,10988,1,0,0:0:0:70:A5S_s.wav
256,192,11199,128,0,11622:0:0:0:70:B5S_s.wav
402,192,11199,1,0,0:0:0:70:D6S_s.wav
109,192,11622,128,0,12256:0:0:0:70:D6S_s.wav
182,192,11622,1,0,0:0:0:70:F4S_s.wav
475,192,11622,1,0,0:0:0:70:F5S_s.wav
402,192,11833,1,0,0:0:0:70:C5S_s.wav
329,192,12044,1,0,0:0:0:70:C6S_s.wav
36,192,12256,128,0,12467:0:0:0:70:A5S_s.wav
256,192,12256,1,0,0:0:0:0:
182,192,12467,1,0,0:0:0:70:F5S_s.wav
402,192,12467,128,0,12890:0:0:0:0:
256,192,12678,1,0,0:0:0:70:C5S_s.wav
109,192,12890,1,0,0:0:0:70:A5S_s.wav
329,192,12890,1,0,0:0:0:70:B4S_s.wav
475,192,12890,128,0,13523:0:0:0:70:D5S_s.wav
36,192,13312,1,0,0:0:0:70:G6S_s.wav
256,192,13312,1,0,0:0:0:70:G5S_s.wav
182,192,13523,128,0,13735:0:0:0:0:
329,192,13735,128,0,14157:0:0:0:0:
36,192,14157,1,0,0:0:0:70:A3S_s.wav
256,192,14157,128,0,15425:0:0:0:70:A5S_s.wav
475,192,14157,1,0,0:0:0:70:C#5S_Db5S_s.wav
109,192,14157,1,0,0:0:0:70:E5S_s.wav
402,192,14368,1,0,0:0:0:70:E4S_s.wav
329,192,14580,1,0,0:0:0:70:A4S_s.wav
182,192,14791,1,0,0:0:0:70:B4S_s.wav
109,192,15002,1,0,0:0:0:70:C#5S_Db5S_s.wav
36,192,15214,1,0,0:0:0:70:E5S_s.wav
182,192,15425,1,0,0:0:0:70:A5S_s.wav
475,192,15425,128,0,16270:0:0:0:0:
256,192,15636,1,0,0:0:0:70:E5S_s.wav
329,192,15847,1,0,0:0:0:70:C#5S_Db5S_s.wav
402,192,16059,1,0,0:0:0:70:B4S_s.wav
182,192,16270,1,0,0:0:0:70:A4S_s.wav
36,192,16692,1,0,0:0:0:70:C6S_s.wav
109,192,16692,128,0,17326:0:0:0:70:C7S_s.wav
475,192,16692,1,0,0:0:0:70:E5S_s.wav
402,192,16904,1,0,0:0:0:70:A6S_s.wav
329,192,17115,1,0,0:0:0:70:A6S_s.wav
182,192,17326,128,0,17537:0:0:0:70:A4S_s.wav
256,192,17326,1,0,0:0:0:70:E6S_s.wav
36,192,17537,1,0,0:0:0:70:E5S_s.wav
402,192,17537,128,0,17960:0:0:0:70:E6S_s.wav
475,192,17749,1,0,0:0:0:70:C6S_s.wav
109,192,17960,1,0,0:0:0:70:B5S_s.wav
329,192,17960,128,0,18594:0:0:0:70:E4S_s.wav
182,192,18171,1,0,0:0:0:70:B4S_s.wav
256,192,18383,1,0,0:0:0:70:E5S_s.wav
402,192,18594,1,0,0:0:0:70:B5S_s.wav
36,192,18805,128,0,19016:0:0:0:70:G5S_s.wav
475,192,18805,1,0,0:0:0:0:
109,192,19016,128,0,19228:0:0:0:70:E5S_s.wav
329,192,19016,1,0,0:0:0:0:
36,192,19228,1,0,0:0:0:70:C4S_s.wav
182,192,19228,128,0,19861:0:0:0:70:C5S_s.wav
475,192,19228,1,0,0:0:0:70:E6S_s.wav
402,192,19439,1,0,0:0:0:70:G4S_s.wav
329,192,19650,1,0,0:0:0:70:C5S_s.wav
109,192,19861,1,0,0:0:0:70:C6S_s.wav
256,192,19861,128,0,20073:0:0:0:70:D5S_s.wav
36,192,20073,1,0,0:0:0:70:C6S_s.wav
475,192,20073,128,0,20495:0:0:0:70:E5S_s.wav
256,192,20284,1,0,0:0:0:70:G5S_s.wav
109,192,20495,1,0,0:0:0:70:B5S_s.wav
329,192,20495,128,0,21129:0:0:0:70:D6S_s.wav
402,192,20495,1,0,0:0:0:70:G4S_s.wav
182,192,20706,1,0,0:0:0:70:A4S_s.wav
256,192,20918,1,0,0:0:0:70:B4S_s.wav
402,192,21129,1,0,0:0:0:70:D5S_s.wav
36,192,21340,128,0,21763:0:0:0:70:G5S_s.wav
475,192,21340,1,0,0:0:0:0:
402,192,21552,1,0,0:0:0:70:G4S_s.wav
329,192,21657,1,0,0:0:0:70:F6S_s.wav
256,192,21710,1,0,0:0:0:70:A6S_s.wav
109,192,21763,1,0,0:0:0:70:D7S_s.wav
182,192,21763,1,0,0:0:0:70:F4S_s.wav
475,192,21763,128,0,22397:0:0:0:0:
256,192,21974,1,0,0:0:0:70:C5S_s.wav
329,192,22185,1,0,0:0:0:70:F5S_s.wav
36,192,22397,1,0,0:0:0:70:G5S_s.wav
402,192,22397,128,0,22608:0:0:0:0:
109,192,22608,128,0,23030:0:0:0:70:A5S_s.wav
329,192,22608,1,0,0:0:0:0:
36,192,22819,1,0,0:0:0:70:F5S_s.wav
475,192,22925,1,0,0:0:0:70:D6S_s.wav
402,192,22978,1,0,0:0:0:70:A6S_s.wav
182,192,23030,128,0,23875:0:0:0:70:D7S_s.wav
256,192,23030,1,0,0:0:0:70:F#4S_Gb4S_s.wav
329,192,23030,1,0,0:0:0:0:
36,192,23242,1,0,0:0:0:70:D5S_s.wav
329,192,23453,1,0,0:0:0:70:F#5S_Gb5S_s.wav
109,192,23664,1,0,0:0:0:70:G5S_s.wav
256,192,23875,128,0,24087:0:0:0:70:A5S_s.wav
402,192,23875,1,0,0:0:0:0:
36,192,24087,1,0,0:0:0:70:F#5S_Gb5S_s.wav
329,192,24087,128,0,24298:0:0:0:0:
109,192,24192,1,0,0:0:0:70:D6S_s.wav
182,192,24245,1,0,0:0:0:70:A6S_s.wav
256,192,24298,1,0,0:0:0:70:D7S_s.wav
402,192,24298,128,0,24932:0:0:0:70:G4S_s.wav
475,192,24298,1,0,0:0:0:0:
36,192,24509,1,0,0:0:0:70:D5S_s.wav
109,192,24721,1,0,0:0:0:70:G5S_s.wav
182,192,24932,1,0,0:0:0:70:A5S_s.wav
256,192,25143,1,0,0:0:0:70:B5S_s.wav
475,192,25143,128,0,25566:0:0:0:0:
109,192,25354,1,0,0:0:0:70:D6S_s.wav
402,192,25460,1,0,0:0:0:70:G#6S_Ab6S_s.wav
329,192,25513,1,0,0:0:0:70:B6S_s.wav
36,192,25566,128,0,25988:0:0:0:70:F7S_s.wav
182,192,25566,1,0,0:0:0:70:G#4S_Ab4S_s.wav
256,192,25566,1,0,0:0:0:0:
329,192,25777,1,0,0:0:0:70:B6S_s.wav
109,192,25988,128,0,26411:0:0:0:70:G#6S_Ab6S_s.wav
402,192,26199,1,0,0:0:0:70:E4S_s.wav
182,192,26411,128,0,26833:0:0:0:70:B5S_s.wav
475,192,26411,1,0,0:0:0:70:G#3S_Ab3S_s.wav
402,192,26622,1,0,0:0:0:70:G#5S_Ab5S_s.wav
36,192,26833,1,0,0:0:0:70:A3S_s.wav
256,192,26833,128,0,27678:0:0:0:70:A5S_s.wav
329,192,26833,1,0,0:0:0:70:C6S_s.wav
109,192,27044,1,0,0:0:0:70:E4S_s.wav
182,192,27256,1,0,0:0:0:70:A4S_s.wav
329,192,27467,1,0,0:0:0:70:B4S_s.wav
402,192,27678,1,0,0:0:0:70:A7S_s.wav
475,192,27678,1,0,0:0:0:70:C5S_s.wav
402,192,27890,1,0,0:0:0:70:A7S_s.wav
475,192,27890,1,0,0:0:0:70:C7S_s.wav
36,192,28101,1,0,0:0:0:70:A5S_s.wav
402,192,28101,1,0,0:0:0:70:A7S_s.wav
475,192,28101,128,0,28523:0:0:0:70:C7S_s.wav
109,192,28312,1,0,0:0:0:70:E5S_s.wav
182,192,28523,1,0,0:0:0:70:C5S_s.wav
329,192,28523,128,0,28946:0:0:0:0:
256,192,28735,1,0,0:0:0:70:B4S_s.wav
182,192,28946,128,0,29368:0:0:0:70:A4S_s.wav
475,192,28946,1,0,0:0:0:0:
402,192,29157,1,0,0:0:0:70:E4S_s.wav
36,192,29368,128,0,30214:0:0:0:70:D6S_s.wav
329,192,29368,1,0,0:0:0:70:F#3S_Gb3S_s.wav
256,192,29580,1,0,0:0:0:70:F#4S_Gb4S_s.wav
329,192,29791,1,0,0:0:0:70:D4S_s.wav
402,192,30002,1,0,0:0:0:70:A4S_s.wav
109,192,30214,1,0,0:0:0:70:A7S_s.wav
182,192,30214,1,0,0:0:0:70:D5S_s.wav
109,192,30425,1,0,0:0:0:70:A7S_s.wav
182,192,30425,1,0,0:0:0:70:D7S_s.wav
109,192,30636,1,0,0:0:0:70:A5S_s.wav
182,192,30636,128,0,31481:0:0:0:70:D7S_s.wav
475,192,30636,1,0,0:0:0:70:F#7S_Gb7S_s.wav
402,192,30847,1,0,0:0:0:70:F#5S_Gb5S_s.wav
329,192,31059,1,0,0:0:0:70:D5S_s.wav
36,192,31270,1,0,0:0:0:70:A4S_s.wav
109,192,31481,1,0,0:0:0:0:
256,192,31481,128,0,31692:0:0:0:70:F#4S_Gb4S_s.wav
329,192,31692,128,0,31904:0:0:0:70:D4S_s.wav
475,192,31692,1,0,0:0:0:0:
36,192,31904,1,0,0:0:0:70:B5S_s.wav
402,192,31904,128,0,32749:0:0:0:70:D5S_s.wav
109,192,32115,1,0,0:0:0:70:D4S_s.wav
182,192,32326,1,0,0:0:0:70:G4S_s.wav
256,192,32537,1,0,0:0:0:70:A4S_s.wav
36,192,32749,1,0,0:0:0:70:B4S_s.wav
109,192,32749,1,0,0:0:0:70:B6S_s.wav
36,192,32960,1,0,0:0:0:70:B6S_s.wav
109,192,32960,1,0,0:0:0:70:D5S_s.wav
36,192,33171,1,0,0:0:0:70:B6S_s.wav
109,192,33171,128,0,33594:0:0:0:70:G5S_s.wav
475,192,33171,1,0,0:0:0:70:G7S_s.wav
402,192,33383,1,0,0:0:0:70:D5S_s.wav
256,192,33594,128,0,34016:0:0:0:70:B4S_s.wav
329,192,33594,1,0,0:0:0:0:
182,192,33805,1,0,0:0:0:70:A4S_s.wav
36,192,34016,1,0,0:0:0:70:G4S_s.wav
402,192,34016,128,0,34439:0:0:0:0:
109,192,34228,1,0,0:0:0:70:D4S_s.wav
36,192,34439,1,0,0:0:0:70:C4S_s.wav
182,192,34439,128,0,35284:0:0:0:70:E3S_s.wav
329,192,34439,1,0,0:0:0:70:E4S_s.wav
475,192,34650,1,0,0:0:0:70:C4S_s.wav
256,192,34861,1,0,0:0:0:70:E4S_s.wav
36,192,35073,1,0,0:0:0:70:G4S_s.wav
402,192,35284,1,0,0:0:0:70:C5S_s.wav
475,192,35284,1,0,0:0:0:70:E7S_s.wav
402,192,35495,1,0,0:0:0:70:E5S_s.wav
475,192,35495,1,0,0:0:0:70:E7S_s.wav
182,192,35706,1,0,0:0:0:70:E7S_s.wav
402,192,35706,1,0,0:0:0:70:G5S_s.wav
475,192,35706,128,0,35918:0:0:0:70:G7S_s.wav
36,192,35918,1,0,0:0:0:70:E5S_s.wav
329,192,35918,128,0,36129:0:0:0:0:
182,192,36129,128,0,36340:0:0:0:70:C5S_s.wav
256,192,36129,1,0,0:0:0:0:
36,192,36340,128,0,36552:0:0:0:70:G4S_s.wav
475,192,36340,1,0,0:0:0:0:
402,192,36552,128,0,36974:0:0:0:0:
109,192,36552,128,0,36763:0:0:0:70:E4S_s.wav
182,192,36763,128,0,36974:0:0:0:70:C4S_s.wav
256,192,36974,128,0,37397:0:0:0:70:F3S_s.wav
329,192,36974,1,0,0:0:0:0:
475,192,37185,1,0,0:0:0:70:C4S_s.wav
36,192,37397,1,0,0:0:0:70:C6S_s.wav
109,192,37397,128,0,37819:0:0:0:70:F6S_s.wav
329,192,37397,1,0,0:0:0:0:
182,192,37608,1,0,0:0:0:70:A4S_s.wav
256,192,37819,1,0,0:0:0:70:C5S_s.wav
475,192,37819,128,0,38242:0:0:0:70:C6S_s.wav
402,192,38030,1,0,0:0:0:70:F5S_s.wav
182,192,38242,1,0,0:0:0:70:C4S_s.wav
329,192,38242,128,0,38875:0:0:0:0:
109,192,38453,1,0,0:0:0:70:G4S_s.wav
36,192,38664,1,0,0:0:0:70:C5S_s.wav
256,192,38664,1,0,0:0:0:70:C6S_s.wav
182,192,38875,128,0,39087:0:0:0:70:D5S_s.wav
475,192,38875,1,0,0:0:0:70:G5S_s.wav
109,192,39087,128,0,39298:0:0:0:70:E5S_s.wav
402,192,39087,1,0,0:0:0:0:
36,192,39298,128,0,39509:0:0:0:70:G5S_s.wav
329,192,39298,1,0,0:0:0:0:
182,192,39509,1,0,0:0:0:70:A#3S_Bb3S_s.wav
256,192,39509,128,0,40566:0:0:0:70:F5S_s.wav
36,192,39721,1,0,0:0:0:70:F4S_s.wav
109,192,39932,1,0,0:0:0:70:A6S_s.wav
402,192,39932,1,0,0:0:0:70:A#4S_Bb4S_s.wav
182,192,40143,1,0,0:0:0:70:C5S_s.wav
329,192,40354,1,0,0:0:0:70:D5S_s.wav
402,192,40566,1,0,0:0:0:70:F5S_s.wav
36,192,40777,128,0,41411:0:0:0:70:A#5S_Bb5S_s.wav
475,192,40777,1,0,0:0:0:0:
109,192,40988,1,0,0:0:0:70:F5S_s.wav
475,192,41199,1,0,0:0:0:70:A5S_s.wav
182,192,41411,128,0,41622:0:0:0:70:C5S_s.wav
402,192,41411,1,0,0:0:0:70:D6S_s.wav
256,192,41622,1,0,0:0:0:70:A#4S_Bb4S_s.wav
329,192,41622,128,0,42044:0:0:0:70:A#5S_Bb5S_s.wav
109,192,41833,1,0,0:0:0:70:F4S_s.wav
36,192,42044,1,0,0:0:0:70:A#5S_Bb5S_s.wav
402,192,42044,1,0,0:0:0:70:G3S_s.wav
475,192,42044,128,0,43735:0:0:0:70:G5S_s.wav
109,192,42256,1,0,0:0:0:70:D4S_s.wav
182,192,42467,1,0,0:0:0:70:G4S_s.wav
256,192,42678,1,0,0:0:0:70:A4S_s.wav
329,192,42890,1,0,0:0:0:70:A6S_s.wav
402,192,42890,1,0,0:0:0:70:A#4S_Bb4S_s.wav
182,192,43101,1,0,0:0:0:70:D5S_s.wav
36,192,43312,1,0,0:0:0:70:A#6S_Bb6S_s.wav
109,192,43312,1,0,0:0:0:70:D6S_s.wav
256,192,43523,1,0,0:0:0:70:D5S_s.wav
329,192,43735,1,0,0:0:0:70:A#4S_Bb4S_s.wav
402,192,43946,1,0,0:0:0:70:A4S_s.wav
256,192,44157,128,0,44580:0:0:0:70:G4S_s.wav
475,192,44157,1,0,0:0:0:0:
402,192,44368,1,0,0:0:0:70:D4S_s.wav
36,192,44580,128,0,47115:0:0:0:70:D4S_s.wav
109,192,44580,1,0,0:0:0:70:D6S_s.wav
329,192,44580,1,0,0:0:0:70:F5S_s.wav
182,192,44791,1,0,0:0:0:70:A4S_s.wav
256,192,45002,1,0,0:0:0:70:D5S_s.wav
329,192,45214,1,0,0:0:0:70:E5S_s.wav
402,192,45425,1,0,0:0:0:70:F5S_s.wav
475,192,45636,1,0,0:0:0:70:A5S_s.wav
182,192,45847,1,0,0:0:0:70:D6S_s.wav
402,192,45847,1,0,0:0:0:0:
329,192,46059,1,0,0:0:0:70:A5S_s.wav
256,192,46270,1,0,0:0:0:70:D6S_s.wav
182,192,46481,1,0,0:0:0:70:E6S_s.wav
109,192,46692,1,0,0:0:0:70:F6S_s.wav
182,192,46904,1,0,0:0:0:70:A6S_s.wav
256,192,47115,1,0,0:0:0:70:D4S_s.wav
402,192,47115,1,0,0:0:0:70:D7S_s.wav
475,192,47115,128,0,48805:0:0:0:0:
109,192,49228,128,0,49650:0:0:0:0:
36,192,49650,1,0,0:0:0:70:A4S_s.wav
256,192,49650,1,0,0:0:0:70:A6S_s.wav
475,192,49650,128,0,50284:0:0:0:70:C6S_s.wav
182,192,50073,1,0,0:0:0:70:E5S_s.wav
402,192,50284,128,0,50495:0:0:0:0:
36,192,50495,128,0,50918:0:0:0:70:A5S_s.wav
329,192,50495,1,0,0:0:0:0:
109,192,50918,128,0,51552:0:0:0:70:B5S_s.wav
182,192,50918,1,0,0:0:0:70:E4S_s.wav
475,192,50918,1,0,0:0:0:70:E5S_s.wav
402,192,51129,1,0,0:0:0:70:F#5S_Gb5S_s.wav
329,192,51340,1,0,0:0:0:70:G5S_s.wav
256,192,51552,1,0,0:0:0:70:E5S_s.wav
182,192,51763,1,0,0:0:0:70:B4S_s.wav
329,192,51763,128,0,51974:0:0:0:0:
402,192,51974,128,0,52185:0:0:0:0:
36,192,52185,1,0,0:0:0:70:C4S_s.wav
475,192,52185,128,0,52819:0:0:0:70:C5S_s.wav
256,192,52185,1,0,0:0:0:0:
182,192,52608,1,0,0:0:0:70:G4S_s.wav
36,192,52819,128,0,53030:0:0:0:0:
329,192,52819,1,0,0:0:0:0:
109,192,53030,128,0,53453:0:0:0:70:E5S_s.wav
402,192,53030,1,0,0:0:0:0:
182,192,53453,128,0,54087:0:0:0:70:B5S_s.wav
256,192,53453,1,0,0:0:0:70:D5S_s.wav
329,192,53453,1,0,0:0:0:70:D6S_s.wav
402,192,53664,1,0,0:0:0:70:D5S_s.wav
475,192,53875,1,0,0:0:0:70:G5S_s.wav
36,192,54087,1,0,0:0:0:70:A5S_s.wav
109,192,54298,1,0,0:0:0:70:B5S_s.wav
256,192,54298,128,0,54721:0:0:0:0:
36,192,54721,1,0,0:0:0:70:A5S_s.wav
329,192,54721,1,0,0:0:0:70:D6S_s.wav
402,192,54721,128,0,55354:0:0:0:70:F4S_s.wav
109,192,54932,1,0,0:0:0:70:C5S_s.wav
182,192,55143,1,0,0:0:0:70:G5S_s.wav
256,192,55354,1,0,0:0:0:70:A5S_s.wav
475,192,55354,128,0,55566:0:0:0:0:
109,192,55566,128,0,55988:0:0:0:70:F5S_s.wav
329,192,55566,1,0,0:0:0:0:
256,192,55777,1,0,0:0:0:70:C5S_s.wav
36,192,55988,128,0,56622:0:0:0:70:A5S_s.wav
182,192,55988,1,0,0:0:0:70:B4S_s.wav
402,192,55988,1,0,0:0:0:70:D5S_s.wav
256,192,56411,1,0,0:0:0:70:G5S_s.wav
475,192,56411,1,0,0:0:0:70:G6S_s.wav
329,192,56622,128,0,56833:0:0:0:0:
182,192,56833,128,0,57256:0:0:0:0:
36,192,57256,1,0,0:0:0:70:A3S_s.wav
256,192,57256,128,0,58523:0:0:0:70:A4S_s.wav
475,192,57256,1,0,0:0:0:70:A5S_s.wav
402,192,57256,1,0,0:0:0:70:E5S_s.wav
109,192,57467,1,0,0:0:0:70:E4S_s.wav
182,192,57678,1,0,0:0:0:70:A4S_s.wav
329,192,57890,1,0,0:0:0:70:B4S_s.wav
402,192,58101,1,0,0:0:0:70:C#5S_Db5S_s.wav
475,192,58312,1,0,0:0:0:70:E5S_s.wav
36,192,58523,128,0,59368:0:0:0:70:A5S_s.wav
329,192,58523,1,0,0:0:0:0:
182,192,58946,1,0,0:0:0:70:C#5S_Db5S_s.wav
109,192,59157,1,0,0:0:0:70:B4S_s.wav
329,192,59368,1,0,0:0:0:70:A4S_s.wav
36,192,59791,1,0,0:0:0:70:C6S_s.wav
402,192,59791,128,0,60425:0:0:0:70:C7S_s.wav
475,192,59791,1,0,0:0:0:70:E5S_s.wav
109,192,60002,1,0,0:0:0:70:A6S_s.wav
182,192,60214,1,0,0:0:0:70:A6S_s.wav
256,192,60425,1,0,0:0:0:70:A4S_s.wav
329,192,60425,128,0,60636:0:0:0:70:E6S_s.wav
109,192,60636,128,0,61059:0:0:0:70:E5S_s.wav
475,192,60636,1,0,0:0:0:70:E6S_s.wav
36,192,60847,1,0,0:0:0:70:C6S_s.wav
182,192,61059,128,0,61692:0:0:0:70:B5S_s.wav
402,192,61059,1,0,0:0:0:70:E4S_s.wav
329,192,61270,1,0,0:0:0:70:B4S_s.wav
256,192,61481,1,0,0:0:0:70:E5S_s.wav
109,192,61692,1,0,0:0:0:70:B5S_s.wav
36,192,61904,1,0,0:0:0:70:G5S_s.wav
475,192,61904,128,0,62115:0:0:0:0:
402,192,62115,128,0,62326:0:0:0:70:E5S_s.wav
182,192,62115,1,0,0:0:0:0:
36,192,62326,1,0,0:0:0:70:C4S_s.wav
329,192,62326,128,0,62960:0:0:0:70:C5S_s.wav
475,192,62326,1,0,0:0:0:70:E6S_s.wav
109,192,62537,1,0,0:0:0:70:G4S_s.wav
182,192,62749,1,0,0:0:0:70:C5S_s.wav
402,192,62960,1,0,0:0:0:70:D5S_s.wav
256,192,62960,128,0,63171:0:0:0:70:C6S_s.wav
36,192,63171,128,0,63594:0:0:0:70:C6S_s.wav
475,192,63171,1,0,0:0:0:70:E5S_s.wav
329,192,63383,1,0,0:0:0:70:G5S_s.wav
109,192,63594,1,0,0:0:0:70:B5S_s.wav
182,192,63594,128,0,64228:0:0:0:70:D6S_s.wav
402,192,63594,1,0,0:0:0:70:G4S_s.wav
329,192,63805,1,0,0:0:0:70:A4S_s.wav
256,192,64016,1,0,0:0:0:70:B4S_s.wav
109,192,64228,1,0,0:0:0:70:D5S_s.wav
36,192,64439,1,0,0:0:0:70:G5S_s.wav
475,192,64439,128,0,64861:0:0:0:0:
256,192,64650,1,0,0:0:0:70:G4S_s.wav
109,192,64861,1,0,0:0:0:70:D7S_s.wav
329,192,64861,1,0,0:0:0:70:F4S_s.wav
402,192,64861,128,0,65495:0:0:0:0:
256,192,65073,1,0,0:0:0:70:C5S_s.wav
182,192,65284,1,0,0:0:0:70:F5S_s.wav
109,192,65495,1,0,0:0:0:70:G5S_s.wav
329,192,65495,128,0,65706:0:0:0:0:
36,192,65706,128,0,66129:0:0:0:70:A5S_s.wav
256,192,65706,1,0,0:0:0:0:
402,192,65918,1,0,0:0:0:70:F5S_s.wav
182,192,66129,128,0,66763:0:0:0:70:C7S_s.wav
256,192,66129,1,0,0:0:0:70:D5S_s.wav
475,192,66129,1,0,0:0:0:70:G3S_s.wav
402,192,66763,128,0,66974:0:0:0:0:
475,192,66974,128,0,67397:0:0:0:0:
36,192,67397,1,0,0:0:0:70:A4S.wav
182,192,67397,1,0,0:0:0:70:A5S_s.wav
329,192,67397,1,0,0:0:0:70:B6S_s.wav
256,192,67608,1,0,0:0:0:70:C#7S_Db7S_s.wav
182,192,67819,1,0,0:0:0:70:A6S_s.wav
329,192,67819,1,0,0:0:0:70:E5S.wav
475,192,67819,1,0,0:0:0:0:
402,192,68030,1,0,0:0:0:70:C#7S_Db7S_s.wav
36,192,68242,1,0,0:0:0:70:B5S.wav
109,192,68242,1,0,0:0:0:70:B6S_s.wav
182,192,68242,1,0,0:0:0:0:
256,192,68453,1,0,0:0:0:70:C#7S_Db7S_s.wav
329,192,68664,1,0,0:0:0:70:B6S_s.wav
402,192,68664,1,0,0:0:0:70:C#6S_Db6S.wav
475,192,68664,1,0,0:0:0:70:E7S_s.wav
109,192,68875,1,0,0:0:0:70:C#7S_Db7S_s.wav
182,192,69087,1,0,0:0:0:70:A6S_s.wav
329,192,69087,1,0,0:0:0:0:
256,192,69298,1,0,0:0:0:70:C#7S_Db7S_s.wav
109,192,69509,1,0,0:0:0:70:B6S_s.wav
402,192,69509,1,0,0:0:0:0:
36,192,69721,1,0,0:0:0:70:C#7S_Db7S_s.wav
182,192,69932,1,0,0:0:0:70:A6S_s.wav
329,192,69932,1,0,0:0:0:70:E7S_s.wav
475,192,69932,1,0,0:0:0:70:F4S.wav
256,192,70143,1,0,0:0:0:70:C7S_s.wav
36,192,70354,1,0,0:0:0:70:B6S_s.wav
182,192,70354,1,0,0:0:0:70:C5S.wav
329,192,70354,1,0,0:0:0:0:
109,192,70566,1,0,0:0:0:70:C7S_s.wav
329,192,70777,1,0,0:0:0:70:A6S_s.wav
402,192,70777,1,0,0:0:0:70:G5S.wav
475,192,70777,1,0,0:0:0:0:
256,192,70988,1,0,0:0:0:70:C7S_s.wav
36,192,71199,1,0,0:0:0:70:A5S.wav
109,192,71199,1,0,0:0:0:70:B6S_s.wav
182,192,71199,1,0,0:0:0:70:E7S_s.wav
402,192,71411,1,0,0:0:0:70:C7S_s.wav
182,192,71622,1,0,0:0:0:70:A6S_s.wav
329,192,71622,1,0,0:0:0:0:
256,192,71833,1,0,0:0:0:70:C7S_s.wav
109,192,72044,1,0,0:0:0:70:B6S_s.wav
402,192,72044,1,0,0:0:0:0:
475,192,72256,1,0,0:0:0:70:C7S_s.wav
36,192,72467,1,0,0:0:0:70:A4S.wav
109,192,72467,1,0,0:0:0:70:A5S_s.wav
329,192,72467,1,0,0:0:0:70:B6S_s.wav
256,192,72678,1,0,0:0:0:70:C#7S_Db7S_s.wav
182,192,72890,1,0,0:0:0:70:A6S_s.wav
402,192,72890,1,0,0:0:0:70:E5S.wav
475,192,72890,1,0,0:0:0:0:
109,192,73101,1,0,0:0:0:70:C#7S_Db7S_s.wav
36,192,73312,1,0,0:0:0:70:B5S.wav
182,192,73312,1,0,0:0:0:70:B6S_s.wav
475,192,73312,1,0,0:0:0:0:
256,192,73523,1,0,0:0:0:70:C#7S_Db7S_s.wav
36,192,73735,1,0,0:0:0:70:B6S_s.wav
329,192,73735,1,0,0:0:0:70:C#6S_Db6S.wav
475,192,73735,1,0,0:0:0:70:E7S_s.wav
402,192,73946,1,0,0:0:0:70:C#7S_Db7S_s.wav
36,192,74157,1,0,0:0:0:70:A6S_s.wav
182,192,74157,1,0,0:0:0:0:
109,192,74368,1,0,0:0:0:70:C#7S_Db7S_s.wav
256,192,74580,1,0,0:0:0:70:B6S_s.wav
402,192,74580,1,0,0:0:0:0:
329,192,74791,1,0,0:0:0:70:C#7S_Db7S_s.wav
182,192,75002,1,0,0:0:0:70:A6S_s.wav
402,192,75002,1,0,0:0:0:70:E7S_s.wav
475,192,75002,1,0,0:0:0:70:F4S.wav
256,192,75214,1,0,0:0:0:70:C7S_s.wav
36,192,75425,1,0,0:0:0:70:B6S_s.wav
109,192,75425,1,0,0:0:0:70:C5S.wav
329,192,75425,1,0,0:0:0:0:
402,192,75636,1,0,0:0:0:70:C7S_s.wav
36,192,75847,1,0,0:0:0:70:A6S_s.wav
329,192,75847,1,0,0:0:0:70:G5S.wav
475,192,75847,1,0,0:0:0:0:
256,192,76059,1,0,0:0:0:70:C7S_s.wav
36,192,76270,1,0,0:0:0:70:A5S.wav
182,192,76270,1,0,0:0:0:70:B6S_s.wav
475,192,76270,1,0,0:0:0:70:E7S_s.wav
109,192,76481,1,0,0:0:0:70:C7S_s.wav
329,192,76692,1,0,0:0:0:70:A6S_s.wav
475,192,76692,1,0,0:0:0:0:
402,192,76904,1,0,0:0:0:70:C7S_s.wav
109,192,77115,1,0,0:0:0:70:B6S_s.wav
256,192,77115,1,0,0:0:0:0:
182,192,77326,1,0,0:0:0:70:C7S_s.wav
36,192,77537,1,0,0:0:0:70:A5S_s.wav
329,192,77537,1,0,0:0:0:70:B6S_s.wav
475,192,77537,1,0,0:0:0:70:D4S.wav
402,192,77749,1,0,0:0:0:70:C7S_s.wav
36,192,77960,1,0,0:0:0:70:A4S.wav
182,192,77960,1,0,0:0:0:70:A6S_s.wav
329,192,77960,1,0,0:0:0:0:
256,192,78171,1,0,0:0:0:70:F6S_s.wav
36,192,78383,1,0,0:0:0:70:D5S.wav
182,192,78383,1,0,0:0:0:70:D6S_s.wav
475,192,78383,1,0,0:0:0:0:
109,192,78594,1,0,0:0:0:70:A5S_s.wav
36,192,78805,1,0,0:0:0:70:B3S_s.wav
182,192,78805,1,0,0:0:0:70:D5S_s.wav
329,192,78805,1,0,0:0:0:70:D6S_s.wav
475,192,78805,1,0,0:0:0:70:F5S_s.wav
256,192,79016,1,0,0:0:0:70:C6S_s.wav
329,192,79228,1,0,0:0:0:70:D6S_s.wav
402,192,79439,1,0,0:0:0:70:F6S_s.wav
329,192,79650,1,0,0:0:0:70:E6S_s.wav
256,192,79861,1,0,0:0:0:70:D6S_s.wav
36,192,80073,1,0,0:0:0:70:C6S_s.wav
475,192,80073,1,0,0:0:0:70:E3S.wav
182,192,80073,1,0,0:0:0:70:E4S_s.wav
256,192,80495,1,0,0:0:0:70:E7S_s.wav
329,192,80918,1,0,0:0:0:70:G#7S_Ab7S_s.wav
402,192,81340,1,0,0:0:0:70:E8S_s.wav
36,192,82608,1,0,0:0:0:70:A2S.wav
109,192,82608,1,0,0:0:0:70:A3S_s.wav
402,192,82608,1,0,0:0:0:70:B6S_s.wav
475,192,82608,1,0,0:0:0:70:D6S_s.wav
