osu file format v14

[General]
AudioFilename: audio.mp3
AudioLeadIn: 0
PreviewTime: 6129
Countdown: 0
SampleSet: Soft
StackLeniency: 0.7
Mode: 3
LetterboxInBreaks: 0
SpecialStyle: 0
WidescreenStoryboard: 1

[Editor]
DistanceSpacing: 1.8
BeatDivisor: 4
GridSize: 32
TimelineZoom: 1.8

[Metadata]
Title:Yuki no Hana
TitleUnicode:雪の華
Artist:Seifuu Meigetsu
ArtistUnicode:清風明月
Creator:Ihram-San
Version:7K Easy
Source:
Tags:Dragon and Flame Story Seifuumeigetsu j-pop jpop 葉月ゆら Hatsuki Yura Drop Ryuu to Honou Honoo no Monogatari 竜と炎の物語 C85 Comiket 85 Japanese Piano Pop novelty Snow Flowers FerdiXIA- Nezu-
BeatmapID:3927563
BeatmapSetID:1660169

[Difficulty]
HPDrainRate:7
CircleSize:7
OverallDifficulty:7
ApproachRate:5
SliderMultiplier:1.4
SliderTickRate:1

[Events]
//Background and Video events
0,0,"Snow.jpg",0,0
//Break Periods
//Storyboard Layer 0 (Background)
//Storyboard Layer 1 (Fail)
//Storyboard Layer 2 (Pass)
//Storyboard Layer 3 (Foreground)
//Storyboard Layer 4 (Overlay)
//Storyboard Sound Samples
Sample,214,0,"C7S_s.wav",70
Sample,425,0,"E6S_s.wav",70
Sample,636,0,"A6S_s.wav",70
Sample,847,0,"C7S_s.wav",70
Sample,1059,0,"G5S_s.wav",70
Sample,1270,0,"G6S_s.wav",70
Sample,1481,0,"F#5S_Gb5S_s.wav",70
Sample,1481,0,"D5S_s.wav",70
Sample,1481,0,"D6S_s.wav",70
Sample,2537,0,"D7S_s.wav",70
Sample,2643,0,"E7S_s.wav",70
Sample,2749,0,"F7S_s.wav",70
Sample,2960,0,"A6S_s.wav",70
Sample,3171,0,"D7S_s.wav",70
Sample,3383,0,"F7S_s.wav",70
Sample,3594,0,"E7S_s.wav",70
Sample,3805,0,"C7S_s.wav",70
Sample,4016,0,"G5S_s.wav",70
Sample,5115,0,"C8S_s.wav",70
Sample,5199,0,"D8S_s.wav",70
Sample,6552,0,"C6S_s.wav",70
Sample,6552,0,"E6S_s.wav",70
Sample,6974,0,"E5S_s.wav",70
Sample,7819,0,"E5S_s.wav",70
Sample,7819,0,"G5S_s.wav",70
Sample,7819,0,"E6S_s.wav",70
Sample,7819,0,"E4S_s.wav",70
Sample,8030,0,"F#5S_Gb5S_s.wav",70
Sample,8242,0,"G5S_s.wav",70
Sample,8453,0,"E5S_s.wav",70
Sample,9087,0,"C5S_s.wav",70
Sample,9087,0,"E6S_s.wav",70
Sample,9932,0,"E5S_s.wav",70
Sample,10354,0,"D6S_s.wav",70
Sample,10354,0,"G4S_s.wav",70
Sample,10566,0,"D5S_s.wav",70
Sample,10988,0,"A5S_s.wav",70
Sample,11199,0,"D6S_s.wav",70
Sample,11622,0,"F4S_s.wav",70
Sample,11622,0,"F5S_s.wav",70
Sample,11833,0,"C5S_s.wav",70
Sample,12044,0,"G5S_s.wav",70
Sample,12256,0,"A5S_s.wav",70
Sample,12678,0,"C5S_s.wav",70
Sample,12890,0,"G4S_s.wav",70
Sample,12890,0,"B4S_s.wav",70
Sample,12890,0,"D5S_s.wav",70
Sample,13312,0,"G5S_s.wav",70
Sample,14157,0,"C#5S_Db5S_s.wav",70
Sample,14157,0,"E5S_s.wav",70
Sample,14368,0,"E4S_s.wav",70
Sample,14580,0,"A4S_s.wav",70
Sample,14791,0,"B4S_s.wav",70
Sample,15002,0,"C#5S_Db5S_s.wav",70
Sample,15214,0,"E5S_s.wav",70
Sample,15636,0,"E5S_s.wav",70
Sample,15847,0,"C#5S_Db5S_s.wav",70
Sample,16059,0,"B4S_s.wav",70
Sample,16270,0,"A4S_s.wav",70
Sample,16692,0,"C7S_s.wav",70
Sample,16692,0,"E5S_s.wav",70
Sample,16692,0,"E6S_s.wav",70
Sample,16904,0,"A6S_s.wav",70
Sample,16904,0,"A3S_s.wav",70
Sample,17115,0,"E4S_s.wav",70
Sample,17326,0,"A4S_s.wav",70
Sample,17326,0,"E6S_s.wav",70
Sample,17537,0,"E6S_s.wav",70
Sample,17749,0,"C6S_s.wav",70
Sample,17749,0,"E5S_s.wav",70
Sample,17960,0,"G6S_s.wav",70
Sample,17960,0,"E4S_s.wav",70
Sample,17960,0,"G5S_s.wav",70
Sample,18171,0,"B4S_s.wav",70
Sample,18171,0,"F#6S_Gb6S_s.wav",70
Sample,18383,0,"E6S_s.wav",70
Sample,18594,0,"B5S_s.wav",70
Sample,19016,0,"E5S_s.wav",70
Sample,19228,0,"G5S_s.wav",70
Sample,19228,0,"C5S_s.wav",70
Sample,19228,0,"E6S_s.wav",70
Sample,19228,0,"G6S_s.wav",70
Sample,19439,0,"G4S_s.wav",70
Sample,19861,0,"C6S_s.wav",70
Sample,19861,0,"D5S_s.wav",70
Sample,19861,0,"F#6S_Gb6S_s.wav",70
Sample,20073,0,"E5S_s.wav",70
Sample,20073,0,"E6S_s.wav",70
Sample,20284,0,"G5S_s.wav",70
Sample,20495,0,"D6S_s.wav",70
Sample,20495,0,"G4S_s.wav",70
Sample,20495,0,"G5S_s.wav",70
Sample,20706,0,"A4S_s.wav",70
Sample,21129,0,"D5S_s.wav",70
Sample,21340,0,"G5S_s.wav",70
Sample,21552,0,"G4S_s.wav",70
Sample,21657,0,"F6S_s.wav",70
Sample,21710,0,"A6S_s.wav",70
Sample,21763,0,"F4S_s.wav",70
Sample,21974,0,"C5S_s.wav",70
Sample,22397,0,"G5S_s.wav",70
Sample,22819,0,"F5S_s.wav",70
Sample,22925,0,"D6S_s.wav",70
Sample,22978,0,"A6S_s.wav",70
Sample,23030,0,"F#4S_Gb4S_s.wav",70
Sample,23242,0,"D5S_s.wav",70
Sample,23664,0,"G5S_s.wav",70
Sample,24087,0,"F#5S_Gb5S_s.wav",70
Sample,24192,0,"D6S_s.wav",70
Sample,24245,0,"A6S_s.wav",70
Sample,24298,0,"G4S_s.wav",70
Sample,24509,0,"D5S_s.wav",70
Sample,24932,0,"A5S_s.wav",70
Sample,25354,0,"D6S_s.wav",70
Sample,25460,0,"G#6S_Ab6S_s.wav",70
Sample,25513,0,"B6S_s.wav",70
Sample,25566,0,"G#4S_Ab4S_s.wav",70
Sample,25777,0,"B6S_s.wav",70
Sample,26199,0,"E4S_s.wav",70
Sample,26199,0,"E6S_s.wav",70
Sample,26411,0,"G#3S_Ab3S_s.wav",70
Sample,26622,0,"G#5S_Ab5S_s.wav",70
Sample,26833,0,"A5S_s.wav",70
Sample,26833,0,"C6S_s.wav",70
Sample,27044,0,"E4S_s.wav",70
Sample,27256,0,"A4S_s.wav",70
Sample,27467,0,"B4S_s.wav",70
Sample,27678,0,"C5S_s.wav",70
Sample,27678,0,"C7S_s.wav",70
Sample,27890,0,"A7S_s.wav",70
Sample,27890,0,"C7S_s.wav",70
Sample,27890,0,"E5S_s.wav",70
Sample,28101,0,"A7S_s.wav",70
Sample,28101,0,"C7S_s.wav",70
Sample,28312,0,"E5S_s.wav",70
Sample,28523,0,"C5S_s.wav",70
Sample,28735,0,"B4S_s.wav",70
Sample,28946,0,"A4S_s.wav",70
Sample,29157,0,"E4S_s.wav",70
Sample,29368,0,"F#3S_Gb3S_s.wav",70
Sample,29368,0,"F#5S_Gb5S_s.wav",70
Sample,29368,0,"F#6S_Gb6S_s.wav",70
Sample,29580,0,"F#4S_Gb4S_s.wav",70
Sample,29791,0,"D4S_s.wav",70
Sample,30002,0,"A4S_s.wav",70
Sample,30214,0,"D5S_s.wav",70
Sample,30214,0,"D7S_s.wav",70
Sample,30425,0,"A7S_s.wav",70
Sample,30425,0,"D7S_s.wav",70
Sample,30425,0,"F#5S_Gb5S_s.wav",70
Sample,30636,0,"D7S_s.wav",70
Sample,30636,0,"F#7S_Gb7S_s.wav",70
Sample,30847,0,"F#5S_Gb5S_s.wav",70
Sample,31059,0,"D5S_s.wav",70
Sample,31270,0,"A4S_s.wav",70
Sample,31692,0,"D4S_s.wav",70
Sample,31904,0,"G3S_s.wav",70
Sample,31904,0,"D5S_s.wav",70
Sample,31904,0,"D6S_s.wav",70
Sample,32115,0,"D4S_s.wav",70
Sample,32326,0,"G4S_s.wav",70
Sample,32537,0,"A4S_s.wav",70
Sample,32749,0,"B6S_s.wav",70
Sample,32749,0,"G7S_s.wav",70
Sample,32960,0,"G7S_s.wav",70
Sample,32960,0,"B6S_s.wav",70
Sample,32960,0,"D5S_s.wav",70
Sample,33171,0,"G5S_s.wav",70
Sample,33171,0,"G7S_s.wav",70
Sample,33383,0,"D5S_s.wav",70
Sample,33594,0,"B4S_s.wav",70
Sample,33805,0,"A4S_s.wav",70
Sample,34016,0,"G4S_s.wav",70
Sample,34228,0,"D4S_s.wav",70
Sample,34439,0,"E3S_s.wav",70
Sample,34439,0,"G6S_s.wav",70
Sample,34439,0,"E6S_s.wav",70
Sample,34439,0,"E4S_s.wav",70
Sample,34439,0,"G5S_s.wav",70
Sample,34650,0,"C4S_s.wav",70
Sample,34861,0,"E4S_s.wav",70
Sample,35073,0,"G4S_s.wav",70
Sample,35284,0,"E7S_s.wav",70
Sample,35284,0,"G7S_s.wav",70
Sample,35495,0,"G7S_s.wav",70
Sample,35495,0,"E5S_s.wav",70
Sample,35495,0,"E7S_s.wav",70
Sample,35706,0,"G5S_s.wav",70
Sample,35706,0,"G7S_s.wav",70
Sample,35918,0,"E5S_s.wav",70
Sample,36340,0,"G4S_s.wav",70
Sample,36763,0,"C4S_s.wav",70
Sample,37185,0,"C4S_s.wav",70
Sample,37397,0,"F6S_s.wav",70
Sample,37608,0,"A4S_s.wav",70
Sample,37608,0,"A5S_s.wav",70
Sample,37819,0,"C6S_s.wav",70
Sample,37819,0,"F6S_s.wav",70
Sample,38030,0,"F5S_s.wav",70
Sample,38453,0,"G4S_s.wav",70
Sample,38664,0,"C6S_s.wav",70
Sample,38664,0,"C7S_s.wav",70
Sample,38875,0,"D5S_s.wav",70
Sample,38875,0,"G5S_s.wav",70
Sample,39298,0,"G5S_s.wav",70
Sample,39509,0,"F5S_s.wav",70
Sample,39721,0,"F4S_s.wav",70
Sample,39932,0,"A#4S_Bb4S_s.wav",70
Sample,40143,0,"C5S_s.wav",70
Sample,40143,0,"F6S_s.wav",70
Sample,40354,0,"D6S_s.wav",70
Sample,40566,0,"F5S_s.wav",70
Sample,40988,0,"F5S_s.wav",70
Sample,40988,0,"F6S_s.wav",70
Sample,41199,0,"A5S_s.wav",70
Sample,41199,0,"F6S_s.wav",70
Sample,41411,0,"C5S_s.wav",70
Sample,41411,0,"D6S_s.wav",70
Sample,41622,0,"A#5S_Bb5S_s.wav",70
Sample,41833,0,"F4S_s.wav",70
Sample,41833,0,"F5S_s.wav",70
Sample,42044,0,"G3S_s.wav",70
Sample,42044,0,"G5S_s.wav",70
Sample,42044,0,"G6S_s.wav",70
Sample,42256,0,"D4S_s.wav",70
Sample,42467,0,"G4S_s.wav",70
Sample,42678,0,"A4S_s.wav",70
Sample,42890,0,"A#4S_Bb4S_s.wav",70
Sample,42890,0,"C6S_s.wav",70
Sample,43101,0,"D5S_s.wav",70
Sample,43312,0,"D6S_s.wav",70
Sample,43312,0,"G5S_s.wav",70
Sample,43523,0,"D5S_s.wav",70
Sample,43735,0,"A#4S_Bb4S_s.wav",70
Sample,43946,0,"A4S_s.wav",70
Sample,44368,0,"D4S_s.wav",70
Sample,44580,0,"F6S_s.wav",70
Sample,44580,0,"D6S_s.wav",70
Sample,44580,0,"F5S_s.wav",70
Sample,44791,0,"A4S_s.wav",70
Sample,45002,0,"D5S_s.wav",70
Sample,45214,0,"E5S_s.wav",70
Sample,45636,0,"A5S_s.wav",70
Sample,46059,0,"A5S_s.wav",70
Sample,46481,0,"E6S_s.wav",70
Sample,46904,0,"A6S_s.wav",70
Sample,47115,0,"D7S_s.wav",70
Sample,49650,0,"C6S_s.wav",70
Sample,49650,0,"E6S_s.wav",70
Sample,50495,0,"A5S_s.wav",70
Sample,50918,0,"E4S_s.wav",70
Sample,50918,0,"G6S_s.wav",70
Sample,50918,0,"E6S_s.wav",70
Sample,50918,0,"E5S_s.wav",70
Sample,50918,0,"G5S_s.wav",70
Sample,51129,0,"F#5S_Gb5S_s.wav",70
Sample,51552,0,"E5S_s.wav",70
Sample,52185,0,"C6S_s.wav",70
Sample,52185,0,"G6S_s.wav",70
Sample,52185,0,"E6S_s.wav",70
Sample,52185,0,"C5S_s.wav",70
Sample,53453,0,"D5S_s.wav",70
Sample,53453,0,"D6S_s.wav",70
Sample,53453,0,"G4S_s.wav",70
Sample,53664,0,"D5S_s.wav",70
Sample,54087,0,"A5S_s.wav",70
Sample,54721,0,"D6S_s.wav",70
Sample,54721,0,"F4S_s.wav",70
Sample,54932,0,"C5S_s.wav",70
Sample,55354,0,"A5S_s.wav",70
Sample,55777,0,"C5S_s.wav",70
Sample,55988,0,"B4S_s.wav",70
Sample,55988,0,"D5S_s.wav",70
Sample,55988,0,"G4S_s.wav",70
Sample,56411,0,"G6S_s.wav",70
Sample,57256,0,"A5S_s.wav",70
Sample,57256,0,"C#5S_Db5S_s.wav",70
Sample,57256,0,"E5S_s.wav",70
Sample,57467,0,"E4S_s.wav",70
Sample,57678,0,"A4S_s.wav",70
Sample,57890,0,"B4S_s.wav",70
Sample,58101,0,"C#5S_Db5S_s.wav",70
Sample,58312,0,"E5S_s.wav",70
Sample,58946,0,"C#5S_Db5S_s.wav",70
Sample,59157,0,"B4S_s.wav",70
Sample,59368,0,"A4S_s.wav",70
Sample,59791,0,"E6S_s.wav",70
Sample,59791,0,"C7S_s.wav",70
Sample,59791,0,"E5S_s.wav",70
Sample,60002,0,"A6S_s.wav",70
Sample,60002,0,"A3S_s.wav",70
Sample,60214,0,"E4S_s.wav",70
Sample,60425,0,"A4S_s.wav",70
Sample,60425,0,"E6S_s.wav",70
Sample,60636,0,"E6S_s.wav",70
Sample,60847,0,"C6S_s.wav",70
Sample,60847,0,"E5S_s.wav",70
Sample,61059,0,"E4S_s.wav",70
Sample,61059,0,"G5S_s.wav",70
Sample,61059,0,"G6S_s.wav",70
Sample,61270,0,"B4S_s.wav",70
Sample,61270,0,"F#6S_Gb6S_s.wav",70
Sample,61481,0,"E6S_s.wav",70
Sample,61692,0,"B5S_s.wav",70
Sample,62115,0,"E5S_s.wav",70
Sample,62326,0,"E6S_s.wav",70
Sample,62326,0,"G6S_s.wav",70
Sample,62326,0,"G5S_s.wav",70
Sample,62326,0,"C5S_s.wav",70
Sample,62537,0,"G4S_s.wav",70
Sample,62960,0,"F#6S_Gb6S_s.wav",70
Sample,62960,0,"C6S_s.wav",70
Sample,62960,0,"D5S_s.wav",70
Sample,63171,0,"E5S_s.wav",70
Sample,63171,0,"E6S_s.wav",70
Sample,63383,0,"G5S_s.wav",70
Sample,63594,0,"G5S_s.wav",70
Sample,63594,0,"D6S_s.wav",70
Sample,63594,0,"G4S_s.wav",70
Sample,63805,0,"A4S_s.wav",70
Sample,64228,0,"D5S_s.wav",70
Sample,64439,0,"G5S_s.wav",70
Sample,64650,0,"G4S_s.wav",70
Sample,64756,0,"F6S_s.wav",70
Sample,64809,0,"A6S_s.wav",70
Sample,64861,0,"F4S_s.wav",70
Sample,65073,0,"C5S_s.wav",70
Sample,65495,0,"G5S_s.wav",70
Sample,65918,0,"F5S_s.wav",70
Sample,66023,0,"D6S_s.wav",70
Sample,66076,0,"A6S_s.wav",70
Sample,66129,0,"D5S_s.wav",70
Sample,66129,0,"G3S_s.wav",70
Sample,66129,0,"G4S_s.wav",70
Sample,67397,0,"E7S_s.wav",70
Sample,67397,0,"A5S_s.wav",70
Sample,67397,0,"B6S_s.wav",70
Sample,67608,0,"C#7S_Db7S_s.wav",70
Sample,67819,0,"E5S.wav",70
Sample,68030,0,"C#7S_Db7S_s.wav",70
Sample,68242,0,"B6S_s.wav",70
Sample,68453,0,"C#7S_Db7S_s.wav",70
Sample,68664,0,"C#6S_Db6S.wav",70
Sample,68664,0,"E7S_s.wav",70
Sample,68875,0,"C#7S_Db7S_s.wav",70
Sample,69087,0,"A6S_s.wav",70
Sample,69298,0,"C#7S_Db7S_s.wav",70
Sample,69509,0,"B6S_s.wav",70
Sample,69721,0,"C#7S_Db7S_s.wav",70
Sample,69932,0,"E7S_s.wav",70
Sample,69932,0,"F4S.wav",70
Sample,70143,0,"C7S_s.wav",70
Sample,70354,0,"C5S.wav",70
Sample,70566,0,"C7S_s.wav",70
Sample,70777,0,"G5S.wav",70
Sample,70988,0,"C7S_s.wav",70
Sample,71199,0,"B6S_s.wav",70
Sample,71199,0,"E7S_s.wav",70
Sample,71411,0,"C7S_s.wav",70
Sample,71622,0,"A6S_s.wav",70
Sample,71833,0,"C7S_s.wav",70
Sample,72044,0,"B6S_s.wav",70
Sample,72256,0,"C7S_s.wav",70
Sample,72467,0,"A5S_s.wav",70
Sample,72467,0,"B6S_s.wav",70
Sample,72467,0,"E7S_s.wav",70
Sample,72678,0,"C#7S_Db7S_s.wav",70
Sample,72890,0,"E5S.wav",70
Sample,73101,0,"C#7S_Db7S_s.wav",70
Sample,73312,0,"B6S_s.wav",70
Sample,73523,0,"C#7S_Db7S_s.wav",70
Sample,73735,0,"C#6S_Db6S.wav",70
Sample,73735,0,"E7S_s.wav",70
Sample,73946,0,"C#7S_Db7S_s.wav",70
Sample,74157,0,"A6S_s.wav",70
Sample,74368,0,"C#7S_Db7S_s.wav",70
Sample,74580,0,"B6S_s.wav",70
Sample,74791,0,"C#7S_Db7S_s.wav",70
Sample,75002,0,"E7S_s.wav",70
Sample,75002,0,"F4S.wav",70
Sample,75214,0,"C7S_s.wav",70
Sample,75425,0,"C5S.wav",70
Sample,75636,0,"C7S_s.wav",70
Sample,75847,0,"G5S.wav",70
Sample,76059,0,"C7S_s.wav",70
Sample,76270,0,"B6S_s.wav",70
Sample,76270,0,"E7S_s.wav",70
Sample,76481,0,"C7S_s.wav",70
Sample,76692,0,"A6S_s.wav",70
Sample,76904,0,"C7S_s.wav",70
Sample,77115,0,"B6S_s.wav",70
Sample,77326,0,"C7S_s.wav",70
Sample,77537,0,"E7S_s.wav",70
Sample,77537,0,"B6S_s.wav",70
Sample,77537,0,"D4S.wav",70
Sample,77749,0,"C7S_s.wav",70
Sample,77960,0,"A6S_s.wav",70
Sample,78171,0,"F6S_s.wav",70
Sample,78383,0,"D6S_s.wav",70
Sample,78594,0,"A5S_s.wav",70
Sample,78805,0,"F6S_s.wav",70
Sample,78805,0,"D6S_s.wav",70
Sample,78805,0,"F5S_s.wav",70
Sample,79016,0,"C6S_s.wav",70
Sample,79439,0,"F6S_s.wav",70
Sample,79861,0,"D6S_s.wav",70
Sample,80073,0,"E3S.wav",70
Sample,80073,0,"G#5S_Ab5S_s.wav",70
Sample,80073,0,"E5S_s.wav",70
Sample,80073,0,"E4S_s.wav",70
Sample,80073,0,"E6S_s.wav",70
Sample,82608,0,"D6S_s.wav",70
Sample,82608,0,"G6S_s.wav",70
Sample,82608,0,"E4S_s.wav",70
Sample,82608,0,"B6S_s.wav",70

[TimingPoints]
214,422.535211267606,3,2,1,30,1,0

[HitObjects]
36,192,214,128,0,1059:0:0:0:70:A5S_s.wav
182,192,1059,1,0,0:0:0:70:B6S_s.wav
329,192,1481,1,0,0:0:0:70:A6S_s.wav
475,192,2749,128,0,3594:0:0:0:70:D6S_s.wav
329,192,3594,1,0,0:0:0:70:C6S_s.wav
182,192,4016,1,0,0:0:0:70:D7S_s.wav
182,192,5115,1,0,0:0:0:70:C8S_s.wav
329,192,5284,1,0,0:0:0:70:G8S_s.wav
36,192,6552,1,0,0:0:0:70:A4S_s.wav
475,192,6552,1,0,0:0:0:70:A6S_s.wav
402,192,7397,1,0,0:0:0:70:A5S_s.wav
182,192,7819,1,0,0:0:0:70:B5S_s.wav
36,192,8664,1,0,0:0:0:70:B4S_s.wav
329,192,9087,1,0,0:0:0:70:C4S_s.wav
182,192,9509,1,0,0:0:0:70:G4S_s.wav
36,192,10354,1,0,0:0:0:70:B5S_s.wav
402,192,10777,1,0,0:0:0:70:G5S_s.wav
182,192,11199,1,0,0:0:0:70:B5S_s.wav
256,192,11622,1,0,0:0:0:70:D6S_s.wav
329,192,12044,1,0,0:0:0:70:C6S_s.wav
402,192,12467,1,0,0:0:0:70:F5S_s.wav
182,192,12890,1,0,0:0:0:70:A5S_s.wav
329,192,12890,1,0,0:0:0:70:B4S_s.wav
475,192,13312,1,0,0:0:0:70:G6S_s.wav
36,192,14157,128,0,15425:0:0:0:70:A3S_s.wav
256,192,14157,1,0,0:0:0:70:A5S_s.wav
475,192,15425,128,0,16692:0:0:0:70:A5S_s.wav
109,192,16692,128,0,17115:0:0:0:70:C6S_s.wav
36,192,16692,1,0,0:0:0:70:C7S_s.wav
329,192,17115,1,0,0:0:0:70:A6S_s.wav
182,192,17537,1,0,0:0:0:70:E5S_s.wav
402,192,17960,128,0,18383:0:0:0:70:B5S_s.wav
475,192,17960,1,0,0:0:0:70:G6S_s.wav
109,192,18383,1,0,0:0:0:70:E5S_s.wav
36,192,18805,1,0,0:0:0:70:G5S_s.wav
182,192,19228,128,0,19650:0:0:0:70:C4S_s.wav
402,192,19228,1,0,0:0:0:70:E6S_s.wav
256,192,19650,1,0,0:0:0:70:C5S_s.wav
475,192,20073,1,0,0:0:0:70:C6S_s.wav
402,192,20495,1,0,0:0:0:70:B5S_s.wav
109,192,20495,1,0,0:0:0:70:G5S_s.wav
329,192,20918,128,0,21763:0:0:0:70:B4S_s.wav
256,192,21763,1,0,0:0:0:70:D7S_s.wav
109,192,22185,1,0,0:0:0:70:F5S_s.wav
402,192,22608,1,0,0:0:0:70:A5S_s.wav
182,192,23030,1,0,0:0:0:70:D7S_s.wav
475,192,23453,1,0,0:0:0:70:F#5S_Gb5S_s.wav
36,192,23875,1,0,0:0:0:70:A5S_s.wav
329,192,24298,1,0,0:0:0:70:D7S_s.wav
109,192,24721,1,0,0:0:0:70:G5S_s.wav
182,192,25143,1,0,0:0:0:70:B5S_s.wav
475,192,25566,1,0,0:0:0:70:F7S_s.wav
402,192,25988,1,0,0:0:0:70:G#6S_Ab6S_s.wav
329,192,26411,1,0,0:0:0:70:B5S_s.wav
109,192,26833,128,0,27678:0:0:0:70:A3S_s.wav
182,192,27678,128,0,28101:0:0:0:70:A7S_s.wav
256,192,28101,128,0,29368:0:0:0:70:A5S_s.wav
475,192,28101,1,0,0:0:0:70:A7S_s.wav
475,192,29368,128,0,30214:0:0:0:70:D6S_s.wav
402,192,30214,128,0,30636:0:0:0:70:A7S_s.wav
36,192,30636,128,0,31481:0:0:0:70:A5S_s.wav
256,192,30636,1,0,0:0:0:70:D7S_s.wav
109,192,31481,128,0,31904:0:0:0:70:F#4S_Gb4S_s.wav
182,192,31904,128,0,32749:0:0:0:70:B5S_s.wav
256,192,32749,128,0,33171:0:0:0:70:B4S_s.wav
475,192,33171,128,0,34439:0:0:0:70:B6S_s.wav
36,192,33171,1,0,0:0:0:70:G7S_s.wav
402,192,34439,128,0,35284:0:0:0:70:C4S_s.wav
329,192,35284,128,0,35706:0:0:0:70:C5S_s.wav
109,192,35706,1,0,0:0:0:70:E7S_s.wav
36,192,35706,1,0,0:0:0:70:G7S_s.wav
256,192,36129,1,0,0:0:0:70:C5S_s.wav
402,192,36552,1,0,0:0:0:70:E4S_s.wav
36,192,36974,1,0,0:0:0:70:F3S_s.wav
329,192,37397,1,0,0:0:0:70:C6S_s.wav
182,192,37819,128,0,38242:0:0:0:70:C5S_s.wav
475,192,38242,1,0,0:0:0:70:C4S_s.wav
109,192,38664,1,0,0:0:0:70:C5S_s.wav
329,192,39087,128,0,39509:0:0:0:70:E5S_s.wav
36,192,39509,1,0,0:0:0:70:A#3S_Bb3S_s.wav
182,192,39932,1,0,0:0:0:70:A6S_s.wav
402,192,40354,1,0,0:0:0:70:D5S_s.wav
36,192,40777,128,0,41622:0:0:0:70:A#5S_Bb5S_s.wav
256,192,41622,1,0,0:0:0:70:A#4S_Bb4S_s.wav
182,192,42044,128,0,42890:0:0:0:70:A#5S_Bb5S_s.wav
402,192,42890,1,0,0:0:0:70:A6S_s.wav
475,192,43312,128,0,44157:0:0:0:70:A#6S_Bb6S_s.wav
256,192,44157,1,0,0:0:0:70:G4S_s.wav
329,192,44580,128,0,45425:0:0:0:70:D4S_s.wav
109,192,45425,1,0,0:0:0:70:F5S_s.wav
36,192,45847,1,0,0:0:0:70:D6S_s.wav
109,192,46270,1,0,0:0:0:70:D6S_s.wav
182,192,46692,1,0,0:0:0:70:F6S_s.wav
256,192,47115,128,0,48805:0:0:0:70:D4S_s.wav
36,192,49650,1,0,0:0:0:70:A4S_s.wav
475,192,49650,1,0,0:0:0:70:A6S_s.wav
256,192,50073,1,0,0:0:0:70:E5S_s.wav
329,192,50918,1,0,0:0:0:70:B5S_s.wav
36,192,51340,1,0,0:0:0:70:G5S_s.wav
182,192,51763,1,0,0:0:0:70:B4S_s.wav
475,192,52185,1,0,0:0:0:70:C4S_s.wav
329,192,52608,1,0,0:0:0:70:G4S_s.wav
36,192,53030,1,0,0:0:0:70:E5S_s.wav
256,192,53453,1,0,0:0:0:70:B5S_s.wav
402,192,53875,1,0,0:0:0:70:G5S_s.wav
182,192,54298,1,0,0:0:0:70:B5S_s.wav
329,192,54721,1,0,0:0:0:70:A5S_s.wav
256,192,55143,1,0,0:0:0:70:G5S_s.wav
182,192,55566,1,0,0:0:0:70:F5S_s.wav
109,192,55988,1,0,0:0:0:70:A5S_s.wav
402,192,55988,1,0,0:0:0:70:B4S_s.wav
329,192,56411,1,0,0:0:0:70:G5S_s.wav
36,192,57256,128,0,58523:0:0:0:70:A3S_s.wav
475,192,57256,1,0,0:0:0:70:A4S_s.wav
475,192,58523,128,0,59791:0:0:0:70:A5S_s.wav
109,192,59791,128,0,60214:0:0:0:70:C6S_s.wav
36,192,59791,1,0,0:0:0:70:C7S_s.wav
402,192,60214,1,0,0:0:0:70:A6S_s.wav
256,192,60636,1,0,0:0:0:70:E5S_s.wav
36,192,61059,128,0,61481:0:0:0:70:B5S_s.wav
475,192,61059,1,0,0:0:0:70:G6S_s.wav
182,192,61481,1,0,0:0:0:70:E5S_s.wav
329,192,61904,1,0,0:0:0:70:G5S_s.wav
475,192,62326,128,0,62749:0:0:0:70:C4S_s.wav
109,192,62326,1,0,0:0:0:70:E6S_s.wav
36,192,62749,1,0,0:0:0:70:C5S_s.wav
182,192,63171,1,0,0:0:0:70:C6S_s.wav
402,192,63594,1,0,0:0:0:70:B5S_s.wav
109,192,63594,1,0,0:0:0:70:D6S_s.wav
329,192,64016,128,0,64861:0:0:0:70:B4S_s.wav
182,192,64861,1,0,0:0:0:70:D7S_s.wav
36,192,65284,1,0,0:0:0:70:F5S_s.wav
402,192,65706,1,0,0:0:0:70:A5S_s.wav
256,192,66129,128,0,67397:0:0:0:70:C7S_s.wav
475,192,67397,1,0,0:0:0:70:A4S.wav
402,192,67819,1,0,0:0:0:70:E5S.wav
329,192,68242,1,0,0:0:0:70:B5S.wav
182,192,68664,128,0,69932:0:0:0:70:C#6S_Db6S.wav
329,192,69932,1,0,0:0:0:70:F4S.wav
402,192,70354,1,0,0:0:0:70:C5S.wav
475,192,70777,1,0,0:0:0:70:G5S.wav
256,192,71199,128,0,72467:0:0:0:70:A5S.wav
182,192,72467,1,0,0:0:0:70:A4S.wav
109,192,72890,1,0,0:0:0:70:E5S.wav
36,192,73312,1,0,0:0:0:70:B5S.wav
329,192,73735,128,0,75002:0:0:0:70:C#6S_Db6S.wav
36,192,75002,1,0,0:0:0:70:F4S.wav
109,192,75425,1,0,0:0:0:70:C5S.wav
182,192,75847,1,0,0:0:0:70:G5S.wav
256,192,76270,128,0,77537:0:0:0:70:A5S.wav
36,192,77537,1,0,0:0:0:70:D4S.wav
329,192,77960,1,0,0:0:0:70:A4S.wav
109,192,78383,1,0,0:0:0:70:D5S.wav
402,192,78805,1,0,0:0:0:70:B3S_s.wav
475,192,78805,1,0,0:0:0:70:D5S_s.wav
256,192,79228,1,0,0:0:0:70:D6S_s.wav
36,192,79650,1,0,0:0:0:70:E6S_s.wav
402,192,80073,1,0,0:0:0:70:C6S_s.wav
109,192,80073,1,0,0:0:0:70:E3S.wav
329,192,80495,1,0,0:0:0:70:E7S_s.wav
182,192,80918,1,0,0:0:0:70:G#7S_Ab7S_s.wav
109,192,81340,1,0,0:0:0:70:E8S_s.wav
182,192,82608,1,0,0:0:0:70:A2S.wav
329,192,82608,1,0,0:0:0:70:A3S_s.wav
