osu file format v14

[General]
AudioFilename: audio.mp3
AudioLeadIn: 0
PreviewTime: 6002
Countdown: 0
SampleSet: Normal
StackLeniency: 0.7
Mode: 1
LetterboxInBreaks: 0
WidescreenStoryboard: 0

[Editor]
DistanceSpacing: 1
BeatDivisor: 4
GridSize: 32
TimelineZoom: 1

[Metadata]
Title:Yuki no Hana
TitleUnicode:雪の華
Artist:Seifuu Meigetsu
ArtistUnicode:清風明月
Creator:Faputa
Version:Kantan
Source:
Tags:~Dragon and Flame Story~ Seifuumeigetsu 葉月ゆら Hatsuki Yura Drop Ryuu to Honou Honoo no Monogatari 竜と炎の物語 C85 Comiket 85 Japanese Piano
BeatmapID:2734747
BeatmapSetID:1316234

[Difficulty]
HPDrainRate:7
CircleSize:2
OverallDifficulty:3
ApproachRate:10
SliderMultiplier:1.4
SliderTickRate:1

[Events]
//Background and Video events
0,0,"snow.jpg",0,0
//Break Periods
//Storyboard Layer 0 (Background)
//Storyboard Layer 1 (Fail)
//Storyboard Layer 2 (Pass)
//Storyboard Layer 3 (Foreground)
//Storyboard Layer 4 (Overlay)
//Storyboard Sound Samples

[TimingPoints]
193,422.535211267606,3,1,0,40,1,0
193,-100,3,1,0,40,0,0
4101,-100,3,1,0,30,0,0
5474,-100,3,1,0,60,0,0
47200,-100,3,1,0,30,0,0
48573,-100,3,1,0,60,0,0

[HitObjects]
256,192,193,5,8,0:0:0:0:
256,192,1038,1,8,0:0:0:0:
256,192,1460,1,0,0:0:0:0:
256,192,2728,1,8,0:0:0:0:
256,192,3573,1,0,0:0:0:0:
256,192,3995,1,8,0:0:0:0:
256,192,6531,1,8,0:0:0:0:
256,192,6953,1,0,0:0:0:0:
256,192,7798,1,0,0:0:0:0:
256,192,9066,1,8,0:0:0:0:
256,192,9488,1,8,0:0:0:0:
256,192,10333,1,0,0:0:0:0:
256,192,11601,1,8,0:0:0:0:
256,192,12446,1,0,0:0:0:0:
256,192,12869,1,8,0:0:0:0:
256,192,13291,1,8,0:0:0:0:
256,192,14136,1,0,0:0:0:0:
256,192,14559,1,8,0:0:0:0:
256,192,14981,1,0,0:0:0:0:
256,192,15404,1,8,0:0:0:0:
256,192,16671,1,8,0:0:0:0:
256,192,17516,1,8,0:0:0:0:
256,192,17939,1,0,0:0:0:0:
256,192,18784,1,0,0:0:0:0:
256,192,19207,1,8,0:0:0:0:
256,192,20052,1,8,0:0:0:0:
256,192,20474,1,8,0:0:0:0:
256,192,21742,1,8,0:0:0:0:
256,192,22587,1,0,0:0:0:0:
256,192,23009,1,8,0:0:0:0:
256,192,23854,1,0,0:0:0:0:
256,192,24277,1,8,0:0:0:0:
256,192,25122,1,0,0:0:0:0:
256,192,25545,1,8,0:0:0:0:
256,192,26390,1,8,0:0:0:0:
256,192,26812,1,8,0:0:0:0:
256,192,28080,1,8,0:0:0:0:
256,192,28502,1,0,0:0:0:0:
256,192,28925,1,8,0:0:0:0:
256,192,29347,1,8,0:0:0:0:
256,192,30615,1,0,0:0:0:0:
256,192,31460,1,8,0:0:0:0:
256,192,31883,1,0,0:0:0:0:
256,192,33150,1,8,0:0:0:0:
256,192,33573,1,0,0:0:0:0:
256,192,33995,1,8,0:0:0:0:
256,192,34418,1,8,0:0:0:0:
256,192,35685,1,8,0:0:0:0:
256,192,36531,1,0,0:0:0:0:
256,192,36953,1,0,0:0:0:0:
256,192,37798,1,8,0:0:0:0:
256,192,38221,1,0,0:0:0:0:
256,192,39066,1,0,0:0:0:0:
256,192,39488,1,8,0:0:0:0:
256,192,40756,1,8,0:0:0:0:
256,192,41601,1,0,0:0:0:0:
256,192,42023,1,8,0:0:0:0:
256,192,42869,1,8,0:0:0:0:
256,192,43291,1,8,0:0:0:0:
256,192,44559,1,0,0:0:0:0:
256,192,45826,1,8,0:0:0:0:
256,192,47094,1,8,0:0:0:0:
256,192,49629,1,8,0:0:0:0:
256,192,50052,1,0,0:0:0:0:
256,192,50897,1,8,0:0:0:0:
256,192,52164,1,0,0:0:0:0:
256,192,52587,1,8,0:0:0:0:
256,192,53432,1,8,0:0:0:0:
256,192,54700,1,8,0:0:0:0:
256,192,55545,1,0,0:0:0:0:
256,192,55967,1,0,0:0:0:0:
256,192,56390,1,8,0:0:0:0:
256,192,57235,1,0,0:0:0:0:
256,192,57657,1,8,0:0:0:0:
256,192,58080,1,0,0:0:0:0:
256,192,58502,1,8,0:0:0:0:
256,192,59770,1,8,0:0:0:0:
256,192,60615,1,8,0:0:0:0:
256,192,61038,1,8,0:0:0:0:
256,192,61883,1,0,0:0:0:0:
256,192,62305,1,8,0:0:0:0:
256,192,63150,1,8,0:0:0:0:
256,192,63573,1,0,0:0:0:0:
256,192,64840,1,8,0:0:0:0:
256,192,66108,1,0,0:0:0:0:
256,192,67376,1,8,0:0:0:0:
256,192,69911,1,0,0:0:0:0:
256,192,72446,1,8,0:0:0:0:
256,192,74981,1,0,0:0:0:0:
256,192,77516,1,8,0:0:0:0:
256,192,78784,1,0,0:0:0:0:
256,192,80052,1,8,0:0:0:0:
256,192,82587,1,4,0:0:0:0:
