osu file format v14

[General]
AudioFilename: audio.ogg
AudioLeadIn: 0
PreviewTime: 47597
Countdown: 0
SampleSet: Soft
StackLeniency: 0.7
Mode: 3
LetterboxInBreaks: 0
SpecialStyle: 0
WidescreenStoryboard: 1

[Editor]
Bookmarks: 66481
DistanceSpacing: 1.2
BeatDivisor: 4
GridSize: 8
TimelineZoom: 2.1

[Metadata]
Title:Salamandra no Odoriko
TitleUnicode:サラマンドラの踊り子
Artist:Seifuu Meigetsu
ArtistUnicode:清風明月
Creator:Kim_GodSSI
Version:Insane
Source:
Tags:竜と炎の物語 ~Dragon and Flame Story~ 葉月ゆら hatsuki yura Drop c85 comiket85 comic market 85 コミケ85 コミックマーケット85 doujin Gothic folk J-pop jpop japanese SEFU-006 spanish guitar ln long notes marathon kimgod saramandora no odoriko salamander no odoriko
BeatmapID:3485128
BeatmapSetID:904136

[Difficulty]
HPDrainRate:8
CircleSize:7
OverallDifficulty:7.5
ApproachRate:5
SliderMultiplier:1.4
SliderTickRate:1

[Events]
//Background and Video events
0,0,"BG.jpg",0,0
//Break Periods
//Storyboard Layer 0 (Background)
//Storyboard Layer 1 (Fail)
//Storyboard Layer 2 (Pass)
//Storyboard Layer 3 (Foreground)
//Storyboard Layer 4 (Overlay)
//Storyboard Sound Samples

[TimingPoints]
2243,472.44094488189,4,2,1,50,1,0
15471,-200,4,2,1,50,0,0
15707,-64.5161290322581,4,2,1,50,0,0
15825,-200,4,2,1,50,0,0
16061,-64.5161290322581,4,2,1,50,0,0
16179,-200,4,2,1,50,0,0
16258,-100,4,2,1,50,0,0
16416,-66.6666666666667,4,2,1,50,0,0
16495,-222.222222222222,4,2,1,50,0,0
16573,-66.6666666666667,4,2,1,50,0,0
16652,-222.222222222222,4,2,1,50,0,0
16731,-66.6666666666667,4,2,1,50,0,0
16810,-222.222222222222,4,2,1,50,0,0
16888,-100,4,2,1,50,0,0
48069,-71.4285714285714,4,2,1,50,0,0
48128,-142.857142857143,4,2,1,50,0,0
48187,-100,4,2,1,50,0,0
48305,-71.4285714285714,4,2,1,50,0,0
48364,-142.857142857143,4,2,1,50,0,0
48424,-100,4,2,1,50,0,0
48542,-71.4285714285714,4,2,1,50,0,0
48601,-142.857142857143,4,2,1,50,0,0
48660,-100,4,2,1,50,0,0
48778,-71.4285714285714,4,2,1,50,0,0
48837,-142.857142857143,4,2,1,50,0,0
48896,-100,4,2,1,50,0,0
49959,-71.4285714285714,4,2,1,50,0,0
50018,-142.857142857143,4,2,1,50,0,0
50077,-100,4,2,1,50,0,0
50195,-71.4285714285714,4,2,1,50,0,0
50254,-142.857142857143,4,2,1,50,0,0
50314,-100,4,2,1,50,0,0
50432,-71.4285714285714,4,2,1,50,0,0
50491,-142.857142857143,4,2,1,50,0,0
50550,-100,4,2,1,50,0,0
50668,-71.4285714285714,4,2,1,50,0,0
50727,-142.857142857143,4,2,1,50,0,0
50786,-100,4,2,1,50,0,0
52321,-71.4285714285714,4,2,1,50,0,0
52380,-142.857142857143,4,2,1,50,0,0
52439,-100,4,2,1,50,0,0
52557,-71.4285714285714,4,2,1,50,0,0
52616,-142.857142857143,4,2,1,50,0,0
52675,-100,4,2,1,50,0,0
52793,-71.4285714285714,4,2,1,50,0,0
52852,-142.857142857143,4,2,1,50,0,0
52911,-100,4,2,1,50,0,0
53029,-71.4285714285714,4,2,1,50,0,0
53088,-142.857142857143,4,2,1,50,0,0
53147,-100,4,2,1,50,0,0
54211,-71.4285714285714,4,2,1,50,0,0
54270,-142.857142857143,4,2,1,50,0,0
54329,-100,4,2,1,50,0,0
54447,-71.4285714285714,4,2,1,50,0,0
54506,-142.857142857143,4,2,1,50,0,0
54566,-100,4,2,1,50,0,0
56101,-71.4285714285714,4,2,1,50,0,0
56160,-142.857142857143,4,2,1,50,0,0
56219,-100,4,2,1,50,0,0
56337,-71.4285714285714,4,2,1,50,0,0
56396,-142.857142857143,4,2,1,50,0,0
56456,-100,4,2,1,50,0,0
57518,-71.4285714285714,4,2,1,50,0,0
57577,-142.857142857143,4,2,1,50,0,0
57637,-100,4,2,1,50,0,0
57754,-71.4285714285714,4,2,1,50,0,0
57813,-142.857142857143,4,2,1,50,0,0
57873,-100,4,2,1,50,0,0
58935,-71.4285714285714,4,2,1,50,0,0
58994,-142.857142857143,4,2,1,50,0,0
59054,-100,4,2,1,50,0,0
59172,-71.4285714285714,4,2,1,50,0,0
59231,-142.857142857143,4,2,1,50,0,0
59291,-100,4,2,1,50,0,0
59880,-71.4285714285714,4,2,1,50,0,0
59939,-142.857142857143,4,2,1,50,0,0
59999,-100,4,2,1,50,0,0
60117,-71.4285714285714,4,2,1,50,0,0
60176,-142.857142857143,4,2,1,50,0,0
60236,-100,4,2,1,50,0,0
62006,-71.4285714285714,4,2,1,50,0,0
62065,-142.857142857143,4,2,1,50,0,0
62125,-100,4,2,1,50,0,0
62243,-71.4285714285714,4,2,1,50,0,0
62302,-142.857142857143,4,2,1,50,0,0
62362,-100,4,2,1,50,0,0
62479,-71.4285714285714,4,2,1,50,0,0
62538,-142.857142857143,4,2,1,50,0,0
62598,-100,4,2,1,50,0,0
62715,-71.4285714285714,4,2,1,50,0,0
62774,-142.857142857143,4,2,1,50,0,0
62834,-100,4,2,1,50,0,0
62951,-71.4285714285714,4,2,1,50,0,0
63010,-142.857142857143,4,2,1,50,0,0
63070,-100,4,2,1,50,0,0
63660,-71.4285714285714,4,2,1,50,0,0
63719,-142.857142857143,4,2,1,50,0,0
63779,-100,4,2,1,50,0,0
63896,-71.4285714285714,4,2,1,50,0,0
63955,-142.857142857143,4,2,1,50,0,0
64015,-100,4,2,1,50,0,0
66494,-66.6666666666667,4,2,1,50,0,0
66573,-222.222222222222,4,2,1,50,0,0
66651,-66.6666666666667,4,2,1,50,0,0
66730,-222.222222222222,4,2,1,50,0,0
66809,-66.6666666666667,4,2,1,50,0,0
66888,-222.222222222222,4,2,1,50,0,0
66966,-66.6666666666667,4,2,1,50,0,0
67045,-222.222222222222,4,2,1,50,0,0
67123,-66.6666666666667,4,2,1,50,0,0
67202,-222.222222222222,4,2,1,50,0,0
67281,-66.6666666666667,4,2,1,50,0,0
67360,-222.222222222222,4,2,1,50,0,0
67439,-100,4,2,1,50,0,0
81613,-200,4,2,1,50,0,0
81849,-64.5161290322581,4,2,1,50,0,0
81967,-200,4,2,1,50,0,0
82203,-64.5161290322581,4,2,1,50,0,0
82321,-200,4,2,1,50,0,0
82400,-100,4,2,1,50,0,0
82558,-66.6666666666667,4,2,1,50,0,0
82637,-222.222222222222,4,2,1,50,0,0
82715,-66.6666666666667,4,2,1,50,0,0
82794,-222.222222222222,4,2,1,50,0,0
82873,-66.6666666666667,4,2,1,50,0,0
82952,-222.222222222222,4,2,1,50,0,0
83030,-100,4,2,1,50,0,0
114211,-71.4285714285714,4,2,1,50,0,0
114270,-142.857142857143,4,2,1,50,0,0
114329,-100,4,2,1,50,0,0
114447,-71.4285714285714,4,2,1,50,0,0
114506,-142.857142857143,4,2,1,50,0,0
114566,-100,4,2,1,50,0,0
114684,-71.4285714285714,4,2,1,50,0,0
114743,-142.857142857143,4,2,1,50,0,0
114802,-100,4,2,1,50,0,0
114920,-71.4285714285714,4,2,1,50,0,0
114979,-142.857142857143,4,2,1,50,0,0
115038,-100,4,2,1,50,0,0
116101,-71.4285714285714,4,2,1,50,0,0
116160,-142.857142857143,4,2,1,50,0,0
116219,-100,4,2,1,50,0,0
116337,-71.4285714285714,4,2,1,50,0,0
116396,-142.857142857143,4,2,1,50,0,0
116456,-100,4,2,1,50,0,0
116574,-71.4285714285714,4,2,1,50,0,0
116633,-142.857142857143,4,2,1,50,0,0
116692,-100,4,2,1,50,0,0
116810,-71.4285714285714,4,2,1,50,0,0
116869,-142.857142857143,4,2,1,50,0,0
116928,-100,4,2,1,50,0,0
118463,-71.4285714285714,4,2,1,50,0,0
118522,-142.857142857143,4,2,1,50,0,0
118581,-100,4,2,1,50,0,0
118699,-71.4285714285714,4,2,1,50,0,0
118758,-142.857142857143,4,2,1,50,0,0
118817,-100,4,2,1,50,0,0
118935,-71.4285714285714,4,2,1,50,0,0
118994,-142.857142857143,4,2,1,50,0,0
119053,-100,4,2,1,50,0,0
119171,-71.4285714285714,4,2,1,50,0,0
119230,-142.857142857143,4,2,1,50,0,0
119289,-100,4,2,1,50,0,0
120353,-71.4285714285714,4,2,1,50,0,0
120412,-142.857142857143,4,2,1,50,0,0
120471,-100,4,2,1,50,0,0
120589,-71.4285714285714,4,2,1,50,0,0
120648,-142.857142857143,4,2,1,50,0,0
120708,-100,4,2,1,50,0,0
122243,-71.4285714285714,4,2,1,50,0,0
122302,-142.857142857143,4,2,1,50,0,0
122361,-100,4,2,1,50,0,0
122479,-71.4285714285714,4,2,1,50,0,0
122538,-142.857142857143,4,2,1,50,0,0
122598,-100,4,2,1,50,0,0
123660,-71.4285714285714,4,2,1,50,0,0
123719,-142.857142857143,4,2,1,50,0,0
123779,-100,4,2,1,50,0,0
123896,-71.4285714285714,4,2,1,50,0,0
123955,-142.857142857143,4,2,1,50,0,0
124015,-100,4,2,1,50,0,0
125077,-71.4285714285714,4,2,1,50,0,0
125136,-142.857142857143,4,2,1,50,0,0
125196,-100,4,2,1,50,0,0
125314,-71.4285714285714,4,2,1,50,0,0
125373,-142.857142857143,4,2,1,50,0,0
125433,-100,4,2,1,50,0,0
126022,-71.4285714285714,4,2,1,50,0,0
126081,-142.857142857143,4,2,1,50,0,0
126141,-100,4,2,1,50,0,0
126259,-71.4285714285714,4,2,1,50,0,0
126318,-142.857142857143,4,2,1,50,0,0
126378,-100,4,2,1,50,0,0
128148,-71.4285714285714,4,2,1,50,0,0
128207,-142.857142857143,4,2,1,50,0,0
128267,-100,4,2,1,50,0,0
128385,-71.4285714285714,4,2,1,50,0,0
128444,-142.857142857143,4,2,1,50,0,0
128504,-100,4,2,1,50,0,0
128621,-71.4285714285714,4,2,1,50,0,0
128680,-142.857142857143,4,2,1,50,0,0
128740,-100,4,2,1,50,0,0
128857,-71.4285714285714,4,2,1,50,0,0
128916,-142.857142857143,4,2,1,50,0,0
128976,-100,4,2,1,50,0,0
129093,-71.4285714285714,4,2,1,50,0,0
129152,-142.857142857143,4,2,1,50,0,0
129212,-100,4,2,1,50,0,0
129802,-71.4285714285714,4,2,1,50,0,0
129861,-142.857142857143,4,2,1,50,0,0
129921,-100,4,2,1,50,0,0
130038,-71.4285714285714,4,2,1,50,0,0
130097,-142.857142857143,4,2,1,50,0,0
130157,-100,4,2,1,50,0,0
132636,-66.6666666666667,4,2,1,50,0,0
132715,-222.222222222222,4,2,1,50,0,0
132793,-66.6666666666667,4,2,1,50,0,0
132872,-222.222222222222,4,2,1,50,0,0
132951,-66.6666666666667,4,2,1,50,0,0
133030,-222.222222222222,4,2,1,50,0,0
133108,-66.6666666666667,4,2,1,50,0,0
133187,-222.222222222222,4,2,1,50,0,0
133265,-66.6666666666667,4,2,1,50,0,0
133344,-222.222222222222,4,2,1,50,0,0
133423,-66.6666666666667,4,2,1,50,0,0
133502,-222.222222222222,4,2,1,50,0,0
133581,-100,4,2,1,50,0,0
165707,-66.6666666666667,4,2,1,50,0,0
165786,-222.222222222222,4,2,1,50,0,0
165864,-66.6666666666667,4,2,1,50,0,0
165943,-222.222222222222,4,2,1,50,0,0
166022,-66.6666666666667,4,2,1,50,0,0
166101,-222.222222222222,4,2,1,50,0,0
166180,-100,4,2,1,50,0,0
166298,-106.382978723404,4,2,1,50,0,0
166416,-113.636363636364,4,2,1,50,0,0
166534,-121.951219512195,4,2,1,50,0,0
166652,-107.52688172043,4,2,1,50,0,0
173975,-103.092783505155,4,2,1,50,0,0
174211,-100,4,2,1,50,0,0
179821,-71.4285714285714,4,2,1,50,0,0
179880,-142.857142857143,4,2,1,50,0,0
180176,-71.4285714285714,4,2,1,50,0,0
180235,-125,4,2,1,50,0,0
180530,-71.4285714285714,4,2,1,50,0,0
180589,-111.111111111111,4,2,1,50,0,0
180766,-71.4285714285714,4,2,1,50,0,0
180825,-105.263157894737,4,2,1,50,0,0
181298,-103.092783505155,4,2,1,50,0,0
181770,-100,4,2,1,50,0,0
182243,-71.4285714285714,4,2,1,50,0,0
182302,-142.857142857143,4,2,1,50,0,0
182361,-100,4,2,1,50,0,0
182479,-71.4285714285714,4,2,1,50,0,0
182538,-142.857142857143,4,2,1,50,0,0
182598,-100,4,2,1,50,0,0
182716,-71.4285714285714,4,2,1,50,0,0
182775,-142.857142857143,4,2,1,50,0,0
182834,-100,4,2,1,50,0,0
182952,-71.4285714285714,4,2,1,50,0,0
183011,-142.857142857143,4,2,1,50,0,0
183070,-100,4,2,1,50,0,0
184133,-71.4285714285714,4,2,1,50,0,0
184192,-142.857142857143,4,2,1,50,0,0
184251,-100,4,2,1,50,0,0
184369,-71.4285714285714,4,2,1,50,0,0
184428,-142.857142857143,4,2,1,50,0,0
184488,-100,4,2,1,50,0,0
184606,-71.4285714285714,4,2,1,50,0,0
184665,-142.857142857143,4,2,1,50,0,0
184724,-100,4,2,1,50,0,0
184842,-71.4285714285714,4,2,1,50,0,0
184901,-142.857142857143,4,2,1,50,0,0
184960,-100,4,2,1,50,0,0
186494,-71.4285714285714,4,2,1,50,0,0
186553,-142.857142857143,4,2,1,50,0,0
186612,-100,4,2,1,50,0,0
186730,-71.4285714285714,4,2,1,50,0,0
186789,-142.857142857143,4,2,1,50,0,0
186848,-100,4,2,1,50,0,0
186966,-71.4285714285714,4,2,1,50,0,0
187025,-142.857142857143,4,2,1,50,0,0
187084,-100,4,2,1,50,0,0
187202,-71.4285714285714,4,2,1,50,0,0
187261,-142.857142857143,4,2,1,50,0,0
187320,-100,4,2,1,50,0,0
188384,-71.4285714285714,4,2,1,50,0,0
188443,-142.857142857143,4,2,1,50,0,0
188502,-100,4,2,1,50,0,0
188620,-71.4285714285714,4,2,1,50,0,0
188679,-142.857142857143,4,2,1,50,0,0
188739,-100,4,2,1,50,0,0
190275,-71.4285714285714,4,2,1,50,0,0
190334,-142.857142857143,4,2,1,50,0,0
190393,-100,4,2,1,50,0,0
190511,-71.4285714285714,4,2,1,50,0,0
190570,-142.857142857143,4,2,1,50,0,0
190630,-100,4,2,1,50,0,0
191691,-71.4285714285714,4,2,1,50,0,0
191750,-142.857142857143,4,2,1,50,0,0
191810,-100,4,2,1,50,0,0
191928,-71.4285714285714,4,2,1,50,0,0
191987,-142.857142857143,4,2,1,50,0,0
192047,-100,4,2,1,50,0,0
193109,-71.4285714285714,4,2,1,50,0,0
193168,-142.857142857143,4,2,1,50,0,0
193228,-100,4,2,1,50,0,0
193346,-71.4285714285714,4,2,1,50,0,0
193405,-142.857142857143,4,2,1,50,0,0
193465,-100,4,2,1,50,0,0
194054,-71.4285714285714,4,2,1,50,0,0
194113,-142.857142857143,4,2,1,50,0,0
194173,-100,4,2,1,50,0,0
194291,-71.4285714285714,4,2,1,50,0,0
194350,-142.857142857143,4,2,1,50,0,0
194410,-100,4,2,1,50,0,0
196180,-71.4285714285714,4,2,1,50,0,0
196239,-142.857142857143,4,2,1,50,0,0
196299,-100,4,2,1,50,0,0
196417,-71.4285714285714,4,2,1,50,0,0
196476,-142.857142857143,4,2,1,50,0,0
196536,-100,4,2,1,50,0,0
196653,-71.4285714285714,4,2,1,50,0,0
196712,-142.857142857143,4,2,1,50,0,0
196772,-100,4,2,1,50,0,0
196889,-71.4285714285714,4,2,1,50,0,0
196948,-142.857142857143,4,2,1,50,0,0
197008,-100,4,2,1,50,0,0
197125,-71.4285714285714,4,2,1,50,0,0
197184,-142.857142857143,4,2,1,50,0,0
197244,-100,4,2,1,50,0,0
197834,-71.4285714285714,4,2,1,50,0,0
197893,-142.857142857143,4,2,1,50,0,0
197953,-100,4,2,1,50,0,0
198070,-71.4285714285714,4,2,1,50,0,0
198129,-142.857142857143,4,2,1,50,0,0
198189,-100,4,2,1,50,0,0
200668,-66.6666666666667,4,2,1,50,0,0
200747,-222.222222222222,4,2,1,50,0,0
200825,-66.6666666666667,4,2,1,50,0,0
200904,-222.222222222222,4,2,1,50,0,0
200983,-66.6666666666667,4,2,1,50,0,0
201062,-222.222222222222,4,2,1,50,0,0
201140,-66.6666666666667,4,2,1,50,0,0
201219,-222.222222222222,4,2,1,50,0,0
201297,-66.6666666666667,4,2,1,50,0,0
201376,-222.222222222222,4,2,1,50,0,0
201455,-66.6666666666667,4,2,1,50,0,0
201534,-222.222222222222,4,2,1,50,0,0
201613,-100,4,2,1,50,0,0
215787,-200,4,2,1,50,0,0
216023,-64.5161290322581,4,2,1,50,0,0
216141,-200,4,2,1,50,0,0
216377,-64.5161290322581,4,2,1,50,0,0
216495,-200,4,2,1,50,0,0
216574,-100,4,2,1,50,0,0
216732,-66.6666666666667,4,2,1,50,0,0
216811,-222.222222222222,4,2,1,50,0,0
216889,-66.6666666666667,4,2,1,50,0,0
216968,-222.222222222222,4,2,1,50,0,0
217047,-66.6666666666667,4,2,1,50,0,0
217126,-222.222222222222,4,2,1,50,0,0
217204,-100,4,2,1,50,0,0

[HitObjects]
182,192,2243,128,0,2597:0:0:0:0:
36,192,2243,1,0,0:0:0:0:
475,192,2243,1,0,0:0:0:0:
329,192,2361,1,0,0:0:0:0:
402,192,2479,1,0,0:0:0:0:
329,192,2597,128,0,2833:0:0:0:0:
36,192,2715,1,0,0:0:0:0:
475,192,2715,1,0,0:0:0:0:
109,192,2833,1,0,0:0:0:0:
182,192,2892,1,0,0:0:0:0:
256,192,2951,1,0,0:0:0:0:
402,192,3069,1,0,0:0:0:0:
109,192,3187,128,0,3542:0:0:0:0:
182,192,3187,1,0,0:0:0:0:
475,192,3187,1,0,0:0:0:0:
329,192,3305,1,0,0:0:0:0:
256,192,3424,1,0,0:0:0:0:
402,192,3542,128,0,3896:0:0:0:0:
109,192,3660,1,0,0:0:0:0:
329,192,3660,1,0,0:0:0:0:
256,192,3778,1,0,0:0:0:0:
182,192,3896,1,0,0:0:0:0:
329,192,4014,1,0,0:0:0:0:
402,192,4132,128,0,4487:0:0:0:0:
36,192,4132,1,0,0:0:0:0:
475,192,4132,1,0,0:0:0:0:
182,192,4250,1,0,0:0:0:0:
256,192,4368,1,0,0:0:0:0:
109,192,4487,128,0,4723:0:0:0:0:
475,192,4605,1,0,0:0:0:0:
36,192,4605,1,0,0:0:0:0:
402,192,4723,1,0,0:0:0:0:
329,192,4782,1,0,0:0:0:0:
256,192,4841,1,0,0:0:0:0:
109,192,4959,1,0,0:0:0:0:
329,192,5077,128,0,5431:0:0:0:0:
182,192,5077,1,0,0:0:0:0:
36,192,5077,1,0,0:0:0:0:
256,192,5195,1,0,0:0:0:0:
109,192,5313,1,0,0:0:0:0:
182,192,5431,128,0,5786:0:0:0:0:
329,192,5550,1,0,0:0:0:0:
475,192,5550,1,0,0:0:0:0:
256,192,5668,1,0,0:0:0:0:
402,192,5786,1,0,0:0:0:0:
182,192,5904,1,0,0:0:0:0:
109,192,6022,128,0,6376:0:0:0:0:
475,192,6022,1,0,0:0:0:0:
256,192,6022,1,0,0:0:0:0:
402,192,6140,1,0,0:0:0:0:
329,192,6258,1,0,0:0:0:0:
402,192,6376,1,0,0:0:0:0:
329,192,6494,128,0,6967:0:0:0:0:
36,192,6494,1,0,0:0:0:0:
182,192,6494,1,0,0:0:0:0:
256,192,6613,1,0,0:0:0:0:
109,192,6731,1,0,0:0:0:0:
182,192,6849,1,0,0:0:0:0:
36,192,6967,1,0,0:0:0:0:
402,192,6967,128,0,7321:0:0:0:0:
475,192,6967,1,0,0:0:0:0:
182,192,7085,1,0,0:0:0:0:
109,192,7203,1,0,0:0:0:0:
256,192,7321,128,0,7676:0:0:0:0:
402,192,7439,1,0,0:0:0:0:
109,192,7439,1,0,0:0:0:0:
329,192,7557,1,0,0:0:0:0:
182,192,7676,1,0,0:0:0:0:
329,192,7794,1,0,0:0:0:0:
182,192,7912,1,0,0:0:0:0:
36,192,7912,1,0,0:0:0:0:
475,192,7912,1,0,0:0:0:0:
402,192,8030,1,0,0:0:0:0:
475,192,8148,128,0,8857:0:0:0:0:
109,192,8148,1,0,0:0:0:0:
329,192,8266,1,0,0:0:0:0:
36,192,8384,1,0,0:0:0:0:
402,192,8384,1,0,0:0:0:0:
182,192,8502,1,0,0:0:0:0:
109,192,8620,1,0,0:0:0:0:
329,192,8739,1,0,0:0:0:0:
182,192,8857,1,0,0:0:0:0:
36,192,8857,1,0,0:0:0:0:
402,192,8975,1,0,0:0:0:0:
256,192,9093,1,0,0:0:0:0:
36,192,9093,128,0,9329:0:0:0:0:
475,192,9211,1,0,0:0:0:0:
182,192,9329,128,0,9565:0:0:0:0:
329,192,9329,1,0,0:0:0:0:
475,192,9447,1,0,0:0:0:0:
329,192,9565,128,0,9802:0:0:0:0:
36,192,9565,1,0,0:0:0:0:
182,192,9683,1,0,0:0:0:0:
256,192,9802,1,0,0:0:0:0:
36,192,9802,1,0,0:0:0:0:
475,192,9802,128,0,10156:0:0:0:0:
182,192,9920,1,0,0:0:0:0:
109,192,10038,1,0,0:0:0:0:
402,192,10038,1,0,0:0:0:0:
329,192,10156,128,0,10510:0:0:0:0:
182,192,10274,1,0,0:0:0:0:
36,192,10274,1,0,0:0:0:0:
256,192,10392,1,0,0:0:0:0:
109,192,10510,1,0,0:0:0:0:
256,192,10628,1,0,0:0:0:0:
36,192,10746,128,0,11101:0:0:0:0:
182,192,10746,1,0,0:0:0:0:
475,192,10746,1,0,0:0:0:0:
402,192,10865,1,0,0:0:0:0:
109,192,10983,1,0,0:0:0:0:
329,192,10983,1,0,0:0:0:0:
182,192,11101,128,0,11455:0:0:0:0:
329,192,11219,1,0,0:0:0:0:
475,192,11219,1,0,0:0:0:0:
256,192,11337,1,0,0:0:0:0:
402,192,11455,1,0,0:0:0:0:
256,192,11573,1,0,0:0:0:0:
475,192,11691,128,0,12046:0:0:0:0:
109,192,11691,1,0,0:0:0:0:
329,192,11691,1,0,0:0:0:0:
182,192,11809,1,0,0:0:0:0:
256,192,11928,1,0,0:0:0:0:
36,192,11928,1,0,0:0:0:0:
329,192,12046,128,0,12400:0:0:0:0:
182,192,12164,1,0,0:0:0:0:
36,192,12164,1,0,0:0:0:0:
256,192,12282,1,0,0:0:0:0:
109,192,12400,1,0,0:0:0:0:
256,192,12518,1,0,0:0:0:0:
402,192,12636,128,0,12991:0:0:0:0:
36,192,12636,1,0,0:0:0:0:
475,192,12636,1,0,0:0:0:0:
182,192,12754,1,0,0:0:0:0:
256,192,12872,1,0,0:0:0:0:
329,192,12872,1,0,0:0:0:0:
109,192,12991,128,0,13345:0:0:0:0:
329,192,13109,1,0,0:0:0:0:
475,192,13109,1,0,0:0:0:0:
182,192,13227,1,0,0:0:0:0:
329,192,13345,1,0,0:0:0:0:
256,192,13463,1,0,0:0:0:0:
36,192,13581,128,0,13935:0:0:0:0:
182,192,13581,1,0,0:0:0:0:
402,192,13581,1,0,0:0:0:0:
256,192,13699,1,0,0:0:0:0:
329,192,13817,1,0,0:0:0:0:
109,192,13817,1,0,0:0:0:0:
402,192,13935,1,0,0:0:0:0:
475,192,14054,128,0,14526:0:0:0:0:
256,192,14054,1,0,0:0:0:0:
36,192,14054,1,0,0:0:0:0:
182,192,14172,1,0,0:0:0:0:
329,192,14290,1,0,0:0:0:0:
109,192,14290,1,0,0:0:0:0:
256,192,14408,1,0,0:0:0:0:
109,192,14526,1,0,0:0:0:0:
402,192,14526,128,0,14880:0:0:0:0:
36,192,14526,1,0,0:0:0:0:
182,192,14644,1,0,0:0:0:0:
256,192,14762,1,0,0:0:0:0:
329,192,14762,1,0,0:0:0:0:
36,192,14880,1,0,0:0:0:0:
109,192,14880,128,0,15235:0:0:0:0:
329,192,14998,1,0,0:0:0:0:
475,192,14998,1,0,0:0:0:0:
402,192,15117,1,0,0:0:0:0:
256,192,15235,128,0,15471:0:0:0:0:
36,192,15235,1,0,0:0:0:0:
475,192,15235,1,0,0:0:0:0:
182,192,15471,1,0,0:0:0:0:
36,192,15471,1,0,0:0:0:0:
329,192,15471,1,0,0:0:0:0:
475,192,15471,1,0,0:0:0:0:
182,192,15825,1,0,0:0:0:0:
329,192,15825,1,0,0:0:0:0:
182,192,16180,1,0,0:0:0:0:
329,192,16180,1,0,0:0:0:0:
109,192,16416,1,0,0:0:0:0:
256,192,16416,1,0,0:0:0:0:
402,192,16416,1,0,0:0:0:0:
109,192,16573,1,0,0:0:0:0:
256,192,16573,1,0,0:0:0:0:
402,192,16573,1,0,0:0:0:0:
109,192,16731,1,0,0:0:0:0:
256,192,16731,1,0,0:0:0:0:
402,192,16731,1,0,0:0:0:0:
182,192,16888,1,0,0:0:0:0:
36,192,16888,1,0,0:0:0:0:
475,192,16888,1,0,0:0:0:0:
329,192,16888,1,0,0:0:0:0:
109,192,17361,1,0,0:0:0:0:
402,192,17361,1,0,0:0:0:0:
256,192,17361,1,0,0:0:0:0:
109,192,17597,128,0,17833:0:0:0:0:
475,192,17597,1,0,0:0:0:0:
402,192,17597,1,0,0:0:0:0:
329,192,17715,1,0,0:0:0:0:
256,192,17833,128,0,18069:0:0:0:0:
182,192,17833,1,0,0:0:0:0:
36,192,17833,1,0,0:0:0:0:
402,192,18069,128,0,18305:0:0:0:0:
109,192,18069,1,0,0:0:0:0:
475,192,18069,1,0,0:0:0:0:
182,192,18305,128,0,18660:0:0:0:0:
36,192,18305,1,0,0:0:0:0:
329,192,18305,1,0,0:0:0:0:
36,192,18542,1,0,0:0:0:0:
475,192,18542,1,0,0:0:0:0:
329,192,18660,128,0,19014:0:0:0:0:
402,192,18660,1,0,0:0:0:0:
109,192,18778,1,0,0:0:0:0:
182,192,18778,1,0,0:0:0:0:
182,192,19014,128,0,19250:0:0:0:0:
475,192,19014,1,0,0:0:0:0:
36,192,19014,1,0,0:0:0:0:
402,192,19250,128,0,19605:0:0:0:0:
36,192,19250,1,0,0:0:0:0:
329,192,19250,1,0,0:0:0:0:
36,192,19487,1,0,0:0:0:0:
182,192,19487,1,0,0:0:0:0:
256,192,19605,128,0,19841:0:0:0:0:
475,192,19605,1,0,0:0:0:0:
109,192,19723,1,0,0:0:0:0:
402,192,19723,1,0,0:0:0:0:
402,192,19959,128,0,20195:0:0:0:0:
182,192,19959,1,0,0:0:0:0:
329,192,19959,1,0,0:0:0:0:
109,192,20195,128,0,20550:0:0:0:0:
475,192,20195,1,0,0:0:0:0:
36,192,20195,1,0,0:0:0:0:
402,192,20431,1,0,0:0:0:0:
256,192,20431,1,0,0:0:0:0:
182,192,20550,1,0,0:0:0:0:
329,192,20668,1,0,0:0:0:0:
475,192,20668,1,0,0:0:0:0:
329,192,20904,128,0,21140:0:0:0:0:
109,192,20904,1,0,0:0:0:0:
182,192,21022,1,0,0:0:0:0:
36,192,21140,128,0,21494:0:0:0:0:
256,192,21140,1,0,0:0:0:0:
402,192,21140,1,0,0:0:0:0:
182,192,21376,1,0,0:0:0:0:
329,192,21376,1,0,0:0:0:0:
402,192,21494,128,0,21849:0:0:0:0:
475,192,21494,1,0,0:0:0:0:
182,192,21613,1,0,0:0:0:0:
36,192,21613,1,0,0:0:0:0:
256,192,21849,128,0,22085:0:0:0:0:
109,192,21849,1,0,0:0:0:0:
475,192,21849,1,0,0:0:0:0:
36,192,22085,128,0,22439:0:0:0:0:
475,192,22085,1,0,0:0:0:0:
329,192,22085,1,0,0:0:0:0:
256,192,22321,1,0,0:0:0:0:
402,192,22321,1,0,0:0:0:0:
182,192,22439,1,0,0:0:0:0:
109,192,22557,128,0,22912:0:0:0:0:
475,192,22557,1,0,0:0:0:0:
329,192,22557,1,0,0:0:0:0:
256,192,22794,1,0,0:0:0:0:
402,192,22794,1,0,0:0:0:0:
329,192,23030,128,0,23384:0:0:0:0:
475,192,23030,1,0,0:0:0:0:
182,192,23030,1,0,0:0:0:0:
182,192,23266,1,0,0:0:0:0:
36,192,23266,1,0,0:0:0:0:
109,192,23384,128,0,23620:0:0:0:0:
256,192,23384,1,0,0:0:0:0:
329,192,23502,1,0,0:0:0:0:
475,192,23502,1,0,0:0:0:0:
402,192,23739,128,0,23975:0:0:0:0:
182,192,23739,1,0,0:0:0:0:
36,192,23739,1,0,0:0:0:0:
36,192,23975,1,0,0:0:0:0:
256,192,23975,1,0,0:0:0:0:
475,192,23975,1,0,0:0:0:0:
109,192,24093,128,0,24152:0:0:0:0:
329,192,24093,1,0,0:0:0:0:
182,192,24211,128,0,24270:0:0:0:0:
402,192,24211,1,0,0:0:0:0:
256,192,24329,128,0,24388:0:0:0:0:
36,192,24329,1,0,0:0:0:0:
402,192,24447,128,0,24506:0:0:0:0:
182,192,24447,1,0,0:0:0:0:
475,192,24447,1,0,0:0:0:0:
109,192,24565,128,0,24624:0:0:0:0:
256,192,24565,1,0,0:0:0:0:
329,192,24683,128,0,24743:0:0:0:0:
475,192,24683,1,0,0:0:0:0:
182,192,24802,128,0,24861:0:0:0:0:
36,192,24802,1,0,0:0:0:0:
402,192,24920,1,0,0:0:0:0:
109,192,24920,1,0,0:0:0:0:
256,192,24920,1,0,0:0:0:0:
475,192,24998,1,0,0:0:0:0:
329,192,25077,1,0,0:0:0:0:
36,192,25156,128,0,25392:0:0:0:0:
256,192,25156,1,0,0:0:0:0:
109,192,25156,1,0,0:0:0:0:
402,192,25274,1,0,0:0:0:0:
329,192,25392,1,0,0:0:0:0:
182,192,25392,128,0,25628:0:0:0:0:
402,192,25628,128,0,25865:0:0:0:0:
36,192,25628,1,0,0:0:0:0:
475,192,25628,1,0,0:0:0:0:
109,192,25865,128,0,26101:0:0:0:0:
475,192,25865,1,0,0:0:0:0:
256,192,25865,1,0,0:0:0:0:
329,192,26101,1,0,0:0:0:0:
182,192,26101,1,0,0:0:0:0:
475,192,26219,128,0,26573:0:0:0:0:
402,192,26219,1,0,0:0:0:0:
182,192,26337,1,0,0:0:0:0:
36,192,26337,1,0,0:0:0:0:
329,192,26573,128,0,26809:0:0:0:0:
109,192,26573,1,0,0:0:0:0:
256,192,26573,1,0,0:0:0:0:
182,192,26809,128,0,27164:0:0:0:0:
36,192,26809,1,0,0:0:0:0:
475,192,26809,1,0,0:0:0:0:
329,192,27046,1,0,0:0:0:0:
475,192,27046,1,0,0:0:0:0:
36,192,27164,128,0,27400:0:0:0:0:
109,192,27164,1,0,0:0:0:0:
256,192,27282,1,0,0:0:0:0:
402,192,27282,1,0,0:0:0:0:
402,192,27518,128,0,27754:0:0:0:0:
182,192,27518,1,0,0:0:0:0:
329,192,27518,1,0,0:0:0:0:
256,192,27754,128,0,28227:0:0:0:0:
36,192,27754,1,0,0:0:0:0:
475,192,27754,1,0,0:0:0:0:
109,192,27991,1,0,0:0:0:0:
402,192,27991,1,0,0:0:0:0:
329,192,28109,1,0,0:0:0:0:
182,192,28227,1,0,0:0:0:0:
36,192,28227,1,0,0:0:0:0:
182,192,28463,128,0,28699:0:0:0:0:
402,192,28463,1,0,0:0:0:0:
329,192,28581,1,0,0:0:0:0:
109,192,28699,128,0,29054:0:0:0:0:
256,192,28699,1,0,0:0:0:0:
475,192,28699,1,0,0:0:0:0:
329,192,28935,1,0,0:0:0:0:
475,192,28935,1,0,0:0:0:0:
256,192,29054,128,0,29290:0:0:0:0:
402,192,29054,1,0,0:0:0:0:
182,192,29172,1,0,0:0:0:0:
36,192,29172,1,0,0:0:0:0:
329,192,29408,128,0,29644:0:0:0:0:
109,192,29408,1,0,0:0:0:0:
402,192,29408,1,0,0:0:0:0:
475,192,29644,128,0,29998:0:0:0:0:
182,192,29644,1,0,0:0:0:0:
36,192,29644,1,0,0:0:0:0:
109,192,29880,1,0,0:0:0:0:
329,192,29880,1,0,0:0:0:0:
256,192,29998,128,0,30353:0:0:0:0:
402,192,29998,1,0,0:0:0:0:
182,192,30117,1,0,0:0:0:0:
36,192,30117,1,0,0:0:0:0:
475,192,30353,1,0,0:0:0:0:
109,192,30353,128,0,30471:0:0:0:0:
329,192,30353,1,0,0:0:0:0:
329,192,30589,128,0,30943:0:0:0:0:
402,192,30589,128,0,30943:0:0:0:0:
182,192,30589,1,0,0:0:0:0:
36,192,30589,1,0,0:0:0:0:
109,192,30825,128,0,30943:0:0:0:0:
182,192,30825,128,0,30943:0:0:0:0:
109,192,31061,128,0,31298:0:0:0:0:
182,192,31061,128,0,31298:0:0:0:0:
329,192,31061,1,0,0:0:0:0:
475,192,31061,1,0,0:0:0:0:
329,192,31298,128,0,31534:0:0:0:0:
402,192,31298,128,0,31534:0:0:0:0:
109,192,31416,128,0,31534:0:0:0:0:
36,192,31416,128,0,31534:0:0:0:0:
182,192,31416,1,0,0:0:0:0:
329,192,31652,128,0,31711:0:0:0:0:
36,192,31652,1,0,0:0:0:0:
402,192,31770,128,0,31829:0:0:0:0:
109,192,31770,1,0,0:0:0:0:
475,192,31888,128,0,31947:0:0:0:0:
182,192,31888,1,0,0:0:0:0:
36,192,32006,1,0,0:0:0:0:
329,192,32006,1,0,0:0:0:0:
109,192,32124,128,0,32361:0:0:0:0:
256,192,32124,1,0,0:0:0:0:
402,192,32243,1,0,0:0:0:0:
329,192,32361,1,0,0:0:0:0:
182,192,32479,1,0,0:0:0:0:
36,192,32479,1,0,0:0:0:0:
256,192,32479,1,0,0:0:0:0:
475,192,32479,1,0,0:0:0:0:
109,192,32715,128,0,32951:0:0:0:0:
329,192,32715,1,0,0:0:0:0:
475,192,32715,1,0,0:0:0:0:
402,192,32951,128,0,33187:0:0:0:0:
256,192,32951,1,0,0:0:0:0:
36,192,32951,1,0,0:0:0:0:
109,192,33187,128,0,33424:0:0:0:0:
182,192,33187,1,0,0:0:0:0:
475,192,33187,1,0,0:0:0:0:
256,192,33305,1,0,0:0:0:0:
475,192,33424,128,0,34368:0:0:0:0:
329,192,33424,128,0,33896:0:0:0:0:
36,192,33424,1,0,0:0:0:0:
402,192,33424,1,0,0:0:0:0:
109,192,33660,1,0,0:0:0:0:
256,192,33660,1,0,0:0:0:0:
109,192,33896,128,0,34132:0:0:0:0:
402,192,33896,1,0,0:0:0:0:
36,192,33896,1,0,0:0:0:0:
256,192,34132,128,0,34368:0:0:0:0:
182,192,34132,1,0,0:0:0:0:
402,192,34132,1,0,0:0:0:0:
109,192,34250,1,0,0:0:0:0:
329,192,34368,1,0,0:0:0:0:
36,192,34368,1,0,0:0:0:0:
402,192,34368,1,0,0:0:0:0:
109,192,34605,128,0,34841:0:0:0:0:
256,192,34605,1,0,0:0:0:0:
402,192,34605,1,0,0:0:0:0:
402,192,34841,128,0,35077:0:0:0:0:
36,192,34841,1,0,0:0:0:0:
475,192,34841,1,0,0:0:0:0:
256,192,35077,128,0,35313:0:0:0:0:
36,192,35077,1,0,0:0:0:0:
329,192,35077,1,0,0:0:0:0:
109,192,35195,1,0,0:0:0:0:
475,192,35313,128,0,35786:0:0:0:0:
182,192,35313,1,0,0:0:0:0:
402,192,35313,1,0,0:0:0:0:
109,192,35550,128,0,35786:0:0:0:0:
402,192,35550,1,0,0:0:0:0:
256,192,35550,1,0,0:0:0:0:
182,192,35786,128,0,36022:0:0:0:0:
329,192,35786,128,0,36022:0:0:0:0:
36,192,35786,1,0,0:0:0:0:
109,192,36022,1,0,0:0:0:0:
402,192,36022,1,0,0:0:0:0:
329,192,36140,1,0,0:0:0:0:
256,192,36258,1,0,0:0:0:0:
36,192,36258,128,0,36731:0:0:0:0:
475,192,36258,1,0,0:0:0:0:
182,192,36494,1,0,0:0:0:0:
402,192,36494,1,0,0:0:0:0:
329,192,36731,128,0,37203:0:0:0:0:
475,192,36731,1,0,0:0:0:0:
109,192,36731,1,0,0:0:0:0:
182,192,36967,1,0,0:0:0:0:
36,192,36967,1,0,0:0:0:0:
402,192,37085,1,0,0:0:0:0:
256,192,37203,1,0,0:0:0:0:
109,192,37203,1,0,0:0:0:0:
475,192,37203,128,0,37321:0:0:0:0:
36,192,37439,128,0,37557:0:0:0:0:
182,192,37439,1,0,0:0:0:0:
329,192,37439,1,0,0:0:0:0:
402,192,37676,128,0,37912:0:0:0:0:
109,192,37676,1,0,0:0:0:0:
256,192,37676,1,0,0:0:0:0:
109,192,37912,128,0,38148:0:0:0:0:
182,192,37912,1,0,0:0:0:0:
256,192,38030,1,0,0:0:0:0:
329,192,38148,128,0,38502:0:0:0:0:
36,192,38148,1,0,0:0:0:0:
475,192,38148,1,0,0:0:0:0:
182,192,38384,1,0,0:0:0:0:
36,192,38384,1,0,0:0:0:0:
329,192,38620,1,0,0:0:0:0:
475,192,38620,1,0,0:0:0:0:
109,192,38620,1,0,0:0:0:0:
402,192,38857,128,0,38916:0:0:0:0:
182,192,38857,1,0,0:0:0:0:
329,192,38975,128,0,39034:0:0:0:0:
109,192,38975,1,0,0:0:0:0:
256,192,39093,128,0,39565:0:0:0:0:
36,192,39093,1,0,0:0:0:0:
475,192,39093,1,0,0:0:0:0:
109,192,39329,1,0,0:0:0:0:
182,192,39329,1,0,0:0:0:0:
402,192,39447,1,0,0:0:0:0:
182,192,39565,1,0,0:0:0:0:
36,192,39565,1,0,0:0:0:0:
109,192,39565,1,0,0:0:0:0:
329,192,39683,1,0,0:0:0:0:
402,192,39683,1,0,0:0:0:0:
475,192,39683,1,0,0:0:0:0:
182,192,39802,1,0,0:0:0:0:
109,192,39802,1,0,0:0:0:0:
36,192,39802,1,0,0:0:0:0:
329,192,39920,1,0,0:0:0:0:
402,192,39920,1,0,0:0:0:0:
475,192,39920,1,0,0:0:0:0:
256,192,40038,1,0,0:0:0:0:
109,192,40038,1,0,0:0:0:0:
36,192,40038,1,0,0:0:0:0:
109,192,40274,128,0,40392:0:0:0:0:
329,192,40274,1,0,0:0:0:0:
475,192,40274,1,0,0:0:0:0:
256,192,40392,1,0,0:0:0:0:
402,192,40510,128,0,40746:0:0:0:0:
36,192,40510,1,0,0:0:0:0:
182,192,40510,1,0,0:0:0:0:
182,192,40746,128,0,40983:0:0:0:0:
109,192,40746,1,0,0:0:0:0:
475,192,40746,1,0,0:0:0:0:
329,192,40865,1,0,0:0:0:0:
36,192,40983,128,0,41809:0:0:0:0:
256,192,40983,1,0,0:0:0:0:
475,192,40983,1,0,0:0:0:0:
329,192,41219,1,0,0:0:0:0:
402,192,41219,1,0,0:0:0:0:
182,192,41337,1,0,0:0:0:0:
109,192,41455,1,0,0:0:0:0:
329,192,41455,1,0,0:0:0:0:
475,192,41455,1,0,0:0:0:0:
182,192,41691,1,0,0:0:0:0:
402,192,41691,1,0,0:0:0:0:
329,192,41809,1,0,0:0:0:0:
256,192,41928,1,0,0:0:0:0:
109,192,41928,1,0,0:0:0:0:
402,192,42164,128,0,42400:0:0:0:0:
109,192,42164,1,0,0:0:0:0:
329,192,42164,1,0,0:0:0:0:
182,192,42282,1,0,0:0:0:0:
109,192,42400,128,0,42636:0:0:0:0:
256,192,42400,1,0,0:0:0:0:
36,192,42400,1,0,0:0:0:0:
329,192,42636,128,0,42754:0:0:0:0:
475,192,42636,1,0,0:0:0:0:
182,192,42754,1,0,0:0:0:0:
402,192,42872,128,0,43227:0:0:0:0:
36,192,42872,1,0,0:0:0:0:
256,192,42872,1,0,0:0:0:0:
109,192,43109,1,0,0:0:0:0:
329,192,43109,1,0,0:0:0:0:
182,192,43227,1,0,0:0:0:0:
256,192,43345,1,0,0:0:0:0:
402,192,43345,1,0,0:0:0:0:
36,192,43345,1,0,0:0:0:0:
182,192,43581,128,0,43699:0:0:0:0:
36,192,43581,1,0,0:0:0:0:
329,192,43699,128,0,43817:0:0:0:0:
475,192,43699,1,0,0:0:0:0:
36,192,43817,128,0,44172:0:0:0:0:
256,192,43817,1,0,0:0:0:0:
402,192,43817,128,0,43935:0:0:0:0:
109,192,43817,1,0,0:0:0:0:
329,192,44054,128,0,44172:0:0:0:0:
475,192,44054,1,0,0:0:0:0:
182,192,44054,1,0,0:0:0:0:
402,192,44290,128,0,44644:0:0:0:0:
109,192,44290,128,0,44408:0:0:0:0:
256,192,44290,1,0,0:0:0:0:
182,192,44526,128,0,44644:0:0:0:0:
36,192,44526,1,0,0:0:0:0:
329,192,44526,1,0,0:0:0:0:
109,192,44762,128,0,44998:0:0:0:0:
402,192,44762,128,0,44998:0:0:0:0:
36,192,44762,1,0,0:0:0:0:
475,192,44762,1,0,0:0:0:0:
329,192,44762,1,0,0:0:0:0:
182,192,44880,1,0,0:0:0:0:
256,192,44998,1,0,0:0:0:0:
36,192,45117,128,0,45353:0:0:0:0:
475,192,45117,128,0,45353:0:0:0:0:
329,192,45117,1,0,0:0:0:0:
256,192,45235,1,0,0:0:0:0:
109,192,45235,1,0,0:0:0:0:
402,192,45235,1,0,0:0:0:0:
182,192,45353,1,0,0:0:0:0:
329,192,45471,128,0,45589:0:0:0:0:
36,192,45471,1,0,0:0:0:0:
475,192,45471,1,0,0:0:0:0:
182,192,45589,1,0,0:0:0:0:
475,192,45707,128,0,46416:0:0:0:0:
329,192,45707,1,0,0:0:0:0:
402,192,45707,1,0,0:0:0:0:
36,192,45707,128,0,46416:0:0:0:0:
182,192,45825,1,0,0:0:0:0:
329,192,45943,1,0,0:0:0:0:
256,192,45943,1,0,0:0:0:0:
109,192,46061,1,0,0:0:0:0:
256,192,46180,1,0,0:0:0:0:
182,192,46180,1,0,0:0:0:0:
402,192,46298,1,0,0:0:0:0:
329,192,46416,128,0,46534:0:0:0:0:
109,192,46416,1,0,0:0:0:0:
182,192,46534,128,0,46652:0:0:0:0:
402,192,46534,1,0,0:0:0:0:
36,192,46652,128,0,46770:0:0:0:0:
109,192,46652,1,0,0:0:0:0:
256,192,46652,1,0,0:0:0:0:
475,192,46652,1,0,0:0:0:0:
329,192,46770,128,0,46888:0:0:0:0:
402,192,46770,1,0,0:0:0:0:
109,192,46888,128,0,47006:0:0:0:0:
182,192,46888,1,0,0:0:0:0:
402,192,47006,128,0,47124:0:0:0:0:
475,192,47006,1,0,0:0:0:0:
182,192,47124,128,0,47243:0:0:0:0:
256,192,47124,1,0,0:0:0:0:
36,192,47124,1,0,0:0:0:0:
402,192,47243,128,0,47361:0:0:0:0:
475,192,47243,1,0,0:0:0:0:
109,192,47361,128,0,47479:0:0:0:0:
182,192,47361,1,0,0:0:0:0:
256,192,47479,128,0,47597:0:0:0:0:
329,192,47479,1,0,0:0:0:0:
475,192,47597,128,0,47715:0:0:0:0:
109,192,47597,1,0,0:0:0:0:
36,192,47597,1,0,0:0:0:0:
329,192,47715,128,0,47833:0:0:0:0:
256,192,47715,1,0,0:0:0:0:
475,192,47833,128,0,47951:0:0:0:0:
182,192,47833,1,0,0:0:0:0:
36,192,47833,1,0,0:0:0:0:
256,192,48069,1,0,0:0:0:0:
36,192,48069,1,0,0:0:0:0:
182,192,48069,1,0,0:0:0:0:
109,192,48305,1,0,0:0:0:0:
256,192,48305,1,0,0:0:0:0:
329,192,48305,1,0,0:0:0:0:
182,192,48542,1,0,0:0:0:0:
256,192,48542,1,0,0:0:0:0:
402,192,48542,1,0,0:0:0:0:
475,192,48542,1,0,0:0:0:0:
402,192,48778,1,0,0:0:0:0:
329,192,48778,1,0,0:0:0:0:
182,192,48778,1,0,0:0:0:0:
109,192,48778,1,0,0:0:0:0:
182,192,49014,128,0,49368:0:0:0:0:
36,192,49014,128,0,49368:0:0:0:0:
475,192,49014,1,0,0:0:0:0:
329,192,49014,1,0,0:0:0:0:
329,192,49250,1,0,0:0:0:0:
475,192,49250,1,0,0:0:0:0:
402,192,49487,128,0,49605:0:0:0:0:
36,192,49487,1,0,0:0:0:0:
109,192,49487,1,0,0:0:0:0:
256,192,49605,128,0,49723:0:0:0:0:
182,192,49605,1,0,0:0:0:0:
402,192,49723,128,0,49841:0:0:0:0:
109,192,49723,1,0,0:0:0:0:
36,192,49723,1,0,0:0:0:0:
329,192,49959,1,0,0:0:0:0:
182,192,49959,1,0,0:0:0:0:
402,192,49959,1,0,0:0:0:0:
256,192,50195,1,0,0:0:0:0:
402,192,50195,1,0,0:0:0:0:
475,192,50195,1,0,0:0:0:0:
182,192,50431,1,0,0:0:0:0:
329,192,50431,1,0,0:0:0:0:
402,192,50431,1,0,0:0:0:0:
109,192,50431,1,0,0:0:0:0:
329,192,50668,1,0,0:0:0:0:
256,192,50668,1,0,0:0:0:0:
109,192,50668,1,0,0:0:0:0:
36,192,50668,1,0,0:0:0:0:
109,192,50904,128,0,51258:0:0:0:0:
36,192,50904,128,0,51258:0:0:0:0:
329,192,50904,1,0,0:0:0:0:
475,192,50904,1,0,0:0:0:0:
182,192,51022,1,0,0:0:0:0:
402,192,51140,1,0,0:0:0:0:
475,192,51140,1,0,0:0:0:0:
256,192,51258,1,0,0:0:0:0:
329,192,51376,128,0,51494:0:0:0:0:
36,192,51376,1,0,0:0:0:0:
475,192,51376,1,0,0:0:0:0:
182,192,51376,1,0,0:0:0:0:
402,192,51494,128,0,51613:0:0:0:0:
109,192,51494,1,0,0:0:0:0:
475,192,51613,128,0,51731:0:0:0:0:
182,192,51613,1,0,0:0:0:0:
182,192,51849,128,0,51967:0:0:0:0:
36,192,51849,1,0,0:0:0:0:
256,192,51849,1,0,0:0:0:0:
475,192,51849,1,0,0:0:0:0:
109,192,51967,128,0,52085:0:0:0:0:
402,192,51967,1,0,0:0:0:0:
36,192,52085,128,0,52203:0:0:0:0:
329,192,52085,1,0,0:0:0:0:
182,192,52321,1,0,0:0:0:0:
329,192,52321,1,0,0:0:0:0:
402,192,52321,1,0,0:0:0:0:
256,192,52557,1,0,0:0:0:0:
402,192,52557,1,0,0:0:0:0:
475,192,52557,1,0,0:0:0:0:
109,192,52794,1,0,0:0:0:0:
475,192,52794,1,0,0:0:0:0:
256,192,52794,1,0,0:0:0:0:
402,192,52794,1,0,0:0:0:0:
36,192,53030,1,0,0:0:0:0:
256,192,53030,1,0,0:0:0:0:
402,192,53030,1,0,0:0:0:0:
109,192,53030,1,0,0:0:0:0:
329,192,53266,128,0,53384:0:0:0:0:
36,192,53266,1,0,0:0:0:0:
182,192,53266,1,0,0:0:0:0:
475,192,53266,1,0,0:0:0:0:
402,192,53384,128,0,53502:0:0:0:0:
109,192,53384,1,0,0:0:0:0:
475,192,53502,128,0,53620:0:0:0:0:
182,192,53502,1,0,0:0:0:0:
182,192,53739,128,0,53857:0:0:0:0:
36,192,53739,1,0,0:0:0:0:
329,192,53739,1,0,0:0:0:0:
475,192,53739,1,0,0:0:0:0:
109,192,53857,128,0,53975:0:0:0:0:
402,192,53857,1,0,0:0:0:0:
36,192,53975,128,0,54093:0:0:0:0:
329,192,53975,1,0,0:0:0:0:
109,192,54211,1,0,0:0:0:0:
182,192,54211,1,0,0:0:0:0:
329,192,54211,1,0,0:0:0:0:
402,192,54211,1,0,0:0:0:0:
182,192,54447,1,0,0:0:0:0:
256,192,54447,1,0,0:0:0:0:
402,192,54447,1,0,0:0:0:0:
475,192,54447,1,0,0:0:0:0:
182,192,54683,128,0,55038:0:0:0:0:
36,192,54683,128,0,55038:0:0:0:0:
329,192,54683,1,0,0:0:0:0:
475,192,54683,1,0,0:0:0:0:
256,192,54802,1,0,0:0:0:0:
402,192,54920,1,0,0:0:0:0:
475,192,54920,1,0,0:0:0:0:
329,192,55038,1,0,0:0:0:0:
475,192,55156,128,0,55274:0:0:0:0:
182,192,55156,1,0,0:0:0:0:
36,192,55156,1,0,0:0:0:0:
329,192,55274,128,0,55392:0:0:0:0:
256,192,55274,1,0,0:0:0:0:
475,192,55392,128,0,55510:0:0:0:0:
36,192,55392,1,0,0:0:0:0:
182,192,55392,1,0,0:0:0:0:
109,192,55628,128,0,55983:0:0:0:0:
256,192,55628,1,0,0:0:0:0:
402,192,55628,1,0,0:0:0:0:
402,192,55865,128,0,55983:0:0:0:0:
182,192,55865,1,0,0:0:0:0:
329,192,55865,1,0,0:0:0:0:
256,192,56101,1,0,0:0:0:0:
402,192,56101,1,0,0:0:0:0:
475,192,56101,1,0,0:0:0:0:
182,192,56101,1,0,0:0:0:0:
182,192,56337,1,0,0:0:0:0:
109,192,56337,1,0,0:0:0:0:
329,192,56337,1,0,0:0:0:0:
402,192,56337,1,0,0:0:0:0:
109,192,56573,128,0,56928:0:0:0:0:
256,192,56573,128,0,56928:0:0:0:0:
36,192,56573,1,0,0:0:0:0:
475,192,56573,1,0,0:0:0:0:
402,192,56691,1,0,0:0:0:0:
329,192,56809,1,0,0:0:0:0:
475,192,56809,1,0,0:0:0:0:
402,192,57046,128,0,57164:0:0:0:0:
36,192,57046,1,0,0:0:0:0:
182,192,57046,1,0,0:0:0:0:
475,192,57046,1,0,0:0:0:0:
256,192,57164,128,0,57282:0:0:0:0:
109,192,57282,128,0,57400:0:0:0:0:
36,192,57282,1,0,0:0:0:0:
475,192,57282,1,0,0:0:0:0:
329,192,57400,128,0,57518:0:0:0:0:
182,192,57518,128,0,57636:0:0:0:0:
109,192,57518,1,0,0:0:0:0:
402,192,57518,1,0,0:0:0:0:
256,192,57754,128,0,57872:0:0:0:0:
402,192,57754,128,0,57872:0:0:0:0:
182,192,57754,1,0,0:0:0:0:
475,192,57991,128,0,58463:0:0:0:0:
36,192,57991,128,0,58463:0:0:0:0:
109,192,57991,1,0,0:0:0:0:
329,192,57991,1,0,0:0:0:0:
256,192,58109,1,0,0:0:0:0:
182,192,58227,1,0,0:0:0:0:
256,192,58345,1,0,0:0:0:0:
329,192,58463,1,0,0:0:0:0:
402,192,58463,1,0,0:0:0:0:
109,192,58463,1,0,0:0:0:0:
256,192,58699,128,0,58935:0:0:0:0:
109,192,58699,1,0,0:0:0:0:
329,192,58935,1,0,0:0:0:0:
402,192,58935,1,0,0:0:0:0:
475,192,58935,1,0,0:0:0:0:
182,192,58935,1,0,0:0:0:0:
109,192,59172,1,0,0:0:0:0:
256,192,59172,1,0,0:0:0:0:
329,192,59172,1,0,0:0:0:0:
402,192,59172,1,0,0:0:0:0:
402,192,59408,128,0,59526:0:0:0:0:
475,192,59408,1,0,0:0:0:0:
36,192,59408,1,0,0:0:0:0:
256,192,59408,1,0,0:0:0:0:
329,192,59526,128,0,59644:0:0:0:0:
182,192,59526,1,0,0:0:0:0:
256,192,59644,128,0,59762:0:0:0:0:
109,192,59644,1,0,0:0:0:0:
256,192,59880,1,0,0:0:0:0:
109,192,59880,1,0,0:0:0:0:
36,192,59880,1,0,0:0:0:0:
402,192,59880,1,0,0:0:0:0:
109,192,60117,1,0,0:0:0:0:
182,192,60117,1,0,0:0:0:0:
329,192,60117,1,0,0:0:0:0:
475,192,60117,1,0,0:0:0:0:
109,192,60353,128,0,60471:0:0:0:0:
36,192,60353,1,0,0:0:0:0:
475,192,60353,1,0,0:0:0:0:
256,192,60353,1,0,0:0:0:0:
182,192,60471,128,0,60589:0:0:0:0:
329,192,60471,1,0,0:0:0:0:
256,192,60589,128,0,60707:0:0:0:0:
402,192,60589,1,0,0:0:0:0:
402,192,60825,128,0,61180:0:0:0:0:
475,192,60825,128,0,61180:0:0:0:0:
182,192,60825,1,0,0:0:0:0:
36,192,60825,1,0,0:0:0:0:
256,192,60825,1,0,0:0:0:0:
182,192,61061,128,0,61180:0:0:0:0:
36,192,61061,128,0,61180:0:0:0:0:
36,192,61298,128,0,61534:0:0:0:0:
109,192,61298,128,0,61534:0:0:0:0:
329,192,61298,1,0,0:0:0:0:
475,192,61298,1,0,0:0:0:0:
256,192,61298,1,0,0:0:0:0:
329,192,61534,128,0,61652:0:0:0:0:
475,192,61534,128,0,61652:0:0:0:0:
109,192,61652,1,0,0:0:0:0:
256,192,61652,1,0,0:0:0:0:
182,192,61652,1,0,0:0:0:0:
36,192,61652,1,0,0:0:0:0:
109,192,62006,1,0,0:0:0:0:
36,192,62006,1,0,0:0:0:0:
182,192,62006,1,0,0:0:0:0:
329,192,62006,1,0,0:0:0:0:
109,192,62243,1,0,0:0:0:0:
182,192,62243,1,0,0:0:0:0:
256,192,62243,1,0,0:0:0:0:
402,192,62243,1,0,0:0:0:0:
182,192,62479,1,0,0:0:0:0:
256,192,62479,1,0,0:0:0:0:
329,192,62479,1,0,0:0:0:0:
475,192,62479,1,0,0:0:0:0:
402,192,62715,1,0,0:0:0:0:
475,192,62715,1,0,0:0:0:0:
256,192,62715,1,0,0:0:0:0:
109,192,62715,1,0,0:0:0:0:
182,192,62951,1,0,0:0:0:0:
36,192,62951,1,0,0:0:0:0:
402,192,62951,1,0,0:0:0:0:
329,192,62951,1,0,0:0:0:0:
402,192,63187,128,0,63305:0:0:0:0:
256,192,63187,1,0,0:0:0:0:
36,192,63187,1,0,0:0:0:0:
475,192,63187,1,0,0:0:0:0:
329,192,63305,128,0,63424:0:0:0:0:
182,192,63305,1,0,0:0:0:0:
256,192,63424,128,0,63542:0:0:0:0:
109,192,63424,1,0,0:0:0:0:
475,192,63660,1,0,0:0:0:0:
182,192,63660,1,0,0:0:0:0:
402,192,63660,1,0,0:0:0:0:
329,192,63660,1,0,0:0:0:0:
109,192,63896,1,0,0:0:0:0:
256,192,63896,1,0,0:0:0:0:
329,192,63896,1,0,0:0:0:0:
402,192,63896,1,0,0:0:0:0:
329,192,64132,128,0,64250:0:0:0:0:
182,192,64132,1,0,0:0:0:0:
475,192,64132,1,0,0:0:0:0:
36,192,64132,1,0,0:0:0:0:
256,192,64250,128,0,64368:0:0:0:0:
109,192,64250,1,0,0:0:0:0:
182,192,64368,128,0,64487:0:0:0:0:
402,192,64368,1,0,0:0:0:0:
475,192,64605,128,0,65313:0:0:0:0:
109,192,64605,1,0,0:0:0:0:
36,192,64605,1,0,0:0:0:0:
256,192,64605,1,0,0:0:0:0:
329,192,64723,1,0,0:0:0:0:
402,192,64841,1,0,0:0:0:0:
182,192,64841,1,0,0:0:0:0:
36,192,64841,1,0,0:0:0:0:
256,192,64959,1,0,0:0:0:0:
329,192,65077,1,0,0:0:0:0:
402,192,65077,1,0,0:0:0:0:
109,192,65077,1,0,0:0:0:0:
182,192,65195,1,0,0:0:0:0:
256,192,65313,1,0,0:0:0:0:
402,192,65313,1,0,0:0:0:0:
36,192,65313,1,0,0:0:0:0:
182,192,65431,1,0,0:0:0:0:
329,192,65550,1,0,0:0:0:0:
475,192,65550,1,0,0:0:0:0:
109,192,65550,128,0,65904:0:0:0:0:
36,192,65550,1,0,0:0:0:0:
256,192,65668,1,0,0:0:0:0:
182,192,65786,1,0,0:0:0:0:
475,192,65786,1,0,0:0:0:0:
402,192,65904,128,0,66376:0:0:0:0:
329,192,65904,1,0,0:0:0:0:
109,192,66022,1,0,0:0:0:0:
182,192,66022,1,0,0:0:0:0:
36,192,66022,1,0,0:0:0:0:
256,192,66140,1,0,0:0:0:0:
36,192,66258,128,0,66376:0:0:0:0:
182,192,66258,128,0,66376:0:0:0:0:
329,192,66376,1,0,0:0:0:0:
256,192,66494,1,0,0:0:0:0:
109,192,66494,1,0,0:0:0:0:
402,192,66494,1,0,0:0:0:0:
109,192,66652,1,0,0:0:0:0:
256,192,66652,1,0,0:0:0:0:
402,192,66652,1,0,0:0:0:0:
402,192,66809,1,0,0:0:0:0:
256,192,66809,1,0,0:0:0:0:
109,192,66809,1,0,0:0:0:0:
109,192,66967,1,0,0:0:0:0:
256,192,66967,1,0,0:0:0:0:
402,192,66967,1,0,0:0:0:0:
256,192,67124,1,0,0:0:0:0:
109,192,67124,1,0,0:0:0:0:
402,192,67124,1,0,0:0:0:0:
109,192,67282,1,0,0:0:0:0:
256,192,67282,1,0,0:0:0:0:
402,192,67282,1,0,0:0:0:0:
182,192,67439,1,0,0:0:0:0:
36,192,67439,1,0,0:0:0:0:
329,192,67439,1,0,0:0:0:0:
475,192,67439,1,0,0:0:0:0:
109,192,67676,1,0,0:0:0:0:
256,192,67912,1,0,0:0:0:0:
402,192,68148,1,0,0:0:0:0:
329,192,68266,1,0,0:0:0:0:
182,192,68384,128,0,68739:0:0:0:0:
36,192,68384,1,0,0:0:0:0:
475,192,68384,1,0,0:0:0:0:
329,192,68502,1,0,0:0:0:0:
402,192,68620,1,0,0:0:0:0:
109,192,68620,1,0,0:0:0:0:
329,192,68739,128,0,68975:0:0:0:0:
36,192,68857,1,0,0:0:0:0:
475,192,68857,1,0,0:0:0:0:
109,192,68975,1,0,0:0:0:0:
182,192,69034,1,0,0:0:0:0:
256,192,69093,1,0,0:0:0:0:
402,192,69211,1,0,0:0:0:0:
109,192,69329,128,0,69683:0:0:0:0:
182,192,69329,1,0,0:0:0:0:
475,192,69329,1,0,0:0:0:0:
329,192,69447,1,0,0:0:0:0:
256,192,69565,1,0,0:0:0:0:
475,192,69565,1,0,0:0:0:0:
402,192,69683,128,0,70038:0:0:0:0:
109,192,69802,1,0,0:0:0:0:
329,192,69802,1,0,0:0:0:0:
256,192,69920,1,0,0:0:0:0:
182,192,70038,1,0,0:0:0:0:
329,192,70156,1,0,0:0:0:0:
402,192,70274,128,0,70628:0:0:0:0:
36,192,70274,1,0,0:0:0:0:
475,192,70274,1,0,0:0:0:0:
109,192,70392,1,0,0:0:0:0:
182,192,70510,1,0,0:0:0:0:
329,192,70510,1,0,0:0:0:0:
109,192,70628,128,0,70865:0:0:0:0:
475,192,70746,1,0,0:0:0:0:
256,192,70746,1,0,0:0:0:0:
402,192,70865,1,0,0:0:0:0:
329,192,70924,1,0,0:0:0:0:
256,192,70983,1,0,0:0:0:0:
109,192,71101,1,0,0:0:0:0:
329,192,71219,128,0,71573:0:0:0:0:
475,192,71219,1,0,0:0:0:0:
36,192,71219,1,0,0:0:0:0:
256,192,71337,1,0,0:0:0:0:
109,192,71455,1,0,0:0:0:0:
402,192,71455,1,0,0:0:0:0:
182,192,71573,128,0,71928:0:0:0:0:
36,192,71691,1,0,0:0:0:0:
475,192,71691,1,0,0:0:0:0:
402,192,71809,1,0,0:0:0:0:
329,192,71928,1,0,0:0:0:0:
182,192,72046,1,0,0:0:0:0:
109,192,72164,128,0,72518:0:0:0:0:
475,192,72164,1,0,0:0:0:0:
256,192,72164,1,0,0:0:0:0:
402,192,72282,1,0,0:0:0:0:
329,192,72400,1,0,0:0:0:0:
182,192,72400,1,0,0:0:0:0:
402,192,72518,1,0,0:0:0:0:
329,192,72636,128,0,73109:0:0:0:0:
109,192,72636,1,0,0:0:0:0:
475,192,72636,1,0,0:0:0:0:
182,192,72754,1,0,0:0:0:0:
256,192,72872,1,0,0:0:0:0:
36,192,72872,1,0,0:0:0:0:
109,192,72991,1,0,0:0:0:0:
182,192,73109,1,0,0:0:0:0:
402,192,73109,128,0,73463:0:0:0:0:
475,192,73109,1,0,0:0:0:0:
329,192,73227,1,0,0:0:0:0:
182,192,73345,1,0,0:0:0:0:
36,192,73345,1,0,0:0:0:0:
256,192,73463,128,0,73817:0:0:0:0:
402,192,73581,1,0,0:0:0:0:
109,192,73581,1,0,0:0:0:0:
329,192,73699,1,0,0:0:0:0:
475,192,73817,1,0,0:0:0:0:
182,192,73935,1,0,0:0:0:0:
256,192,74054,1,0,0:0:0:0:
36,192,74054,1,0,0:0:0:0:
475,192,74054,1,0,0:0:0:0:
402,192,74172,1,0,0:0:0:0:
475,192,74290,128,0,74998:0:0:0:0:
256,192,74290,1,0,0:0:0:0:
182,192,74408,1,0,0:0:0:0:
109,192,74526,1,0,0:0:0:0:
329,192,74526,1,0,0:0:0:0:
256,192,74644,1,0,0:0:0:0:
182,192,74762,1,0,0:0:0:0:
402,192,74880,1,0,0:0:0:0:
256,192,74998,1,0,0:0:0:0:
109,192,74998,1,0,0:0:0:0:
402,192,75117,1,0,0:0:0:0:
256,192,75235,1,0,0:0:0:0:
36,192,75235,128,0,75471:0:0:0:0:
402,192,75353,1,0,0:0:0:0:
182,192,75471,128,0,75707:0:0:0:0:
329,192,75471,1,0,0:0:0:0:
475,192,75589,1,0,0:0:0:0:
329,192,75707,128,0,75943:0:0:0:0:
36,192,75707,1,0,0:0:0:0:
182,192,75825,1,0,0:0:0:0:
256,192,75943,1,0,0:0:0:0:
36,192,75943,1,0,0:0:0:0:
475,192,75943,128,0,76298:0:0:0:0:
182,192,76061,1,0,0:0:0:0:
109,192,76180,1,0,0:0:0:0:
402,192,76180,1,0,0:0:0:0:
329,192,76298,128,0,76652:0:0:0:0:
182,192,76416,1,0,0:0:0:0:
36,192,76416,1,0,0:0:0:0:
256,192,76534,1,0,0:0:0:0:
109,192,76652,1,0,0:0:0:0:
256,192,76770,1,0,0:0:0:0:
36,192,76888,128,0,77243:0:0:0:0:
182,192,76888,1,0,0:0:0:0:
475,192,76888,1,0,0:0:0:0:
402,192,77006,1,0,0:0:0:0:
109,192,77124,1,0,0:0:0:0:
329,192,77124,1,0,0:0:0:0:
182,192,77243,128,0,77597:0:0:0:0:
329,192,77361,1,0,0:0:0:0:
475,192,77361,1,0,0:0:0:0:
256,192,77479,1,0,0:0:0:0:
402,192,77597,1,0,0:0:0:0:
256,192,77715,1,0,0:0:0:0:
475,192,77833,128,0,78187:0:0:0:0:
109,192,77833,1,0,0:0:0:0:
329,192,77833,1,0,0:0:0:0:
182,192,77951,1,0,0:0:0:0:
256,192,78069,1,0,0:0:0:0:
36,192,78069,1,0,0:0:0:0:
329,192,78187,128,0,78542:0:0:0:0:
182,192,78305,1,0,0:0:0:0:
36,192,78305,1,0,0:0:0:0:
256,192,78424,1,0,0:0:0:0:
109,192,78542,1,0,0:0:0:0:
182,192,78660,1,0,0:0:0:0:
402,192,78778,128,0,79132:0:0:0:0:
36,192,78778,1,0,0:0:0:0:
475,192,78778,1,0,0:0:0:0:
182,192,78896,1,0,0:0:0:0:
256,192,79014,1,0,0:0:0:0:
329,192,79014,1,0,0:0:0:0:
109,192,79132,128,0,79487:0:0:0:0:
329,192,79250,1,0,0:0:0:0:
475,192,79250,1,0,0:0:0:0:
182,192,79368,1,0,0:0:0:0:
329,192,79487,1,0,0:0:0:0:
256,192,79605,1,0,0:0:0:0:
36,192,79723,128,0,80077:0:0:0:0:
182,192,79723,1,0,0:0:0:0:
402,192,79723,1,0,0:0:0:0:
256,192,79841,1,0,0:0:0:0:
329,192,79959,1,0,0:0:0:0:
182,192,79959,1,0,0:0:0:0:
402,192,80077,1,0,0:0:0:0:
475,192,80195,128,0,80668:0:0:0:0:
256,192,80195,1,0,0:0:0:0:
36,192,80195,1,0,0:0:0:0:
182,192,80313,1,0,0:0:0:0:
329,192,80431,1,0,0:0:0:0:
109,192,80431,1,0,0:0:0:0:
256,192,80550,1,0,0:0:0:0:
109,192,80668,1,0,0:0:0:0:
402,192,80668,128,0,81022:0:0:0:0:
36,192,80668,1,0,0:0:0:0:
182,192,80786,1,0,0:0:0:0:
256,192,80904,1,0,0:0:0:0:
329,192,80904,1,0,0:0:0:0:
36,192,81022,1,0,0:0:0:0:
109,192,81022,128,0,81376:0:0:0:0:
475,192,81140,1,0,0:0:0:0:
329,192,81140,1,0,0:0:0:0:
402,192,81258,1,0,0:0:0:0:
256,192,81376,128,0,81613:0:0:0:0:
36,192,81376,1,0,0:0:0:0:
475,192,81376,1,0,0:0:0:0:
182,192,81613,1,0,0:0:0:0:
36,192,81613,1,0,0:0:0:0:
329,192,81613,1,0,0:0:0:0:
475,192,81613,1,0,0:0:0:0:
182,192,81967,1,0,0:0:0:0:
329,192,81967,1,0,0:0:0:0:
182,192,82321,1,0,0:0:0:0:
329,192,82321,1,0,0:0:0:0:
109,192,82557,1,0,0:0:0:0:
256,192,82557,1,0,0:0:0:0:
402,192,82557,1,0,0:0:0:0:
109,192,82715,1,0,0:0:0:0:
256,192,82715,1,0,0:0:0:0:
402,192,82715,1,0,0:0:0:0:
109,192,82872,1,0,0:0:0:0:
256,192,82872,1,0,0:0:0:0:
402,192,82872,1,0,0:0:0:0:
182,192,83030,1,0,0:0:0:0:
36,192,83030,1,0,0:0:0:0:
475,192,83030,1,0,0:0:0:0:
329,192,83030,1,0,0:0:0:0:
109,192,83502,1,0,0:0:0:0:
402,192,83502,1,0,0:0:0:0:
256,192,83502,1,0,0:0:0:0:
109,192,83739,128,0,83975:0:0:0:0:
475,192,83739,1,0,0:0:0:0:
256,192,83739,1,0,0:0:0:0:
402,192,83857,1,0,0:0:0:0:
256,192,83975,128,0,84211:0:0:0:0:
182,192,83975,1,0,0:0:0:0:
36,192,83975,1,0,0:0:0:0:
402,192,84211,128,0,84447:0:0:0:0:
109,192,84211,1,0,0:0:0:0:
475,192,84211,1,0,0:0:0:0:
36,192,84447,128,0,84802:0:0:0:0:
182,192,84447,1,0,0:0:0:0:
329,192,84447,1,0,0:0:0:0:
109,192,84683,1,0,0:0:0:0:
256,192,84683,1,0,0:0:0:0:
329,192,84802,128,0,85156:0:0:0:0:
475,192,84802,1,0,0:0:0:0:
36,192,84920,1,0,0:0:0:0:
182,192,84920,1,0,0:0:0:0:
182,192,85156,128,0,85392:0:0:0:0:
475,192,85156,1,0,0:0:0:0:
109,192,85156,1,0,0:0:0:0:
475,192,85392,128,0,85746:0:0:0:0:
36,192,85392,1,0,0:0:0:0:
329,192,85392,1,0,0:0:0:0:
36,192,85628,1,0,0:0:0:0:
256,192,85628,1,0,0:0:0:0:
182,192,85746,128,0,85983:0:0:0:0:
329,192,85746,1,0,0:0:0:0:
109,192,85865,1,0,0:0:0:0:
402,192,85865,1,0,0:0:0:0:
402,192,86101,128,0,86337:0:0:0:0:
182,192,86101,1,0,0:0:0:0:
329,192,86101,1,0,0:0:0:0:
256,192,86337,128,0,86691:0:0:0:0:
475,192,86337,1,0,0:0:0:0:
36,192,86337,1,0,0:0:0:0:
475,192,86573,1,0,0:0:0:0:
329,192,86573,1,0,0:0:0:0:
109,192,86691,1,0,0:0:0:0:
402,192,86809,1,0,0:0:0:0:
256,192,86809,1,0,0:0:0:0:
182,192,87046,128,0,87282:0:0:0:0:
402,192,87046,1,0,0:0:0:0:
329,192,87164,1,0,0:0:0:0:
109,192,87282,128,0,87636:0:0:0:0:
256,192,87282,1,0,0:0:0:0:
36,192,87282,1,0,0:0:0:0:
182,192,87518,1,0,0:0:0:0:
329,192,87518,1,0,0:0:0:0:
402,192,87636,128,0,87991:0:0:0:0:
475,192,87636,1,0,0:0:0:0:
256,192,87754,1,0,0:0:0:0:
109,192,87754,1,0,0:0:0:0:
256,192,87991,128,0,88227:0:0:0:0:
182,192,87991,1,0,0:0:0:0:
475,192,87991,1,0,0:0:0:0:
109,192,88227,128,0,88581:0:0:0:0:
402,192,88227,1,0,0:0:0:0:
36,192,88227,1,0,0:0:0:0:
256,192,88463,1,0,0:0:0:0:
402,192,88463,1,0,0:0:0:0:
329,192,88581,1,0,0:0:0:0:
256,192,88699,128,0,89054:0:0:0:0:
475,192,88699,1,0,0:0:0:0:
109,192,88699,1,0,0:0:0:0:
36,192,88935,1,0,0:0:0:0:
402,192,88935,1,0,0:0:0:0:
402,192,89172,128,0,89526:0:0:0:0:
256,192,89172,1,0,0:0:0:0:
109,192,89172,1,0,0:0:0:0:
329,192,89408,1,0,0:0:0:0:
182,192,89408,1,0,0:0:0:0:
109,192,89526,128,0,89762:0:0:0:0:
256,192,89526,1,0,0:0:0:0:
329,192,89644,1,0,0:0:0:0:
475,192,89644,1,0,0:0:0:0:
402,192,89880,128,0,90117:0:0:0:0:
182,192,89880,1,0,0:0:0:0:
36,192,89880,1,0,0:0:0:0:
36,192,90117,128,0,90195:0:0:0:0:
475,192,90117,1,0,0:0:0:0:
182,192,90117,1,0,0:0:0:0:
109,192,90274,128,0,90353:0:0:0:0:
329,192,90274,1,0,0:0:0:0:
182,192,90431,128,0,90510:0:0:0:0:
402,192,90431,1,0,0:0:0:0:
329,192,90589,128,0,90668:0:0:0:0:
475,192,90589,1,0,0:0:0:0:
182,192,90746,128,0,90825:0:0:0:0:
36,192,90746,1,0,0:0:0:0:
402,192,90904,128,0,90983:0:0:0:0:
256,192,90904,1,0,0:0:0:0:
36,192,91061,1,0,0:0:0:0:
182,192,91061,1,0,0:0:0:0:
329,192,91061,128,0,91180:0:0:0:0:
475,192,91180,128,0,91298:0:0:0:0:
36,192,91298,128,0,91534:0:0:0:0:
109,192,91298,1,0,0:0:0:0:
256,192,91298,1,0,0:0:0:0:
402,192,91416,1,0,0:0:0:0:
329,192,91534,1,0,0:0:0:0:
182,192,91534,128,0,91770:0:0:0:0:
402,192,91770,128,0,92006:0:0:0:0:
109,192,91770,1,0,0:0:0:0:
475,192,91770,1,0,0:0:0:0:
256,192,92006,128,0,92243:0:0:0:0:
182,192,92006,1,0,0:0:0:0:
36,192,92006,1,0,0:0:0:0:
109,192,92243,1,0,0:0:0:0:
475,192,92361,128,0,92715:0:0:0:0:
329,192,92361,1,0,0:0:0:0:
182,192,92479,1,0,0:0:0:0:
36,192,92479,1,0,0:0:0:0:
329,192,92715,128,0,92951:0:0:0:0:
109,192,92715,1,0,0:0:0:0:
256,192,92715,1,0,0:0:0:0:
36,192,92951,128,0,93305:0:0:0:0:
182,192,92951,1,0,0:0:0:0:
475,192,92951,1,0,0:0:0:0:
329,192,93187,1,0,0:0:0:0:
475,192,93187,1,0,0:0:0:0:
182,192,93305,128,0,93542:0:0:0:0:
109,192,93305,1,0,0:0:0:0:
256,192,93424,1,0,0:0:0:0:
402,192,93424,1,0,0:0:0:0:
402,192,93660,128,0,93896:0:0:0:0:
182,192,93660,1,0,0:0:0:0:
329,192,93660,1,0,0:0:0:0:
256,192,93896,128,0,94368:0:0:0:0:
36,192,93896,1,0,0:0:0:0:
475,192,93896,1,0,0:0:0:0:
109,192,94132,1,0,0:0:0:0:
402,192,94132,1,0,0:0:0:0:
329,192,94250,1,0,0:0:0:0:
475,192,94368,1,0,0:0:0:0:
36,192,94368,1,0,0:0:0:0:
402,192,94605,128,0,94841:0:0:0:0:
256,192,94605,1,0,0:0:0:0:
182,192,94723,1,0,0:0:0:0:
109,192,94841,128,0,95195:0:0:0:0:
36,192,94841,1,0,0:0:0:0:
475,192,94841,1,0,0:0:0:0:
256,192,95077,1,0,0:0:0:0:
475,192,95077,1,0,0:0:0:0:
182,192,95195,128,0,95431:0:0:0:0:
402,192,95195,1,0,0:0:0:0:
329,192,95313,1,0,0:0:0:0:
36,192,95313,1,0,0:0:0:0:
329,192,95550,128,0,95786:0:0:0:0:
109,192,95550,1,0,0:0:0:0:
475,192,95550,1,0,0:0:0:0:
475,192,95786,128,0,96140:0:0:0:0:
182,192,95786,1,0,0:0:0:0:
36,192,95786,1,0,0:0:0:0:
109,192,96022,1,0,0:0:0:0:
329,192,96022,1,0,0:0:0:0:
256,192,96140,128,0,96494:0:0:0:0:
402,192,96140,1,0,0:0:0:0:
109,192,96258,1,0,0:0:0:0:
36,192,96258,1,0,0:0:0:0:
475,192,96494,1,0,0:0:0:0:
109,192,96494,128,0,96613:0:0:0:0:
329,192,96494,1,0,0:0:0:0:
329,192,96731,128,0,97085:0:0:0:0:
402,192,96731,128,0,97085:0:0:0:0:
182,192,96731,1,0,0:0:0:0:
36,192,96731,1,0,0:0:0:0:
109,192,96967,128,0,97085:0:0:0:0:
182,192,96967,128,0,97085:0:0:0:0:
109,192,97203,128,0,97439:0:0:0:0:
182,192,97203,128,0,97439:0:0:0:0:
329,192,97203,1,0,0:0:0:0:
475,192,97203,1,0,0:0:0:0:
329,192,97439,128,0,97676:0:0:0:0:
402,192,97439,128,0,97676:0:0:0:0:
36,192,97557,128,0,97676:0:0:0:0:
109,192,97557,128,0,97676:0:0:0:0:
182,192,97557,1,0,0:0:0:0:
329,192,97794,128,0,97853:0:0:0:0:
36,192,97794,1,0,0:0:0:0:
402,192,97912,128,0,97971:0:0:0:0:
109,192,97912,1,0,0:0:0:0:
475,192,98030,128,0,98089:0:0:0:0:
182,192,98030,1,0,0:0:0:0:
36,192,98148,1,0,0:0:0:0:
329,192,98148,1,0,0:0:0:0:
109,192,98266,128,0,98502:0:0:0:0:
256,192,98266,1,0,0:0:0:0:
402,192,98384,1,0,0:0:0:0:
329,192,98502,1,0,0:0:0:0:
182,192,98620,1,0,0:0:0:0:
36,192,98620,1,0,0:0:0:0:
402,192,98620,1,0,0:0:0:0:
475,192,98620,1,0,0:0:0:0:
109,192,98857,128,0,99093:0:0:0:0:
256,192,98857,1,0,0:0:0:0:
402,192,98857,1,0,0:0:0:0:
402,192,99093,128,0,99329:0:0:0:0:
329,192,99093,1,0,0:0:0:0:
36,192,99093,1,0,0:0:0:0:
182,192,99329,128,0,99565:0:0:0:0:
256,192,99329,1,0,0:0:0:0:
475,192,99329,1,0,0:0:0:0:
329,192,99447,1,0,0:0:0:0:
475,192,99565,128,0,100510:0:0:0:0:
36,192,99565,128,0,100038:0:0:0:0:
402,192,99565,1,0,0:0:0:0:
109,192,99565,1,0,0:0:0:0:
402,192,99802,1,0,0:0:0:0:
256,192,99802,1,0,0:0:0:0:
182,192,100038,128,0,100274:0:0:0:0:
109,192,100038,1,0,0:0:0:0:
329,192,100038,1,0,0:0:0:0:
329,192,100274,128,0,100510:0:0:0:0:
36,192,100274,1,0,0:0:0:0:
402,192,100274,1,0,0:0:0:0:
109,192,100392,1,0,0:0:0:0:
182,192,100510,1,0,0:0:0:0:
36,192,100510,1,0,0:0:0:0:
402,192,100510,1,0,0:0:0:0:
109,192,100746,128,0,100983:0:0:0:0:
256,192,100746,1,0,0:0:0:0:
402,192,100746,1,0,0:0:0:0:
402,192,100983,128,0,101219:0:0:0:0:
36,192,100983,1,0,0:0:0:0:
475,192,100983,1,0,0:0:0:0:
256,192,101219,128,0,101455:0:0:0:0:
109,192,101219,1,0,0:0:0:0:
329,192,101219,1,0,0:0:0:0:
182,192,101337,1,0,0:0:0:0:
36,192,101455,128,0,101928:0:0:0:0:
475,192,101455,1,0,0:0:0:0:
329,192,101455,1,0,0:0:0:0:
475,192,101691,128,0,101928:0:0:0:0:
402,192,101691,1,0,0:0:0:0:
256,192,101691,1,0,0:0:0:0:
182,192,101928,128,0,102164:0:0:0:0:
329,192,101928,128,0,102164:0:0:0:0:
109,192,101928,1,0,0:0:0:0:
36,192,102164,1,0,0:0:0:0:
402,192,102164,1,0,0:0:0:0:
329,192,102282,1,0,0:0:0:0:
256,192,102400,1,0,0:0:0:0:
36,192,102400,128,0,102872:0:0:0:0:
475,192,102400,1,0,0:0:0:0:
182,192,102636,1,0,0:0:0:0:
402,192,102636,1,0,0:0:0:0:
329,192,102872,128,0,103345:0:0:0:0:
475,192,102872,1,0,0:0:0:0:
109,192,102872,1,0,0:0:0:0:
182,192,103109,1,0,0:0:0:0:
36,192,103109,1,0,0:0:0:0:
402,192,103227,1,0,0:0:0:0:
256,192,103345,1,0,0:0:0:0:
109,192,103345,1,0,0:0:0:0:
475,192,103345,128,0,103581:0:0:0:0:
36,192,103581,128,0,103817:0:0:0:0:
182,192,103581,1,0,0:0:0:0:
329,192,103581,1,0,0:0:0:0:
402,192,103817,128,0,104054:0:0:0:0:
109,192,103817,1,0,0:0:0:0:
256,192,103817,1,0,0:0:0:0:
109,192,104054,128,0,104290:0:0:0:0:
182,192,104054,1,0,0:0:0:0:
256,192,104172,1,0,0:0:0:0:
329,192,104290,128,0,104644:0:0:0:0:
36,192,104290,1,0,0:0:0:0:
475,192,104290,1,0,0:0:0:0:
182,192,104526,1,0,0:0:0:0:
36,192,104526,1,0,0:0:0:0:
329,192,104762,1,0,0:0:0:0:
475,192,104762,1,0,0:0:0:0:
109,192,104762,1,0,0:0:0:0:
402,192,104998,128,0,105057:0:0:0:0:
182,192,104998,1,0,0:0:0:0:
329,192,105117,128,0,105176:0:0:0:0:
109,192,105117,1,0,0:0:0:0:
256,192,105235,128,0,105707:0:0:0:0:
36,192,105235,1,0,0:0:0:0:
475,192,105235,1,0,0:0:0:0:
109,192,105471,1,0,0:0:0:0:
182,192,105471,1,0,0:0:0:0:
402,192,105589,1,0,0:0:0:0:
182,192,105707,1,0,0:0:0:0:
36,192,105707,1,0,0:0:0:0:
109,192,105707,1,0,0:0:0:0:
329,192,105825,1,0,0:0:0:0:
402,192,105825,1,0,0:0:0:0:
475,192,105825,1,0,0:0:0:0:
182,192,105943,1,0,0:0:0:0:
109,192,105943,1,0,0:0:0:0:
36,192,105943,1,0,0:0:0:0:
329,192,106061,1,0,0:0:0:0:
402,192,106061,1,0,0:0:0:0:
475,192,106061,1,0,0:0:0:0:
256,192,106180,1,0,0:0:0:0:
109,192,106180,1,0,0:0:0:0:
36,192,106180,1,0,0:0:0:0:
182,192,106416,128,0,106652:0:0:0:0:
109,192,106416,1,0,0:0:0:0:
402,192,106416,1,0,0:0:0:0:
256,192,106534,1,0,0:0:0:0:
402,192,106652,128,0,107124:0:0:0:0:
475,192,106652,1,0,0:0:0:0:
36,192,106652,1,0,0:0:0:0:
109,192,106888,128,0,107124:0:0:0:0:
182,192,106888,1,0,0:0:0:0:
475,192,106888,1,0,0:0:0:0:
256,192,107006,1,0,0:0:0:0:
36,192,107124,128,0,107479:0:0:0:0:
475,192,107124,128,0,107479:0:0:0:0:
329,192,107124,1,0,0:0:0:0:
182,192,107361,1,0,0:0:0:0:
402,192,107361,1,0,0:0:0:0:
329,192,107479,1,0,0:0:0:0:
36,192,107597,1,0,0:0:0:0:
256,192,107597,1,0,0:0:0:0:
475,192,107597,1,0,0:0:0:0:
182,192,107597,128,0,107951:0:0:0:0:
109,192,107833,1,0,0:0:0:0:
475,192,107833,1,0,0:0:0:0:
329,192,107833,128,0,107951:0:0:0:0:
402,192,107951,1,0,0:0:0:0:
182,192,108069,1,0,0:0:0:0:
329,192,108069,1,0,0:0:0:0:
36,192,108069,128,0,108542:0:0:0:0:
475,192,108305,128,0,108542:0:0:0:0:
109,192,108305,1,0,0:0:0:0:
329,192,108305,1,0,0:0:0:0:
182,192,108424,1,0,0:0:0:0:
256,192,108542,1,0,0:0:0:0:
402,192,108542,128,0,108896:0:0:0:0:
109,192,108542,1,0,0:0:0:0:
109,192,108778,128,0,108896:0:0:0:0:
256,192,108778,1,0,0:0:0:0:
182,192,108896,1,0,0:0:0:0:
475,192,109014,128,0,109368:0:0:0:0:
329,192,109014,1,0,0:0:0:0:
36,192,109014,128,0,109368:0:0:0:0:
109,192,109250,1,0,0:0:0:0:
329,192,109250,1,0,0:0:0:0:
256,192,109368,1,0,0:0:0:0:
182,192,109487,1,0,0:0:0:0:
475,192,109487,1,0,0:0:0:0:
36,192,109487,1,0,0:0:0:0:
109,192,109723,128,0,109841:0:0:0:0:
329,192,109723,1,0,0:0:0:0:
256,192,109841,128,0,109959:0:0:0:0:
475,192,109841,1,0,0:0:0:0:
36,192,109959,128,0,110313:0:0:0:0:
182,192,109959,1,0,0:0:0:0:
402,192,109959,128,0,110077:0:0:0:0:
109,192,109959,1,0,0:0:0:0:
329,192,110195,128,0,110313:0:0:0:0:
475,192,110195,1,0,0:0:0:0:
182,192,110195,1,0,0:0:0:0:
402,192,110431,128,0,110786:0:0:0:0:
109,192,110431,128,0,110550:0:0:0:0:
256,192,110431,1,0,0:0:0:0:
182,192,110668,128,0,110786:0:0:0:0:
36,192,110668,1,0,0:0:0:0:
329,192,110668,1,0,0:0:0:0:
109,192,110904,128,0,111140:0:0:0:0:
402,192,110904,128,0,111140:0:0:0:0:
36,192,110904,1,0,0:0:0:0:
475,192,110904,1,0,0:0:0:0:
256,192,110904,1,0,0:0:0:0:
182,192,111022,1,0,0:0:0:0:
256,192,111140,1,0,0:0:0:0:
36,192,111258,128,0,111494:0:0:0:0:
475,192,111258,128,0,111494:0:0:0:0:
329,192,111258,1,0,0:0:0:0:
256,192,111376,1,0,0:0:0:0:
109,192,111376,1,0,0:0:0:0:
402,192,111376,1,0,0:0:0:0:
182,192,111494,1,0,0:0:0:0:
329,192,111613,128,0,111731:0:0:0:0:
36,192,111613,1,0,0:0:0:0:
475,192,111613,1,0,0:0:0:0:
182,192,111731,1,0,0:0:0:0:
329,192,111849,1,0,0:0:0:0:
402,192,111849,1,0,0:0:0:0:
475,192,111849,128,0,112557:0:0:0:0:
36,192,111849,128,0,112557:0:0:0:0:
182,192,111967,1,0,0:0:0:0:
329,192,112085,1,0,0:0:0:0:
256,192,112085,1,0,0:0:0:0:
109,192,112203,1,0,0:0:0:0:
256,192,112321,1,0,0:0:0:0:
182,192,112321,1,0,0:0:0:0:
402,192,112439,1,0,0:0:0:0:
329,192,112557,128,0,112676:0:0:0:0:
109,192,112557,1,0,0:0:0:0:
182,192,112676,128,0,112794:0:0:0:0:
402,192,112676,1,0,0:0:0:0:
36,192,112794,128,0,112912:0:0:0:0:
109,192,112794,1,0,0:0:0:0:
475,192,112794,1,0,0:0:0:0:
256,192,112794,1,0,0:0:0:0:
329,192,112912,128,0,113030:0:0:0:0:
402,192,112912,1,0,0:0:0:0:
109,192,113030,128,0,113148:0:0:0:0:
182,192,113030,1,0,0:0:0:0:
402,192,113148,128,0,113266:0:0:0:0:
475,192,113148,1,0,0:0:0:0:
182,192,113266,128,0,113384:0:0:0:0:
36,192,113266,1,0,0:0:0:0:
256,192,113266,1,0,0:0:0:0:
402,192,113384,128,0,113502:0:0:0:0:
475,192,113384,1,0,0:0:0:0:
109,192,113502,128,0,113620:0:0:0:0:
182,192,113502,1,0,0:0:0:0:
256,192,113620,128,0,113739:0:0:0:0:
329,192,113620,1,0,0:0:0:0:
475,192,113739,128,0,113857:0:0:0:0:
36,192,113739,1,0,0:0:0:0:
182,192,113739,1,0,0:0:0:0:
329,192,113857,128,0,113975:0:0:0:0:
256,192,113857,1,0,0:0:0:0:
475,192,113975,128,0,114093:0:0:0:0:
182,192,113975,1,0,0:0:0:0:
36,192,113975,1,0,0:0:0:0:
109,192,114211,1,0,0:0:0:0:
256,192,114211,1,0,0:0:0:0:
329,192,114211,1,0,0:0:0:0:
182,192,114447,1,0,0:0:0:0:
329,192,114447,1,0,0:0:0:0:
402,192,114447,1,0,0:0:0:0:
182,192,114683,1,0,0:0:0:0:
256,192,114683,1,0,0:0:0:0:
402,192,114683,128,0,114802:0:0:0:0:
475,192,114683,128,0,114802:0:0:0:0:
182,192,114920,1,0,0:0:0:0:
109,192,114920,1,0,0:0:0:0:
329,192,114920,128,0,115038:0:0:0:0:
402,192,114920,128,0,115038:0:0:0:0:
36,192,115156,128,0,115510:0:0:0:0:
475,192,115156,1,0,0:0:0:0:
329,192,115156,1,0,0:0:0:0:
256,192,115156,1,0,0:0:0:0:
109,192,115274,128,0,115510:0:0:0:0:
329,192,115392,1,0,0:0:0:0:
475,192,115392,1,0,0:0:0:0:
182,192,115392,128,0,115510:0:0:0:0:
402,192,115628,128,0,115746:0:0:0:0:
36,192,115628,1,0,0:0:0:0:
109,192,115628,1,0,0:0:0:0:
256,192,115746,128,0,115865:0:0:0:0:
182,192,115746,1,0,0:0:0:0:
402,192,115865,128,0,115983:0:0:0:0:
109,192,115865,1,0,0:0:0:0:
36,192,115865,1,0,0:0:0:0:
182,192,116101,1,0,0:0:0:0:
36,192,116101,1,0,0:0:0:0:
256,192,116101,1,0,0:0:0:0:
109,192,116337,1,0,0:0:0:0:
256,192,116337,1,0,0:0:0:0:
329,192,116337,1,0,0:0:0:0:
182,192,116573,1,0,0:0:0:0:
109,192,116573,1,0,0:0:0:0:
402,192,116573,128,0,116691:0:0:0:0:
329,192,116573,128,0,116691:0:0:0:0:
109,192,116809,1,0,0:0:0:0:
36,192,116809,1,0,0:0:0:0:
329,192,116809,128,0,116928:0:0:0:0:
256,192,116809,128,0,116928:0:0:0:0:
36,192,117046,128,0,117400:0:0:0:0:
256,192,117046,1,0,0:0:0:0:
402,192,117046,1,0,0:0:0:0:
109,192,117164,128,0,117400:0:0:0:0:
402,192,117282,1,0,0:0:0:0:
475,192,117282,1,0,0:0:0:0:
182,192,117282,128,0,117400:0:0:0:0:
329,192,117400,1,0,0:0:0:0:
475,192,117518,128,0,117636:0:0:0:0:
36,192,117518,1,0,0:0:0:0:
109,192,117518,1,0,0:0:0:0:
256,192,117518,1,0,0:0:0:0:
182,192,117636,1,0,0:0:0:0:
402,192,117636,128,0,117754:0:0:0:0:
109,192,117754,1,0,0:0:0:0:
329,192,117754,128,0,117872:0:0:0:0:
36,192,117991,1,0,0:0:0:0:
475,192,117991,1,0,0:0:0:0:
109,192,117991,128,0,118109:0:0:0:0:
256,192,117991,1,0,0:0:0:0:
329,192,118109,1,0,0:0:0:0:
182,192,118109,128,0,118227:0:0:0:0:
402,192,118227,1,0,0:0:0:0:
256,192,118227,128,0,118345:0:0:0:0:
109,192,118463,1,0,0:0:0:0:
182,192,118463,1,0,0:0:0:0:
329,192,118463,1,0,0:0:0:0:
182,192,118699,1,0,0:0:0:0:
256,192,118699,1,0,0:0:0:0:
402,192,118699,1,0,0:0:0:0:
475,192,118935,1,0,0:0:0:0:
109,192,118935,128,0,119054:0:0:0:0:
256,192,118935,128,0,119054:0:0:0:0:
329,192,118935,1,0,0:0:0:0:
36,192,119172,128,0,119290:0:0:0:0:
475,192,119172,1,0,0:0:0:0:
329,192,119172,1,0,0:0:0:0:
182,192,119172,128,0,119290:0:0:0:0:
475,192,119408,128,0,119526:0:0:0:0:
256,192,119408,1,0,0:0:0:0:
329,192,119408,1,0,0:0:0:0:
36,192,119408,1,0,0:0:0:0:
402,192,119526,128,0,119644:0:0:0:0:
182,192,119526,1,0,0:0:0:0:
329,192,119644,128,0,119762:0:0:0:0:
109,192,119644,1,0,0:0:0:0:
36,192,119880,128,0,119998:0:0:0:0:
182,192,119880,1,0,0:0:0:0:
256,192,119880,1,0,0:0:0:0:
475,192,119880,1,0,0:0:0:0:
109,192,119998,128,0,120117:0:0:0:0:
329,192,119998,1,0,0:0:0:0:
182,192,120117,128,0,120235:0:0:0:0:
402,192,120117,1,0,0:0:0:0:
475,192,120353,1,0,0:0:0:0:
402,192,120353,1,0,0:0:0:0:
256,192,120353,128,0,120471:0:0:0:0:
109,192,120353,128,0,120471:0:0:0:0:
402,192,120589,1,0,0:0:0:0:
475,192,120589,1,0,0:0:0:0:
329,192,120589,128,0,120707:0:0:0:0:
182,192,120589,128,0,120707:0:0:0:0:
329,192,120825,128,0,121180:0:0:0:0:
475,192,120825,128,0,121180:0:0:0:0:
256,192,120825,1,0,0:0:0:0:
36,192,120825,1,0,0:0:0:0:
109,192,120943,1,0,0:0:0:0:
402,192,121061,1,0,0:0:0:0:
182,192,121061,1,0,0:0:0:0:
109,192,121180,1,0,0:0:0:0:
475,192,121298,128,0,121416:0:0:0:0:
182,192,121298,1,0,0:0:0:0:
36,192,121298,1,0,0:0:0:0:
329,192,121416,128,0,121534:0:0:0:0:
256,192,121416,1,0,0:0:0:0:
475,192,121534,128,0,121652:0:0:0:0:
36,192,121534,1,0,0:0:0:0:
182,192,121534,1,0,0:0:0:0:
36,192,121770,128,0,122124:0:0:0:0:
182,192,121770,1,0,0:0:0:0:
329,192,121770,1,0,0:0:0:0:
182,192,122006,128,0,122124:0:0:0:0:
475,192,122006,1,0,0:0:0:0:
329,192,122006,1,0,0:0:0:0:
182,192,122243,1,0,0:0:0:0:
256,192,122243,1,0,0:0:0:0:
402,192,122243,128,0,122361:0:0:0:0:
475,192,122243,128,0,122361:0:0:0:0:
182,192,122479,1,0,0:0:0:0:
109,192,122479,1,0,0:0:0:0:
329,192,122479,128,0,122597:0:0:0:0:
402,192,122479,128,0,122597:0:0:0:0:
182,192,122715,128,0,123069:0:0:0:0:
329,192,122715,128,0,123069:0:0:0:0:
36,192,122715,1,0,0:0:0:0:
475,192,122715,1,0,0:0:0:0:
109,192,122833,1,0,0:0:0:0:
256,192,122951,1,0,0:0:0:0:
475,192,122951,1,0,0:0:0:0:
402,192,123187,128,0,123660:0:0:0:0:
36,192,123187,1,0,0:0:0:0:
182,192,123187,1,0,0:0:0:0:
475,192,123187,1,0,0:0:0:0:
256,192,123305,128,0,123424:0:0:0:0:
109,192,123424,128,0,123542:0:0:0:0:
182,192,123424,1,0,0:0:0:0:
475,192,123424,1,0,0:0:0:0:
329,192,123542,128,0,123660:0:0:0:0:
182,192,123660,128,0,123778:0:0:0:0:
36,192,123660,1,0,0:0:0:0:
475,192,123660,1,0,0:0:0:0:
256,192,123896,128,0,124014:0:0:0:0:
402,192,123896,128,0,124014:0:0:0:0:
109,192,123896,1,0,0:0:0:0:
475,192,124132,128,0,124605:0:0:0:0:
36,192,124132,128,0,124605:0:0:0:0:
109,192,124132,1,0,0:0:0:0:
329,192,124132,1,0,0:0:0:0:
256,192,124250,1,0,0:0:0:0:
182,192,124368,1,0,0:0:0:0:
256,192,124487,1,0,0:0:0:0:
329,192,124605,1,0,0:0:0:0:
402,192,124605,1,0,0:0:0:0:
109,192,124605,1,0,0:0:0:0:
256,192,124841,128,0,125077:0:0:0:0:
109,192,124841,1,0,0:0:0:0:
402,192,125077,1,0,0:0:0:0:
475,192,125077,1,0,0:0:0:0:
182,192,125077,128,0,125195:0:0:0:0:
109,192,125077,128,0,125195:0:0:0:0:
329,192,125313,1,0,0:0:0:0:
402,192,125313,1,0,0:0:0:0:
109,192,125313,128,0,125431:0:0:0:0:
36,192,125313,128,0,125431:0:0:0:0:
402,192,125550,128,0,125668:0:0:0:0:
475,192,125550,1,0,0:0:0:0:
36,192,125550,1,0,0:0:0:0:
256,192,125550,1,0,0:0:0:0:
329,192,125668,128,0,125786:0:0:0:0:
182,192,125668,1,0,0:0:0:0:
256,192,125786,128,0,125904:0:0:0:0:
109,192,125786,1,0,0:0:0:0:
256,192,126022,128,0,126140:0:0:0:0:
402,192,126022,128,0,126140:0:0:0:0:
36,192,126022,1,0,0:0:0:0:
109,192,126022,1,0,0:0:0:0:
182,192,126258,1,0,0:0:0:0:
329,192,126258,128,0,126376:0:0:0:0:
475,192,126258,128,0,126376:0:0:0:0:
109,192,126258,1,0,0:0:0:0:
109,192,126494,128,0,126613:0:0:0:0:
36,192,126494,1,0,0:0:0:0:
475,192,126494,1,0,0:0:0:0:
256,192,126494,1,0,0:0:0:0:
329,192,126613,1,0,0:0:0:0:
182,192,126613,128,0,126731:0:0:0:0:
256,192,126731,128,0,126849:0:0:0:0:
402,192,126731,1,0,0:0:0:0:
402,192,126967,128,0,127321:0:0:0:0:
475,192,126967,128,0,127321:0:0:0:0:
182,192,126967,1,0,0:0:0:0:
256,192,126967,1,0,0:0:0:0:
36,192,126967,1,0,0:0:0:0:
182,192,127203,128,0,127321:0:0:0:0:
36,192,127203,128,0,127321:0:0:0:0:
36,192,127439,128,0,127676:0:0:0:0:
109,192,127439,128,0,127676:0:0:0:0:
329,192,127439,1,0,0:0:0:0:
475,192,127439,1,0,0:0:0:0:
256,192,127439,1,0,0:0:0:0:
329,192,127676,128,0,127794:0:0:0:0:
475,192,127676,128,0,127794:0:0:0:0:
109,192,127794,1,0,0:0:0:0:
256,192,127794,1,0,0:0:0:0:
182,192,127794,1,0,0:0:0:0:
36,192,127794,1,0,0:0:0:0:
109,192,128148,1,0,0:0:0:0:
36,192,128148,1,0,0:0:0:0:
182,192,128148,1,0,0:0:0:0:
329,192,128148,1,0,0:0:0:0:
109,192,128384,1,0,0:0:0:0:
182,192,128384,1,0,0:0:0:0:
256,192,128384,1,0,0:0:0:0:
402,192,128384,1,0,0:0:0:0:
182,192,128620,1,0,0:0:0:0:
256,192,128620,1,0,0:0:0:0:
329,192,128620,1,0,0:0:0:0:
475,192,128620,1,0,0:0:0:0:
109,192,128857,1,0,0:0:0:0:
256,192,128857,128,0,128975:0:0:0:0:
402,192,128857,128,0,128975:0:0:0:0:
475,192,128857,1,0,0:0:0:0:
475,192,129093,1,0,0:0:0:0:
182,192,129093,128,0,129211:0:0:0:0:
329,192,129093,128,0,129211:0:0:0:0:
36,192,129093,1,0,0:0:0:0:
402,192,129329,128,0,129447:0:0:0:0:
36,192,129329,1,0,0:0:0:0:
475,192,129329,1,0,0:0:0:0:
256,192,129329,1,0,0:0:0:0:
329,192,129447,128,0,129565:0:0:0:0:
182,192,129447,1,0,0:0:0:0:
256,192,129565,128,0,129683:0:0:0:0:
109,192,129565,1,0,0:0:0:0:
475,192,129802,1,0,0:0:0:0:
402,192,129802,1,0,0:0:0:0:
329,192,129802,128,0,129920:0:0:0:0:
182,192,129802,128,0,129920:0:0:0:0:
329,192,130038,1,0,0:0:0:0:
402,192,130038,1,0,0:0:0:0:
109,192,130038,128,0,130156:0:0:0:0:
256,192,130038,128,0,130156:0:0:0:0:
329,192,130274,128,0,130392:0:0:0:0:
475,192,130274,1,0,0:0:0:0:
36,192,130274,1,0,0:0:0:0:
182,192,130274,1,0,0:0:0:0:
256,192,130392,128,0,130510:0:0:0:0:
109,192,130392,1,0,0:0:0:0:
182,192,130510,128,0,130628:0:0:0:0:
36,192,130510,1,0,0:0:0:0:
475,192,130746,128,0,131455:0:0:0:0:
109,192,130746,1,0,0:0:0:0:
36,192,130746,1,0,0:0:0:0:
256,192,130746,1,0,0:0:0:0:
329,192,130865,1,0,0:0:0:0:
402,192,130983,1,0,0:0:0:0:
182,192,130983,1,0,0:0:0:0:
36,192,130983,1,0,0:0:0:0:
256,192,131101,1,0,0:0:0:0:
329,192,131219,1,0,0:0:0:0:
402,192,131219,1,0,0:0:0:0:
109,192,131219,1,0,0:0:0:0:
182,192,131337,1,0,0:0:0:0:
256,192,131455,1,0,0:0:0:0:
402,192,131455,1,0,0:0:0:0:
36,192,131455,1,0,0:0:0:0:
182,192,131573,1,0,0:0:0:0:
329,192,131691,1,0,0:0:0:0:
475,192,131691,1,0,0:0:0:0:
109,192,131691,128,0,132046:0:0:0:0:
36,192,131691,1,0,0:0:0:0:
256,192,131809,1,0,0:0:0:0:
182,192,131928,1,0,0:0:0:0:
475,192,131928,1,0,0:0:0:0:
402,192,132046,128,0,132518:0:0:0:0:
329,192,132046,1,0,0:0:0:0:
182,192,132164,1,0,0:0:0:0:
109,192,132164,1,0,0:0:0:0:
36,192,132164,1,0,0:0:0:0:
256,192,132282,1,0,0:0:0:0:
182,192,132400,128,0,132518:0:0:0:0:
36,192,132400,128,0,132518:0:0:0:0:
329,192,132518,1,0,0:0:0:0:
256,192,132636,1,0,0:0:0:0:
109,192,132636,1,0,0:0:0:0:
402,192,132636,1,0,0:0:0:0:
109,192,132794,1,0,0:0:0:0:
256,192,132794,1,0,0:0:0:0:
402,192,132794,1,0,0:0:0:0:
402,192,132951,1,0,0:0:0:0:
256,192,132951,1,0,0:0:0:0:
109,192,132951,1,0,0:0:0:0:
109,192,133109,1,0,0:0:0:0:
256,192,133109,1,0,0:0:0:0:
402,192,133109,1,0,0:0:0:0:
256,192,133266,1,0,0:0:0:0:
109,192,133266,1,0,0:0:0:0:
402,192,133266,1,0,0:0:0:0:
109,192,133424,1,0,0:0:0:0:
256,192,133424,1,0,0:0:0:0:
402,192,133424,1,0,0:0:0:0:
182,192,133581,1,0,0:0:0:0:
36,192,133581,1,0,0:0:0:0:
329,192,133581,1,0,0:0:0:0:
475,192,133581,1,0,0:0:0:0:
109,192,133817,1,0,0:0:0:0:
256,192,134054,1,0,0:0:0:0:
402,192,134290,1,0,0:0:0:0:
329,192,134408,1,0,0:0:0:0:
182,192,134526,128,0,134762:0:0:0:0:
36,192,134526,1,0,0:0:0:0:
475,192,134526,1,0,0:0:0:0:
402,192,134644,1,0,0:0:0:0:
329,192,134762,1,0,0:0:0:0:
475,192,134762,1,0,0:0:0:0:
109,192,134880,128,0,135117:0:0:0:0:
256,192,134998,1,0,0:0:0:0:
402,192,134998,1,0,0:0:0:0:
329,192,135117,1,0,0:0:0:0:
36,192,135235,128,0,135471:0:0:0:0:
182,192,135235,1,0,0:0:0:0:
475,192,135235,1,0,0:0:0:0:
402,192,135313,1,0,0:0:0:0:
329,192,135392,1,0,0:0:0:0:
256,192,135471,1,0,0:0:0:0:
109,192,135471,1,0,0:0:0:0:
329,192,135628,1,0,0:0:0:0:
182,192,135628,1,0,0:0:0:0:
402,192,135786,1,0,0:0:0:0:
256,192,135786,1,0,0:0:0:0:
182,192,135943,1,0,0:0:0:0:
36,192,135943,1,0,0:0:0:0:
109,192,136101,1,0,0:0:0:0:
256,192,136101,1,0,0:0:0:0:
182,192,136258,1,0,0:0:0:0:
329,192,136258,1,0,0:0:0:0:
329,192,136416,128,0,136652:0:0:0:0:
475,192,136416,1,0,0:0:0:0:
36,192,136416,1,0,0:0:0:0:
256,192,136534,1,0,0:0:0:0:
182,192,136652,1,0,0:0:0:0:
36,192,136652,1,0,0:0:0:0:
402,192,136770,128,0,137006:0:0:0:0:
256,192,136888,1,0,0:0:0:0:
36,192,136888,1,0,0:0:0:0:
182,192,137006,1,0,0:0:0:0:
475,192,137124,128,0,137361:0:0:0:0:
329,192,137124,1,0,0:0:0:0:
109,192,137124,1,0,0:0:0:0:
256,192,137243,1,0,0:0:0:0:
182,192,137361,1,0,0:0:0:0:
36,192,137361,1,0,0:0:0:0:
402,192,137361,1,0,0:0:0:0:
329,192,137479,1,0,0:0:0:0:
402,192,137597,1,0,0:0:0:0:
109,192,137597,1,0,0:0:0:0:
256,192,137715,1,0,0:0:0:0:
182,192,137833,1,0,0:0:0:0:
36,192,137833,1,0,0:0:0:0:
475,192,137833,1,0,0:0:0:0:
402,192,137951,1,0,0:0:0:0:
256,192,138069,1,0,0:0:0:0:
109,192,138069,1,0,0:0:0:0:
329,192,138187,1,0,0:0:0:0:
475,192,138305,1,0,0:0:0:0:
182,192,138305,128,0,138542:0:0:0:0:
36,192,138305,1,0,0:0:0:0:
256,192,138424,1,0,0:0:0:0:
329,192,138542,1,0,0:0:0:0:
475,192,138542,1,0,0:0:0:0:
109,192,138660,128,0,138896:0:0:0:0:
256,192,138778,1,0,0:0:0:0:
402,192,138778,1,0,0:0:0:0:
475,192,138896,1,0,0:0:0:0:
36,192,139014,128,0,139250:0:0:0:0:
182,192,139014,1,0,0:0:0:0:
329,192,139014,1,0,0:0:0:0:
402,192,139132,1,0,0:0:0:0:
256,192,139250,1,0,0:0:0:0:
109,192,139250,1,0,0:0:0:0:
182,192,139250,1,0,0:0:0:0:
475,192,139368,1,0,0:0:0:0:
402,192,139368,1,0,0:0:0:0:
256,192,139487,1,0,0:0:0:0:
109,192,139487,1,0,0:0:0:0:
329,192,139605,1,0,0:0:0:0:
109,192,139723,1,0,0:0:0:0:
36,192,139723,1,0,0:0:0:0:
402,192,139841,1,0,0:0:0:0:
256,192,139841,1,0,0:0:0:0:
182,192,139959,1,0,0:0:0:0:
36,192,139959,1,0,0:0:0:0:
329,192,140077,1,0,0:0:0:0:
182,192,140195,1,0,0:0:0:0:
36,192,140195,128,0,140431:0:0:0:0:
475,192,140195,1,0,0:0:0:0:
256,192,140313,1,0,0:0:0:0:
329,192,140431,1,0,0:0:0:0:
475,192,140431,1,0,0:0:0:0:
109,192,140550,128,0,140786:0:0:0:0:
256,192,140668,1,0,0:0:0:0:
402,192,140668,1,0,0:0:0:0:
329,192,140786,1,0,0:0:0:0:
182,192,140904,128,0,141140:0:0:0:0:
402,192,140904,1,0,0:0:0:0:
475,192,140904,1,0,0:0:0:0:
256,192,141022,1,0,0:0:0:0:
475,192,141140,128,0,141494:0:0:0:0:
36,192,141140,1,0,0:0:0:0:
329,192,141140,1,0,0:0:0:0:
109,192,141258,1,0,0:0:0:0:
329,192,141376,128,0,141494:0:0:0:0:
256,192,141376,1,0,0:0:0:0:
36,192,141494,128,0,141849:0:0:0:0:
109,192,141613,1,0,0:0:0:0:
475,192,141613,1,0,0:0:0:0:
402,192,141613,1,0,0:0:0:0:
182,192,141731,128,0,141849:0:0:0:0:
402,192,141849,128,0,141967:0:0:0:0:
329,192,141849,1,0,0:0:0:0:
256,192,141967,128,0,142085:0:0:0:0:
182,192,142085,128,0,142321:0:0:0:0:
475,192,142085,128,0,142321:0:0:0:0:
36,192,142085,1,0,0:0:0:0:
402,192,142085,1,0,0:0:0:0:
256,192,142321,1,0,0:0:0:0:
329,192,142321,1,0,0:0:0:0:
109,192,142439,128,0,142676:0:0:0:0:
475,192,142439,128,0,142676:0:0:0:0:
182,192,142557,1,0,0:0:0:0:
402,192,142557,1,0,0:0:0:0:
256,192,142676,1,0,0:0:0:0:
36,192,142794,128,0,143030:0:0:0:0:
402,192,142794,128,0,143030:0:0:0:0:
329,192,142794,1,0,0:0:0:0:
182,192,142912,1,0,0:0:0:0:
109,192,143030,1,0,0:0:0:0:
475,192,143030,1,0,0:0:0:0:
329,192,143030,1,0,0:0:0:0:
256,192,143148,1,0,0:0:0:0:
402,192,143266,1,0,0:0:0:0:
182,192,143266,1,0,0:0:0:0:
329,192,143384,1,0,0:0:0:0:
182,192,143502,1,0,0:0:0:0:
36,192,143502,1,0,0:0:0:0:
475,192,143502,1,0,0:0:0:0:
329,192,143620,1,0,0:0:0:0:
109,192,143739,1,0,0:0:0:0:
402,192,143739,1,0,0:0:0:0:
256,192,143857,1,0,0:0:0:0:
36,192,143975,128,0,144211:0:0:0:0:
329,192,143975,128,0,144211:0:0:0:0:
475,192,143975,1,0,0:0:0:0:
109,192,143975,1,0,0:0:0:0:
182,192,144093,1,0,0:0:0:0:
256,192,144211,1,0,0:0:0:0:
109,192,144211,1,0,0:0:0:0:
36,192,144329,128,0,144565:0:0:0:0:
402,192,144329,128,0,144565:0:0:0:0:
329,192,144447,1,0,0:0:0:0:
256,192,144447,1,0,0:0:0:0:
182,192,144565,1,0,0:0:0:0:
109,192,144683,128,0,144920:0:0:0:0:
475,192,144683,128,0,144920:0:0:0:0:
329,192,144683,1,0,0:0:0:0:
256,192,144802,1,0,0:0:0:0:
36,192,144920,1,0,0:0:0:0:
329,192,144920,1,0,0:0:0:0:
402,192,144920,1,0,0:0:0:0:
182,192,145038,1,0,0:0:0:0:
256,192,145156,1,0,0:0:0:0:
402,192,145156,1,0,0:0:0:0:
182,192,145274,1,0,0:0:0:0:
36,192,145392,1,0,0:0:0:0:
475,192,145392,1,0,0:0:0:0:
109,192,145392,1,0,0:0:0:0:
402,192,145471,1,0,0:0:0:0:
329,192,145550,1,0,0:0:0:0:
182,192,145628,1,0,0:0:0:0:
36,192,145628,1,0,0:0:0:0:
256,192,145746,1,0,0:0:0:0:
182,192,145865,128,0,146101:0:0:0:0:
475,192,145865,128,0,146101:0:0:0:0:
36,192,145865,1,0,0:0:0:0:
402,192,145865,1,0,0:0:0:0:
109,192,145983,1,0,0:0:0:0:
256,192,146101,1,0,0:0:0:0:
329,192,146101,1,0,0:0:0:0:
109,192,146219,128,0,146455:0:0:0:0:
402,192,146219,128,0,146455:0:0:0:0:
182,192,146337,1,0,0:0:0:0:
256,192,146337,1,0,0:0:0:0:
475,192,146455,1,0,0:0:0:0:
329,192,146573,128,0,146809:0:0:0:0:
109,192,146573,1,0,0:0:0:0:
36,192,146573,128,0,146809:0:0:0:0:
256,192,146691,1,0,0:0:0:0:
182,192,146809,1,0,0:0:0:0:
402,192,146809,1,0,0:0:0:0:
475,192,146809,1,0,0:0:0:0:
329,192,146928,1,0,0:0:0:0:
109,192,147046,1,0,0:0:0:0:
182,192,147046,1,0,0:0:0:0:
329,192,147164,1,0,0:0:0:0:
256,192,147282,1,0,0:0:0:0:
36,192,147282,1,0,0:0:0:0:
475,192,147282,1,0,0:0:0:0:
402,192,147400,1,0,0:0:0:0:
109,192,147518,1,0,0:0:0:0:
256,192,147518,1,0,0:0:0:0:
329,192,147636,1,0,0:0:0:0:
402,192,147754,128,0,147991:0:0:0:0:
182,192,147754,1,0,0:0:0:0:
36,192,147754,1,0,0:0:0:0:
475,192,147754,1,0,0:0:0:0:
329,192,147872,1,0,0:0:0:0:
109,192,147991,128,0,148109:0:0:0:0:
182,192,147991,1,0,0:0:0:0:
402,192,148109,128,0,148345:0:0:0:0:
256,192,148109,1,0,0:0:0:0:
109,192,148227,1,0,0:0:0:0:
36,192,148227,1,0,0:0:0:0:
475,192,148227,1,0,0:0:0:0:
182,192,148345,128,0,148463:0:0:0:0:
329,192,148345,1,0,0:0:0:0:
256,192,148463,128,0,148581:0:0:0:0:
36,192,148463,1,0,0:0:0:0:
329,192,148581,128,0,148699:0:0:0:0:
109,192,148581,1,0,0:0:0:0:
475,192,148699,128,0,149526:0:0:0:0:
182,192,148699,1,0,0:0:0:0:
36,192,148699,1,0,0:0:0:0:
402,192,148699,1,0,0:0:0:0:
329,192,148817,1,0,0:0:0:0:
256,192,148935,1,0,0:0:0:0:
109,192,148935,1,0,0:0:0:0:
402,192,149054,1,0,0:0:0:0:
36,192,149172,128,0,149526:0:0:0:0:
329,192,149172,1,0,0:0:0:0:
182,192,149172,1,0,0:0:0:0:
256,192,149290,1,0,0:0:0:0:
109,192,149408,1,0,0:0:0:0:
402,192,149408,1,0,0:0:0:0:
329,192,149526,1,0,0:0:0:0:
182,192,149644,1,0,0:0:0:0:
36,192,149644,1,0,0:0:0:0:
402,192,149644,1,0,0:0:0:0:
475,192,149644,128,0,149880:0:0:0:0:
256,192,149762,1,0,0:0:0:0:
329,192,149880,1,0,0:0:0:0:
109,192,149880,1,0,0:0:0:0:
475,192,149998,128,0,150117:0:0:0:0:
182,192,149998,1,0,0:0:0:0:
256,192,150117,1,0,0:0:0:0:
36,192,150117,1,0,0:0:0:0:
402,192,150117,1,0,0:0:0:0:
475,192,150353,128,0,150471:0:0:0:0:
109,192,150353,1,0,0:0:0:0:
329,192,150353,1,0,0:0:0:0:
36,192,150589,128,0,150825:0:0:0:0:
182,192,150589,1,0,0:0:0:0:
402,192,150589,1,0,0:0:0:0:
475,192,150589,1,0,0:0:0:0:
329,192,150707,1,0,0:0:0:0:
256,192,150825,1,0,0:0:0:0:
475,192,150825,1,0,0:0:0:0:
36,192,150943,128,0,151061:0:0:0:0:
402,192,150943,1,0,0:0:0:0:
182,192,151061,1,0,0:0:0:0:
329,192,151061,1,0,0:0:0:0:
36,192,151298,128,0,151416:0:0:0:0:
256,192,151298,1,0,0:0:0:0:
402,192,151298,1,0,0:0:0:0:
402,192,151534,128,0,151770:0:0:0:0:
36,192,151534,1,0,0:0:0:0:
182,192,151534,1,0,0:0:0:0:
475,192,151534,1,0,0:0:0:0:
256,192,151652,1,0,0:0:0:0:
329,192,151770,1,0,0:0:0:0:
109,192,151770,1,0,0:0:0:0:
402,192,151888,128,0,152006:0:0:0:0:
182,192,151888,1,0,0:0:0:0:
256,192,152006,1,0,0:0:0:0:
36,192,152006,1,0,0:0:0:0:
475,192,152006,1,0,0:0:0:0:
402,192,152243,128,0,152361:0:0:0:0:
182,192,152243,1,0,0:0:0:0:
329,192,152243,1,0,0:0:0:0:
109,192,152479,128,0,152715:0:0:0:0:
256,192,152479,1,0,0:0:0:0:
36,192,152479,1,0,0:0:0:0:
475,192,152479,1,0,0:0:0:0:
402,192,152597,1,0,0:0:0:0:
329,192,152715,1,0,0:0:0:0:
182,192,152715,1,0,0:0:0:0:
109,192,152833,128,0,152951:0:0:0:0:
475,192,152833,1,0,0:0:0:0:
36,192,152951,1,0,0:0:0:0:
402,192,152951,1,0,0:0:0:0:
256,192,152951,1,0,0:0:0:0:
109,192,153187,128,0,153305:0:0:0:0:
329,192,153187,1,0,0:0:0:0:
475,192,153187,1,0,0:0:0:0:
36,192,153424,128,0,154250:0:0:0:0:
256,192,153424,1,0,0:0:0:0:
402,192,153424,1,0,0:0:0:0:
475,192,153424,1,0,0:0:0:0:
402,192,153660,1,0,0:0:0:0:
182,192,153660,1,0,0:0:0:0:
256,192,153778,1,0,0:0:0:0:
475,192,153778,128,0,154250:0:0:0:0:
109,192,153896,1,0,0:0:0:0:
329,192,153896,1,0,0:0:0:0:
256,192,154132,128,0,154250:0:0:0:0:
402,192,154132,1,0,0:0:0:0:
109,192,154132,1,0,0:0:0:0:
475,192,154368,128,0,155195:0:0:0:0:
182,192,154368,1,0,0:0:0:0:
36,192,154368,1,0,0:0:0:0:
329,192,154368,1,0,0:0:0:0:
109,192,154605,1,0,0:0:0:0:
329,192,154605,1,0,0:0:0:0:
256,192,154723,1,0,0:0:0:0:
36,192,154723,128,0,155195:0:0:0:0:
182,192,154841,1,0,0:0:0:0:
402,192,154841,1,0,0:0:0:0:
256,192,155077,128,0,155195:0:0:0:0:
109,192,155077,1,0,0:0:0:0:
402,192,155077,1,0,0:0:0:0:
182,192,155313,1,0,0:0:0:0:
36,192,155313,1,0,0:0:0:0:
475,192,155313,1,0,0:0:0:0:
329,192,155313,128,0,155431:0:0:0:0:
402,192,155431,128,0,155550:0:0:0:0:
256,192,155550,128,0,155668:0:0:0:0:
109,192,155550,1,0,0:0:0:0:
329,192,155668,128,0,155786:0:0:0:0:
182,192,155786,128,0,155904:0:0:0:0:
36,192,155786,1,0,0:0:0:0:
475,192,155786,1,0,0:0:0:0:
109,192,155904,128,0,156022:0:0:0:0:
256,192,156022,128,0,156140:0:0:0:0:
402,192,156022,1,0,0:0:0:0:
182,192,156140,128,0,156258:0:0:0:0:
402,192,156258,128,0,156376:0:0:0:0:
36,192,156258,1,0,0:0:0:0:
475,192,156258,1,0,0:0:0:0:
329,192,156258,1,0,0:0:0:0:
109,192,156376,128,0,156494:0:0:0:0:
329,192,156494,128,0,156613:0:0:0:0:
256,192,156494,1,0,0:0:0:0:
182,192,156613,128,0,156731:0:0:0:0:
402,192,156731,128,0,156849:0:0:0:0:
36,192,156731,1,0,0:0:0:0:
475,192,156731,1,0,0:0:0:0:
329,192,156849,128,0,156967:0:0:0:0:
256,192,156967,128,0,157085:0:0:0:0:
109,192,156967,1,0,0:0:0:0:
182,192,157085,128,0,157203:0:0:0:0:
36,192,157203,1,0,0:0:0:0:
475,192,157203,1,0,0:0:0:0:
402,192,157203,128,0,157439:0:0:0:0:
109,192,157439,1,0,0:0:0:0:
256,192,157439,1,0,0:0:0:0:
402,192,157557,128,0,157676:0:0:0:0:
329,192,157557,1,0,0:0:0:0:
182,192,157676,1,0,0:0:0:0:
36,192,157676,1,0,0:0:0:0:
109,192,157676,1,0,0:0:0:0:
402,192,157912,128,0,158030:0:0:0:0:
256,192,157912,1,0,0:0:0:0:
109,192,157912,1,0,0:0:0:0:
36,192,158148,128,0,158384:0:0:0:0:
182,192,158148,1,0,0:0:0:0:
329,192,158148,1,0,0:0:0:0:
475,192,158148,1,0,0:0:0:0:
256,192,158384,1,0,0:0:0:0:
402,192,158384,1,0,0:0:0:0:
36,192,158502,128,0,158620:0:0:0:0:
182,192,158502,1,0,0:0:0:0:
329,192,158620,1,0,0:0:0:0:
475,192,158620,1,0,0:0:0:0:
402,192,158620,1,0,0:0:0:0:
36,192,158857,128,0,158975:0:0:0:0:
182,192,158857,1,0,0:0:0:0:
329,192,158857,1,0,0:0:0:0:
475,192,159093,128,0,159329:0:0:0:0:
256,192,159093,1,0,0:0:0:0:
109,192,159093,1,0,0:0:0:0:
36,192,159093,1,0,0:0:0:0:
109,192,159329,1,0,0:0:0:0:
256,192,159329,1,0,0:0:0:0:
475,192,159447,128,0,159565:0:0:0:0:
402,192,159447,1,0,0:0:0:0:
182,192,159565,1,0,0:0:0:0:
36,192,159565,1,0,0:0:0:0:
329,192,159565,1,0,0:0:0:0:
475,192,159802,128,0,159920:0:0:0:0:
109,192,159802,1,0,0:0:0:0:
256,192,159802,1,0,0:0:0:0:
109,192,160038,128,0,160274:0:0:0:0:
36,192,160038,1,0,0:0:0:0:
329,192,160038,1,0,0:0:0:0:
475,192,160038,1,0,0:0:0:0:
402,192,160274,128,0,160510:0:0:0:0:
475,192,160274,1,0,0:0:0:0:
256,192,160274,1,0,0:0:0:0:
182,192,160392,1,0,0:0:0:0:
256,192,160510,128,0,160746:0:0:0:0:
109,192,160510,1,0,0:0:0:0:
36,192,160510,1,0,0:0:0:0:
329,192,160510,1,0,0:0:0:0:
109,192,160746,128,0,160983:0:0:0:0:
329,192,160746,1,0,0:0:0:0:
475,192,160746,1,0,0:0:0:0:
256,192,160865,1,0,0:0:0:0:
36,192,160983,1,0,0:0:0:0:
475,192,160983,1,0,0:0:0:0:
182,192,160983,1,0,0:0:0:0:
402,192,160983,128,0,161455:0:0:0:0:
109,192,161219,1,0,0:0:0:0:
329,192,161219,1,0,0:0:0:0:
256,192,161337,1,0,0:0:0:0:
182,192,161455,1,0,0:0:0:0:
36,192,161455,1,0,0:0:0:0:
475,192,161455,1,0,0:0:0:0:
329,192,161691,1,0,0:0:0:0:
109,192,161691,1,0,0:0:0:0:
402,192,161809,1,0,0:0:0:0:
182,192,161809,1,0,0:0:0:0:
475,192,161928,128,0,162282:0:0:0:0:
256,192,161928,1,0,0:0:0:0:
36,192,161928,1,0,0:0:0:0:
109,192,161928,1,0,0:0:0:0:
329,192,162046,1,0,0:0:0:0:
402,192,162046,1,0,0:0:0:0:
109,192,162164,1,0,0:0:0:0:
182,192,162164,1,0,0:0:0:0:
256,192,162282,1,0,0:0:0:0:
329,192,162282,128,0,162518:0:0:0:0:
109,192,162400,1,0,0:0:0:0:
36,192,162400,1,0,0:0:0:0:
182,192,162400,1,0,0:0:0:0:
402,192,162636,128,0,162754:0:0:0:0:
256,192,162636,1,0,0:0:0:0:
109,192,162636,1,0,0:0:0:0:
182,192,162872,1,0,0:0:0:0:
36,192,162872,1,0,0:0:0:0:
109,192,162872,1,0,0:0:0:0:
329,192,162991,1,0,0:0:0:0:
402,192,162991,1,0,0:0:0:0:
182,192,163109,1,0,0:0:0:0:
109,192,163109,1,0,0:0:0:0:
402,192,163227,1,0,0:0:0:0:
475,192,163227,1,0,0:0:0:0:
329,192,163345,1,0,0:0:0:0:
256,192,163345,1,0,0:0:0:0:
36,192,163345,1,0,0:0:0:0:
109,192,163345,1,0,0:0:0:0:
402,192,163463,1,0,0:0:0:0:
475,192,163463,1,0,0:0:0:0:
256,192,163581,1,0,0:0:0:0:
182,192,163581,1,0,0:0:0:0:
329,192,163581,1,0,0:0:0:0:
109,192,163699,1,0,0:0:0:0:
36,192,163699,1,0,0:0:0:0:
402,192,163817,1,0,0:0:0:0:
475,192,163817,1,0,0:0:0:0:
329,192,163817,1,0,0:0:0:0:
109,192,163935,1,0,0:0:0:0:
182,192,163935,1,0,0:0:0:0:
329,192,164054,1,0,0:0:0:0:
402,192,164054,1,0,0:0:0:0:
36,192,164172,1,0,0:0:0:0:
109,192,164172,1,0,0:0:0:0:
256,192,164290,1,0,0:0:0:0:
475,192,164290,1,0,0:0:0:0:
182,192,164290,1,0,0:0:0:0:
402,192,164290,1,0,0:0:0:0:
109,192,164408,1,0,0:0:0:0:
36,192,164408,1,0,0:0:0:0:
256,192,164526,1,0,0:0:0:0:
329,192,164526,1,0,0:0:0:0:
402,192,164526,1,0,0:0:0:0:
182,192,164644,1,0,0:0:0:0:
109,192,164644,1,0,0:0:0:0:
402,192,164880,1,0,0:0:0:0:
475,192,164998,1,0,0:0:0:0:
329,192,165117,1,0,0:0:0:0:
402,192,165235,1,0,0:0:0:0:
256,192,165353,1,0,0:0:0:0:
329,192,165471,1,0,0:0:0:0:
182,192,165589,1,0,0:0:0:0:
109,192,165707,1,0,0:0:0:0:
256,192,165707,1,0,0:0:0:0:
402,192,165707,1,0,0:0:0:0:
109,192,165865,1,0,0:0:0:0:
256,192,165865,1,0,0:0:0:0:
402,192,165865,1,0,0:0:0:0:
402,192,166022,1,0,0:0:0:0:
256,192,166022,1,0,0:0:0:0:
109,192,166022,1,0,0:0:0:0:
182,192,166180,1,0,0:0:0:0:
36,192,166180,1,0,0:0:0:0:
329,192,166180,1,0,0:0:0:0:
475,192,166180,1,0,0:0:0:0:
182,192,166652,1,0,0:0:0:0:
36,192,166652,1,0,0:0:0:0:
475,192,166652,1,0,0:0:0:0:
109,192,166652,1,0,0:0:0:0:
329,192,166770,1,0,0:0:0:0:
182,192,166888,1,0,0:0:0:0:
182,192,167124,1,0,0:0:0:0:
329,192,167124,1,0,0:0:0:0:
329,192,167361,1,0,0:0:0:0:
475,192,167361,1,0,0:0:0:0:
256,192,167597,1,0,0:0:0:0:
402,192,167597,1,0,0:0:0:0:
329,192,167833,1,0,0:0:0:0:
182,192,167833,1,0,0:0:0:0:
109,192,168069,128,0,168424:0:0:0:0:
256,192,168069,1,0,0:0:0:0:
329,192,168305,1,0,0:0:0:0:
329,192,168542,1,0,0:0:0:0:
475,192,168542,1,0,0:0:0:0:
109,192,168542,1,0,0:0:0:0:
36,192,168542,1,0,0:0:0:0:
182,192,168660,1,0,0:0:0:0:
329,192,168778,1,0,0:0:0:0:
329,192,169014,1,0,0:0:0:0:
182,192,169014,1,0,0:0:0:0:
36,192,169250,1,0,0:0:0:0:
182,192,169250,1,0,0:0:0:0:
109,192,169487,1,0,0:0:0:0:
256,192,169487,1,0,0:0:0:0:
182,192,169723,1,0,0:0:0:0:
329,192,169723,1,0,0:0:0:0:
256,192,169959,1,0,0:0:0:0:
402,192,169959,128,0,170313:0:0:0:0:
109,192,170195,1,0,0:0:0:0:
109,192,170431,1,0,0:0:0:0:
329,192,170431,1,0,0:0:0:0:
182,192,170550,1,0,0:0:0:0:
402,192,170550,1,0,0:0:0:0:
256,192,170668,1,0,0:0:0:0:
475,192,170668,1,0,0:0:0:0:
182,192,170904,1,0,0:0:0:0:
402,192,170904,1,0,0:0:0:0:
329,192,171022,1,0,0:0:0:0:
109,192,171022,1,0,0:0:0:0:
256,192,171140,1,0,0:0:0:0:
36,192,171140,1,0,0:0:0:0:
109,192,171376,1,0,0:0:0:0:
329,192,171376,1,0,0:0:0:0:
182,192,171613,1,0,0:0:0:0:
402,192,171613,1,0,0:0:0:0:
329,192,171849,1,0,0:0:0:0:
475,192,171849,1,0,0:0:0:0:
182,192,172085,1,0,0:0:0:0:
36,192,172085,1,0,0:0:0:0:
109,192,172321,1,0,0:0:0:0:
256,192,172321,1,0,0:0:0:0:
182,192,172439,1,0,0:0:0:0:
329,192,172439,1,0,0:0:0:0:
256,192,172557,1,0,0:0:0:0:
402,192,172557,1,0,0:0:0:0:
256,192,172794,1,0,0:0:0:0:
402,192,172794,1,0,0:0:0:0:
329,192,172912,1,0,0:0:0:0:
182,192,172912,1,0,0:0:0:0:
109,192,173030,1,0,0:0:0:0:
256,192,173030,1,0,0:0:0:0:
36,192,173266,1,0,0:0:0:0:
475,192,173266,1,0,0:0:0:0:
182,192,173266,128,0,173384:0:0:0:0:
329,192,173384,128,0,173502:0:0:0:0:
402,192,173502,1,0,0:0:0:0:
475,192,173502,1,0,0:0:0:0:
109,192,173502,128,0,173620:0:0:0:0:
256,192,173620,128,0,173739:0:0:0:0:
182,192,173739,1,0,0:0:0:0:
36,192,173739,1,0,0:0:0:0:
402,192,173739,128,0,173975:0:0:0:0:
109,192,173975,1,0,0:0:0:0:
182,192,173975,1,0,0:0:0:0:
329,192,174093,1,0,0:0:0:0:
402,192,174093,1,0,0:0:0:0:
256,192,174211,1,0,0:0:0:0:
36,192,174211,1,0,0:0:0:0:
475,192,174211,1,0,0:0:0:0:
109,192,174211,128,0,174329:0:0:0:0:
182,192,174329,128,0,174447:0:0:0:0:
256,192,174447,128,0,174565:0:0:0:0:
402,192,174447,1,0,0:0:0:0:
402,192,174683,128,0,174920:0:0:0:0:
36,192,174683,1,0,0:0:0:0:
182,192,174683,1,0,0:0:0:0:
182,192,174920,128,0,175038:0:0:0:0:
329,192,174920,1,0,0:0:0:0:
402,192,175156,128,0,175274:0:0:0:0:
36,192,175156,1,0,0:0:0:0:
182,192,175156,1,0,0:0:0:0:
256,192,175392,128,0,175510:0:0:0:0:
109,192,175392,1,0,0:0:0:0:
109,192,175628,128,0,175865:0:0:0:0:
329,192,175628,1,0,0:0:0:0:
475,192,175628,1,0,0:0:0:0:
256,192,175746,1,0,0:0:0:0:
182,192,175865,1,0,0:0:0:0:
402,192,175865,1,0,0:0:0:0:
256,192,176101,128,0,176219:0:0:0:0:
36,192,176101,1,0,0:0:0:0:
475,192,176101,1,0,0:0:0:0:
329,192,176101,1,0,0:0:0:0:
109,192,176219,128,0,176337:0:0:0:0:
402,192,176337,128,0,176455:0:0:0:0:
182,192,176337,1,0,0:0:0:0:
256,192,176455,128,0,176573:0:0:0:0:
329,192,176573,128,0,176691:0:0:0:0:
36,192,176573,1,0,0:0:0:0:
475,192,176573,1,0,0:0:0:0:
475,192,176809,128,0,177046:0:0:0:0:
182,192,176809,1,0,0:0:0:0:
109,192,177046,128,0,177518:0:0:0:0:
402,192,177046,1,0,0:0:0:0:
36,192,177046,1,0,0:0:0:0:
256,192,177164,1,0,0:0:0:0:
475,192,177282,1,0,0:0:0:0:
329,192,177400,1,0,0:0:0:0:
36,192,177518,1,0,0:0:0:0:
256,192,177518,1,0,0:0:0:0:
475,192,177518,1,0,0:0:0:0:
182,192,177754,128,0,177872:0:0:0:0:
402,192,177754,1,0,0:0:0:0:
475,192,177991,128,0,178345:0:0:0:0:
36,192,177991,1,0,0:0:0:0:
329,192,177991,1,0,0:0:0:0:
182,192,177991,1,0,0:0:0:0:
109,192,178227,1,0,0:0:0:0:
256,192,178227,1,0,0:0:0:0:
402,192,178463,128,0,178581:0:0:0:0:
182,192,178463,1,0,0:0:0:0:
329,192,178581,128,0,178699:0:0:0:0:
109,192,178581,1,0,0:0:0:0:
256,192,178699,128,0,178817:0:0:0:0:
36,192,178699,1,0,0:0:0:0:
36,192,178935,128,0,179290:0:0:0:0:
182,192,178935,1,0,0:0:0:0:
329,192,178935,1,0,0:0:0:0:
475,192,178935,1,0,0:0:0:0:
256,192,179172,1,0,0:0:0:0:
402,192,179172,1,0,0:0:0:0:
109,192,179408,128,0,179526:0:0:0:0:
329,192,179408,1,0,0:0:0:0:
182,192,179526,128,0,179644:0:0:0:0:
402,192,179526,1,0,0:0:0:0:
256,192,179644,128,0,179880:0:0:0:0:
475,192,179644,1,0,0:0:0:0:
109,192,179880,128,0,180117:0:0:0:0:
329,192,179880,1,0,0:0:0:0:
475,192,179880,1,0,0:0:0:0:
402,192,180235,128,0,180471:0:0:0:0:
182,192,180235,1,0,0:0:0:0:
36,192,180235,1,0,0:0:0:0:
256,192,180589,128,0,180707:0:0:0:0:
109,192,180589,1,0,0:0:0:0:
402,192,180589,1,0,0:0:0:0:
182,192,180825,1,0,0:0:0:0:
402,192,180825,1,0,0:0:0:0:
475,192,180825,1,0,0:0:0:0:
36,192,180825,1,0,0:0:0:0:
256,192,180943,128,0,181061:0:0:0:0:
109,192,180943,1,0,0:0:0:0:
329,192,181061,128,0,181180:0:0:0:0:
36,192,181061,1,0,0:0:0:0:
402,192,181180,128,0,181298:0:0:0:0:
182,192,181180,1,0,0:0:0:0:
109,192,181298,128,0,181416:0:0:0:0:
256,192,181298,1,0,0:0:0:0:
475,192,181298,1,0,0:0:0:0:
36,192,181298,1,0,0:0:0:0:
182,192,181416,128,0,181534:0:0:0:0:
329,192,181416,1,0,0:0:0:0:
256,192,181534,128,0,181652:0:0:0:0:
402,192,181534,1,0,0:0:0:0:
329,192,181652,128,0,181770:0:0:0:0:
109,192,181652,1,0,0:0:0:0:
475,192,181770,128,0,181888:0:0:0:0:
182,192,181770,1,0,0:0:0:0:
36,192,181770,1,0,0:0:0:0:
329,192,181888,128,0,182006:0:0:0:0:
256,192,181888,1,0,0:0:0:0:
475,192,182006,128,0,182124:0:0:0:0:
182,192,182006,1,0,0:0:0:0:
36,192,182006,1,0,0:0:0:0:
109,192,182243,1,0,0:0:0:0:
256,192,182243,1,0,0:0:0:0:
329,192,182243,1,0,0:0:0:0:
182,192,182479,1,0,0:0:0:0:
329,192,182479,1,0,0:0:0:0:
402,192,182479,1,0,0:0:0:0:
109,192,182715,1,0,0:0:0:0:
329,192,182715,128,0,182833:0:0:0:0:
475,192,182715,128,0,182833:0:0:0:0:
256,192,182715,1,0,0:0:0:0:
36,192,182951,1,0,0:0:0:0:
256,192,182951,128,0,183069:0:0:0:0:
402,192,182951,128,0,183069:0:0:0:0:
182,192,182951,1,0,0:0:0:0:
36,192,183187,128,0,183542:0:0:0:0:
475,192,183187,1,0,0:0:0:0:
329,192,183187,1,0,0:0:0:0:
109,192,183187,128,0,183542:0:0:0:0:
182,192,183305,1,0,0:0:0:0:
329,192,183424,1,0,0:0:0:0:
475,192,183424,1,0,0:0:0:0:
402,192,183660,128,0,183778:0:0:0:0:
36,192,183660,1,0,0:0:0:0:
109,192,183660,1,0,0:0:0:0:
256,192,183778,128,0,183896:0:0:0:0:
182,192,183778,1,0,0:0:0:0:
402,192,183896,128,0,184014:0:0:0:0:
109,192,183896,1,0,0:0:0:0:
36,192,183896,1,0,0:0:0:0:
182,192,184132,1,0,0:0:0:0:
109,192,184132,1,0,0:0:0:0:
329,192,184132,1,0,0:0:0:0:
182,192,184368,1,0,0:0:0:0:
256,192,184368,1,0,0:0:0:0:
402,192,184368,1,0,0:0:0:0:
475,192,184605,1,0,0:0:0:0:
36,192,184605,1,0,0:0:0:0:
402,192,184605,128,0,184723:0:0:0:0:
256,192,184605,128,0,184723:0:0:0:0:
475,192,184841,1,0,0:0:0:0:
36,192,184841,1,0,0:0:0:0:
329,192,184841,128,0,184959:0:0:0:0:
182,192,184841,128,0,184959:0:0:0:0:
36,192,185077,128,0,185431:0:0:0:0:
256,192,185077,1,0,0:0:0:0:
109,192,185077,1,0,0:0:0:0:
475,192,185077,128,0,185431:0:0:0:0:
402,192,185195,1,0,0:0:0:0:
182,192,185313,1,0,0:0:0:0:
109,192,185313,1,0,0:0:0:0:
329,192,185431,1,0,0:0:0:0:
475,192,185550,128,0,185904:0:0:0:0:
36,192,185550,1,0,0:0:0:0:
109,192,185550,1,0,0:0:0:0:
256,192,185550,1,0,0:0:0:0:
182,192,185668,1,0,0:0:0:0:
402,192,185668,128,0,185904:0:0:0:0:
109,192,185786,1,0,0:0:0:0:
329,192,185786,128,0,185904:0:0:0:0:
36,192,186022,1,0,0:0:0:0:
475,192,186022,1,0,0:0:0:0:
109,192,186022,128,0,186376:0:0:0:0:
256,192,186022,1,0,0:0:0:0:
329,192,186140,1,0,0:0:0:0:
182,192,186140,128,0,186376:0:0:0:0:
402,192,186258,1,0,0:0:0:0:
256,192,186258,128,0,186376:0:0:0:0:
36,192,186494,1,0,0:0:0:0:
182,192,186494,1,0,0:0:0:0:
329,192,186494,1,0,0:0:0:0:
109,192,186731,1,0,0:0:0:0:
256,192,186731,1,0,0:0:0:0:
402,192,186731,1,0,0:0:0:0:
475,192,186967,1,0,0:0:0:0:
182,192,186967,128,0,187085:0:0:0:0:
329,192,186967,128,0,187085:0:0:0:0:
36,192,186967,1,0,0:0:0:0:
109,192,187203,128,0,187321:0:0:0:0:
475,192,187203,1,0,0:0:0:0:
329,192,187203,1,0,0:0:0:0:
256,192,187203,128,0,187321:0:0:0:0:
475,192,187439,128,0,187794:0:0:0:0:
256,192,187439,1,0,0:0:0:0:
329,192,187439,1,0,0:0:0:0:
36,192,187439,1,0,0:0:0:0:
402,192,187557,128,0,187794:0:0:0:0:
182,192,187557,1,0,0:0:0:0:
329,192,187676,128,0,187794:0:0:0:0:
109,192,187676,1,0,0:0:0:0:
36,192,187912,128,0,188266:0:0:0:0:
182,192,187912,1,0,0:0:0:0:
256,192,187912,1,0,0:0:0:0:
475,192,187912,1,0,0:0:0:0:
109,192,188030,128,0,188266:0:0:0:0:
329,192,188030,1,0,0:0:0:0:
182,192,188148,128,0,188266:0:0:0:0:
402,192,188148,1,0,0:0:0:0:
475,192,188384,1,0,0:0:0:0:
329,192,188384,1,0,0:0:0:0:
256,192,188384,128,0,188502:0:0:0:0:
109,192,188384,128,0,188502:0:0:0:0:
36,192,188620,1,0,0:0:0:0:
475,192,188620,1,0,0:0:0:0:
329,192,188620,128,0,188739:0:0:0:0:
182,192,188620,128,0,188739:0:0:0:0:
36,192,188857,128,0,189211:0:0:0:0:
475,192,188857,128,0,189211:0:0:0:0:
256,192,188857,1,0,0:0:0:0:
402,192,188857,1,0,0:0:0:0:
109,192,188975,1,0,0:0:0:0:
402,192,189093,1,0,0:0:0:0:
256,192,189093,1,0,0:0:0:0:
182,192,189211,1,0,0:0:0:0:
475,192,189329,128,0,189447:0:0:0:0:
256,192,189329,1,0,0:0:0:0:
36,192,189329,1,0,0:0:0:0:
329,192,189447,128,0,189565:0:0:0:0:
109,192,189447,1,0,0:0:0:0:
475,192,189565,128,0,189683:0:0:0:0:
36,192,189565,1,0,0:0:0:0:
182,192,189565,1,0,0:0:0:0:
36,192,189802,128,0,190156:0:0:0:0:
182,192,189802,1,0,0:0:0:0:
329,192,189802,1,0,0:0:0:0:
182,192,190038,128,0,190156:0:0:0:0:
475,192,190038,1,0,0:0:0:0:
329,192,190038,1,0,0:0:0:0:
109,192,190274,1,0,0:0:0:0:
182,192,190274,1,0,0:0:0:0:
329,192,190274,128,0,190392:0:0:0:0:
475,192,190274,128,0,190392:0:0:0:0:
109,192,190510,1,0,0:0:0:0:
36,192,190510,1,0,0:0:0:0:
256,192,190510,128,0,190628:0:0:0:0:
402,192,190510,128,0,190628:0:0:0:0:
182,192,190746,128,0,191101:0:0:0:0:
329,192,190746,128,0,191101:0:0:0:0:
36,192,190746,1,0,0:0:0:0:
475,192,190746,1,0,0:0:0:0:
109,192,190865,1,0,0:0:0:0:
256,192,190983,1,0,0:0:0:0:
475,192,190983,1,0,0:0:0:0:
109,192,191219,128,0,191691:0:0:0:0:
36,192,191219,1,0,0:0:0:0:
329,192,191219,1,0,0:0:0:0:
475,192,191219,1,0,0:0:0:0:
182,192,191337,128,0,191455:0:0:0:0:
402,192,191455,128,0,191691:0:0:0:0:
256,192,191455,1,0,0:0:0:0:
475,192,191455,1,0,0:0:0:0:
329,192,191573,128,0,191691:0:0:0:0:
182,192,191691,128,0,191809:0:0:0:0:
36,192,191691,1,0,0:0:0:0:
475,192,191691,1,0,0:0:0:0:
256,192,191928,128,0,192046:0:0:0:0:
402,192,191928,128,0,192046:0:0:0:0:
109,192,191928,1,0,0:0:0:0:
475,192,192164,128,0,192636:0:0:0:0:
36,192,192164,128,0,192636:0:0:0:0:
109,192,192164,1,0,0:0:0:0:
329,192,192164,1,0,0:0:0:0:
256,192,192282,1,0,0:0:0:0:
182,192,192400,1,0,0:0:0:0:
256,192,192518,1,0,0:0:0:0:
329,192,192636,1,0,0:0:0:0:
402,192,192636,1,0,0:0:0:0:
109,192,192636,1,0,0:0:0:0:
256,192,192872,128,0,193109:0:0:0:0:
109,192,192872,1,0,0:0:0:0:
182,192,193109,128,0,193227:0:0:0:0:
329,192,193109,1,0,0:0:0:0:
475,192,193109,1,0,0:0:0:0:
109,192,193109,128,0,193227:0:0:0:0:
256,192,193345,1,0,0:0:0:0:
402,192,193345,1,0,0:0:0:0:
109,192,193345,128,0,193463:0:0:0:0:
36,192,193345,128,0,193463:0:0:0:0:
402,192,193581,128,0,193699:0:0:0:0:
475,192,193581,1,0,0:0:0:0:
36,192,193581,1,0,0:0:0:0:
256,192,193581,1,0,0:0:0:0:
329,192,193699,128,0,193817:0:0:0:0:
182,192,193699,1,0,0:0:0:0:
256,192,193817,128,0,193935:0:0:0:0:
109,192,193817,1,0,0:0:0:0:
329,192,194054,128,0,194172:0:0:0:0:
402,192,194054,128,0,194172:0:0:0:0:
36,192,194054,1,0,0:0:0:0:
182,192,194054,1,0,0:0:0:0:
256,192,194290,1,0,0:0:0:0:
402,192,194290,128,0,194408:0:0:0:0:
475,192,194290,128,0,194408:0:0:0:0:
109,192,194290,1,0,0:0:0:0:
109,192,194526,128,0,194644:0:0:0:0:
36,192,194526,1,0,0:0:0:0:
475,192,194526,1,0,0:0:0:0:
256,192,194526,1,0,0:0:0:0:
329,192,194644,1,0,0:0:0:0:
182,192,194644,128,0,194762:0:0:0:0:
256,192,194762,128,0,194880:0:0:0:0:
402,192,194762,1,0,0:0:0:0:
402,192,194998,128,0,195353:0:0:0:0:
475,192,194998,128,0,195353:0:0:0:0:
182,192,194998,1,0,0:0:0:0:
256,192,194998,1,0,0:0:0:0:
36,192,194998,1,0,0:0:0:0:
182,192,195235,128,0,195353:0:0:0:0:
36,192,195235,128,0,195353:0:0:0:0:
36,192,195471,128,0,195707:0:0:0:0:
109,192,195471,128,0,195707:0:0:0:0:
329,192,195471,1,0,0:0:0:0:
475,192,195471,1,0,0:0:0:0:
256,192,195471,1,0,0:0:0:0:
329,192,195707,128,0,195825:0:0:0:0:
475,192,195707,128,0,195825:0:0:0:0:
109,192,195825,1,0,0:0:0:0:
256,192,195825,1,0,0:0:0:0:
182,192,195825,1,0,0:0:0:0:
36,192,195825,1,0,0:0:0:0:
109,192,196180,1,0,0:0:0:0:
36,192,196180,1,0,0:0:0:0:
182,192,196180,1,0,0:0:0:0:
329,192,196180,1,0,0:0:0:0:
109,192,196416,1,0,0:0:0:0:
182,192,196416,1,0,0:0:0:0:
256,192,196416,1,0,0:0:0:0:
402,192,196416,1,0,0:0:0:0:
182,192,196652,1,0,0:0:0:0:
256,192,196652,1,0,0:0:0:0:
329,192,196652,1,0,0:0:0:0:
475,192,196652,1,0,0:0:0:0:
329,192,196888,128,0,197006:0:0:0:0:
475,192,196888,128,0,197243:0:0:0:0:
36,192,196888,1,0,0:0:0:0:
109,192,196888,1,0,0:0:0:0:
256,192,197124,128,0,197243:0:0:0:0:
36,192,197124,1,0,0:0:0:0:
109,192,197124,1,0,0:0:0:0:
402,192,197361,128,0,197479:0:0:0:0:
36,192,197361,1,0,0:0:0:0:
475,192,197361,1,0,0:0:0:0:
256,192,197361,1,0,0:0:0:0:
329,192,197479,128,0,197597:0:0:0:0:
182,192,197479,1,0,0:0:0:0:
256,192,197597,128,0,197715:0:0:0:0:
109,192,197597,1,0,0:0:0:0:
475,192,197833,1,0,0:0:0:0:
402,192,197833,1,0,0:0:0:0:
182,192,197833,128,0,197951:0:0:0:0:
36,192,197833,128,0,198187:0:0:0:0:
475,192,198069,1,0,0:0:0:0:
402,192,198069,1,0,0:0:0:0:
256,192,198069,128,0,198187:0:0:0:0:
329,192,198305,128,0,198424:0:0:0:0:
475,192,198305,1,0,0:0:0:0:
36,192,198305,1,0,0:0:0:0:
182,192,198305,1,0,0:0:0:0:
256,192,198424,128,0,198542:0:0:0:0:
109,192,198424,1,0,0:0:0:0:
182,192,198542,128,0,198660:0:0:0:0:
36,192,198542,1,0,0:0:0:0:
475,192,198778,128,0,199487:0:0:0:0:
109,192,198778,1,0,0:0:0:0:
36,192,198778,1,0,0:0:0:0:
256,192,198778,1,0,0:0:0:0:
329,192,198896,1,0,0:0:0:0:
402,192,199014,1,0,0:0:0:0:
182,192,199014,1,0,0:0:0:0:
36,192,199014,1,0,0:0:0:0:
256,192,199132,1,0,0:0:0:0:
329,192,199250,1,0,0:0:0:0:
402,192,199250,1,0,0:0:0:0:
109,192,199250,1,0,0:0:0:0:
182,192,199368,1,0,0:0:0:0:
256,192,199487,1,0,0:0:0:0:
402,192,199487,1,0,0:0:0:0:
36,192,199487,1,0,0:0:0:0:
182,192,199605,1,0,0:0:0:0:
329,192,199723,1,0,0:0:0:0:
475,192,199723,1,0,0:0:0:0:
109,192,199723,128,0,200077:0:0:0:0:
36,192,199723,1,0,0:0:0:0:
256,192,199841,1,0,0:0:0:0:
182,192,199959,1,0,0:0:0:0:
475,192,199959,1,0,0:0:0:0:
402,192,200077,128,0,200550:0:0:0:0:
329,192,200077,1,0,0:0:0:0:
182,192,200195,1,0,0:0:0:0:
109,192,200195,1,0,0:0:0:0:
36,192,200195,1,0,0:0:0:0:
256,192,200313,1,0,0:0:0:0:
182,192,200431,128,0,200550:0:0:0:0:
36,192,200431,128,0,200550:0:0:0:0:
329,192,200550,1,0,0:0:0:0:
256,192,200668,1,0,0:0:0:0:
109,192,200668,1,0,0:0:0:0:
402,192,200668,1,0,0:0:0:0:
109,192,200825,1,0,0:0:0:0:
256,192,200825,1,0,0:0:0:0:
402,192,200825,1,0,0:0:0:0:
402,192,200983,1,0,0:0:0:0:
256,192,200983,1,0,0:0:0:0:
109,192,200983,1,0,0:0:0:0:
109,192,201140,1,0,0:0:0:0:
256,192,201140,1,0,0:0:0:0:
402,192,201140,1,0,0:0:0:0:
256,192,201298,1,0,0:0:0:0:
109,192,201298,1,0,0:0:0:0:
402,192,201298,1,0,0:0:0:0:
109,192,201455,1,0,0:0:0:0:
256,192,201455,1,0,0:0:0:0:
402,192,201455,1,0,0:0:0:0:
182,192,201613,1,0,0:0:0:0:
36,192,201613,1,0,0:0:0:0:
329,192,201613,1,0,0:0:0:0:
475,192,201613,1,0,0:0:0:0:
109,192,201849,1,0,0:0:0:0:
402,192,202085,1,0,0:0:0:0:
182,192,202321,1,0,0:0:0:0:
329,192,202439,1,0,0:0:0:0:
182,192,202557,128,0,202912:0:0:0:0:
36,192,202557,1,0,0:0:0:0:
475,192,202557,1,0,0:0:0:0:
329,192,202676,1,0,0:0:0:0:
402,192,202794,1,0,0:0:0:0:
109,192,202794,1,0,0:0:0:0:
329,192,202912,128,0,203266:0:0:0:0:
36,192,203030,1,0,0:0:0:0:
475,192,203030,1,0,0:0:0:0:
182,192,203148,1,0,0:0:0:0:
109,192,203266,1,0,0:0:0:0:
402,192,203384,1,0,0:0:0:0:
36,192,203502,128,0,203857:0:0:0:0:
182,192,203502,1,0,0:0:0:0:
475,192,203502,1,0,0:0:0:0:
329,192,203620,1,0,0:0:0:0:
256,192,203739,1,0,0:0:0:0:
109,192,203739,1,0,0:0:0:0:
402,192,203857,128,0,204211:0:0:0:0:
36,192,203975,1,0,0:0:0:0:
182,192,203975,1,0,0:0:0:0:
256,192,204093,1,0,0:0:0:0:
109,192,204211,1,0,0:0:0:0:
329,192,204329,1,0,0:0:0:0:
402,192,204447,128,0,204802:0:0:0:0:
36,192,204447,1,0,0:0:0:0:
475,192,204447,1,0,0:0:0:0:
109,192,204565,1,0,0:0:0:0:
182,192,204683,1,0,0:0:0:0:
329,192,204683,1,0,0:0:0:0:
109,192,204802,128,0,205156:0:0:0:0:
475,192,204920,1,0,0:0:0:0:
256,192,204920,1,0,0:0:0:0:
329,192,205038,1,0,0:0:0:0:
402,192,205156,1,0,0:0:0:0:
182,192,205274,1,0,0:0:0:0:
402,192,205392,128,0,205746:0:0:0:0:
475,192,205392,1,0,0:0:0:0:
36,192,205392,1,0,0:0:0:0:
109,192,205510,1,0,0:0:0:0:
256,192,205628,1,0,0:0:0:0:
329,192,205628,1,0,0:0:0:0:
109,192,205746,128,0,206101:0:0:0:0:
256,192,205865,1,0,0:0:0:0:
402,192,205865,1,0,0:0:0:0:
329,192,205983,1,0,0:0:0:0:
402,192,206101,1,0,0:0:0:0:
182,192,206219,1,0,0:0:0:0:
36,192,206337,128,0,206691:0:0:0:0:
475,192,206337,1,0,0:0:0:0:
256,192,206337,1,0,0:0:0:0:
402,192,206455,1,0,0:0:0:0:
329,192,206573,1,0,0:0:0:0:
109,192,206573,1,0,0:0:0:0:
256,192,206691,1,0,0:0:0:0:
329,192,206809,128,0,207282:0:0:0:0:
36,192,206809,1,0,0:0:0:0:
475,192,206809,1,0,0:0:0:0:
182,192,206928,1,0,0:0:0:0:
109,192,207046,1,0,0:0:0:0:
402,192,207046,1,0,0:0:0:0:
182,192,207164,1,0,0:0:0:0:
36,192,207282,1,0,0:0:0:0:
475,192,207282,128,0,207636:0:0:0:0:
256,192,207282,1,0,0:0:0:0:
182,192,207400,1,0,0:0:0:0:
109,192,207518,1,0,0:0:0:0:
329,192,207518,1,0,0:0:0:0:
256,192,207636,128,0,207991:0:0:0:0:
475,192,207754,1,0,0:0:0:0:
36,192,207754,1,0,0:0:0:0:
182,192,207872,1,0,0:0:0:0:
402,192,207991,1,0,0:0:0:0:
109,192,207991,1,0,0:0:0:0:
256,192,208109,1,0,0:0:0:0:
182,192,208227,1,0,0:0:0:0:
36,192,208227,1,0,0:0:0:0:
475,192,208227,1,0,0:0:0:0:
329,192,208345,1,0,0:0:0:0:
475,192,208463,128,0,209172:0:0:0:0:
36,192,208463,1,0,0:0:0:0:
182,192,208581,1,0,0:0:0:0:
109,192,208699,1,0,0:0:0:0:
329,192,208699,1,0,0:0:0:0:
256,192,208817,1,0,0:0:0:0:
182,192,208935,1,0,0:0:0:0:
329,192,209054,1,0,0:0:0:0:
182,192,209172,1,0,0:0:0:0:
36,192,209172,1,0,0:0:0:0:
402,192,209290,1,0,0:0:0:0:
256,192,209408,1,0,0:0:0:0:
109,192,209408,128,0,209644:0:0:0:0:
475,192,209526,1,0,0:0:0:0:
256,192,209644,128,0,209880:0:0:0:0:
329,192,209644,1,0,0:0:0:0:
182,192,209762,1,0,0:0:0:0:
402,192,209880,128,0,210117:0:0:0:0:
36,192,209880,1,0,0:0:0:0:
182,192,209998,1,0,0:0:0:0:
256,192,210117,1,0,0:0:0:0:
36,192,210117,1,0,0:0:0:0:
475,192,210117,128,0,210471:0:0:0:0:
182,192,210235,1,0,0:0:0:0:
109,192,210353,1,0,0:0:0:0:
402,192,210353,1,0,0:0:0:0:
329,192,210471,128,0,210825:0:0:0:0:
182,192,210589,1,0,0:0:0:0:
36,192,210589,1,0,0:0:0:0:
256,192,210707,1,0,0:0:0:0:
109,192,210825,1,0,0:0:0:0:
256,192,210943,1,0,0:0:0:0:
36,192,211061,128,0,211416:0:0:0:0:
182,192,211061,1,0,0:0:0:0:
475,192,211061,1,0,0:0:0:0:
402,192,211180,1,0,0:0:0:0:
109,192,211298,1,0,0:0:0:0:
256,192,211298,1,0,0:0:0:0:
329,192,211416,128,0,211770:0:0:0:0:
36,192,211534,1,0,0:0:0:0:
182,192,211534,1,0,0:0:0:0:
475,192,211652,1,0,0:0:0:0:
109,192,211770,1,0,0:0:0:0:
256,192,211888,1,0,0:0:0:0:
475,192,212006,128,0,212361:0:0:0:0:
109,192,212006,1,0,0:0:0:0:
402,192,212006,1,0,0:0:0:0:
182,192,212124,1,0,0:0:0:0:
256,192,212243,1,0,0:0:0:0:
36,192,212243,1,0,0:0:0:0:
329,192,212361,128,0,212715:0:0:0:0:
182,192,212479,1,0,0:0:0:0:
36,192,212479,1,0,0:0:0:0:
256,192,212597,1,0,0:0:0:0:
109,192,212715,1,0,0:0:0:0:
256,192,212833,1,0,0:0:0:0:
402,192,212951,128,0,213305:0:0:0:0:
36,192,212951,1,0,0:0:0:0:
475,192,212951,1,0,0:0:0:0:
182,192,213069,1,0,0:0:0:0:
329,192,213187,1,0,0:0:0:0:
256,192,213187,1,0,0:0:0:0:
109,192,213305,128,0,213660:0:0:0:0:
329,192,213424,1,0,0:0:0:0:
475,192,213424,1,0,0:0:0:0:
182,192,213542,1,0,0:0:0:0:
402,192,213660,1,0,0:0:0:0:
329,192,213778,1,0,0:0:0:0:
36,192,213896,128,0,214250:0:0:0:0:
182,192,213896,1,0,0:0:0:0:
402,192,213896,1,0,0:0:0:0:
256,192,214014,1,0,0:0:0:0:
329,192,214132,1,0,0:0:0:0:
182,192,214132,1,0,0:0:0:0:
402,192,214250,1,0,0:0:0:0:
475,192,214368,128,0,214841:0:0:0:0:
256,192,214368,1,0,0:0:0:0:
36,192,214368,1,0,0:0:0:0:
182,192,214487,1,0,0:0:0:0:
329,192,214605,1,0,0:0:0:0:
109,192,214605,1,0,0:0:0:0:
256,192,214723,1,0,0:0:0:0:
109,192,214841,1,0,0:0:0:0:
402,192,214841,128,0,215195:0:0:0:0:
36,192,214841,1,0,0:0:0:0:
182,192,214959,1,0,0:0:0:0:
329,192,215077,1,0,0:0:0:0:
256,192,215077,1,0,0:0:0:0:
36,192,215195,1,0,0:0:0:0:
109,192,215195,128,0,215550:0:0:0:0:
329,192,215313,1,0,0:0:0:0:
475,192,215313,1,0,0:0:0:0:
402,192,215431,1,0,0:0:0:0:
256,192,215550,128,0,215786:0:0:0:0:
36,192,215550,1,0,0:0:0:0:
475,192,215550,1,0,0:0:0:0:
182,192,215786,1,0,0:0:0:0:
36,192,215786,1,0,0:0:0:0:
329,192,215786,1,0,0:0:0:0:
475,192,215786,1,0,0:0:0:0:
182,192,216140,1,0,0:0:0:0:
329,192,216140,1,0,0:0:0:0:
182,192,216494,1,0,0:0:0:0:
329,192,216494,1,0,0:0:0:0:
109,192,216731,1,0,0:0:0:0:
256,192,216731,1,0,0:0:0:0:
402,192,216731,1,0,0:0:0:0:
109,192,216888,1,0,0:0:0:0:
256,192,216888,1,0,0:0:0:0:
402,192,216888,1,0,0:0:0:0:
109,192,217046,1,0,0:0:0:0:
256,192,217046,1,0,0:0:0:0:
402,192,217046,1,0,0:0:0:0:
182,192,217203,1,0,0:0:0:0:
36,192,217203,1,0,0:0:0:0:
475,192,217203,1,0,0:0:0:0:
329,192,217203,1,0,0:0:0:0:
109,192,217676,1,0,0:0:0:0:
402,192,217676,1,0,0:0:0:0:
256,192,217676,1,0,0:0:0:0:
182,192,217833,1,0,0:0:0:0:
256,192,217991,1,0,0:0:0:0:
329,192,218148,1,0,0:0:0:0:
109,192,218305,1,0,0:0:0:0:
256,192,218463,1,0,0:0:0:0:
329,192,218620,1,0,0:0:0:0:
36,192,218798,1,0,0:0:0:0:
182,192,218958,1,0,0:0:0:0:
402,192,219132,1,0,0:0:0:0:
402,192,219477,1,0,0:0:0:0:
329,192,219595,1,0,0:0:0:0:
256,192,219683,1,0,0:0:0:0:
182,192,219802,1,0,0:0:0:0:
