osu file format v14

[General]
AudioFilename: audio.mp3
AudioLeadIn: 0
PreviewTime: 49333
Countdown: 0
SampleSet: Soft
StackLeniency: 0.7
Mode: 3
LetterboxInBreaks: 0
SpecialStyle: 0
WidescreenStoryboard: 1

[Editor]
DistanceSpacing: 0.8
BeatDivisor: 4
GridSize: 4
TimelineZoom: 3.399998

[Metadata]
Title:Halloween of the Dead
TitleUnicode:Halloween of the Dead
Artist:Seifuu Meigetsu
ArtistUnicode:清風明月
Creator:A M D
Version:Halloween Party // ExNeko's 7K
Source:
Tags:AMD Seifuumeigetsu 葉月ゆら Hatsuki Yura drop japanese pop j-pop jpop exneko SEFU-009 M3-38 gothic
BeatmapID:4273332
BeatmapSetID:2032354

[Difficulty]
HPDrainRate:8
CircleSize:7
OverallDifficulty:8
ApproachRate:5
SliderMultiplier:1.4
SliderTickRate:1

[Events]
//Background and Video events
0,0,"93820815_p0.jpg",0,0
//Break Periods
//Storyboard Layer 0 (Background)
//Storyboard Layer 1 (Fail)
//Storyboard Layer 2 (Pass)
//Storyboard Layer 3 (Foreground)
//Storyboard Layer 4 (Overlay)
//Storyboard Sound Samples

[TimingPoints]
471,359.281437125748,4,2,1,85,1,0
49333,-100,4,2,1,85,0,1
72327,-100,4,2,1,85,0,0
126938,-100,4,2,1,85,0,1
149932,-100,4,2,1,85,0,0
201668,-100,4,2,1,85,0,1
213165,-100,4,2,1,85,0,0
216039,-100,4,2,1,85,0,1
224662,-100,4,2,1,85,0,0

[HitObjects]
36,192,471,5,2,0:0:0:0:
182,192,471,1,4,0:0:0:0:
475,192,471,128,0,650:0:0:0:0:
329,192,650,128,0,830:0:0:0:0:
182,192,830,1,0,0:0:0:0:
475,192,830,128,0,1548:0:0:0:0:
36,192,1189,128,0,1369:0:0:0:0:
256,192,1189,1,0,0:0:0:0:
402,192,1189,1,0,0:0:0:0:
182,192,1369,128,0,1548:0:0:0:0:
36,192,1548,128,0,2267:0:0:0:0:
329,192,1548,1,0,0:0:0:0:
182,192,1728,1,0,0:0:0:70:LR_TomSnare.wav
109,192,1908,1,0,0:0:0:0:
329,192,1908,128,0,2267:0:0:0:0:
475,192,1908,1,0,0:0:0:0:
256,192,2087,1,0,0:0:0:70:LR_TomSnare.wav
182,192,2267,128,0,2626:0:0:0:0:
475,192,2267,1,0,0:0:0:0:
36,192,2626,1,0,0:0:0:0:
329,192,2626,128,0,3345:0:0:0:0:
475,192,2626,1,0,0:0:0:0:
256,192,2985,1,0,0:0:0:0:
182,192,3165,1,0,0:0:0:70:LR_TomSnare.wav
36,192,3345,1,0,0:0:0:0:
109,192,3345,128,0,3524:0:0:0:0:
475,192,3345,1,0,0:0:0:0:
256,192,3524,128,0,3704:0:0:0:0:
109,192,3704,128,0,4423:0:0:0:0:
402,192,3704,1,0,0:0:0:0:
36,192,4063,1,0,0:0:0:70:LR_TomSnare.wav
182,192,4063,1,0,0:0:0:0:
402,192,4063,128,0,4243:0:0:0:0:
256,192,4243,128,0,4423:0:0:0:0:
329,192,4423,1,0,0:0:0:0:
402,192,4423,128,0,5141:0:0:0:0:
256,192,4602,1,0,0:0:0:70:LR_TomSnare.wav
36,192,4782,128,0,5141:0:0:0:0:
182,192,4782,1,0,0:0:0:0:
475,192,4782,1,0,0:0:0:0:
256,192,4962,1,0,0:0:0:70:LR_TomSnare.wav
182,192,5141,128,0,5500:0:0:0:0:
329,192,5141,1,0,0:0:0:0:
475,192,5141,1,0,0:0:0:0:
36,192,5500,128,0,6219:0:0:0:100:breaking04.wav
329,192,5500,1,0,0:0:0:0:
475,192,5500,1,0,0:0:0:0:
182,192,5860,1,0,0:0:0:0:
256,192,6039,1,0,0:0:0:70:LR_TomSnare.wav
109,192,6219,1,2,0:0:0:0:
329,192,6219,128,8,6399:0:0:0:0:
475,192,6219,1,4,0:0:0:0:
182,192,6399,128,0,6578:0:0:0:0:
36,192,6578,1,2,0:0:0:0:
329,192,6578,128,0,7297:0:0:0:0:
256,192,6758,1,0,0:0:0:0:
109,192,6938,128,2,7117:0:0:0:0:
182,192,6938,1,0,0:0:0:100:LR_TomSnare.wav
402,192,6938,1,0,0:0:0:0:
475,192,7117,128,0,7297:0:0:0:0:
109,192,7297,128,2,8015:0:0:0:0:
182,192,7297,1,0,0:0:0:0:
402,192,7476,1,0,0:0:0:100:LR_TomSnare.wav
36,192,7656,1,2,0:0:0:0:
256,192,7656,128,0,8015:0:0:0:0:
329,192,7656,1,0,0:0:0:0:
475,192,7836,1,0,0:0:0:100:LR_TomSnare.wav
182,192,8015,1,2,0:0:0:0:
402,192,8015,128,0,8375:0:0:0:0:
109,192,8195,1,0,0:0:0:0:
36,192,8375,1,2,0:0:0:0:
256,192,8375,128,0,9093:0:0:0:100:LR_TomSnare.wav
475,192,8375,1,0,0:0:0:0:
402,192,8554,1,0,0:0:0:0:
182,192,8734,1,2,0:0:0:0:
329,192,8734,1,0,0:0:0:0:
109,192,8914,1,0,0:0:0:100:LR_TomSnare.wav
36,192,9093,1,2,0:0:0:0:
402,192,9093,128,0,9273:0:0:0:0:
475,192,9093,1,0,0:0:0:0:
182,192,9273,128,0,9453:0:0:0:0:
256,192,9453,1,2,0:0:0:0:
402,192,9453,128,0,10171:0:0:0:0:
109,192,9632,1,0,0:0:0:0:
36,192,9812,128,2,9991:0:0:0:0:
182,192,9812,1,0,0:0:0:100:LR_TomSnare.wav
329,192,9812,1,0,0:0:0:0:
256,192,9991,128,0,10171:0:0:0:0:
36,192,10171,128,2,10890:0:0:0:0:
475,192,10171,1,0,0:0:0:0:
402,192,10351,1,0,0:0:0:100:LR_TomSnare.wav
182,192,10530,128,2,10890:0:0:0:0:
329,192,10530,1,0,0:0:0:0:
475,192,10530,1,0,0:0:0:0:
329,192,10890,128,0,11249:0:0:0:0:
182,192,11249,128,0,11608:0:0:0:0:
329,192,11608,1,8,0:0:0:0:
402,192,11608,1,0,0:0:0:0:
109,192,11698,1,8,0:0:0:0:
182,192,11698,1,0,0:0:0:0:
329,192,11788,1,8,0:0:0:0:
402,192,11788,1,0,0:0:0:0:
109,192,11878,1,8,0:0:0:0:
182,192,11878,1,0,0:0:0:0:
36,192,11968,1,2,0:0:0:0:
256,192,11968,1,4,0:0:0:0:
402,192,11968,1,0,0:0:0:0:
475,192,11968,1,0,0:0:0:0:
109,192,12057,1,0,0:0:0:0:
182,192,12147,1,0,0:0:0:0:
329,192,12147,1,0,0:0:0:0:
402,192,12147,1,0,0:0:0:0:
475,192,12237,1,0,0:0:0:0:
109,192,12327,1,2,0:0:0:0:
256,192,12327,1,8,0:0:0:0:
329,192,12327,1,0,0:0:0:0:
36,192,12417,1,0,0:0:0:0:
182,192,12506,1,0,0:0:0:0:
329,192,12506,1,0,0:0:0:0:
402,192,12506,1,0,0:0:0:0:
109,192,12596,1,0,0:0:0:0:
256,192,12686,1,2,0:0:0:0:
402,192,12686,1,0,0:0:0:0:
475,192,12686,1,0,0:0:0:0:
36,192,12746,1,0,0:0:0:0:
109,192,12806,1,0,0:0:0:0:
182,192,12866,1,0,0:0:0:0:
329,192,12866,1,0,0:0:0:0:
402,192,12926,1,0,0:0:0:0:
475,192,12985,1,0,0:0:0:0:
36,192,13045,1,2,0:0:0:0:
109,192,13045,1,8,0:0:0:0:
256,192,13045,1,0,0:0:0:0:
329,192,13045,1,0,0:0:0:0:
182,192,13225,1,0,0:0:0:0:
402,192,13225,1,0,0:0:0:0:
36,192,13405,1,2,0:0:0:0:
109,192,13405,1,0,0:0:0:0:
256,192,13405,1,0,0:0:0:0:
475,192,13465,1,0,0:0:0:0:
402,192,13524,1,0,0:0:0:0:
182,192,13584,1,0,0:0:0:0:
329,192,13584,1,0,0:0:0:0:
109,192,13644,1,0,0:0:0:0:
36,192,13704,1,0,0:0:0:0:
182,192,13764,1,2,0:0:0:0:
256,192,13764,1,8,0:0:0:0:
402,192,13764,1,0,0:0:0:0:
475,192,13764,1,0,0:0:0:0:
109,192,13944,1,0,0:0:0:0:
329,192,13944,1,0,0:0:0:0:
182,192,14123,1,2,0:0:0:0:
402,192,14123,1,0,0:0:0:0:
475,192,14123,1,0,0:0:0:0:
256,192,14213,1,0,0:0:0:0:
109,192,14303,1,0,0:0:0:0:
329,192,14303,1,0,0:0:0:0:
402,192,14303,1,0,0:0:0:0:
182,192,14393,1,0,0:0:0:0:
36,192,14482,1,2,0:0:0:0:
256,192,14482,1,8,0:0:0:0:
329,192,14482,1,0,0:0:0:0:
109,192,14662,1,2,0:0:0:0:
256,192,14662,1,0,0:0:0:0:
329,192,14662,1,0,0:0:0:0:
182,192,14842,1,2,0:0:0:0:
402,192,14842,1,0,0:0:0:0:
475,192,14842,1,0,0:0:0:0:
256,192,14932,1,0,0:0:0:0:
36,192,15021,1,0,0:0:0:0:
109,192,15021,1,0,0:0:0:0:
329,192,15021,1,0,0:0:0:0:
182,192,15111,1,0,0:0:0:0:
36,192,15201,1,2,0:0:0:0:
256,192,15201,1,8,0:0:0:0:
402,192,15201,1,4,0:0:0:0:
475,192,15201,1,0,0:0:0:0:
109,192,15291,1,0,0:0:0:0:
182,192,15381,1,0,0:0:0:0:
329,192,15381,1,0,0:0:0:0:
402,192,15381,1,0,0:0:0:0:
475,192,15470,1,0,0:0:0:0:
36,192,15560,1,2,0:0:0:0:
109,192,15560,1,0,0:0:0:0:
329,192,15560,1,0,0:0:0:0:
256,192,15650,1,0,0:0:0:0:
182,192,15740,1,0,0:0:0:0:
402,192,15740,1,0,0:0:0:0:
475,192,15740,1,0,0:0:0:0:
329,192,15830,1,0,0:0:0:0:
36,192,15920,1,2,0:0:0:0:
109,192,15920,1,8,0:0:0:0:
256,192,15920,1,4,0:0:0:0:
475,192,15920,1,0,0:0:0:0:
402,192,16009,1,0,0:0:0:0:
109,192,16099,1,0,0:0:0:0:
182,192,16099,1,0,0:0:0:0:
329,192,16099,1,0,0:0:0:0:
36,192,16189,1,0,0:0:0:0:
182,192,16279,1,2,0:0:0:0:
256,192,16279,1,0,0:0:0:0:
475,192,16279,1,0,0:0:0:0:
329,192,16369,1,0,0:0:0:0:
109,192,16459,1,0,0:0:0:0:
182,192,16459,1,0,0:0:0:0:
402,192,16459,1,0,0:0:0:0:
256,192,16548,1,0,0:0:0:0:
36,192,16638,1,2,0:0:0:0:
109,192,16638,1,8,0:0:0:0:
329,192,16638,1,0,0:0:0:0:
256,192,16728,1,0,0:0:0:0:
109,192,16818,1,0,0:0:0:0:
182,192,16818,1,0,0:0:0:0:
402,192,16818,1,0,0:0:0:0:
329,192,16908,1,0,0:0:0:0:
182,192,16997,1,2,0:0:0:0:
256,192,16997,1,0,0:0:0:0:
475,192,16997,1,0,0:0:0:0:
36,192,17057,1,0,0:0:0:0:
109,192,17117,1,0,0:0:0:0:
182,192,17177,1,0,0:0:0:0:
329,192,17177,1,0,0:0:0:0:
402,192,17237,1,0,0:0:0:0:
475,192,17297,1,0,0:0:0:0:
36,192,17357,1,2,0:0:0:0:
109,192,17357,1,8,0:0:0:0:
256,192,17357,1,0,0:0:0:0:
329,192,17357,1,0,0:0:0:0:
256,192,17536,1,8,0:0:0:0:
475,192,17536,1,0,0:0:0:0:
182,192,17626,1,8,0:0:0:0:
402,192,17626,1,0,0:0:0:0:
36,192,17716,1,2,0:0:0:0:
109,192,17716,1,4,0:0:0:0:
329,192,17716,1,0,0:0:0:0:
475,192,17716,1,0,0:0:0:0:
256,192,17806,1,0,0:0:0:0:
109,192,17896,1,0,0:0:0:0:
182,192,17896,1,0,0:0:0:0:
402,192,17896,1,0,0:0:0:0:
329,192,17985,1,0,0:0:0:0:
182,192,18075,1,2,0:0:0:0:
256,192,18075,1,8,0:0:0:0:
475,192,18075,1,0,0:0:0:0:
36,192,18165,1,0,0:0:0:0:
109,192,18255,1,0,0:0:0:0:
182,192,18255,1,0,0:0:0:0:
402,192,18255,1,0,0:0:0:0:
475,192,18345,1,0,0:0:0:0:
36,192,18435,1,2,0:0:0:0:
109,192,18435,1,0,0:0:0:0:
329,192,18435,1,0,0:0:0:0:
256,192,18494,1,0,0:0:0:0:
182,192,18554,1,0,0:0:0:0:
109,192,18614,1,0,0:0:0:0:
402,192,18614,1,0,0:0:0:0:
329,192,18674,1,0,0:0:0:0:
256,192,18734,1,0,0:0:0:0:
36,192,18794,1,2,0:0:0:0:
182,192,18794,1,8,0:0:0:0:
402,192,18794,1,0,0:0:0:0:
475,192,18794,1,0,0:0:0:0:
109,192,18973,1,0,0:0:0:0:
329,192,18973,1,0,0:0:0:0:
182,192,19153,1,2,0:0:0:0:
402,192,19153,1,0,0:0:0:0:
475,192,19153,1,0,0:0:0:0:
256,192,19213,1,0,0:0:0:0:
329,192,19273,1,0,0:0:0:0:
109,192,19333,1,0,0:0:0:0:
402,192,19333,1,0,0:0:0:0:
182,192,19393,1,0,0:0:0:0:
256,192,19453,1,0,0:0:0:0:
36,192,19512,1,2,0:0:0:0:
109,192,19512,1,8,0:0:0:0:
329,192,19512,1,0,0:0:0:0:
475,192,19512,1,0,0:0:0:0:
182,192,19692,1,0,0:0:0:0:
402,192,19692,1,0,0:0:0:0:
256,192,19872,1,2,0:0:0:0:
329,192,19872,1,0,0:0:0:0:
475,192,19872,1,0,0:0:0:0:
109,192,19962,1,0,0:0:0:0:
182,192,20051,1,0,0:0:0:0:
256,192,20051,1,0,0:0:0:0:
402,192,20051,1,0,0:0:0:0:
36,192,20141,1,0,0:0:0:0:
109,192,20231,1,2,0:0:0:0:
182,192,20231,1,8,0:0:0:0:
329,192,20231,1,0,0:0:0:0:
109,192,20411,1,2,0:0:0:0:
182,192,20411,1,0,0:0:0:0:
402,192,20411,1,0,0:0:0:0:
36,192,20590,1,2,0:0:0:0:
256,192,20590,1,0,0:0:0:0:
475,192,20590,1,0,0:0:0:0:
402,192,20680,1,0,0:0:0:0:
109,192,20770,1,0,0:0:0:0:
182,192,20770,1,0,0:0:0:0:
329,192,20770,1,0,0:0:0:0:
475,192,20860,1,0,0:0:0:0:
36,192,20950,1,2,0:0:0:0:
182,192,20950,1,8,0:0:0:0:
256,192,20950,1,4,0:0:0:0:
402,192,20950,1,0,0:0:0:0:
109,192,21039,1,0,0:0:0:0:
256,192,21129,1,0,0:0:0:0:
329,192,21129,1,0,0:0:0:0:
475,192,21129,1,0,0:0:0:0:
182,192,21219,1,0,0:0:0:0:
36,192,21309,1,2,0:0:0:0:
109,192,21309,1,0,0:0:0:0:
256,192,21309,1,0,0:0:0:0:
402,192,21399,1,0,0:0:0:0:
109,192,21488,1,0,0:0:0:0:
182,192,21488,1,0,0:0:0:0:
329,192,21488,1,0,0:0:0:0:
475,192,21578,1,0,0:0:0:0:
36,192,21668,1,2,0:0:0:0:
182,192,21668,1,8,0:0:0:0:
256,192,21668,1,4,0:0:0:0:
402,192,21668,1,0,0:0:0:0:
109,192,21758,1,0,0:0:0:0:
256,192,21848,1,0,0:0:0:0:
329,192,21848,1,0,0:0:0:0:
475,192,21848,1,0,0:0:0:0:
182,192,21938,1,0,0:0:0:0:
109,192,22027,1,2,0:0:0:0:
329,192,22027,1,0,0:0:0:0:
402,192,22027,1,0,0:0:0:0:
256,192,22117,1,0,0:0:0:0:
182,192,22207,1,0,0:0:0:0:
402,192,22207,1,0,0:0:0:0:
475,192,22207,1,0,0:0:0:0:
256,192,22297,1,0,0:0:0:0:
109,192,22387,1,2,0:0:0:0:
329,192,22387,1,8,0:0:0:0:
402,192,22387,1,0,0:0:0:0:
475,192,22476,1,0,0:0:0:0:
36,192,22566,1,0,0:0:0:0:
256,192,22566,1,0,0:0:0:0:
329,192,22566,1,0,0:0:0:0:
109,192,22656,1,0,0:0:0:0:
182,192,22746,1,2,0:0:0:0:
402,192,22746,1,8,0:0:0:0:
475,192,22746,1,0,0:0:0:0:
36,192,22836,1,8,0:0:0:0:
109,192,22836,1,0,0:0:0:0:
256,192,22926,1,8,0:0:0:0:
402,192,22926,1,0,0:0:0:0:
475,192,22926,1,0,0:0:0:0:
36,192,23015,1,8,0:0:0:0:
109,192,23015,1,0,0:0:0:0:
329,192,23105,1,8,0:0:0:0:
402,192,23105,1,2,0:0:0:0:
475,192,23105,1,0,0:0:0:0:
109,192,23195,1,8,0:0:0:0:
182,192,23195,1,0,0:0:0:0:
256,192,23285,1,8,0:0:0:0:
329,192,23285,1,0,0:0:0:0:
402,192,23285,1,0,0:0:0:0:
109,192,23375,1,8,0:0:0:0:
182,192,23375,1,0,0:0:0:0:
36,192,23465,1,2,0:0:0:0:
329,192,23465,1,4,0:0:0:0:
402,192,23465,1,0,0:0:0:0:
475,192,23465,1,0,0:0:0:0:
256,192,23644,1,0,0:0:0:0:
36,192,23824,1,2,0:0:0:0:
182,192,23824,1,0,0:0:0:0:
402,192,23824,1,0,0:0:0:0:
256,192,24003,1,0,0:0:0:0:
475,192,24003,1,0,0:0:0:0:
36,192,24183,1,2,0:0:0:0:
109,192,24183,1,0,0:0:0:0:
329,192,24183,1,0,0:0:0:0:
256,192,24363,1,0,0:0:0:0:
36,192,24542,1,2,0:0:0:0:
182,192,24542,1,0,0:0:0:0:
402,192,24542,1,0,0:0:0:0:
109,192,24722,1,0,0:0:0:0:
329,192,24722,1,0,0:0:0:0:
36,192,24902,1,2,0:0:0:0:
256,192,24902,1,0,0:0:0:0:
475,192,24902,1,0,0:0:0:0:
109,192,25081,1,0,0:0:0:0:
402,192,25081,1,0,0:0:0:0:
36,192,25261,1,2,0:0:0:0:
182,192,25261,1,0,0:0:0:0:
329,192,25261,1,0,0:0:0:0:
402,192,25441,1,0,0:0:0:0:
36,192,25620,1,2,0:0:0:0:
182,192,25620,1,0,0:0:0:0:
475,192,25620,1,0,0:0:0:0:
256,192,25800,1,0,0:0:0:0:
36,192,25979,1,2,0:0:0:0:
329,192,25979,1,0,0:0:0:0:
475,192,25979,1,0,0:0:0:0:
36,192,26159,1,2,0:0:0:0:
256,192,26159,1,0,0:0:0:0:
402,192,26159,1,0,0:0:0:0:
36,192,26339,1,2,0:0:0:0:
182,192,26339,1,0,0:0:0:0:
329,192,26339,1,0,0:0:0:0:
402,192,26518,1,0,0:0:0:0:
329,192,26608,1,0,0:0:0:0:
36,192,26698,1,2,0:0:0:0:
256,192,26698,1,0,0:0:0:0:
475,192,26698,1,0,0:0:0:0:
329,192,26878,1,0,0:0:0:0:
36,192,27057,1,2,0:0:0:0:
182,192,27057,1,0,0:0:0:0:
402,192,27057,1,0,0:0:0:0:
256,192,27237,1,0,0:0:0:0:
36,192,27417,1,2,0:0:0:0:
109,192,27417,1,0,0:0:0:0:
329,192,27417,1,0,0:0:0:0:
182,192,27596,1,0,0:0:0:0:
36,192,27776,1,2,0:0:0:0:
256,192,27776,1,0,0:0:0:0:
475,192,27776,1,0,0:0:0:0:
329,192,27956,1,0,0:0:0:0:
256,192,28045,1,0,0:0:0:0:
36,192,28135,1,2,0:0:0:0:
182,192,28135,1,0,0:0:0:0:
402,192,28135,1,0,0:0:0:0:
329,192,28315,1,0,0:0:0:0:
36,192,28494,1,2,0:0:0:0:
256,192,28494,1,0,0:0:0:0:
475,192,28494,1,0,0:0:0:0:
329,192,28674,1,0,0:0:0:0:
36,192,28854,1,2,0:0:0:0:
182,192,28854,1,0,0:0:0:0:
402,192,28854,1,0,0:0:0:0:
256,192,29033,1,0,0:0:0:0:
109,192,29213,1,2,0:0:0:0:
329,192,29213,1,0,0:0:0:0:
475,192,29213,1,0,0:0:0:0:
182,192,29393,1,0,0:0:0:0:
36,192,29572,1,2,0:0:0:0:
256,192,29572,1,0,0:0:0:0:
475,192,29572,1,0,0:0:0:0:
182,192,29752,1,0,0:0:0:0:
402,192,29752,1,0,0:0:0:0:
109,192,29932,1,2,0:0:0:0:
329,192,29932,1,0,0:0:0:0:
475,192,29932,1,0,0:0:0:0:
256,192,30111,1,0,0:0:0:0:
182,192,30291,1,2,0:0:0:0:
402,192,30291,1,0,0:0:0:0:
475,192,30291,1,0,0:0:0:0:
36,192,30470,1,0,0:0:0:0:
256,192,30470,1,0,0:0:0:0:
109,192,30650,1,2,0:0:0:0:
329,192,30650,1,0,0:0:0:0:
475,192,30650,1,0,0:0:0:0:
182,192,30830,1,0,0:0:0:0:
402,192,30830,1,0,0:0:0:0:
36,192,31009,1,2,0:0:0:0:
256,192,31009,1,0,0:0:0:0:
475,192,31009,1,0,0:0:0:0:
182,192,31189,1,0,0:0:0:0:
109,192,31369,1,2,0:0:0:0:
402,192,31369,1,0,0:0:0:0:
475,192,31369,1,0,0:0:0:0:
329,192,31548,1,0,0:0:0:0:
36,192,31728,1,2,0:0:0:0:
256,192,31728,1,0,0:0:0:0:
475,192,31728,1,0,0:0:0:0:
109,192,31908,1,2,0:0:0:0:
329,192,31908,1,0,0:0:0:0:
475,192,31908,1,0,0:0:0:0:
182,192,32087,1,2,0:0:0:0:
402,192,32087,1,0,0:0:0:0:
475,192,32087,1,0,0:0:0:0:
256,192,32267,1,0,0:0:0:0:
182,192,32357,1,0,0:0:0:0:
36,192,32447,1,2,0:0:0:0:
109,192,32447,1,0,0:0:0:0:
329,192,32447,1,0,0:0:0:0:
475,192,32447,1,0,0:0:0:0:
256,192,32626,1,0,0:0:0:0:
109,192,32806,1,2,0:0:0:0:
182,192,32806,1,0,0:0:0:0:
475,192,32806,1,0,0:0:0:0:
329,192,32985,1,0,0:0:0:0:
36,192,33165,1,2,0:0:0:0:
182,192,33165,1,0,0:0:0:0:
402,192,33165,1,0,0:0:0:0:
475,192,33165,1,0,0:0:0:0:
256,192,33345,1,0,0:0:0:0:
182,192,33524,1,2,0:0:0:0:
329,192,33524,1,0,0:0:0:0:
475,192,33524,1,0,0:0:0:0:
109,192,33704,1,0,0:0:0:0:
256,192,33704,1,0,0:0:0:0:
36,192,33884,1,2,0:0:0:0:
182,192,33884,1,0,0:0:0:0:
475,192,33884,1,0,0:0:0:0:
109,192,34063,1,0,0:0:0:0:
402,192,34063,1,0,0:0:0:0:
182,192,34243,1,2,0:0:0:0:
329,192,34243,1,0,0:0:0:0:
475,192,34243,1,0,0:0:0:0:
36,192,34333,1,0,0:0:0:0:
256,192,34423,1,0,0:0:0:100:tom01.wav
402,192,34423,1,0,0:0:0:0:
109,192,34512,1,0,0:0:0:0:
329,192,34602,1,2,0:0:0:0:
475,192,34602,1,0,0:0:0:100:tom02.wav
182,192,34692,1,0,0:0:0:0:
36,192,34782,1,0,0:0:0:100:tom04.wav
402,192,34782,1,0,0:0:0:0:
256,192,34872,1,0,0:0:0:0:
36,192,34962,1,2,0:0:0:0:
109,192,34962,1,4,0:0:0:0:
329,192,34962,1,0,0:0:0:0:
475,192,34962,1,0,0:0:0:0:
109,192,35321,1,0,0:0:0:0:
329,192,35321,1,0,0:0:0:0:
182,192,35500,1,2,0:0:0:0:
256,192,35500,1,0,0:0:0:0:
402,192,35500,1,0,0:0:0:0:
36,192,35680,1,8,0:0:0:0:
256,192,35680,1,0,0:0:0:0:
329,192,35680,1,0,0:0:0:0:
475,192,35680,1,0,0:0:0:0:
36,192,36039,1,0,0:0:0:0:
329,192,36039,1,0,0:0:0:0:
182,192,36219,1,2,0:0:0:0:
256,192,36219,1,0,0:0:0:0:
475,192,36219,1,0,0:0:0:0:
109,192,36399,1,2,0:0:0:0:
182,192,36399,1,0,0:0:0:0:
402,192,36399,1,0,0:0:0:0:
256,192,36578,1,0,0:0:0:0:
475,192,36578,1,0,0:0:0:0:
36,192,36758,1,0,0:0:0:0:
329,192,36758,1,0,0:0:0:0:
109,192,36938,1,2,0:0:0:0:
182,192,36938,1,0,0:0:0:0:
402,192,36938,1,0,0:0:0:0:
36,192,37117,1,8,0:0:0:0:
182,192,37117,1,0,0:0:0:0:
256,192,37117,1,0,0:0:0:0:
475,192,37117,1,0,0:0:0:0:
256,192,37476,1,0,0:0:0:0:
182,192,37656,1,0,0:0:0:0:
402,192,37656,1,0,0:0:0:0:
109,192,37836,128,2,38375:0:0:0:0:
256,192,37836,1,4,0:0:0:0:
329,192,37836,128,0,38015:0:0:0:0:
475,192,37836,1,0,0:0:0:0:
182,192,38015,1,0,0:0:0:0:
36,192,38195,1,2,0:0:0:0:
256,192,38195,1,8,0:0:0:0:
402,192,38195,128,0,38554:0:0:0:0:
256,192,38375,128,0,38554:0:0:0:0:
36,192,38554,128,2,38734:0:0:0:0:
182,192,38554,128,0,38914:0:0:0:0:
329,192,38554,1,0,0:0:0:0:
402,192,38734,128,0,38914:0:0:0:0:
36,192,38914,1,2,0:0:0:0:
109,192,38914,128,8,39093:0:0:0:0:
329,192,38914,128,0,39273:0:0:0:0:
475,192,39093,128,0,39273:0:0:0:0:
36,192,39273,128,2,39812:0:0:0:0:
182,192,39273,128,0,39632:0:0:0:0:
256,192,39273,1,0,0:0:0:0:
329,192,39453,1,0,0:0:0:0:
256,192,39632,1,2,0:0:0:0:
402,192,39632,1,8,0:0:0:0:
475,192,39632,128,0,39991:0:0:0:0:
109,192,39812,128,0,39991:0:0:0:0:
329,192,39812,128,0,39991:0:0:0:0:
36,192,39991,1,2,0:0:0:0:
182,192,39991,128,0,40081:0:0:0:0:
329,192,40081,128,0,40171:0:0:0:0:
109,192,40171,128,8,40261:0:0:0:0:
475,192,40171,1,0,0:0:0:0:
256,192,40261,128,0,40351:0:0:0:0:
36,192,40351,128,8,40441:0:0:0:0:
475,192,40351,1,2,0:0:0:0:
182,192,40441,128,0,40530:0:0:0:0:
329,192,40530,128,8,40620:0:0:0:0:
475,192,40530,1,0,0:0:0:0:
109,192,40620,128,0,40710:0:0:0:0:
36,192,40710,1,2,0:0:0:0:
182,192,40710,1,4,0:0:0:0:
256,192,40710,1,0,0:0:0:0:
402,192,40710,1,0,0:0:0:0:
256,192,41069,1,0,0:0:0:0:
475,192,41069,1,0,0:0:0:0:
182,192,41249,1,2,0:0:0:0:
329,192,41249,1,0,0:0:0:0:
402,192,41249,1,0,0:0:0:0:
36,192,41429,1,8,0:0:0:0:
109,192,41429,1,0,0:0:0:0:
256,192,41429,1,0,0:0:0:0:
329,192,41429,1,0,0:0:0:0:
109,192,41788,1,0,0:0:0:0:
329,192,41788,1,0,0:0:0:0:
182,192,41968,1,2,0:0:0:0:
256,192,41968,1,0,0:0:0:0:
402,192,41968,1,0,0:0:0:0:
256,192,42147,1,2,0:0:0:0:
329,192,42147,1,0,0:0:0:0:
475,192,42147,1,0,0:0:0:0:
182,192,42327,1,0,0:0:0:0:
402,192,42327,1,0,0:0:0:0:
36,192,42506,1,0,0:0:0:0:
256,192,42506,1,0,0:0:0:0:
182,192,42686,1,2,0:0:0:0:
402,192,42686,1,0,0:0:0:0:
475,192,42686,1,0,0:0:0:0:
36,192,42866,1,8,0:0:0:0:
109,192,42866,1,0,0:0:0:0:
329,192,42866,1,0,0:0:0:0:
402,192,42866,1,0,0:0:0:0:
256,192,43225,1,0,0:0:0:0:
109,192,43405,1,0,0:0:0:0:
329,192,43405,1,0,0:0:0:0:
36,192,43584,128,2,44303:0:0:0:0:
182,192,43584,1,4,0:0:0:0:
256,192,43584,1,0,0:0:0:0:
402,192,43584,1,0,0:0:0:0:
329,192,43764,128,0,43944:0:0:0:0:
182,192,43944,1,2,0:0:0:0:
256,192,43944,1,8,0:0:0:0:
475,192,43944,1,0,0:0:0:0:
329,192,44123,128,0,44303:0:0:0:0:
109,192,44303,1,2,0:0:0:0:
402,192,44303,1,0,0:0:0:0:
475,192,44303,128,0,45021:0:0:0:0:
182,192,44482,128,0,44662:0:0:0:0:
36,192,44662,1,2,0:0:0:0:
256,192,44662,1,8,0:0:0:0:
329,192,44662,1,0,0:0:0:0:
182,192,44842,128,0,45021:0:0:0:0:
36,192,45021,1,2,0:0:0:0:
109,192,45021,128,0,45740:0:0:0:0:
402,192,45021,1,0,0:0:0:0:
329,192,45201,128,0,45381:0:0:0:0:
36,192,45381,128,2,45740:0:0:0:0:
182,192,45381,1,8,0:0:0:0:
256,192,45381,1,0,0:0:0:0:
329,192,45560,128,0,45740:0:0:0:0:
256,192,45740,1,2,0:0:0:0:
402,192,45740,128,0,46459:0:0:0:0:
475,192,45740,1,0,0:0:0:0:
182,192,45920,128,0,46099:0:0:0:0:
36,192,46099,1,2,0:0:0:0:
109,192,46099,1,8,0:0:0:0:
475,192,46099,128,0,46459:0:0:0:0:
182,192,46279,128,2,46638:0:0:0:0:
329,192,46279,1,0,0:0:0:0:
36,192,46459,128,2,46638:0:0:0:0:
109,192,46459,1,0,0:0:0:0:
256,192,46459,1,0,0:0:0:0:
329,192,46459,128,0,46818:0:0:0:0:
36,192,46818,1,8,0:0:0:0:
182,192,46818,1,0,0:0:0:0:
402,192,46818,1,0,0:0:0:0:
475,192,46818,1,0,0:0:0:0:
109,192,46997,1,2,0:0:0:0:
329,192,46997,128,0,47357:0:0:0:0:
182,192,47177,128,2,47536:0:0:0:0:
256,192,47177,1,0,0:0:0:0:
402,192,47177,1,0,0:0:0:0:
475,192,47177,128,0,47357:0:0:0:0:
36,192,47536,1,8,0:0:0:0:
109,192,47536,1,0,0:0:0:0:
329,192,47536,1,0,0:0:0:0:
475,192,47536,1,0,0:0:0:0:
182,192,47716,128,2,48075:0:0:0:0:
402,192,47716,1,0,0:0:0:0:
36,192,47896,128,2,48075:0:0:0:0:
109,192,47896,1,0,0:0:0:0:
256,192,47896,1,0,0:0:0:0:
329,192,47896,128,0,48255:0:0:0:0:
475,192,48075,1,0,0:0:0:0:
36,192,48255,1,0,0:0:0:0:
256,192,48435,1,0,0:0:0:0:
109,192,48494,1,0,0:0:0:0:
256,192,48554,1,0,0:0:0:0:
402,192,48614,1,0,0:0:0:50:clap.wav
256,192,48794,1,0,0:0:0:0:
36,192,48973,1,0,0:0:0:50:clap.wav
182,192,48973,1,0,0:0:0:0:
329,192,48973,1,0,0:0:0:0:
475,192,48973,1,0,0:0:0:0:
36,192,49333,1,2,0:0:0:0:
109,192,49333,1,4,0:0:0:0:
256,192,49333,1,0,0:0:0:0:
402,192,49333,1,0,0:0:0:0:
329,192,49423,1,0,0:0:0:0:
109,192,49512,1,0,0:0:0:0:
182,192,49512,1,0,0:0:0:0:
475,192,49512,1,0,0:0:0:0:
329,192,49602,1,0,0:0:0:0:
36,192,49692,1,2,0:0:0:0:
182,192,49692,128,8,49962:0:0:0:0:
256,192,49692,1,0,0:0:0:0:
402,192,49692,1,0,0:0:0:0:
329,192,49872,128,0,50051:0:0:0:0:
475,192,49872,1,0,0:0:0:0:
109,192,50051,1,2,0:0:0:0:
256,192,50051,1,0,0:0:0:0:
402,192,50051,1,0,0:0:0:0:
475,192,50051,1,0,0:0:0:0:
182,192,50141,1,0,0:0:0:0:
36,192,50231,1,0,0:0:0:0:
329,192,50231,1,0,0:0:0:0:
402,192,50231,1,0,0:0:0:0:
182,192,50321,1,0,0:0:0:0:
109,192,50411,1,2,0:0:0:0:
256,192,50411,1,8,0:0:0:0:
329,192,50411,128,0,50680:0:0:0:0:
475,192,50411,1,0,0:0:0:0:
36,192,50590,1,0,0:0:0:0:
182,192,50590,128,0,50770:0:0:0:0:
256,192,50770,1,2,0:0:0:0:
402,192,50770,1,0,0:0:0:0:
475,192,50770,1,0,0:0:0:0:
36,192,50860,1,0,0:0:0:0:
329,192,50860,1,0,0:0:0:0:
109,192,50950,1,0,0:0:0:0:
256,192,50950,1,0,0:0:0:0:
182,192,51039,1,0,0:0:0:0:
475,192,51039,1,0,0:0:0:0:
109,192,51129,1,2,0:0:0:0:
256,192,51129,1,8,0:0:0:0:
402,192,51129,1,0,0:0:0:0:
36,192,51219,1,0,0:0:0:0:
329,192,51219,1,0,0:0:0:0:
256,192,51309,1,0,0:0:0:0:
402,192,51309,1,0,0:0:0:0:
182,192,51399,1,0,0:0:0:0:
475,192,51399,1,0,0:0:0:0:
36,192,51488,1,2,0:0:0:0:
109,192,51488,1,0,0:0:0:0:
256,192,51488,128,0,51758:0:0:0:0:
329,192,51488,1,0,0:0:0:0:
109,192,51668,128,0,51848:0:0:0:0:
402,192,51668,128,0,51848:0:0:0:0:
36,192,51848,1,2,0:0:0:0:
182,192,51848,1,8,0:0:0:0:
329,192,51848,1,0,0:0:0:0:
475,192,51848,1,0,0:0:0:0:
109,192,52027,1,2,0:0:0:0:
256,192,52027,1,0,0:0:0:0:
402,192,52027,1,0,0:0:0:0:
182,192,52207,1,2,0:0:0:0:
329,192,52207,1,0,0:0:0:0:
475,192,52207,1,0,0:0:0:0:
36,192,52297,1,0,0:0:0:0:
109,192,52387,1,0,0:0:0:0:
256,192,52387,1,0,0:0:0:0:
402,192,52387,1,0,0:0:0:0:
182,192,52476,1,0,0:0:0:0:
36,192,52566,1,2,0:0:0:0:
256,192,52566,1,8,0:0:0:0:
329,192,52566,1,0,0:0:0:0:
475,192,52566,1,0,0:0:0:0:
182,192,52656,1,0,0:0:0:0:
109,192,52746,1,0,0:0:0:0:
402,192,52746,1,0,0:0:0:0:
475,192,52746,1,0,0:0:0:0:
329,192,52836,1,0,0:0:0:0:
36,192,52926,1,2,0:0:0:0:
182,192,52926,1,0,0:0:0:0:
402,192,52926,1,0,0:0:0:0:
256,192,53015,1,0,0:0:0:0:
109,192,53105,1,0,0:0:0:0:
329,192,53105,1,0,0:0:0:0:
256,192,53195,1,0,0:0:0:0:
36,192,53285,1,2,0:0:0:0:
182,192,53285,1,8,0:0:0:0:
402,192,53285,1,0,0:0:0:0:
475,192,53285,1,0,0:0:0:0:
256,192,53375,1,0,0:0:0:0:
109,192,53465,1,0,0:0:0:0:
329,192,53465,1,0,0:0:0:0:
256,192,53554,1,0,0:0:0:0:
182,192,53644,1,2,0:0:0:0:
402,192,53644,128,0,53824:0:0:0:0:
475,192,53644,128,0,53734:0:0:0:0:
329,192,53734,128,0,53914:0:0:0:0:
109,192,53824,1,0,0:0:0:0:
256,192,53824,128,0,54003:0:0:0:0:
182,192,53914,128,0,54003:0:0:0:0:
36,192,54003,1,2,0:0:0:0:
329,192,54003,128,8,54183:0:0:0:0:
402,192,54003,128,0,54093:0:0:0:0:
475,192,54003,1,0,0:0:0:0:
256,192,54093,128,0,54273:0:0:0:0:
182,192,54183,128,0,54363:0:0:0:0:
402,192,54183,1,0,0:0:0:0:
109,192,54273,128,0,54363:0:0:0:0:
36,192,54363,1,2,0:0:0:0:
256,192,54363,128,0,54542:0:0:0:0:
329,192,54363,128,0,54453:0:0:0:0:
475,192,54363,1,0,0:0:0:0:
182,192,54453,128,0,54632:0:0:0:0:
109,192,54542,128,8,54722:0:0:0:0:
402,192,54542,1,0,0:0:0:0:
475,192,54542,1,0,0:0:0:0:
36,192,54632,128,0,54722:0:0:0:0:
256,192,54722,1,8,0:0:0:0:
329,192,54722,1,2,0:0:0:0:
402,192,54722,1,0,0:0:0:0:
36,192,54902,1,8,0:0:0:0:
256,192,54902,1,0,0:0:0:0:
475,192,54902,1,0,0:0:0:0:
182,192,54991,1,8,0:0:0:0:
402,192,54991,1,0,0:0:0:0:
36,192,55081,1,2,0:0:0:0:
109,192,55081,1,4,0:0:0:0:
256,192,55081,1,0,0:0:0:0:
329,192,55081,1,0,0:0:0:0:
182,192,55171,1,0,0:0:0:0:
36,192,55261,1,0,0:0:0:0:
329,192,55261,1,0,0:0:0:0:
402,192,55261,1,0,0:0:0:0:
182,192,55351,1,0,0:0:0:0:
109,192,55441,1,2,0:0:0:0:
256,192,55441,1,8,0:0:0:0:
329,192,55441,128,0,55710:0:0:0:0:
475,192,55441,1,0,0:0:0:0:
36,192,55620,1,0,0:0:0:0:
182,192,55620,128,0,55800:0:0:0:0:
36,192,55800,1,2,0:0:0:0:
109,192,55800,1,0,0:0:0:0:
256,192,55800,1,0,0:0:0:0:
402,192,55800,1,0,0:0:0:0:
329,192,55890,1,0,0:0:0:0:
109,192,55979,1,0,0:0:0:0:
182,192,55979,1,0,0:0:0:0:
475,192,55979,1,0,0:0:0:0:
329,192,56069,1,0,0:0:0:0:
36,192,56159,1,2,0:0:0:0:
182,192,56159,128,8,56429:0:0:0:0:
256,192,56159,1,0,0:0:0:0:
402,192,56159,1,0,0:0:0:0:
329,192,56339,128,0,56518:0:0:0:0:
475,192,56339,1,0,0:0:0:0:
36,192,56518,1,2,0:0:0:0:
109,192,56518,1,0,0:0:0:0:
256,192,56518,1,0,0:0:0:0:
182,192,56608,1,0,0:0:0:0:
475,192,56608,1,0,0:0:0:0:
109,192,56698,1,0,0:0:0:0:
402,192,56698,1,0,0:0:0:0:
36,192,56788,1,0,0:0:0:0:
329,192,56788,1,0,0:0:0:0:
109,192,56878,1,2,0:0:0:0:
256,192,56878,1,8,0:0:0:0:
402,192,56878,1,0,0:0:0:0:
182,192,56968,1,0,0:0:0:0:
475,192,56968,1,0,0:0:0:0:
109,192,57057,1,0,0:0:0:0:
402,192,57057,1,0,0:0:0:0:
36,192,57147,1,0,0:0:0:0:
329,192,57147,1,0,0:0:0:0:
182,192,57237,1,2,0:0:0:0:
256,192,57237,128,0,57506:0:0:0:0:
402,192,57237,1,0,0:0:0:0:
475,192,57237,1,0,0:0:0:0:
109,192,57417,128,0,57596:0:0:0:0:
402,192,57417,128,0,57596:0:0:0:0:
36,192,57596,1,2,0:0:0:0:
182,192,57596,1,8,0:0:0:0:
329,192,57596,1,0,0:0:0:0:
475,192,57596,1,0,0:0:0:0:
109,192,57776,1,2,0:0:0:0:
256,192,57776,1,0,0:0:0:0:
402,192,57776,1,0,0:0:0:0:
36,192,57956,128,2,58225:0:0:0:0:
182,192,57956,128,0,58135:0:0:0:0:
329,192,57956,128,0,58045:0:0:0:0:
402,192,58045,128,0,58315:0:0:0:0:
256,192,58135,128,0,58315:0:0:0:0:
109,192,58225,128,0,58315:0:0:0:0:
36,192,58315,128,8,58674:0:0:0:0:
182,192,58315,128,2,58584:0:0:0:0:
329,192,58315,128,0,58584:0:0:0:0:
475,192,58315,128,0,58584:0:0:0:0:
256,192,58494,1,0,0:0:0:0:
402,192,58494,1,0,0:0:0:0:
182,192,58674,128,2,58764:0:0:0:0:
329,192,58674,128,0,58854:0:0:0:0:
475,192,58674,128,0,58944:0:0:0:0:
109,192,58764,128,0,59033:0:0:0:0:
256,192,58854,128,0,59033:0:0:0:0:
402,192,58944,128,0,59033:0:0:0:0:
36,192,59033,128,2,59303:0:0:0:0:
182,192,59033,128,8,59303:0:0:0:0:
329,192,59033,128,0,59303:0:0:0:0:
475,192,59033,128,0,59303:0:0:0:0:
109,192,59213,1,0,0:0:0:0:
256,192,59213,1,0,0:0:0:0:
36,192,59393,1,2,0:0:0:0:
182,192,59393,1,4,0:0:0:0:
329,192,59393,1,0,0:0:0:0:
475,192,59393,1,0,0:0:0:0:
182,192,59572,1,0,0:0:0:0:
329,192,59572,1,0,0:0:0:0:
475,192,59572,1,0,0:0:0:0:
36,192,59752,1,2,0:0:0:0:
109,192,59752,1,8,0:0:0:0:
256,192,59752,1,4,0:0:0:0:
402,192,59752,1,0,0:0:0:0:
36,192,59932,1,0,0:0:0:0:
256,192,59932,1,0,0:0:0:0:
402,192,59932,1,0,0:0:0:0:
182,192,60111,1,2,0:0:0:0:
329,192,60111,1,8,0:0:0:0:
475,192,60111,1,4,0:0:0:0:
36,192,60201,1,8,0:0:0:0:
109,192,60201,1,0,0:0:0:0:
256,192,60291,1,8,0:0:0:0:
329,192,60291,1,0,0:0:0:0:
475,192,60291,1,0,0:0:0:0:
109,192,60381,1,8,0:0:0:0:
182,192,60381,1,0,0:0:0:0:
36,192,60470,1,8,0:0:0:0:
402,192,60470,1,2,0:0:0:0:
475,192,60470,1,0,0:0:0:0:
182,192,60560,1,8,0:0:0:0:
256,192,60560,1,0,0:0:0:0:
36,192,60650,1,8,0:0:0:0:
109,192,60650,1,0,0:0:0:0:
402,192,60650,1,0,0:0:0:0:
256,192,60740,1,8,0:0:0:0:
329,192,60740,1,0,0:0:0:0:
36,192,60830,1,2,0:0:0:0:
182,192,60830,1,4,0:0:0:0:
402,192,60830,1,0,0:0:0:0:
475,192,60830,1,0,0:0:0:0:
256,192,60920,1,0,0:0:0:0:
36,192,61009,1,0,0:0:0:0:
182,192,61009,1,0,0:0:0:0:
402,192,61009,1,0,0:0:0:0:
329,192,61099,1,0,0:0:0:0:
36,192,61189,1,2,0:0:0:0:
182,192,61189,128,8,61459:0:0:0:0:
256,192,61189,128,0,61459:0:0:0:0:
475,192,61189,1,0,0:0:0:0:
329,192,61279,128,0,61459:0:0:0:0:
109,192,61369,1,0,0:0:0:0:
402,192,61369,128,0,61548:0:0:0:0:
475,192,61459,128,0,61548:0:0:0:0:
36,192,61548,1,2,0:0:0:0:
182,192,61548,1,0,0:0:0:0:
329,192,61548,1,0,0:0:0:0:
256,192,61638,1,0,0:0:0:0:
109,192,61728,1,0,0:0:0:0:
329,192,61728,1,0,0:0:0:0:
475,192,61728,1,0,0:0:0:0:
182,192,61818,1,0,0:0:0:0:
36,192,61908,1,2,0:0:0:0:
256,192,61908,128,8,62177:0:0:0:0:
329,192,61908,128,0,62177:0:0:0:0:
475,192,61908,1,0,0:0:0:0:
182,192,61997,128,0,62177:0:0:0:0:
109,192,62087,128,0,62267:0:0:0:0:
402,192,62087,1,0,0:0:0:0:
36,192,62177,128,0,62267:0:0:0:0:
182,192,62267,1,2,0:0:0:0:
329,192,62267,1,0,0:0:0:0:
475,192,62267,1,0,0:0:0:0:
256,192,62357,1,0,0:0:0:0:
109,192,62447,1,0,0:0:0:0:
182,192,62447,1,0,0:0:0:0:
402,192,62447,1,0,0:0:0:0:
256,192,62536,1,0,0:0:0:0:
36,192,62626,1,2,0:0:0:0:
182,192,62626,1,8,0:0:0:0:
329,192,62626,1,0,0:0:0:0:
475,192,62626,1,0,0:0:0:0:
256,192,62716,1,0,0:0:0:0:
109,192,62806,1,0,0:0:0:0:
329,192,62806,1,0,0:0:0:0:
402,192,62806,1,0,0:0:0:0:
256,192,62896,1,0,0:0:0:0:
36,192,62985,1,2,0:0:0:0:
182,192,62985,128,0,63255:0:0:0:0:
329,192,62985,128,0,63255:0:0:0:0:
475,192,62985,1,0,0:0:0:0:
36,192,63165,128,0,63345:0:0:0:0:
475,192,63165,128,0,63345:0:0:0:0:
109,192,63345,1,2,0:0:0:0:
182,192,63345,1,8,0:0:0:0:
329,192,63345,1,0,0:0:0:0:
402,192,63345,1,0,0:0:0:0:
182,192,63524,1,2,0:0:0:0:
329,192,63524,1,0,0:0:0:0:
475,192,63524,1,0,0:0:0:0:
36,192,63704,1,2,0:0:0:0:
182,192,63704,128,0,63794:0:0:0:0:
329,192,63704,1,0,0:0:0:0:
402,192,63794,128,0,63973:0:0:0:0:
36,192,63884,1,0,0:0:0:0:
109,192,63884,1,0,0:0:0:0:
329,192,63884,1,0,0:0:0:0:
256,192,63973,128,0,64153:0:0:0:0:
36,192,64063,1,2,0:0:0:0:
182,192,64063,1,8,0:0:0:0:
402,192,64063,1,0,0:0:0:0:
475,192,64063,1,0,0:0:0:0:
109,192,64153,128,0,64333:0:0:0:0:
182,192,64243,1,0,0:0:0:0:
256,192,64243,1,0,0:0:0:0:
402,192,64243,1,0,0:0:0:0:
329,192,64333,128,0,64423:0:0:0:0:
36,192,64423,1,2,0:0:0:0:
109,192,64423,1,0,0:0:0:0:
402,192,64423,128,0,64692:0:0:0:0:
475,192,64423,1,0,0:0:0:0:
256,192,64512,128,0,64692:0:0:0:0:
109,192,64602,128,0,64692:0:0:0:0:
329,192,64602,1,0,0:0:0:0:
182,192,64692,1,0,0:0:0:0:
36,192,64782,1,2,0:0:0:0:
256,192,64782,1,8,0:0:0:0:
329,192,64782,128,0,65051:0:0:0:0:
475,192,64782,1,0,0:0:0:0:
182,192,64872,128,0,65051:0:0:0:0:
36,192,64962,128,0,65051:0:0:0:0:
256,192,64962,1,0,0:0:0:0:
109,192,65051,1,0,0:0:0:0:
182,192,65141,1,2,0:0:0:0:
329,192,65141,1,0,0:0:0:0:
475,192,65141,128,0,65411:0:0:0:0:
182,192,65321,128,0,65590:0:0:0:0:
329,192,65321,128,0,65590:0:0:0:0:
36,192,65500,128,2,66129:0:0:0:0:
256,192,65500,1,8,0:0:0:0:
402,192,65500,1,0,0:0:0:0:
475,192,65500,1,0,0:0:0:0:
256,192,65680,128,0,65950:0:0:0:0:
402,192,65680,128,0,65950:0:0:0:0:
109,192,65860,128,2,66129:0:0:0:0:
182,192,65860,1,0,0:0:0:0:
329,192,65860,1,0,0:0:0:0:
256,192,66039,1,8,0:0:0:0:
329,192,66039,128,0,66219:0:0:0:0:
475,192,66039,128,0,66219:0:0:0:0:
36,192,66219,1,8,0:0:0:0:
109,192,66219,1,2,0:0:0:0:
256,192,66219,1,0,0:0:0:0:
36,192,66399,1,8,0:0:0:0:
109,192,66399,1,0,0:0:0:0:
256,192,66399,1,0,0:0:0:0:
182,192,66488,1,8,0:0:0:0:
329,192,66488,1,0,0:0:0:0:
36,192,66578,1,2,0:0:0:0:
256,192,66578,1,4,0:0:0:0:
402,192,66578,1,0,0:0:0:0:
475,192,66578,1,0,0:0:0:0:
182,192,66668,1,0,0:0:0:0:
109,192,66758,1,0,0:0:0:0:
329,192,66758,1,0,0:0:0:0:
475,192,66758,1,0,0:0:0:0:
182,192,66848,1,0,0:0:0:0:
36,192,66938,1,2,0:0:0:0:
256,192,66938,128,8,67207:0:0:0:0:
329,192,66938,128,0,67207:0:0:0:0:
475,192,66938,1,0,0:0:0:0:
182,192,67027,128,0,67207:0:0:0:0:
109,192,67117,128,0,67297:0:0:0:0:
402,192,67117,1,0,0:0:0:0:
36,192,67207,128,0,67297:0:0:0:0:
182,192,67297,1,2,0:0:0:0:
329,192,67297,1,0,0:0:0:0:
475,192,67297,1,0,0:0:0:0:
256,192,67387,1,0,0:0:0:0:
109,192,67476,1,0,0:0:0:0:
329,192,67476,1,0,0:0:0:0:
475,192,67476,1,0,0:0:0:0:
182,192,67566,1,0,0:0:0:0:
36,192,67656,1,2,0:0:0:0:
256,192,67656,1,8,0:0:0:0:
402,192,67656,1,0,0:0:0:0:
475,192,67656,1,0,0:0:0:0:
182,192,67746,1,0,0:0:0:0:
109,192,67836,1,0,0:0:0:0:
256,192,67836,1,0,0:0:0:0:
402,192,67836,1,0,0:0:0:0:
475,192,67926,1,0,0:0:0:0:
36,192,68015,1,2,0:0:0:0:
182,192,68015,1,0,0:0:0:0:
329,192,68015,1,0,0:0:0:0:
256,192,68105,1,0,0:0:0:0:
109,192,68195,1,0,0:0:0:0:
329,192,68195,1,0,0:0:0:0:
402,192,68195,1,0,0:0:0:0:
256,192,68285,1,0,0:0:0:0:
36,192,68375,1,8,0:0:0:0:
182,192,68375,1,2,0:0:0:0:
329,192,68375,1,0,0:0:0:0:
475,192,68375,1,0,0:0:0:0:
256,192,68465,1,0,0:0:0:0:
109,192,68554,1,0,0:0:0:0:
182,192,68554,1,0,0:0:0:0:
402,192,68554,1,0,0:0:0:0:
256,192,68644,1,0,0:0:0:0:
36,192,68734,1,2,0:0:0:0:
182,192,68734,128,0,69003:0:0:0:0:
329,192,68734,128,0,69003:0:0:0:0:
475,192,68734,1,0,0:0:0:0:
36,192,68914,128,0,69093:0:0:0:0:
475,192,68914,128,0,69093:0:0:0:0:
109,192,69093,1,2,0:0:0:0:
182,192,69093,1,8,0:0:0:0:
329,192,69093,1,0,0:0:0:0:
402,192,69093,1,0,0:0:0:0:
36,192,69273,1,2,0:0:0:0:
182,192,69273,1,0,0:0:0:0:
329,192,69273,1,0,0:0:0:0:
182,192,69453,128,2,69542:0:0:0:0:
329,192,69453,128,0,69632:0:0:0:0:
475,192,69453,128,0,69722:0:0:0:0:
109,192,69542,128,0,69812:0:0:0:0:
256,192,69632,128,0,69812:0:0:0:0:
402,192,69722,128,0,69812:0:0:0:0:
36,192,69812,128,2,70081:0:0:0:0:
182,192,69812,128,8,70081:0:0:0:0:
329,192,69812,128,0,70081:0:0:0:0:
475,192,69812,128,0,70171:0:0:0:0:
109,192,69991,1,0,0:0:0:0:
256,192,69991,1,0,0:0:0:0:
36,192,70171,128,2,70441:0:0:0:0:
182,192,70171,128,0,70351:0:0:0:0:
329,192,70171,128,0,70261:0:0:0:0:
402,192,70261,128,0,70530:0:0:0:0:
256,192,70351,128,0,70530:0:0:0:0:
109,192,70441,128,0,70530:0:0:0:0:
36,192,70530,128,2,70800:0:0:0:0:
182,192,70530,128,8,70800:0:0:0:0:
329,192,70530,128,0,70800:0:0:0:0:
475,192,70530,128,0,70800:0:0:0:0:
256,192,70710,1,0,0:0:0:0:
402,192,70710,1,0,0:0:0:0:
36,192,70890,1,2,0:0:0:0:
182,192,70890,1,4,0:0:0:0:
329,192,70890,1,0,0:0:0:0:
475,192,70890,1,0,0:0:0:0:
36,192,71069,1,0,0:0:0:0:
182,192,71069,1,0,0:0:0:0:
329,192,71069,1,0,0:0:0:0:
109,192,71249,1,2,0:0:0:0:
256,192,71249,1,8,0:0:0:0:
402,192,71249,1,4,0:0:0:0:
475,192,71249,1,0,0:0:0:0:
109,192,71429,1,0,0:0:0:0:
256,192,71429,1,0,0:0:0:0:
475,192,71429,1,0,0:0:0:0:
36,192,71608,1,2,0:0:0:0:
182,192,71608,1,4,0:0:0:0:
329,192,71608,1,8,0:0:0:0:
402,192,71698,1,8,0:0:0:0:
475,192,71698,1,0,0:0:0:0:
36,192,71788,1,8,0:0:0:0:
182,192,71788,1,0,0:0:0:0:
256,192,71788,1,0,0:0:0:0:
329,192,71878,1,8,0:0:0:0:
402,192,71878,1,0,0:0:0:0:
36,192,71968,1,8,0:0:0:0:
109,192,71968,1,2,0:0:0:0:
475,192,71968,1,0,0:0:0:0:
256,192,72057,1,8,0:0:0:0:
329,192,72057,1,0,0:0:0:0:
109,192,72147,1,8,0:0:0:0:
402,192,72147,1,0,0:0:0:0:
475,192,72147,1,0,0:0:0:0:
182,192,72237,1,8,0:0:0:0:
256,192,72237,1,0,0:0:0:0:
36,192,72327,1,2,0:0:0:0:
109,192,72327,128,4,73045:0:0:0:0:
329,192,72327,128,0,72866:0:0:0:0:
475,192,72327,128,0,72866:0:0:0:0:
182,192,72686,1,0,0:0:0:0:
256,192,72866,1,2,0:0:0:0:
402,192,72866,128,0,73764:0:0:0:0:
36,192,73045,128,8,73584:0:0:0:0:
182,192,73045,128,0,73584:0:0:0:0:
329,192,73045,1,0,0:0:0:0:
475,192,73045,1,0,0:0:0:0:
329,192,73405,1,0,0:0:0:0:
109,192,73584,128,2,74482:0:0:0:0:
256,192,73584,1,0,0:0:0:0:
36,192,73764,1,2,0:0:0:0:
182,192,73764,1,0,0:0:0:0:
329,192,73764,128,0,74303:0:0:0:0:
475,192,73764,128,0,74303:0:0:0:0:
182,192,74123,1,0,0:0:0:0:
256,192,74303,1,2,0:0:0:0:
402,192,74303,128,0,75021:0:0:0:0:
36,192,74482,128,8,75021:0:0:0:0:
182,192,74482,128,0,75201:0:0:0:0:
329,192,74482,1,0,0:0:0:0:
475,192,74482,1,0,0:0:0:0:
256,192,74842,1,0,0:0:0:0:
109,192,75021,1,2,0:0:0:0:
329,192,75021,128,0,75201:0:0:0:0:
36,192,75201,128,2,75830:0:0:0:0:
256,192,75201,1,4,0:0:0:0:
402,192,75201,1,0,0:0:0:0:
475,192,75201,128,0,75830:0:0:0:0:
109,192,75261,1,0,0:0:0:0:
182,192,75321,1,0,0:0:0:0:
329,192,75381,1,0,0:0:0:0:
402,192,75441,1,0,0:0:0:0:
256,192,75500,1,0,0:0:0:0:
109,192,75560,1,0,0:0:0:0:
182,192,75620,1,0,0:0:0:0:
329,192,75680,1,0,0:0:0:0:
109,192,75740,1,2,0:0:0:0:
402,192,75740,1,0,0:0:0:0:
36,192,75920,128,8,76189:0:0:0:0:
182,192,75920,1,0,0:0:0:0:
329,192,75920,1,0,0:0:0:0:
475,192,75920,128,0,76189:0:0:0:0:
182,192,76279,1,0,0:0:0:0:
329,192,76279,1,0,0:0:0:0:
36,192,76459,1,2,0:0:0:0:
256,192,76459,1,0,0:0:0:0:
475,192,76459,1,0,0:0:0:0:
182,192,76638,128,2,77267:0:0:0:0:
329,192,76638,128,4,77267:0:0:0:0:
402,192,76638,1,0,0:0:0:0:
475,192,76638,1,0,0:0:0:0:
256,192,76698,1,0,0:0:0:0:
36,192,76758,1,0,0:0:0:0:
109,192,76818,1,0,0:0:0:0:
402,192,76878,1,0,0:0:0:0:
475,192,76938,1,0,0:0:0:0:
256,192,76997,1,0,0:0:0:0:
36,192,77057,1,0,0:0:0:0:
109,192,77117,1,0,0:0:0:0:
402,192,77177,1,2,0:0:0:0:
475,192,77177,1,0,0:0:0:0:
36,192,77357,1,8,0:0:0:0:
182,192,77357,128,0,77536:0:0:0:0:
329,192,77357,128,0,77536:0:0:0:0:
475,192,77357,1,0,0:0:0:0:
182,192,77716,1,0,0:0:0:0:
329,192,77716,1,0,0:0:0:0:
36,192,77896,1,2,0:0:0:0:
256,192,77896,1,0,0:0:0:0:
475,192,77896,1,0,0:0:0:0:
109,192,78075,128,2,78794:0:0:0:0:
256,192,78075,128,4,78614:0:0:0:0:
402,192,78075,128,0,78614:0:0:0:0:
182,192,78435,1,0,0:0:0:0:
329,192,78614,128,2,79512:0:0:0:0:
36,192,78794,128,8,79333:0:0:0:0:
182,192,78794,128,0,79333:0:0:0:0:
256,192,78794,1,0,0:0:0:0:
475,192,78794,1,0,0:0:0:0:
256,192,79153,1,0,0:0:0:0:
109,192,79333,128,2,80231:0:0:0:0:
475,192,79333,1,0,0:0:0:0:
36,192,79512,1,2,0:0:0:0:
182,192,79512,1,0,0:0:0:0:
256,192,79512,128,0,80051:0:0:0:0:
402,192,79512,128,0,80051:0:0:0:0:
182,192,79872,1,0,0:0:0:0:
329,192,80051,128,2,80770:0:0:0:0:
475,192,80051,1,0,0:0:0:0:
36,192,80231,128,8,80950:0:0:0:0:
182,192,80231,128,0,80770:0:0:0:0:
256,192,80231,1,0,0:0:0:0:
402,192,80231,1,0,0:0:0:0:
109,192,80590,1,0,0:0:0:0:
256,192,80770,1,2,0:0:0:0:
475,192,80770,128,0,80950:0:0:0:0:
109,192,80950,128,2,81578:0:0:0:0:
182,192,80950,1,0,0:0:0:0:
329,192,80950,1,0,0:0:0:0:
402,192,80950,128,0,81578:0:0:0:0:
256,192,81009,1,0,0:0:0:0:
36,192,81069,1,0,0:0:0:0:
182,192,81129,1,0,0:0:0:0:
329,192,81189,1,0,0:0:0:0:
475,192,81249,1,0,0:0:0:0:
256,192,81309,1,0,0:0:0:0:
36,192,81369,1,0,0:0:0:0:
182,192,81429,1,0,0:0:0:0:
329,192,81488,1,2,0:0:0:0:
475,192,81488,1,0,0:0:0:0:
109,192,81668,128,8,81848:0:0:0:0:
182,192,81668,1,4,0:0:0:0:
329,192,81668,1,0,0:0:0:0:
402,192,81668,128,0,81848:0:0:0:0:
182,192,82027,1,0,0:0:0:0:
329,192,82027,1,0,0:0:0:0:
109,192,82207,1,2,0:0:0:0:
256,192,82207,1,0,0:0:0:0:
402,192,82207,1,0,0:0:0:0:
36,192,82387,128,2,82985:0:0:0:0:
109,192,82387,1,0,0:0:0:0:
402,192,82387,1,0,0:0:0:0:
475,192,82387,128,0,83015:0:0:0:0:
329,192,82447,1,0,0:0:0:0:
182,192,82506,1,0,0:0:0:0:
109,192,82566,1,0,0:0:0:0:
256,192,82626,1,0,0:0:0:0:
402,192,82686,1,0,0:0:0:0:
329,192,82746,1,0,0:0:0:0:
182,192,82806,1,0,0:0:0:0:
109,192,82866,1,0,0:0:0:0:
256,192,82926,1,2,0:0:0:0:
402,192,82926,1,0,0:0:0:0:
36,192,83105,128,4,83285:0:0:0:0:
182,192,83105,1,8,0:0:0:0:
329,192,83105,1,0,0:0:0:0:
475,192,83105,128,0,83285:0:0:0:0:
109,192,83285,1,8,0:0:0:0:
256,192,83285,1,0,0:0:0:0:
402,192,83285,1,0,0:0:0:0:
109,192,83465,1,8,0:0:0:0:
256,192,83465,1,0,0:0:0:0:
402,192,83465,1,0,0:0:0:0:
109,192,83644,1,8,0:0:0:0:
256,192,83644,1,0,0:0:0:0:
402,192,83644,1,0,0:0:0:0:
36,192,83824,1,2,0:0:0:0:
182,192,83824,1,0,0:0:0:0:
329,192,83824,1,0,0:0:0:0:
402,192,83824,1,0,0:0:0:0:
256,192,83914,1,0,0:0:0:0:
475,192,83914,1,0,0:0:0:0:
109,192,84003,1,0,0:0:0:0:
329,192,84003,1,0,0:0:0:0:
36,192,84183,1,2,0:0:0:0:
182,192,84183,1,8,0:0:0:0:
256,192,84183,1,0,0:0:0:0:
475,192,84183,1,0,0:0:0:0:
109,192,84273,1,0,0:0:0:0:
329,192,84273,1,0,0:0:0:0:
182,192,84363,1,0,0:0:0:0:
402,192,84363,1,0,0:0:0:0:
109,192,84542,1,2,0:0:0:0:
329,192,84542,1,0,0:0:0:0:
402,192,84542,1,0,0:0:0:0:
36,192,84632,1,0,0:0:0:0:
256,192,84632,1,0,0:0:0:0:
182,192,84722,1,0,0:0:0:0:
402,192,84722,1,0,0:0:0:0:
36,192,84902,1,2,0:0:0:0:
109,192,84902,1,8,0:0:0:0:
256,192,84902,1,0,0:0:0:0:
329,192,84902,1,0,0:0:0:0:
182,192,84991,1,0,0:0:0:0:
475,192,84991,1,0,0:0:0:0:
109,192,85081,1,0,0:0:0:0:
402,192,85081,1,0,0:0:0:0:
182,192,85261,1,2,0:0:0:0:
329,192,85261,1,0,0:0:0:0:
475,192,85261,1,0,0:0:0:0:
256,192,85351,1,0,0:0:0:0:
109,192,85441,1,0,0:0:0:0:
329,192,85441,1,0,0:0:0:0:
182,192,85530,1,0,0:0:0:0:
36,192,85620,1,2,0:0:0:0:
109,192,85620,1,8,0:0:0:0:
256,192,85620,1,0,0:0:0:0:
402,192,85620,1,0,0:0:0:0:
329,192,85710,1,0,0:0:0:0:
182,192,85800,1,0,0:0:0:0:
402,192,85800,1,0,0:0:0:0:
256,192,85890,1,0,0:0:0:0:
109,192,85979,1,2,0:0:0:0:
329,192,85979,1,0,0:0:0:0:
475,192,85979,1,0,0:0:0:0:
36,192,86069,1,0,0:0:0:0:
256,192,86069,1,0,0:0:0:0:
109,192,86159,1,0,0:0:0:0:
329,192,86159,1,0,0:0:0:0:
182,192,86249,1,0,0:0:0:0:
402,192,86249,1,0,0:0:0:0:
36,192,86339,1,2,0:0:0:0:
256,192,86339,1,8,0:0:0:0:
475,192,86339,1,0,0:0:0:0:
109,192,86429,1,0,0:0:0:0:
329,192,86429,1,0,0:0:0:0:
182,192,86518,1,2,0:0:0:0:
402,192,86518,1,0,0:0:0:0:
475,192,86518,1,0,0:0:0:0:
109,192,86608,1,0,0:0:0:0:
329,192,86608,1,0,0:0:0:0:
36,192,86698,1,2,0:0:0:0:
182,192,86698,1,4,0:0:0:0:
256,192,86698,1,0,0:0:0:0:
475,192,86698,1,0,0:0:0:0:
329,192,86788,1,0,0:0:0:0:
402,192,86788,1,0,0:0:0:0:
109,192,86878,1,0,0:0:0:0:
182,192,86878,1,0,0:0:0:0:
182,192,87057,1,2,0:0:0:0:
256,192,87057,1,8,0:0:0:0:
402,192,87057,1,0,0:0:0:0:
475,192,87057,1,0,0:0:0:0:
36,192,87147,1,0,0:0:0:0:
109,192,87147,1,0,0:0:0:0:
256,192,87237,1,0,0:0:0:0:
329,192,87237,1,0,0:0:0:0:
36,192,87417,1,2,0:0:0:0:
182,192,87417,1,0,0:0:0:0:
256,192,87417,1,0,0:0:0:0:
402,192,87506,1,0,0:0:0:0:
475,192,87506,1,0,0:0:0:0:
109,192,87596,1,0,0:0:0:0:
182,192,87596,1,0,0:0:0:0:
182,192,87776,1,2,0:0:0:0:
256,192,87776,1,8,0:0:0:0:
402,192,87776,1,0,0:0:0:0:
475,192,87776,1,0,0:0:0:0:
36,192,87866,1,0,0:0:0:0:
109,192,87866,1,0,0:0:0:0:
329,192,87956,1,0,0:0:0:0:
402,192,87956,1,0,0:0:0:0:
36,192,88135,1,2,0:0:0:0:
256,192,88135,1,0,0:0:0:0:
329,192,88135,1,0,0:0:0:0:
182,192,88225,1,0,0:0:0:0:
109,192,88315,1,0,0:0:0:0:
329,192,88315,1,0,0:0:0:0:
402,192,88405,1,0,0:0:0:0:
36,192,88494,1,2,0:0:0:0:
182,192,88494,1,8,0:0:0:0:
256,192,88494,1,0,0:0:0:0:
475,192,88494,1,0,0:0:0:0:
329,192,88584,1,0,0:0:0:0:
182,192,88674,1,0,0:0:0:0:
402,192,88674,1,0,0:0:0:0:
256,192,88764,1,0,0:0:0:0:
36,192,88854,1,2,0:0:0:0:
109,192,88854,1,0,0:0:0:0:
329,192,88854,1,0,0:0:0:0:
402,192,88944,1,0,0:0:0:0:
475,192,88944,1,0,0:0:0:0:
36,192,89033,1,8,0:0:0:0:
109,192,89033,1,0,0:0:0:0:
256,192,89033,1,0,0:0:0:0:
329,192,89123,1,0,0:0:0:0:
402,192,89123,1,0,0:0:0:0:
36,192,89213,1,8,0:0:0:0:
182,192,89213,1,2,0:0:0:0:
475,192,89213,1,0,0:0:0:0:
256,192,89303,1,0,0:0:0:0:
329,192,89303,1,0,0:0:0:0:
182,192,89393,1,8,0:0:0:0:
402,192,89393,1,0,0:0:0:0:
475,192,89393,1,0,0:0:0:0:
109,192,89482,1,8,0:0:0:0:
329,192,89482,1,0,0:0:0:0:
36,192,89572,1,2,0:0:0:0:
256,192,89572,1,4,0:0:0:0:
402,192,89572,1,0,0:0:0:0:
475,192,89572,1,0,0:0:0:0:
109,192,89662,1,0,0:0:0:0:
329,192,89662,1,0,0:0:0:0:
36,192,89752,1,0,0:0:0:0:
256,192,89752,1,0,0:0:0:0:
182,192,89932,1,2,0:0:0:0:
256,192,89932,1,8,0:0:0:0:
402,192,89932,1,0,0:0:0:0:
475,192,89932,1,0,0:0:0:0:
109,192,90021,1,0,0:0:0:0:
329,192,90021,1,0,0:0:0:0:
182,192,90111,1,0,0:0:0:0:
402,192,90111,1,0,0:0:0:0:
109,192,90291,1,2,0:0:0:0:
329,192,90291,1,0,0:0:0:0:
256,192,90381,1,0,0:0:0:0:
475,192,90381,1,0,0:0:0:0:
109,192,90470,1,0,0:0:0:0:
329,192,90470,1,0,0:0:0:0:
36,192,90650,1,2,0:0:0:0:
182,192,90650,1,8,0:0:0:0:
256,192,90650,1,0,0:0:0:0:
475,192,90650,1,0,0:0:0:0:
109,192,90740,1,0,0:0:0:0:
329,192,90740,1,0,0:0:0:0:
256,192,90830,1,0,0:0:0:0:
475,192,90830,1,0,0:0:0:0:
36,192,91009,1,2,0:0:0:0:
182,192,91009,1,0,0:0:0:0:
329,192,91009,1,0,0:0:0:0:
475,192,91009,1,0,0:0:0:0:
109,192,91099,1,0,0:0:0:0:
402,192,91099,1,0,0:0:0:0:
182,192,91189,1,0,0:0:0:0:
329,192,91189,1,0,0:0:0:0:
256,192,91279,1,0,0:0:0:0:
36,192,91369,1,2,0:0:0:0:
109,192,91369,1,8,0:0:0:0:
329,192,91369,1,0,0:0:0:0:
402,192,91369,1,0,0:0:0:0:
182,192,91459,1,0,0:0:0:0:
475,192,91459,1,0,0:0:0:0:
36,192,91548,1,0,0:0:0:0:
329,192,91548,1,0,0:0:0:0:
182,192,91728,1,2,0:0:0:0:
256,192,91728,1,4,0:0:0:0:
402,192,91728,1,0,0:0:0:0:
475,192,91728,1,0,0:0:0:0:
109,192,91818,1,0,0:0:0:0:
329,192,91818,1,0,0:0:0:0:
256,192,91908,1,0,0:0:0:0:
475,192,91908,1,0,0:0:0:0:
182,192,91997,1,0,0:0:0:0:
36,192,92087,1,2,0:0:0:0:
109,192,92087,1,8,0:0:0:0:
256,192,92087,1,0,0:0:0:0:
402,192,92087,1,0,0:0:0:0:
36,192,92267,1,2,0:0:0:0:
182,192,92267,1,0,0:0:0:0:
329,192,92267,1,0,0:0:0:0:
109,192,92447,1,2,0:0:0:0:
256,192,92447,1,0,0:0:0:0:
402,192,92447,1,0,0:0:0:0:
475,192,92447,1,0,0:0:0:0:
329,192,92536,1,0,0:0:0:0:
182,192,92626,1,0,0:0:0:0:
402,192,92626,1,0,0:0:0:0:
256,192,92716,1,0,0:0:0:0:
36,192,92806,1,2,0:0:0:0:
182,192,92806,1,8,0:0:0:0:
329,192,92806,1,0,0:0:0:0:
475,192,92806,1,0,0:0:0:0:
109,192,92896,1,0,0:0:0:0:
256,192,92985,1,0,0:0:0:0:
402,192,92985,1,0,0:0:0:0:
182,192,93075,1,0,0:0:0:0:
36,192,93165,1,2,0:0:0:0:
109,192,93165,1,0,0:0:0:0:
329,192,93165,1,0,0:0:0:0:
182,192,93255,1,0,0:0:0:0:
402,192,93255,1,0,0:0:0:0:
256,192,93345,1,0,0:0:0:0:
475,192,93345,1,0,0:0:0:0:
109,192,93435,1,0,0:0:0:0:
329,192,93435,1,0,0:0:0:0:
182,192,93524,1,2,0:0:0:0:
256,192,93524,1,8,0:0:0:0:
402,192,93524,1,0,0:0:0:0:
475,192,93524,1,0,0:0:0:0:
109,192,93614,1,0,0:0:0:0:
329,192,93614,1,0,0:0:0:0:
36,192,93704,1,0,0:0:0:0:
256,192,93704,1,0,0:0:0:0:
182,192,93794,1,0,0:0:0:0:
402,192,93794,1,0,0:0:0:0:
36,192,93884,1,2,0:0:0:0:
109,192,93884,1,0,0:0:0:0:
329,192,93884,1,0,0:0:0:0:
475,192,93884,1,0,0:0:0:0:
256,192,93973,1,0,0:0:0:0:
182,192,94063,1,0,0:0:0:0:
329,192,94063,1,0,0:0:0:0:
402,192,94153,1,0,0:0:0:0:
36,192,94243,1,2,0:0:0:0:
109,192,94243,1,8,0:0:0:0:
256,192,94243,1,0,0:0:0:0:
475,192,94243,1,0,0:0:0:0:
329,192,94333,1,0,0:0:0:0:
109,192,94423,1,0,0:0:0:0:
402,192,94423,1,0,0:0:0:0:
182,192,94512,1,0,0:0:0:0:
36,192,94602,1,2,0:0:0:0:
256,192,94602,1,8,0:0:0:0:
329,192,94602,1,0,0:0:0:0:
475,192,94602,1,0,0:0:0:0:
109,192,94692,1,8,0:0:0:0:
182,192,94692,1,0,0:0:0:0:
329,192,94782,1,8,0:0:0:0:
402,192,94782,1,0,0:0:0:0:
475,192,94782,1,0,0:0:0:0:
109,192,94872,1,8,0:0:0:0:
182,192,94872,1,0,0:0:0:0:
36,192,94962,1,8,0:0:0:0:
256,192,94962,1,2,0:0:0:0:
475,192,94962,1,0,0:0:0:0:
329,192,95051,1,8,0:0:0:0:
402,192,95051,1,0,0:0:0:0:
36,192,95141,1,8,0:0:0:0:
109,192,95141,1,0,0:0:0:0:
182,192,95141,1,0,0:0:0:0:
329,192,95231,1,8,0:0:0:0:
402,192,95231,1,0,0:0:0:0:
36,192,95321,128,2,96668:0:0:0:0:
109,192,95321,1,4,0:0:0:0:
256,192,95321,1,0,0:0:0:0:
475,192,95321,1,0,0:0:0:0:
256,192,95500,1,0,0:0:0:0:
109,192,95680,1,2,0:0:0:0:
256,192,95680,1,0,0:0:0:0:
402,192,95680,1,0,0:0:0:0:
402,192,95860,1,0,0:0:0:0:
182,192,96039,1,2,0:0:0:0:
329,192,96039,1,0,0:0:0:0:
402,192,96039,1,0,0:0:0:0:
182,192,96219,1,0,0:0:0:0:
182,192,96399,1,2,0:0:0:0:
256,192,96399,1,0,0:0:0:0:
475,192,96399,1,0,0:0:0:0:
475,192,96578,1,0,0:0:0:0:
402,192,96668,1,0,0:0:0:0:
109,192,96758,1,2,0:0:0:0:
329,192,96758,128,0,98105:0:0:0:0:
475,192,96758,1,0,0:0:0:0:
109,192,96938,1,0,0:0:0:0:
109,192,97117,1,2,0:0:0:0:
256,192,97117,1,0,0:0:0:0:
475,192,97117,1,0,0:0:0:0:
256,192,97297,1,0,0:0:0:0:
36,192,97476,1,2,0:0:0:0:
256,192,97476,1,0,0:0:0:0:
402,192,97476,1,0,0:0:0:0:
36,192,97656,1,0,0:0:0:0:
36,192,97836,1,2,0:0:0:0:
182,192,97836,1,0,0:0:0:0:
475,192,97836,1,0,0:0:0:0:
182,192,98015,1,2,0:0:0:0:
475,192,98015,1,0,0:0:0:0:
109,192,98195,128,2,99542:0:0:0:0:
256,192,98195,1,0,0:0:0:0:
475,192,98195,1,0,0:0:0:0:
256,192,98375,1,0,0:0:0:0:
256,192,98554,1,2,0:0:0:0:
402,192,98554,1,0,0:0:0:0:
475,192,98554,1,0,0:0:0:0:
402,192,98734,1,0,0:0:0:0:
36,192,98914,1,2,0:0:0:0:
182,192,98914,1,0,0:0:0:0:
402,192,98914,1,0,0:0:0:0:
182,192,99093,1,0,0:0:0:0:
182,192,99273,1,2,0:0:0:0:
329,192,99273,1,0,0:0:0:0:
475,192,99273,1,0,0:0:0:0:
329,192,99453,1,0,0:0:0:0:
256,192,99542,1,0,0:0:0:0:
182,192,99632,1,2,0:0:0:0:
329,192,99632,1,0,0:0:0:0:
402,192,99632,128,0,100261:0:0:0:0:
182,192,99812,1,0,0:0:0:0:
36,192,99991,1,2,0:0:0:0:
182,192,99991,1,0,0:0:0:0:
256,192,99991,1,0,0:0:0:0:
36,192,100171,1,0,0:0:0:0:
36,192,100351,1,2,0:0:0:0:
256,192,100351,1,0,0:0:0:0:
475,192,100351,128,0,100979:0:0:0:0:
109,192,100530,1,8,0:0:0:0:
182,192,100530,1,0,0:0:0:0:
329,192,100530,1,0,0:0:0:0:
109,192,100710,1,2,0:0:0:0:
182,192,100710,1,0,0:0:0:0:
329,192,100710,1,0,0:0:0:0:
109,192,100890,1,8,0:0:0:0:
182,192,100890,1,0,0:0:0:0:
329,192,100890,1,0,0:0:0:0:
36,192,100979,1,8,0:0:0:0:
256,192,100979,1,0,0:0:0:0:
182,192,101069,1,2,0:0:0:0:
329,192,101069,1,4,0:0:0:0:
402,192,101069,1,0,0:0:0:0:
475,192,101069,1,0,0:0:0:0:
256,192,101249,1,0,0:0:0:0:
109,192,101429,1,8,0:0:0:0:
182,192,101429,1,2,0:0:0:0:
329,192,101429,1,0,0:0:0:0:
475,192,101429,1,0,0:0:0:0:
36,192,101608,1,0,0:0:0:0:
256,192,101608,1,0,0:0:0:0:
182,192,101788,1,2,0:0:0:0:
402,192,101788,1,0,0:0:0:0:
475,192,101788,1,0,0:0:0:0:
256,192,101968,1,0,0:0:0:0:
36,192,102147,1,2,0:0:0:0:
109,192,102147,1,8,0:0:0:0:
329,192,102147,1,0,0:0:0:0:
475,192,102147,1,0,0:0:0:0:
182,192,102327,1,0,0:0:0:0:
402,192,102327,1,0,0:0:0:0:
36,192,102506,1,2,0:0:0:0:
256,192,102506,1,0,0:0:0:0:
475,192,102506,1,0,0:0:0:0:
109,192,102686,1,0,0:0:0:0:
402,192,102686,1,0,0:0:0:0:
182,192,102866,1,2,0:0:0:0:
256,192,102866,1,8,0:0:0:0:
329,192,102866,1,0,0:0:0:0:
475,192,102866,1,0,0:0:0:0:
109,192,103045,1,0,0:0:0:0:
36,192,103225,1,2,0:0:0:0:
329,192,103225,1,0,0:0:0:0:
475,192,103225,1,0,0:0:0:0:
256,192,103405,1,0,0:0:0:0:
36,192,103584,1,2,0:0:0:0:
182,192,103584,1,8,0:0:0:0:
402,192,103584,1,0,0:0:0:0:
475,192,103584,1,0,0:0:0:0:
109,192,103764,1,2,0:0:0:0:
256,192,103764,1,0,0:0:0:0:
475,192,103764,1,0,0:0:0:0:
182,192,103944,1,2,0:0:0:0:
329,192,103944,1,0,0:0:0:0:
475,192,103944,1,0,0:0:0:0:
109,192,104123,1,0,0:0:0:0:
182,192,104213,1,0,0:0:0:0:
36,192,104303,1,2,0:0:0:0:
256,192,104303,1,8,0:0:0:0:
402,192,104303,1,0,0:0:0:0:
475,192,104303,1,0,0:0:0:0:
182,192,104482,1,0,0:0:0:0:
109,192,104662,1,2,0:0:0:0:
329,192,104662,1,0,0:0:0:0:
475,192,104662,1,0,0:0:0:0:
256,192,104842,1,0,0:0:0:0:
36,192,105021,1,2,0:0:0:0:
182,192,105021,1,8,0:0:0:0:
402,192,105021,1,0,0:0:0:0:
475,192,105021,1,0,0:0:0:0:
329,192,105201,1,0,0:0:0:0:
36,192,105381,1,2,0:0:0:0:
256,192,105381,1,0,0:0:0:0:
475,192,105381,1,0,0:0:0:0:
182,192,105560,1,0,0:0:0:0:
256,192,105650,1,0,0:0:0:0:
36,192,105740,1,2,0:0:0:0:
109,192,105740,1,8,0:0:0:0:
329,192,105740,1,0,0:0:0:0:
475,192,105740,1,0,0:0:0:0:
182,192,105920,1,0,0:0:0:0:
36,192,106099,1,2,0:0:0:0:
256,192,106099,1,0,0:0:0:0:
475,192,106099,1,0,0:0:0:0:
182,192,106279,1,0,0:0:0:0:
36,192,106459,1,8,0:0:0:0:
109,192,106459,1,2,0:0:0:0:
329,192,106459,1,0,0:0:0:0:
475,192,106459,1,0,0:0:0:0:
256,192,106638,1,0,0:0:0:0:
36,192,106818,1,2,0:0:0:0:
182,192,106818,1,0,0:0:0:0:
402,192,106818,1,0,0:0:0:0:
329,192,106997,1,0,0:0:0:0:
36,192,107177,1,2,0:0:0:0:
256,192,107177,1,8,0:0:0:0:
402,192,107177,1,0,0:0:0:0:
475,192,107177,1,0,0:0:0:0:
109,192,107357,1,0,0:0:0:0:
329,192,107357,1,0,0:0:0:0:
36,192,107536,1,2,0:0:0:0:
182,192,107536,1,0,0:0:0:0:
402,192,107536,1,0,0:0:0:0:
256,192,107716,1,0,0:0:0:0:
36,192,107896,1,2,0:0:0:0:
109,192,107896,1,8,0:0:0:0:
329,192,107896,1,0,0:0:0:0:
402,192,107896,1,0,0:0:0:0:
256,192,108075,1,0,0:0:0:0:
475,192,108075,1,0,0:0:0:0:
36,192,108255,1,2,0:0:0:0:
182,192,108255,1,0,0:0:0:0:
402,192,108255,1,0,0:0:0:0:
109,192,108435,1,0,0:0:0:0:
329,192,108435,1,0,0:0:0:0:
36,192,108614,1,2,0:0:0:0:
182,192,108614,1,8,0:0:0:0:
256,192,108614,1,0,0:0:0:0:
475,192,108614,1,0,0:0:0:0:
329,192,108794,1,0,0:0:0:0:
36,192,108973,1,2,0:0:0:0:
109,192,108973,1,0,0:0:0:0:
402,192,108973,1,0,0:0:0:0:
182,192,109153,1,0,0:0:0:0:
36,192,109333,1,2,0:0:0:0:
256,192,109333,1,8,0:0:0:0:
329,192,109333,1,0,0:0:0:0:
475,192,109333,1,0,0:0:0:0:
36,192,109512,1,2,0:0:0:0:
182,192,109512,1,0,0:0:0:0:
402,192,109512,1,0,0:0:0:0:
36,192,109692,1,2,0:0:0:0:
109,192,109692,1,0,0:0:0:0:
329,192,109692,1,0,0:0:0:0:
256,192,109872,1,0,0:0:0:0:
329,192,109962,1,0,0:0:0:0:
36,192,110051,1,2,0:0:0:0:
182,192,110051,1,8,0:0:0:0:
402,192,110051,1,0,0:0:0:0:
475,192,110051,1,0,0:0:0:0:
256,192,110231,1,0,0:0:0:0:
36,192,110411,1,2,0:0:0:0:
329,192,110411,1,0,0:0:0:0:
402,192,110411,1,0,0:0:0:0:
256,192,110590,1,0,0:0:0:0:
182,192,110680,1,0,0:0:0:0:
36,192,110770,1,2,0:0:0:0:
109,192,110770,1,8,0:0:0:0:
329,192,110770,1,0,0:0:0:0:
475,192,110770,1,0,0:0:0:0:
256,192,110950,1,0,0:0:0:0:
36,192,111129,1,2,0:0:0:0:
182,192,111129,1,0,0:0:0:0:
329,192,111129,1,0,0:0:0:0:
256,192,111309,1,0,0:0:0:0:
402,192,111309,1,0,0:0:0:0:
36,192,111488,1,8,0:0:0:0:
182,192,111488,1,2,0:0:0:0:
329,192,111488,1,0,0:0:0:0:
475,192,111488,1,0,0:0:0:0:
109,192,111668,1,0,0:0:0:0:
402,192,111668,1,0,0:0:0:0:
36,192,111848,1,2,0:0:0:0:
182,192,111848,1,0,0:0:0:0:
329,192,111848,1,0,0:0:0:0:
475,192,111938,1,0,0:0:0:0:
109,192,112027,1,8,0:0:0:0:
256,192,112027,1,0,0:0:0:100:tom01.wav
402,192,112117,1,0,0:0:0:0:
36,192,112207,1,10,0:0:0:0:
182,192,112207,1,0,0:0:0:100:tom02.wav
329,192,112297,1,0,0:0:0:0:
182,192,112387,1,8,0:0:0:0:
475,192,112387,1,0,0:0:0:100:tom04.wav
109,192,112476,1,8,0:0:0:0:
329,192,112476,1,0,0:0:0:0:
36,192,112566,1,2,0:0:0:0:
256,192,112566,1,4,0:0:0:0:
402,192,112566,1,0,0:0:0:0:
475,192,112566,1,0,0:0:0:0:
182,192,112926,1,0,0:0:0:0:
402,192,112926,1,0,0:0:0:0:
109,192,113105,1,2,0:0:0:0:
256,192,113105,1,0,0:0:0:0:
329,192,113105,1,0,0:0:0:0:
36,192,113285,1,8,0:0:0:0:
182,192,113285,1,0,0:0:0:0:
256,192,113285,1,0,0:0:0:0:
475,192,113285,1,0,0:0:0:0:
182,192,113644,1,0,0:0:0:0:
475,192,113644,1,0,0:0:0:0:
36,192,113824,1,2,0:0:0:0:
256,192,113824,1,0,0:0:0:0:
329,192,113824,1,0,0:0:0:0:
109,192,114003,1,2,0:0:0:0:
329,192,114003,1,0,0:0:0:0:
402,192,114003,1,0,0:0:0:0:
36,192,114183,1,0,0:0:0:0:
256,192,114183,1,0,0:0:0:0:
182,192,114363,1,0,0:0:0:0:
475,192,114363,1,0,0:0:0:0:
109,192,114542,1,2,0:0:0:0:
329,192,114542,1,0,0:0:0:0:
402,192,114542,1,0,0:0:0:0:
36,192,114722,1,8,0:0:0:0:
256,192,114722,1,0,0:0:0:0:
329,192,114722,1,0,0:0:0:0:
475,192,114722,1,0,0:0:0:0:
256,192,115081,1,0,0:0:0:0:
109,192,115261,1,0,0:0:0:0:
329,192,115261,1,0,0:0:0:0:
36,192,115441,1,2,0:0:0:0:
182,192,115441,128,4,115620:0:0:0:0:
256,192,115441,1,0,0:0:0:0:
402,192,115441,128,0,115979:0:0:0:0:
329,192,115620,1,0,0:0:0:0:
109,192,115800,128,2,116159:0:0:0:0:
256,192,115800,1,8,0:0:0:0:
475,192,115800,1,0,0:0:0:0:
256,192,115979,128,0,116159:0:0:0:0:
182,192,116159,1,2,0:0:0:0:
329,192,116159,128,0,116518:0:0:0:0:
475,192,116159,128,0,116339:0:0:0:0:
109,192,116339,128,0,116518:0:0:0:0:
182,192,116518,128,2,116878:0:0:0:0:
402,192,116518,128,8,116698:0:0:0:0:
475,192,116518,1,0,0:0:0:0:
36,192,116698,128,0,116878:0:0:0:0:
256,192,116878,1,2,0:0:0:0:
329,192,116878,128,0,117237:0:0:0:0:
475,192,116878,128,0,117417:0:0:0:0:
182,192,117057,1,0,0:0:0:0:
36,192,117237,128,8,117596:0:0:0:0:
109,192,117237,1,2,0:0:0:0:
256,192,117237,1,0,0:0:0:0:
182,192,117417,128,0,117596:0:0:0:0:
402,192,117417,128,0,117596:0:0:0:0:
329,192,117596,128,2,117686:0:0:0:0:
475,192,117596,1,0,0:0:0:0:
182,192,117686,128,0,117776:0:0:0:0:
36,192,117776,1,8,0:0:0:0:
402,192,117776,128,0,117866:0:0:0:0:
256,192,117866,128,0,117956:0:0:0:0:
36,192,117956,1,8,0:0:0:0:
475,192,117956,128,2,118045:0:0:0:0:
329,192,118045,128,0,118135:0:0:0:0:
36,192,118135,1,8,0:0:0:0:
182,192,118135,128,0,118225:0:0:0:0:
402,192,118225,128,0,118315:0:0:0:0:
109,192,118315,1,2,0:0:0:0:
256,192,118315,1,4,0:0:0:0:
329,192,118315,1,0,0:0:0:0:
475,192,118315,1,0,0:0:0:0:
36,192,118674,1,0,0:0:0:0:
256,192,118674,1,0,0:0:0:0:
109,192,118854,1,2,0:0:0:0:
182,192,118854,1,0,0:0:0:0:
329,192,118854,1,0,0:0:0:0:
182,192,119033,1,8,0:0:0:0:
256,192,119033,1,0,0:0:0:0:
402,192,119033,1,0,0:0:0:0:
475,192,119033,1,0,0:0:0:0:
182,192,119393,1,0,0:0:0:0:
402,192,119393,1,0,0:0:0:0:
109,192,119572,1,2,0:0:0:0:
256,192,119572,1,0,0:0:0:0:
329,192,119572,1,0,0:0:0:0:
36,192,119752,1,2,0:0:0:0:
182,192,119752,1,0,0:0:0:0:
256,192,119752,1,0,0:0:0:0:
109,192,119932,1,0,0:0:0:0:
329,192,119932,1,0,0:0:0:0:
256,192,120111,1,0,0:0:0:0:
475,192,120111,1,0,0:0:0:0:
36,192,120291,1,2,0:0:0:0:
109,192,120291,1,0,0:0:0:0:
329,192,120291,1,0,0:0:0:0:
109,192,120470,1,8,0:0:0:0:
182,192,120470,1,0,0:0:0:0:
402,192,120470,1,0,0:0:0:0:
475,192,120470,1,0,0:0:0:0:
256,192,120830,1,0,0:0:0:0:
182,192,121009,1,0,0:0:0:0:
402,192,121009,1,0,0:0:0:0:
109,192,121189,1,2,0:0:0:0:
256,192,121189,1,4,0:0:0:0:
329,192,121189,1,0,0:0:0:0:
475,192,121189,128,0,121908:0:0:0:0:
182,192,121369,128,0,121548:0:0:0:0:
36,192,121548,1,2,0:0:0:0:
256,192,121548,1,8,0:0:0:0:
329,192,121548,1,0,0:0:0:0:
182,192,121728,128,0,121908:0:0:0:0:
36,192,121908,128,2,122626:0:0:0:0:
109,192,121908,1,0,0:0:0:0:
402,192,121908,1,0,0:0:0:0:
329,192,122087,128,0,122267:0:0:0:0:
182,192,122267,1,2,0:0:0:0:
256,192,122267,1,8,0:0:0:0:
475,192,122267,1,0,0:0:0:0:
329,192,122447,128,0,122626:0:0:0:0:
109,192,122626,1,2,0:0:0:0:
402,192,122626,128,0,123345:0:0:0:0:
475,192,122626,1,0,0:0:0:0:
182,192,122806,128,0,122985:0:0:0:0:
256,192,122985,1,2,0:0:0:0:
329,192,122985,1,8,0:0:0:0:
475,192,122985,128,0,123345:0:0:0:0:
182,192,123165,128,0,123345:0:0:0:0:
36,192,123345,1,2,0:0:0:0:
109,192,123345,128,0,124063:0:0:0:0:
256,192,123345,1,0,0:0:0:0:
329,192,123524,128,0,123704:0:0:0:0:
36,192,123704,128,2,124063:0:0:0:0:
402,192,123704,1,8,0:0:0:0:
475,192,123704,1,0,0:0:0:0:
182,192,123884,1,2,0:0:0:0:
329,192,123884,128,0,124243:0:0:0:0:
182,192,124063,128,2,124423:0:0:0:0:
256,192,124063,1,0,0:0:0:0:
402,192,124063,1,0,0:0:0:0:
475,192,124063,128,0,124243:0:0:0:0:
36,192,124423,1,8,0:0:0:0:
109,192,124423,1,0,0:0:0:0:
329,192,124423,1,0,0:0:0:0:
475,192,124423,1,0,0:0:0:0:
182,192,124602,128,2,124962:0:0:0:0:
402,192,124602,1,0,0:0:0:0:
36,192,124782,128,2,124962:0:0:0:0:
109,192,124782,1,0,0:0:0:0:
256,192,124782,1,0,0:0:0:0:
329,192,124782,128,0,125141:0:0:0:0:
36,192,125141,1,8,0:0:0:0:
182,192,125141,1,0,0:0:0:0:
402,192,125141,1,0,0:0:0:0:
475,192,125141,1,0,0:0:0:0:
109,192,125321,1,2,0:0:0:0:
329,192,125321,128,0,125680:0:0:0:0:
182,192,125500,128,2,125860:0:0:0:0:
256,192,125500,1,0,0:0:0:0:
402,192,125500,1,0,0:0:0:0:
475,192,125500,128,0,125680:0:0:0:0:
36,192,125680,1,0,0:0:0:0:
475,192,125860,1,0,0:0:0:0:
256,192,126039,1,0,0:0:0:0:
402,192,126099,1,0,0:0:0:0:
256,192,126159,1,0,0:0:0:0:
109,192,126219,1,0,0:0:0:50:clap.wav
256,192,126399,1,0,0:0:0:0:
36,192,126578,1,0,0:0:0:50:clap.wav
182,192,126578,1,0,0:0:0:0:
329,192,126578,1,0,0:0:0:0:
475,192,126578,1,0,0:0:0:0:
109,192,126938,1,2,0:0:0:0:
256,192,126938,1,4,0:0:0:0:
402,192,126938,1,0,0:0:0:0:
475,192,126938,1,0,0:0:0:0:
182,192,127027,1,0,0:0:0:0:
36,192,127117,1,0,0:0:0:0:
329,192,127117,1,0,0:0:0:0:
402,192,127117,1,0,0:0:0:0:
182,192,127207,1,0,0:0:0:0:
109,192,127297,1,2,0:0:0:0:
256,192,127297,1,8,0:0:0:0:
329,192,127297,128,0,127566:0:0:0:0:
475,192,127297,1,0,0:0:0:0:
36,192,127476,1,0,0:0:0:0:
182,192,127476,128,0,127656:0:0:0:0:
36,192,127656,1,2,0:0:0:0:
109,192,127656,1,0,0:0:0:0:
256,192,127656,1,0,0:0:0:0:
402,192,127656,1,0,0:0:0:0:
329,192,127746,1,0,0:0:0:0:
109,192,127836,1,0,0:0:0:0:
182,192,127836,1,0,0:0:0:0:
475,192,127836,1,0,0:0:0:0:
329,192,127926,1,0,0:0:0:0:
36,192,128015,1,2,0:0:0:0:
182,192,128015,128,8,128285:0:0:0:0:
256,192,128015,1,0,0:0:0:0:
402,192,128015,1,0,0:0:0:0:
329,192,128195,128,0,128375:0:0:0:0:
475,192,128195,1,0,0:0:0:0:
36,192,128375,1,2,0:0:0:0:
109,192,128375,1,0,0:0:0:0:
256,192,128375,1,0,0:0:0:0:
182,192,128465,1,0,0:0:0:0:
475,192,128465,1,0,0:0:0:0:
256,192,128554,1,0,0:0:0:0:
402,192,128554,1,0,0:0:0:0:
36,192,128644,1,0,0:0:0:0:
329,192,128644,1,0,0:0:0:0:
109,192,128734,1,2,0:0:0:0:
256,192,128734,1,8,0:0:0:0:
402,192,128734,1,0,0:0:0:0:
182,192,128824,1,0,0:0:0:0:
475,192,128824,1,0,0:0:0:0:
109,192,128914,1,0,0:0:0:0:
256,192,128914,1,0,0:0:0:0:
36,192,129003,1,0,0:0:0:0:
329,192,129003,1,0,0:0:0:0:
182,192,129093,1,2,0:0:0:0:
256,192,129093,128,0,129363:0:0:0:0:
402,192,129093,1,0,0:0:0:0:
475,192,129093,1,0,0:0:0:0:
109,192,129273,128,0,129453:0:0:0:0:
402,192,129273,128,0,129453:0:0:0:0:
36,192,129453,1,2,0:0:0:0:
182,192,129453,1,8,0:0:0:0:
329,192,129453,1,0,0:0:0:0:
475,192,129453,1,0,0:0:0:0:
109,192,129632,1,2,0:0:0:0:
256,192,129632,1,0,0:0:0:0:
402,192,129632,1,0,0:0:0:0:
36,192,129812,1,2,0:0:0:0:
182,192,129812,1,0,0:0:0:0:
329,192,129812,1,0,0:0:0:0:
475,192,129902,1,0,0:0:0:0:
109,192,129991,1,0,0:0:0:0:
256,192,129991,1,0,0:0:0:0:
402,192,129991,1,0,0:0:0:0:
329,192,130081,1,0,0:0:0:0:
36,192,130171,1,8,0:0:0:0:
182,192,130171,1,2,0:0:0:0:
256,192,130171,1,0,0:0:0:0:
475,192,130171,1,0,0:0:0:0:
329,192,130261,1,0,0:0:0:0:
36,192,130351,1,0,0:0:0:0:
109,192,130351,1,0,0:0:0:0:
402,192,130351,1,0,0:0:0:0:
182,192,130441,1,0,0:0:0:0:
109,192,130530,1,2,0:0:0:0:
329,192,130530,1,0,0:0:0:0:
475,192,130530,1,0,0:0:0:0:
256,192,130620,1,0,0:0:0:0:
182,192,130710,1,0,0:0:0:0:
402,192,130710,1,0,0:0:0:0:
256,192,130800,1,0,0:0:0:0:
36,192,130890,1,8,0:0:0:0:
109,192,130890,1,2,0:0:0:0:
329,192,130890,1,0,0:0:0:0:
475,192,130890,1,0,0:0:0:0:
256,192,130979,1,0,0:0:0:0:
182,192,131069,1,0,0:0:0:0:
402,192,131069,1,0,0:0:0:0:
256,192,131159,1,0,0:0:0:0:
36,192,131249,128,2,131339:0:0:0:0:
109,192,131249,128,0,131429:0:0:0:0:
329,192,131249,1,0,0:0:0:0:
182,192,131339,128,0,131518:0:0:0:0:
256,192,131429,128,0,131608:0:0:0:0:
402,192,131429,1,0,0:0:0:0:
329,192,131518,128,0,131608:0:0:0:0:
36,192,131608,1,8,0:0:0:0:
109,192,131608,128,2,131698:0:0:0:0:
182,192,131608,128,0,131788:0:0:0:0:
475,192,131608,1,0,0:0:0:0:
256,192,131698,128,0,131878:0:0:0:0:
109,192,131788,1,0,0:0:0:0:
329,192,131788,128,0,131968:0:0:0:0:
402,192,131878,128,0,131968:0:0:0:0:
36,192,131968,1,2,0:0:0:0:
182,192,131968,128,0,132057:0:0:0:0:
256,192,131968,128,0,132147:0:0:0:0:
475,192,131968,1,0,0:0:0:0:
329,192,132057,128,0,132237:0:0:0:0:
36,192,132147,1,8,0:0:0:0:
109,192,132147,1,0,0:0:0:0:
402,192,132147,128,0,132327:0:0:0:0:
475,192,132237,128,0,132327:0:0:0:0:
109,192,132327,1,8,0:0:0:0:
182,192,132327,1,2,0:0:0:0:
256,192,132327,1,0,0:0:0:0:
36,192,132506,1,8,0:0:0:0:
256,192,132506,1,0,0:0:0:0:
475,192,132506,1,0,0:0:0:0:
109,192,132596,1,8,0:0:0:0:
329,192,132596,1,0,0:0:0:0:
182,192,132686,1,2,0:0:0:0:
256,192,132686,1,4,0:0:0:0:
402,192,132686,1,0,0:0:0:0:
475,192,132686,1,0,0:0:0:0:
329,192,132776,1,0,0:0:0:0:
109,192,132866,1,0,0:0:0:0:
182,192,132866,1,0,0:0:0:0:
475,192,132866,1,0,0:0:0:0:
329,192,132956,1,0,0:0:0:0:
36,192,133045,1,2,0:0:0:0:
182,192,133045,128,8,133315:0:0:0:0:
256,192,133045,1,0,0:0:0:0:
402,192,133045,1,0,0:0:0:0:
329,192,133225,128,0,133405:0:0:0:0:
475,192,133225,1,0,0:0:0:0:
109,192,133405,1,2,0:0:0:0:
256,192,133405,1,0,0:0:0:0:
402,192,133405,1,0,0:0:0:0:
475,192,133405,1,0,0:0:0:0:
182,192,133494,1,0,0:0:0:0:
36,192,133584,1,0,0:0:0:0:
329,192,133584,1,0,0:0:0:0:
402,192,133584,1,0,0:0:0:0:
182,192,133674,1,0,0:0:0:0:
109,192,133764,1,2,0:0:0:0:
256,192,133764,1,8,0:0:0:0:
329,192,133764,128,0,134033:0:0:0:0:
475,192,133764,1,0,0:0:0:0:
36,192,133944,1,0,0:0:0:0:
182,192,133944,128,0,134123:0:0:0:0:
256,192,134123,1,2,0:0:0:0:
402,192,134123,1,0,0:0:0:0:
475,192,134123,1,0,0:0:0:0:
36,192,134213,1,0,0:0:0:0:
329,192,134213,1,0,0:0:0:0:
109,192,134303,1,0,0:0:0:0:
402,192,134303,1,0,0:0:0:0:
182,192,134393,1,0,0:0:0:0:
475,192,134393,1,0,0:0:0:0:
109,192,134482,1,2,0:0:0:0:
256,192,134482,1,8,0:0:0:0:
402,192,134482,1,0,0:0:0:0:
36,192,134572,1,0,0:0:0:0:
329,192,134572,1,0,0:0:0:0:
109,192,134662,1,0,0:0:0:0:
402,192,134662,1,0,0:0:0:0:
182,192,134752,1,0,0:0:0:0:
475,192,134752,1,0,0:0:0:0:
36,192,134842,1,2,0:0:0:0:
109,192,134842,1,0,0:0:0:0:
256,192,134842,128,0,135111:0:0:0:0:
329,192,134842,1,0,0:0:0:0:
109,192,135021,128,0,135201:0:0:0:0:
402,192,135021,128,0,135201:0:0:0:0:
36,192,135201,1,2,0:0:0:0:
182,192,135201,1,8,0:0:0:0:
329,192,135201,1,0,0:0:0:0:
475,192,135201,1,0,0:0:0:0:
109,192,135381,1,2,0:0:0:0:
256,192,135381,1,0,0:0:0:0:
402,192,135381,1,0,0:0:0:0:
182,192,135560,128,2,135650:0:0:0:0:
329,192,135560,128,0,135740:0:0:0:0:
475,192,135560,128,0,135830:0:0:0:0:
109,192,135650,128,0,135920:0:0:0:0:
256,192,135740,128,0,135920:0:0:0:0:
402,192,135830,128,0,135920:0:0:0:0:
36,192,135920,128,2,136189:0:0:0:0:
182,192,135920,128,8,136189:0:0:0:0:
329,192,135920,128,0,136189:0:0:0:0:
475,192,135920,128,0,136279:0:0:0:0:
109,192,136099,1,0,0:0:0:0:
256,192,136099,1,0,0:0:0:0:
36,192,136279,128,2,136548:0:0:0:0:
182,192,136279,128,0,136459:0:0:0:0:
329,192,136279,128,0,136369:0:0:0:0:
402,192,136369,128,0,136638:0:0:0:0:
256,192,136459,128,0,136638:0:0:0:0:
109,192,136548,128,0,136638:0:0:0:0:
36,192,136638,128,2,136908:0:0:0:0:
182,192,136638,128,8,136908:0:0:0:0:
329,192,136638,128,0,136908:0:0:0:0:
475,192,136638,128,0,136908:0:0:0:0:
256,192,136818,1,0,0:0:0:0:
402,192,136818,1,0,0:0:0:0:
36,192,136997,1,2,0:0:0:0:
182,192,136997,1,4,0:0:0:0:
329,192,136997,1,0,0:0:0:0:
475,192,136997,1,0,0:0:0:0:
36,192,137177,1,0,0:0:0:0:
182,192,137177,1,0,0:0:0:0:
329,192,137177,1,0,0:0:0:0:
109,192,137357,1,2,0:0:0:0:
256,192,137357,1,8,0:0:0:0:
402,192,137357,1,4,0:0:0:0:
475,192,137357,1,0,0:0:0:0:
109,192,137536,1,0,0:0:0:0:
256,192,137536,1,0,0:0:0:0:
475,192,137536,1,0,0:0:0:0:
36,192,137716,1,2,0:0:0:0:
182,192,137716,1,4,0:0:0:0:
329,192,137716,1,8,0:0:0:0:
402,192,137806,1,8,0:0:0:0:
475,192,137806,1,0,0:0:0:0:
36,192,137896,1,8,0:0:0:0:
182,192,137896,1,0,0:0:0:0:
256,192,137896,1,0,0:0:0:0:
329,192,137985,1,8,0:0:0:0:
402,192,137985,1,0,0:0:0:0:
36,192,138075,1,2,0:0:0:0:
109,192,138075,1,8,0:0:0:0:
475,192,138075,1,0,0:0:0:0:
256,192,138165,1,8,0:0:0:0:
329,192,138165,1,0,0:0:0:0:
109,192,138255,1,8,0:0:0:0:
402,192,138255,1,0,0:0:0:0:
475,192,138255,1,0,0:0:0:0:
182,192,138345,1,8,0:0:0:0:
256,192,138345,1,0,0:0:0:0:
36,192,138435,1,4,0:0:0:0:
109,192,138435,1,2,0:0:0:0:
329,192,138435,1,0,0:0:0:0:
475,192,138435,1,0,0:0:0:0:
256,192,138524,1,0,0:0:0:0:
109,192,138614,1,0,0:0:0:0:
329,192,138614,1,0,0:0:0:0:
475,192,138614,1,0,0:0:0:0:
182,192,138704,1,0,0:0:0:0:
36,192,138794,1,8,0:0:0:0:
256,192,138794,128,2,139063:0:0:0:0:
329,192,138794,128,0,139063:0:0:0:0:
475,192,138794,1,0,0:0:0:0:
182,192,138884,128,0,139063:0:0:0:0:
109,192,138973,128,0,139153:0:0:0:0:
402,192,138973,1,0,0:0:0:0:
36,192,139063,128,0,139153:0:0:0:0:
182,192,139153,1,2,0:0:0:0:
329,192,139153,1,0,0:0:0:0:
475,192,139153,1,0,0:0:0:0:
256,192,139243,1,0,0:0:0:0:
36,192,139333,1,0,0:0:0:0:
182,192,139333,1,0,0:0:0:0:
402,192,139333,1,0,0:0:0:0:
329,192,139423,1,0,0:0:0:0:
36,192,139512,1,8,0:0:0:0:
182,192,139512,128,2,139782:0:0:0:0:
256,192,139512,128,0,139782:0:0:0:0:
475,192,139512,1,0,0:0:0:0:
329,192,139602,128,0,139782:0:0:0:0:
109,192,139692,1,0,0:0:0:0:
402,192,139692,128,0,139872:0:0:0:0:
475,192,139782,128,0,139872:0:0:0:0:
36,192,139872,1,2,0:0:0:0:
182,192,139872,1,0,0:0:0:0:
329,192,139872,1,0,0:0:0:0:
256,192,139962,1,0,0:0:0:0:
109,192,140051,1,0,0:0:0:0:
329,192,140051,1,0,0:0:0:0:
402,192,140051,1,0,0:0:0:0:
256,192,140141,1,0,0:0:0:0:
36,192,140231,1,8,0:0:0:0:
182,192,140231,1,2,0:0:0:0:
329,192,140231,1,0,0:0:0:0:
475,192,140231,1,0,0:0:0:0:
256,192,140321,1,0,0:0:0:0:
109,192,140411,1,0,0:0:0:0:
182,192,140411,1,0,0:0:0:0:
402,192,140411,1,0,0:0:0:0:
256,192,140500,1,0,0:0:0:0:
36,192,140590,1,2,0:0:0:0:
182,192,140590,128,0,140860:0:0:0:0:
329,192,140590,128,0,140860:0:0:0:0:
475,192,140590,1,0,0:0:0:0:
36,192,140770,128,0,140950:0:0:0:0:
475,192,140770,128,0,140950:0:0:0:0:
109,192,140950,1,8,0:0:0:0:
182,192,140950,1,2,0:0:0:0:
329,192,140950,1,0,0:0:0:0:
402,192,140950,1,0,0:0:0:0:
36,192,141129,1,2,0:0:0:0:
182,192,141129,1,0,0:0:0:0:
329,192,141129,1,0,0:0:0:0:
182,192,141309,1,2,0:0:0:0:
329,192,141309,128,0,141399:0:0:0:0:
475,192,141309,1,0,0:0:0:0:
109,192,141399,128,0,141578:0:0:0:0:
182,192,141488,1,0,0:0:0:0:
402,192,141488,1,0,0:0:0:0:
475,192,141488,1,0,0:0:0:0:
256,192,141578,128,0,141758:0:0:0:0:
36,192,141668,1,2,0:0:0:0:
109,192,141668,1,8,0:0:0:0:
329,192,141668,1,0,0:0:0:0:
475,192,141668,1,0,0:0:0:0:
402,192,141758,128,0,141938:0:0:0:0:
109,192,141848,1,0,0:0:0:0:
256,192,141848,1,0,0:0:0:0:
329,192,141848,1,0,0:0:0:0:
182,192,141938,128,0,142027:0:0:0:0:
36,192,142027,1,2,0:0:0:0:
109,192,142027,128,0,142297:0:0:0:0:
402,192,142027,1,0,0:0:0:0:
475,192,142027,1,0,0:0:0:0:
256,192,142117,128,0,142297:0:0:0:0:
182,192,142207,1,0,0:0:0:0:
402,192,142207,128,0,142297:0:0:0:0:
329,192,142297,1,0,0:0:0:0:
36,192,142387,1,2,0:0:0:0:
182,192,142387,128,8,142656:0:0:0:0:
256,192,142387,1,0,0:0:0:0:
475,192,142387,1,0,0:0:0:0:
329,192,142476,128,0,142656:0:0:0:0:
256,192,142566,1,0,0:0:0:0:
475,192,142566,128,0,142656:0:0:0:0:
402,192,142656,1,0,0:0:0:0:
36,192,142746,128,2,143015:0:0:0:0:
182,192,142746,1,0,0:0:0:0:
329,192,142746,1,0,0:0:0:0:
182,192,142926,128,0,143195:0:0:0:0:
329,192,142926,128,0,143195:0:0:0:0:
36,192,143105,1,2,0:0:0:0:
109,192,143105,1,8,0:0:0:0:
256,192,143105,1,0,0:0:0:0:
475,192,143105,128,0,143734:0:0:0:0:
109,192,143285,128,0,143554:0:0:0:0:
256,192,143285,128,0,143554:0:0:0:0:
182,192,143465,1,2,0:0:0:0:
329,192,143465,1,0,0:0:0:0:
402,192,143465,128,0,143734:0:0:0:0:
36,192,143644,128,8,143824:0:0:0:0:
182,192,143644,128,0,143824:0:0:0:0:
256,192,143644,1,0,0:0:0:0:
256,192,143824,1,2,0:0:0:0:
402,192,143824,1,8,0:0:0:0:
475,192,143824,1,0,0:0:0:0:
256,192,144003,1,8,0:0:0:0:
402,192,144003,1,0,0:0:0:0:
475,192,144003,1,0,0:0:0:0:
182,192,144093,1,8,0:0:0:0:
329,192,144093,1,0,0:0:0:0:
36,192,144183,1,2,0:0:0:0:
109,192,144183,1,4,0:0:0:0:
256,192,144183,1,0,0:0:0:0:
475,192,144183,1,0,0:0:0:0:
329,192,144273,1,0,0:0:0:0:
36,192,144363,1,0,0:0:0:0:
182,192,144363,1,0,0:0:0:0:
402,192,144363,1,0,0:0:0:0:
329,192,144453,1,0,0:0:0:0:
36,192,144542,1,2,0:0:0:0:
182,192,144542,128,8,144812:0:0:0:0:
256,192,144542,128,0,144812:0:0:0:0:
475,192,144542,1,0,0:0:0:0:
329,192,144632,128,0,144812:0:0:0:0:
109,192,144722,1,0,0:0:0:0:
402,192,144722,128,0,144902:0:0:0:0:
475,192,144812,128,0,144902:0:0:0:0:
36,192,144902,1,2,0:0:0:0:
182,192,144902,1,0,0:0:0:0:
329,192,144902,1,0,0:0:0:0:
256,192,144991,1,0,0:0:0:0:
36,192,145081,1,0,0:0:0:0:
182,192,145081,1,0,0:0:0:0:
402,192,145081,1,0,0:0:0:0:
329,192,145171,1,0,0:0:0:0:
36,192,145261,1,2,0:0:0:0:
109,192,145261,1,8,0:0:0:0:
256,192,145261,1,0,0:0:0:0:
475,192,145261,1,0,0:0:0:0:
329,192,145351,1,0,0:0:0:0:
109,192,145441,1,0,0:0:0:0:
256,192,145441,1,0,0:0:0:0:
402,192,145441,1,0,0:0:0:0:
36,192,145530,1,0,0:0:0:0:
182,192,145620,1,2,0:0:0:0:
329,192,145620,1,0,0:0:0:0:
475,192,145620,1,0,0:0:0:0:
256,192,145710,1,0,0:0:0:0:
109,192,145800,1,0,0:0:0:0:
182,192,145800,1,0,0:0:0:0:
402,192,145800,1,0,0:0:0:0:
256,192,145890,1,0,0:0:0:0:
36,192,145979,1,2,0:0:0:0:
182,192,145979,1,8,0:0:0:0:
329,192,145979,1,0,0:0:0:0:
475,192,145979,1,0,0:0:0:0:
256,192,146069,1,0,0:0:0:0:
109,192,146159,1,0,0:0:0:0:
329,192,146159,1,0,0:0:0:0:
402,192,146159,1,0,0:0:0:0:
256,192,146249,1,0,0:0:0:0:
36,192,146339,1,2,0:0:0:0:
182,192,146339,128,0,146608:0:0:0:0:
329,192,146339,128,0,146608:0:0:0:0:
475,192,146339,1,0,0:0:0:0:
36,192,146518,128,0,146698:0:0:0:0:
475,192,146518,128,0,146698:0:0:0:0:
109,192,146698,1,2,0:0:0:0:
182,192,146698,1,8,0:0:0:0:
329,192,146698,1,0,0:0:0:0:
402,192,146698,1,0,0:0:0:0:
182,192,146878,1,2,0:0:0:0:
329,192,146878,1,0,0:0:0:0:
475,192,146878,1,0,0:0:0:0:
36,192,147057,128,2,147327:0:0:0:0:
182,192,147057,128,0,147237:0:0:0:0:
329,192,147057,128,0,147147:0:0:0:0:
402,192,147147,128,0,147417:0:0:0:0:
256,192,147237,128,0,147417:0:0:0:0:
109,192,147327,128,0,147417:0:0:0:0:
36,192,147417,128,8,147776:0:0:0:0:
182,192,147417,128,2,147686:0:0:0:0:
329,192,147417,128,0,147686:0:0:0:0:
475,192,147417,128,0,147686:0:0:0:0:
256,192,147596,1,0,0:0:0:0:
402,192,147596,1,0,0:0:0:0:
182,192,147776,128,2,147866:0:0:0:0:
329,192,147776,128,0,147956:0:0:0:0:
475,192,147776,128,0,148045:0:0:0:0:
109,192,147866,128,0,148135:0:0:0:0:
256,192,147956,128,0,148135:0:0:0:0:
402,192,148045,128,0,148135:0:0:0:0:
36,192,148135,128,8,148405:0:0:0:0:
182,192,148135,128,2,148405:0:0:0:0:
329,192,148135,128,0,148405:0:0:0:0:
475,192,148135,128,0,148405:0:0:0:0:
109,192,148315,1,0,0:0:0:0:
256,192,148315,1,0,0:0:0:0:
36,192,148494,1,2,0:0:0:0:
182,192,148494,1,4,0:0:0:0:
329,192,148494,1,0,0:0:0:0:
475,192,148494,1,0,0:0:0:0:
182,192,148674,1,0,0:0:0:0:
329,192,148674,1,0,0:0:0:0:
475,192,148674,1,0,0:0:0:0:
36,192,148854,1,2,0:0:0:0:
109,192,148854,1,4,0:0:0:0:
256,192,148854,1,8,0:0:0:0:
402,192,148854,1,0,0:0:0:0:
36,192,149033,1,0,0:0:0:0:
256,192,149033,1,0,0:0:0:0:
402,192,149033,1,0,0:0:0:0:
182,192,149213,1,2,0:0:0:0:
329,192,149213,1,4,0:0:0:0:
475,192,149213,1,8,0:0:0:0:
36,192,149303,1,8,0:0:0:0:
109,192,149303,1,0,0:0:0:0:
256,192,149393,1,8,0:0:0:0:
329,192,149393,1,0,0:0:0:0:
475,192,149393,1,0,0:0:0:0:
109,192,149482,1,8,0:0:0:0:
182,192,149482,1,0,0:0:0:0:
36,192,149572,1,8,0:0:0:0:
402,192,149572,1,2,0:0:0:0:
475,192,149572,1,0,0:0:0:0:
182,192,149662,1,8,0:0:0:0:
256,192,149662,1,0,0:0:0:0:
36,192,149752,1,8,0:0:0:0:
109,192,149752,1,0,0:0:0:0:
402,192,149752,1,0,0:0:0:0:
256,192,149842,1,8,0:0:0:0:
329,192,149842,1,0,0:0:0:0:
36,192,149932,1,2,0:0:0:0:
182,192,149932,1,4,0:0:0:0:
475,192,149932,128,0,150111:0:0:0:0:
329,192,150111,128,0,150291:0:0:0:0:
182,192,150291,1,0,0:0:0:0:
475,192,150291,128,0,151009:0:0:0:0:
109,192,150470,1,0,0:0:0:0:
36,192,150650,128,0,150830:0:0:0:0:
256,192,150650,1,0,0:0:0:0:
402,192,150650,1,0,0:0:0:0:
182,192,150830,128,0,151009:0:0:0:0:
36,192,151009,128,0,151728:0:0:0:0:
329,192,151009,1,0,0:0:0:0:
182,192,151189,1,0,0:0:0:0:
109,192,151369,1,0,0:0:0:0:
329,192,151369,128,0,151728:0:0:0:0:
475,192,151369,1,0,0:0:0:0:
256,192,151548,1,0,0:0:0:0:
182,192,151728,128,0,152087:0:0:0:0:
475,192,151728,1,0,0:0:0:0:
256,192,151908,1,0,0:0:0:0:
36,192,152087,1,0,0:0:0:0:
329,192,152087,128,0,152806:0:0:0:0:
475,192,152087,1,0,0:0:0:0:
109,192,152267,1,0,0:0:0:0:
182,192,152447,1,0,0:0:0:0:
36,192,152626,1,2,0:0:0:0:
182,192,152626,1,0,0:0:0:0:
36,192,152806,1,2,0:0:0:0:
109,192,152806,128,0,152985:0:0:0:0:
475,192,152806,1,0,0:0:0:0:
256,192,152985,128,0,153165:0:0:0:0:
109,192,153165,128,0,153884:0:0:0:0:
402,192,153165,1,0,0:0:0:0:
329,192,153345,1,0,0:0:0:0:
36,192,153524,1,0,0:0:0:0:
182,192,153524,1,0,0:0:0:0:
402,192,153524,128,0,153704:0:0:0:0:
256,192,153704,128,0,153884:0:0:0:0:
329,192,153884,1,0,0:0:0:0:
402,192,153884,128,0,154602:0:0:0:0:
256,192,154063,1,0,0:0:0:0:
36,192,154243,128,0,154602:0:0:0:0:
182,192,154243,1,0,0:0:0:0:
475,192,154243,1,0,0:0:0:0:
256,192,154423,1,0,0:0:0:0:
182,192,154602,128,0,154962:0:0:0:0:
329,192,154602,1,0,0:0:0:0:
475,192,154602,1,0,0:0:0:0:
402,192,154782,1,0,0:0:0:0:
36,192,154962,128,0,155680:0:0:0:100:breaking04.wav
256,192,154962,1,0,0:0:0:0:
475,192,154962,1,0,0:0:0:0:
329,192,155141,1,0,0:0:0:0:
182,192,155321,1,0,0:0:0:0:
182,192,155500,1,2,0:0:0:0:
475,192,155500,1,0,0:0:0:0:
109,192,155680,1,2,0:0:0:0:
256,192,155680,1,4,0:0:0:0:
329,192,155680,128,0,155860:0:0:0:0:
475,192,155680,1,0,0:0:0:0:
182,192,155860,128,0,156039:0:0:0:0:
36,192,156039,1,0,0:0:0:0:
329,192,156039,128,0,156758:0:0:0:0:
182,192,156219,1,0,0:0:0:0:
36,192,156399,1,8,0:0:0:0:
109,192,156399,128,0,156578:0:0:0:0:
256,192,156399,1,0,0:0:0:0:
402,192,156399,1,0,0:0:0:0:
475,192,156578,128,0,156758:0:0:0:0:
109,192,156758,128,0,157476:0:0:0:0:
182,192,156758,1,0,0:0:0:0:
402,192,156938,1,0,0:0:0:0:
36,192,157117,1,0,0:0:0:0:
256,192,157117,128,0,157476:0:0:0:0:
329,192,157117,1,0,0:0:0:0:
475,192,157297,1,0,0:0:0:0:
182,192,157476,1,0,0:0:0:0:
402,192,157476,128,0,157836:0:0:0:0:
109,192,157656,1,0,0:0:0:0:
36,192,157836,1,8,0:0:0:0:
182,192,157836,1,0,0:0:0:0:
256,192,157836,128,0,158554:0:0:0:0:
475,192,157836,1,0,0:0:0:0:
402,192,158015,1,0,0:0:0:0:
182,192,158195,1,0,0:0:0:0:
329,192,158195,1,0,0:0:0:0:
36,192,158375,1,2,0:0:0:0:
182,192,158375,1,0,0:0:0:0:
36,192,158554,1,2,0:0:0:0:
402,192,158554,128,0,158734:0:0:0:0:
475,192,158554,1,0,0:0:0:0:
182,192,158734,128,0,158914:0:0:0:0:
256,192,158914,1,0,0:0:0:0:
402,192,158914,128,0,159632:0:0:0:0:
109,192,159093,1,0,0:0:0:0:
36,192,159273,128,8,159453:0:0:0:0:
182,192,159273,1,0,0:0:0:0:
329,192,159273,1,0,0:0:0:0:
475,192,159273,1,0,0:0:0:0:
256,192,159453,128,0,159632:0:0:0:0:
36,192,159632,128,0,160351:0:0:0:0:
475,192,159632,1,0,0:0:0:0:
402,192,159812,1,0,0:0:0:0:
182,192,159991,128,0,160351:0:0:0:0:
329,192,159991,1,0,0:0:0:0:
329,192,160351,128,0,160710:0:0:0:0:
475,192,160351,1,0,0:0:0:0:
36,192,160710,1,0,0:0:0:0:
182,192,160710,128,0,161069:0:0:0:0:
402,192,160860,1,0,0:0:0:100:tom01.wav
256,192,161069,1,0,0:0:0:100:tom02.wav
109,192,161249,1,0,0:0:0:100:tom04.wav
36,192,161429,1,4,0:0:0:0:
256,192,161429,128,2,161698:0:0:0:0:
329,192,161429,1,0,0:0:0:0:
182,192,161518,1,0,0:0:0:0:
109,192,161608,128,0,161788:0:0:0:0:
402,192,161608,1,0,0:0:0:0:
182,192,161698,1,0,0:0:0:0:
36,192,161788,1,2,0:0:0:0:
329,192,161788,128,8,162057:0:0:0:0:
475,192,161788,1,0,0:0:0:0:
256,192,161878,1,0,0:0:0:0:
182,192,161968,128,0,162147:0:0:0:0:
402,192,161968,1,0,0:0:0:0:
256,192,162057,1,0,0:0:0:0:
36,192,162147,128,2,162417:0:0:0:0:
329,192,162147,1,0,0:0:0:0:
475,192,162147,128,0,162417:0:0:0:0:
182,192,162237,1,0,0:0:0:0:
256,192,162327,1,0,0:0:0:0:
402,192,162327,1,0,0:0:0:0:
182,192,162417,1,0,0:0:0:0:
109,192,162506,128,2,162776:0:0:0:0:
329,192,162506,1,8,0:0:0:0:
402,192,162506,128,0,162776:0:0:0:0:
256,192,162596,1,0,0:0:0:0:
182,192,162686,1,0,0:0:0:0:
475,192,162686,1,0,0:0:0:0:
256,192,162776,1,0,0:0:0:0:
109,192,162866,1,2,0:0:0:0:
182,192,162866,128,0,163494:0:0:0:0:
329,192,162866,128,0,163135:0:0:0:0:
402,192,162956,1,0,0:0:0:0:
36,192,163045,1,0,0:0:0:0:
475,192,163045,1,0,0:0:0:0:
402,192,163135,1,0,0:0:0:0:
256,192,163225,1,2,0:0:0:0:
329,192,163225,128,8,163494:0:0:0:0:
109,192,163315,1,0,0:0:0:0:
36,192,163405,1,0,0:0:0:0:
475,192,163405,1,0,0:0:0:0:
109,192,163494,1,0,0:0:0:0:
182,192,163584,1,2,0:0:0:0:
256,192,163584,1,0,0:0:0:0:
402,192,163584,128,0,164213:0:0:0:0:
329,192,163674,1,0,0:0:0:0:
36,192,163764,1,0,0:0:0:0:
256,192,163764,128,0,164213:0:0:0:0:
182,192,163854,1,0,0:0:0:0:
109,192,163944,128,2,164213:0:0:0:0:
329,192,163944,1,8,0:0:0:0:
475,192,163944,1,0,0:0:0:0:
182,192,164123,1,2,0:0:0:0:
329,192,164123,1,0,0:0:0:0:
36,192,164303,128,4,167087:0:0:0:0:
182,192,164303,1,2,0:0:0:0:
329,192,164303,1,0,0:0:0:0:
475,192,164303,128,0,167087:0:0:0:0:
402,192,164393,1,0,0:0:0:0:
329,192,164482,1,0,0:0:0:0:
256,192,164572,1,0,0:0:0:0:
182,192,164662,1,8,0:0:0:0:
402,192,164662,1,2,0:0:0:0:
329,192,164662,128,0,164932:0:0:0:0:
109,192,164752,1,0,0:0:0:0:
182,192,164842,128,0,165021:0:0:0:0:
256,192,164932,1,0,0:0:0:0:
109,192,165021,1,2,0:0:0:0:
402,192,165021,128,0,165291:0:0:0:0:
329,192,165021,1,0,0:0:0:0:
256,192,165111,1,0,0:0:0:0:
182,192,165201,1,0,0:0:0:0:
109,192,165291,1,0,0:0:0:0:
182,192,165381,128,8,165650:0:0:0:0:
256,192,165381,1,2,0:0:0:0:
329,192,165381,1,0,0:0:0:0:
402,192,165470,1,0,0:0:0:0:
329,192,165560,128,0,165740:0:0:0:0:
256,192,165650,1,0,0:0:0:0:
109,192,165740,128,2,166009:0:0:0:0:
182,192,165740,1,0,0:0:0:0:
402,192,165740,1,0,0:0:0:0:
329,192,165830,1,0,0:0:0:0:
256,192,165920,128,0,166099:0:0:0:0:
182,192,166009,1,0,0:0:0:0:
109,192,166099,1,8,0:0:0:0:
329,192,166099,128,2,166369:0:0:0:0:
402,192,166099,1,0,0:0:0:0:
256,192,166189,1,0,0:0:0:0:
182,192,166279,128,0,166459:0:0:0:0:
109,192,166369,1,0,0:0:0:0:
256,192,166459,128,2,167087:0:0:0:0:
329,192,166459,1,0,0:0:0:0:
402,192,166459,1,0,0:0:0:0:
182,192,166548,1,0,0:0:0:0:
109,192,166638,1,8,0:0:0:0:
402,192,166638,1,0,0:0:0:0:
182,192,166728,1,0,0:0:0:0:
109,192,166818,1,8,0:0:0:0:
329,192,166818,1,2,0:0:0:0:
402,192,166908,1,0,0:0:0:0:
182,192,166997,1,8,0:0:0:0:
329,192,166997,1,0,0:0:0:0:
109,192,167087,1,8,0:0:0:0:
402,192,167087,1,0,0:0:0:0:
36,192,167177,1,4,0:0:0:0:
182,192,167177,128,2,167447:0:0:0:0:
256,192,167177,1,0,0:0:0:0:
475,192,167177,1,0,0:0:0:0:
402,192,167267,1,0,0:0:0:0:
109,192,167357,1,0,0:0:0:0:
329,192,167357,128,0,167536:0:0:0:0:
402,192,167447,1,0,0:0:0:0:
36,192,167536,1,2,0:0:0:0:
109,192,167536,128,8,167806:0:0:0:0:
475,192,167536,1,0,0:0:0:0:
182,192,167626,1,0,0:0:0:0:
256,192,167716,128,0,167896:0:0:0:0:
402,192,167716,1,0,0:0:0:0:
182,192,167806,1,0,0:0:0:0:
36,192,167896,128,2,168165:0:0:0:0:
109,192,167896,1,0,0:0:0:0:
475,192,167896,128,0,168165:0:0:0:0:
329,192,167985,1,0,0:0:0:0:
256,192,168075,1,0,0:0:0:0:
402,192,168075,1,0,0:0:0:0:
182,192,168165,1,0,0:0:0:0:
109,192,168255,128,2,168524:0:0:0:0:
256,192,168255,1,8,0:0:0:0:
402,192,168255,128,0,168524:0:0:0:0:
329,192,168345,1,0,0:0:0:0:
36,192,168435,1,0,0:0:0:0:
182,192,168435,1,0,0:0:0:0:
256,192,168524,1,0,0:0:0:0:
182,192,168614,128,2,168884:0:0:0:0:
329,192,168614,128,0,169243:0:0:0:0:
475,192,168614,1,0,0:0:0:0:
109,192,168704,1,0,0:0:0:0:
36,192,168794,1,0,0:0:0:0:
402,192,168794,1,0,0:0:0:0:
109,192,168884,1,0,0:0:0:0:
182,192,168973,128,2,169243:0:0:0:0:
256,192,168973,1,8,0:0:0:0:
402,192,169063,1,0,0:0:0:0:
36,192,169153,1,0,0:0:0:0:
475,192,169153,1,0,0:0:0:0:
402,192,169243,1,0,0:0:0:0:
109,192,169333,128,2,169962:0:0:0:0:
256,192,169333,1,0,0:0:0:0:
329,192,169333,1,0,0:0:0:0:
182,192,169423,1,0,0:0:0:0:
256,192,169512,128,0,169962:0:0:0:0:
475,192,169512,1,0,0:0:0:0:
329,192,169602,1,0,0:0:0:0:
36,192,169692,1,2,0:0:0:0:
182,192,169692,1,8,0:0:0:0:
402,192,169692,128,0,169962:0:0:0:0:
182,192,169872,1,2,0:0:0:0:
329,192,169872,1,0,0:0:0:0:
36,192,170051,128,4,172836:0:0:0:0:
182,192,170051,1,2,0:0:0:0:
329,192,170051,1,0,0:0:0:0:
475,192,170051,128,0,172836:0:0:0:0:
256,192,170141,1,0,0:0:0:0:
329,192,170231,1,0,0:0:0:0:
182,192,170321,1,0,0:0:0:0:
109,192,170411,128,8,170680:0:0:0:0:
256,192,170411,1,2,0:0:0:0:
329,192,170500,1,0,0:0:0:0:
256,192,170590,128,0,170860:0:0:0:0:
182,192,170680,1,0,0:0:0:0:
109,192,170770,1,2,0:0:0:0:
329,192,170770,1,0,0:0:0:0:
402,192,170770,128,0,171039:0:0:0:0:
182,192,170860,1,0,0:0:0:0:
256,192,170950,1,0,0:0:0:0:
329,192,171039,1,0,0:0:0:0:
109,192,171129,1,8,0:0:0:0:
182,192,171129,128,2,171399:0:0:0:0:
256,192,171129,1,0,0:0:0:0:
402,192,171219,1,0,0:0:0:0:
329,192,171309,128,0,171488:0:0:0:0:
256,192,171399,1,0,0:0:0:0:
109,192,171488,128,2,171758:0:0:0:0:
182,192,171488,1,4,0:0:0:0:
402,192,171488,1,0,0:0:0:0:
329,192,171578,1,0,0:0:0:0:
256,192,171668,128,0,171848:0:0:0:0:
182,192,171758,1,0,0:0:0:0:
109,192,171848,1,8,0:0:0:0:
329,192,171848,128,2,172117:0:0:0:0:
402,192,171848,1,4,0:0:0:0:
256,192,171938,1,0,0:0:0:0:
182,192,172027,128,0,172207:0:0:0:0:
109,192,172117,1,0,0:0:0:0:
256,192,172207,128,2,172836:0:0:0:0:
329,192,172207,1,4,0:0:0:0:
402,192,172207,1,8,0:0:0:0:
109,192,172297,1,8,0:0:0:0:
182,192,172297,1,0,0:0:0:0:
329,192,172387,1,8,0:0:0:0:
402,192,172387,1,0,0:0:0:0:
182,192,172476,1,8,0:0:0:0:
109,192,172566,1,8,0:0:0:0:
402,192,172566,1,2,0:0:0:0:
182,192,172656,1,8,0:0:0:0:
329,192,172656,1,0,0:0:0:0:
109,192,172746,1,8,0:0:0:0:
402,192,172746,1,0,0:0:0:0:
329,192,172836,1,8,0:0:0:0:
36,192,172926,128,2,173285:0:0:0:0:
109,192,172926,128,4,173105:0:0:0:0:
256,192,172926,1,0,0:0:0:0:
475,192,172926,1,0,0:0:0:0:
329,192,172985,1,0,0:0:0:0:
402,192,173045,1,0,0:0:0:0:
182,192,173105,1,0,0:0:0:0:
475,192,173105,128,0,173465:0:0:0:0:
256,192,173165,1,0,0:0:0:0:
329,192,173225,1,0,0:0:0:0:
109,192,173285,1,0,0:0:0:0:
402,192,173285,128,0,173465:0:0:0:0:
182,192,173345,1,0,0:0:0:0:
256,192,173405,1,0,0:0:0:0:
36,192,173465,1,2,0:0:0:0:
109,192,173465,128,0,173644:0:0:0:0:
329,192,173465,128,0,173644:0:0:0:0:
182,192,173554,128,0,173644:0:0:0:0:
36,192,173644,128,8,174093:0:0:0:0:
256,192,173644,128,0,173914:0:0:0:0:
402,192,173644,128,0,173734:0:0:0:0:
475,192,173644,128,0,174273:0:0:0:0:
329,192,173824,128,0,173914:0:0:0:0:
402,192,173824,1,0,0:0:0:0:
182,192,174003,128,0,174093:0:0:0:0:
256,192,174003,1,0,0:0:0:0:
36,192,174183,1,2,0:0:0:0:
109,192,174183,128,0,174273:0:0:0:0:
256,192,174183,1,0,0:0:0:0:
36,192,174363,1,2,0:0:0:0:
256,192,174363,1,4,0:0:0:0:
402,192,174363,128,0,174542:0:0:0:0:
475,192,174363,128,0,174722:0:0:0:0:
182,192,174423,1,0,0:0:0:0:
109,192,174482,1,0,0:0:0:0:
36,192,174542,128,0,174902:0:0:0:0:
329,192,174542,1,0,0:0:0:0:
256,192,174602,1,0,0:0:0:0:
182,192,174662,1,0,0:0:0:0:
109,192,174722,128,0,174902:0:0:0:0:
402,192,174722,1,0,0:0:0:0:
329,192,174782,1,0,0:0:0:0:
256,192,174842,1,0,0:0:0:0:
182,192,174902,128,2,175081:0:0:0:0:
402,192,174902,128,0,175081:0:0:0:0:
475,192,174902,1,0,0:0:0:0:
329,192,174991,128,0,175081:0:0:0:0:
36,192,175081,128,8,175710:0:0:0:0:
109,192,175081,128,0,175620:0:0:0:0:
256,192,175081,128,0,175261:0:0:0:0:
475,192,175081,128,0,175351:0:0:0:0:
329,192,175171,1,0,0:0:0:0:
182,192,175261,1,0,0:0:0:0:
402,192,175261,1,0,0:0:0:0:
256,192,175351,1,0,0:0:0:0:
329,192,175441,1,0,0:0:0:0:
475,192,175441,1,0,0:0:0:0:
182,192,175530,1,0,0:0:0:0:
256,192,175620,1,2,0:0:0:0:
402,192,175620,1,0,0:0:0:0:
109,192,175710,1,2,0:0:0:0:
475,192,175710,1,0,0:0:0:0:
36,192,175800,1,4,0:0:0:0:
182,192,175800,128,2,176069:0:0:0:0:
329,192,175800,128,0,176429:0:0:0:0:
402,192,175800,1,0,0:0:0:0:
36,192,175979,1,0,0:0:0:0:
36,192,176159,1,2,0:0:0:0:
182,192,176159,128,8,176788:0:0:0:0:
402,192,176159,1,0,0:0:0:0:
475,192,176159,1,0,0:0:0:0:
402,192,176339,1,0,0:0:0:0:
109,192,176518,1,2,0:0:0:0:
329,192,176518,128,0,176788:0:0:0:0:
402,192,176518,1,0,0:0:0:0:
109,192,176698,1,0,0:0:0:0:
109,192,176878,128,2,177147:0:0:0:0:
256,192,176878,1,8,0:0:0:0:
402,192,176878,1,0,0:0:0:0:
475,192,176878,1,0,0:0:0:0:
256,192,177057,1,0,0:0:0:0:
402,192,177057,128,0,177237:0:0:0:0:
36,192,177237,128,2,177506:0:0:0:0:
256,192,177237,1,0,0:0:0:0:
475,192,177237,128,0,177506:0:0:0:0:
182,192,177417,1,0,0:0:0:0:
36,192,177596,1,2,0:0:0:0:
256,192,177596,1,8,0:0:0:0:
402,192,177596,128,0,177866:0:0:0:0:
475,192,177596,1,0,0:0:0:0:
109,192,177776,128,0,177956:0:0:0:0:
36,192,177956,1,2,0:0:0:0:
182,192,177956,128,0,178584:0:0:0:0:
329,192,177956,128,0,178584:0:0:0:0:
109,192,178135,1,8,0:0:0:0:
402,192,178135,1,0,0:0:0:0:
475,192,178135,1,0,0:0:0:0:
36,192,178315,1,2,0:0:0:0:
109,192,178315,1,8,0:0:0:0:
402,192,178315,1,0,0:0:0:0:
36,192,178494,1,8,0:0:0:0:
256,192,178494,1,0,0:0:0:0:
475,192,178494,1,0,0:0:0:0:
402,192,178584,1,8,0:0:0:0:
36,192,178674,128,2,179033:0:0:0:0:
109,192,178674,1,4,0:0:0:0:
329,192,178674,1,0,0:0:0:0:
475,192,178674,128,0,178854:0:0:0:0:
256,192,178734,1,0,0:0:0:0:
182,192,178794,1,0,0:0:0:0:
109,192,178854,128,0,179213:0:0:0:0:
402,192,178854,1,0,0:0:0:0:
329,192,178914,1,0,0:0:0:0:
256,192,178973,1,0,0:0:0:0:
182,192,179033,128,0,179393:0:0:0:0:
475,192,179033,1,0,0:0:0:0:
402,192,179093,1,0,0:0:0:0:
329,192,179153,1,0,0:0:0:0:
36,192,179213,1,2,0:0:0:0:
256,192,179213,128,0,179393:0:0:0:0:
475,192,179213,1,0,0:0:0:0:
329,192,179303,1,0,0:0:0:0:
36,192,179393,128,8,179932:0:0:0:0:
109,192,179393,128,0,179662:0:0:0:0:
402,192,179393,128,0,179482:0:0:0:0:
475,192,179393,128,0,179842:0:0:0:0:
329,192,179572,128,0,179662:0:0:0:0:
402,192,179572,1,0,0:0:0:0:
109,192,179752,1,0,0:0:0:0:
182,192,179752,128,0,179842:0:0:0:0:
256,192,179932,1,2,0:0:0:0:
402,192,179932,128,0,180021:0:0:0:0:
475,192,179932,1,0,0:0:0:0:
36,192,180111,128,4,180291:0:0:0:0:
182,192,180111,1,8,0:0:0:0:
402,192,180111,1,0,0:0:0:0:
475,192,180111,128,0,180470:0:0:0:0:
256,192,180171,1,0,0:0:0:0:
329,192,180231,1,0,0:0:0:0:
109,192,180291,1,0,0:0:0:0:
402,192,180291,128,0,180650:0:0:0:0:
182,192,180351,1,0,0:0:0:0:
256,192,180411,1,0,0:0:0:0:
36,192,180470,1,0,0:0:0:0:
329,192,180470,128,0,180830:0:0:0:0:
109,192,180530,1,0,0:0:0:0:
182,192,180590,1,0,0:0:0:0:
36,192,180650,1,2,0:0:0:0:
256,192,180650,128,0,180830:0:0:0:0:
475,192,180650,1,0,0:0:0:0:
182,192,180740,1,0,0:0:0:0:
36,192,180830,128,8,181189:0:0:0:0:
109,192,180830,128,0,180920:0:0:0:0:
402,192,180830,128,0,181009:0:0:0:0:
475,192,180830,128,0,181459:0:0:0:0:
329,192,180920,1,0,0:0:0:0:
109,192,181009,1,0,0:0:0:0:
256,192,181009,1,0,0:0:0:0:
402,192,181099,1,0,0:0:0:0:
182,192,181189,1,0,0:0:0:0:
329,192,181189,1,0,0:0:0:0:
36,192,181279,1,0,0:0:0:0:
256,192,181369,1,2,0:0:0:0:
402,192,181369,1,0,0:0:0:0:
109,192,181459,1,2,0:0:0:0:
329,192,181459,1,0,0:0:0:0:
36,192,181548,128,4,182177:0:0:0:0:
182,192,181548,1,2,0:0:0:0:
256,192,181548,1,0,0:0:0:0:
475,192,181548,128,0,181818:0:0:0:0:
182,192,181728,1,0,0:0:0:0:
182,192,181908,1,8,0:0:0:0:
329,192,181908,1,2,0:0:0:0:
475,192,181908,128,0,182536:0:0:0:0:
329,192,182087,1,0,0:0:0:0:
36,192,182267,128,2,182536:0:0:0:0:
256,192,182267,1,0,0:0:0:0:
329,192,182267,1,0,0:0:0:0:
256,192,182447,1,0,0:0:0:0:
109,192,182626,128,8,182896:0:0:0:0:
256,192,182626,1,2,0:0:0:0:
402,192,182626,1,0,0:0:0:0:
182,192,182806,1,0,0:0:0:0:
402,192,182806,128,0,182985:0:0:0:0:
36,192,182985,1,2,0:0:0:0:
109,192,182985,1,8,0:0:0:0:
329,192,182985,1,0,0:0:0:0:
402,192,183075,1,8,0:0:0:0:
475,192,183075,1,0,0:0:0:0:
36,192,183165,1,8,0:0:0:0:
182,192,183165,1,0,0:0:0:0:
256,192,183165,1,0,0:0:0:0:
329,192,183255,1,8,0:0:0:0:
402,192,183255,1,0,0:0:0:0:
109,192,183345,1,8,0:0:0:0:
182,192,183345,1,2,0:0:0:0:
475,192,183345,1,0,0:0:0:0:
256,192,183435,1,8,0:0:0:0:
329,192,183435,1,0,0:0:0:0:
36,192,183524,1,8,0:0:0:0:
109,192,183524,1,0,0:0:0:0:
402,192,183524,1,0,0:0:0:0:
182,192,183614,1,8,0:0:0:0:
256,192,183614,1,0,0:0:0:0:
36,192,183704,1,2,0:0:0:0:
329,192,183704,1,8,0:0:0:0:
402,192,183704,1,0,0:0:0:0:
109,192,183794,1,8,0:0:0:0:
182,192,183794,1,0,0:0:0:0:
256,192,183884,1,8,0:0:0:0:
329,192,183884,1,0,0:0:0:0:
475,192,183884,1,0,0:0:0:0:
36,192,183973,1,8,0:0:0:0:
109,192,183973,1,0,0:0:0:0:
256,192,184063,1,8,0:0:0:0:
402,192,184063,1,2,0:0:0:0:
475,192,184063,1,0,0:0:0:0:
109,192,184153,1,8,0:0:0:0:
182,192,184153,1,0,0:0:0:0:
36,192,184243,1,8,0:0:0:0:
329,192,184243,1,0,0:0:0:0:
402,192,184243,1,0,0:0:0:0:
182,192,184333,1,8,0:0:0:0:
256,192,184333,1,0,0:0:0:0:
36,192,184423,1,2,0:0:0:0:
109,192,184423,1,4,0:0:0:0:
402,192,184423,1,0,0:0:0:0:
475,192,184423,1,0,0:0:0:0:
329,192,184512,1,0,0:0:0:0:
109,192,184602,1,0,0:0:0:0:
256,192,184692,1,0,0:0:0:0:
36,192,184782,1,0,0:0:0:0:
329,192,184872,1,0,0:0:0:0:
109,192,184962,1,0,0:0:0:0:
402,192,185051,1,0,0:0:0:0:
182,192,185141,1,0,0:0:0:0:
475,192,185231,1,0,0:0:0:0:
256,192,185321,1,0,0:0:0:0:
402,192,185411,1,0,0:0:0:0:
182,192,185500,1,0,0:0:0:0:
329,192,185590,1,0,0:0:0:0:
109,192,185680,1,0,0:0:0:0:
256,192,185770,1,0,0:0:0:0:
36,192,185860,1,0,0:0:0:0:
402,192,185950,1,0,0:0:0:0:
182,192,186039,1,0,0:0:0:0:
329,192,186129,1,0,0:0:0:0:
109,192,186219,1,0,0:0:0:0:
256,192,186309,1,0,0:0:0:0:
36,192,186399,1,0,0:0:0:0:
475,192,186488,1,0,0:0:0:0:
256,192,186578,1,0,0:0:0:0:
402,192,186668,1,0,0:0:0:0:
182,192,186758,1,0,0:0:0:0:
329,192,186848,1,0,0:0:0:0:
109,192,186938,1,0,0:0:0:0:
256,192,187027,1,0,0:0:0:0:
36,192,187117,1,0,0:0:0:0:
182,192,187207,1,0,0:0:0:0:
36,192,187297,128,2,187656:0:0:0:0:
256,192,187297,128,4,187476:0:0:0:0:
402,192,187297,1,0,0:0:0:0:
475,192,187297,128,0,187656:0:0:0:0:
182,192,187656,1,8,0:0:0:0:
329,192,187656,1,0,0:0:0:0:
109,192,187836,1,2,0:0:0:0:
256,192,187836,1,0,0:0:0:0:
402,192,187836,1,0,0:0:0:0:
36,192,188015,128,2,188375:0:0:0:0:
182,192,188015,128,0,188195:0:0:0:0:
329,192,188015,128,0,188195:0:0:0:0:
475,192,188015,128,0,188375:0:0:0:0:
182,192,188375,1,8,0:0:0:0:
329,192,188375,1,0,0:0:0:0:
109,192,188554,1,2,0:0:0:0:
256,192,188554,1,0,0:0:0:0:
402,192,188554,1,0,0:0:0:0:
36,192,188734,128,2,188914:0:0:0:0:
182,192,188734,128,0,189093:0:0:0:0:
329,192,188734,128,0,189093:0:0:0:0:
475,192,188734,128,0,188914:0:0:0:0:
109,192,188914,1,0,0:0:0:0:
402,192,189093,1,0,0:0:0:0:
256,192,189273,1,0,0:0:0:0:
109,192,189333,1,0,0:0:0:0:
256,192,189393,1,0,0:0:0:0:
402,192,189453,1,0,0:0:0:50:clap.wav
256,192,189632,1,0,0:0:0:0:
36,192,189812,1,0,0:0:0:50:clap.wav
182,192,189812,1,0,0:0:0:0:
329,192,189812,1,0,0:0:0:0:
475,192,189812,1,0,0:0:0:0:
36,192,190171,1,2,0:0:0:0:
109,192,190171,1,4,0:0:0:0:
256,192,190171,1,0,0:0:0:0:
329,192,190351,1,0,0:0:0:0:
402,192,190530,1,0,0:0:0:0:
36,192,190710,1,2,0:0:0:0:
256,192,190710,1,0,0:0:0:0:
109,192,190890,1,8,0:0:0:0:
329,192,190890,1,0,0:0:0:0:
475,192,190890,1,0,0:0:0:0:
256,192,191069,1,0,0:0:0:0:
182,192,191249,1,0,0:0:0:0:
329,192,191429,1,2,0:0:0:0:
475,192,191429,1,0,0:0:0:0:
36,192,191608,1,0,0:0:0:0:
109,192,191608,1,0,0:0:0:0:
256,192,191608,1,0,0:0:0:0:
402,192,191788,1,0,0:0:0:0:
36,192,191968,1,2,0:0:0:0:
182,192,191968,1,0,0:0:0:0:
256,192,192147,1,0,0:0:0:0:
36,192,192327,1,8,0:0:0:0:
109,192,192327,1,0,0:0:0:0:
329,192,192327,1,0,0:0:0:0:
256,192,192686,1,0,0:0:0:0:
182,192,193045,1,2,0:0:0:0:
475,192,193045,128,0,193764:0:0:0:0:
256,192,193405,128,0,193764:0:0:0:0:
36,192,193584,1,2,0:0:0:0:
329,192,193584,1,0,0:0:0:0:
109,192,193764,128,8,194482:0:0:0:0:
182,192,193764,1,0,0:0:0:0:
402,192,193764,1,0,0:0:0:0:
329,192,194123,128,0,194482:0:0:0:0:
475,192,194123,1,0,0:0:0:0:
36,192,194482,128,2,195021:0:0:0:0:
182,192,194482,1,0,0:0:0:0:
256,192,194842,1,2,0:0:0:0:
475,192,194842,1,0,0:0:0:0:
182,192,195021,1,0,0:0:0:0:
402,192,195021,128,0,195920:0:0:0:0:
36,192,195201,1,8,0:0:0:0:
109,192,195201,128,0,195920:0:0:0:0:
329,192,195201,1,0,0:0:0:0:
256,192,195560,1,0,0:0:0:0:
182,192,195920,1,2,0:0:0:0:
329,192,195920,1,4,0:0:0:0:
475,192,195920,1,0,0:0:0:0:
109,192,196099,1,0,0:0:0:0:
36,192,196279,1,0,0:0:0:0:
182,192,196459,1,2,0:0:0:0:
329,192,196459,1,0,0:0:0:0:
36,192,196638,1,8,0:0:0:0:
256,192,196638,1,0,0:0:0:0:
475,192,196638,1,0,0:0:0:0:
402,192,196818,1,0,0:0:0:0:
329,192,196997,1,0,0:0:0:0:
109,192,197177,1,2,0:0:0:0:
256,192,197177,1,0,0:0:0:0:
36,192,197357,1,0,0:0:0:0:
329,192,197357,1,0,0:0:0:0:
475,192,197357,1,0,0:0:0:0:
109,192,197536,1,0,0:0:0:0:
182,192,197716,1,2,0:0:0:0:
329,192,197716,1,0,0:0:0:0:
402,192,197896,1,0,0:0:0:0:
36,192,198075,1,8,0:0:0:0:
256,192,198075,1,0,0:0:0:0:
475,192,198075,1,0,0:0:0:0:
182,192,198435,1,0,0:0:0:0:
109,192,198794,1,2,0:0:0:0:
329,192,198794,1,0,0:0:0:0:
475,192,198794,128,0,199333:0:0:0:0:
256,192,199153,1,0,0:0:0:0:
36,192,199333,1,2,0:0:0:0:
182,192,199333,1,0,0:0:0:0:
256,192,199423,1,0,0:0:0:0:
109,192,199512,1,8,0:0:0:0:
329,192,199512,128,0,199782:0:0:0:0:
475,192,199512,1,0,0:0:0:0:
182,192,199872,128,0,200141:0:0:0:0:
402,192,199872,1,0,0:0:0:0:
36,192,200231,128,0,200500:0:0:0:0:
475,192,200411,128,0,200680:0:0:0:0:
109,192,200590,128,0,200860:0:0:0:0:
402,192,200770,128,0,201039:0:0:0:0:
256,192,200950,128,0,201219:0:0:0:0:
36,192,201309,1,8,0:0:0:0:
475,192,201309,1,0,0:0:0:0:
182,192,201399,1,8,0:0:0:0:
329,192,201399,1,0,0:0:0:0:
36,192,201488,1,8,0:0:0:0:
475,192,201488,1,0,0:0:0:0:
182,192,201578,1,8,0:0:0:0:
329,192,201578,1,0,0:0:0:0:
36,192,201668,1,2,0:0:0:0:
109,192,201668,1,4,0:0:0:0:
256,192,201668,1,0,0:0:0:0:
475,192,201668,1,0,0:0:0:0:
402,192,201758,1,0,0:0:0:0:
109,192,201848,1,0,0:0:0:0:
182,192,201848,1,0,0:0:0:0:
329,192,201848,1,0,0:0:0:0:
402,192,201938,1,0,0:0:0:0:
36,192,202027,1,2,0:0:0:0:
182,192,202027,1,8,0:0:0:0:
256,192,202027,1,0,0:0:0:0:
475,192,202027,1,0,0:0:0:0:
329,192,202117,1,0,0:0:0:0:
182,192,202207,1,0,0:0:0:0:
402,192,202207,1,0,0:0:0:0:
109,192,202297,1,0,0:0:0:0:
36,192,202387,1,2,0:0:0:0:
256,192,202387,1,0,0:0:0:0:
402,192,202387,1,0,0:0:0:0:
475,192,202387,1,0,0:0:0:0:
182,192,202476,1,0,0:0:0:0:
109,192,202566,1,0,0:0:0:0:
329,192,202566,1,0,0:0:0:0:
402,192,202566,1,0,0:0:0:0:
182,192,202656,1,0,0:0:0:0:
36,192,202746,1,2,0:0:0:0:
256,192,202746,1,8,0:0:0:0:
329,192,202746,1,0,0:0:0:0:
475,192,202746,1,0,0:0:0:0:
109,192,202836,1,0,0:0:0:0:
182,192,202926,1,0,0:0:0:0:
329,192,202926,1,0,0:0:0:0:
402,192,203015,1,0,0:0:0:0:
36,192,203105,1,2,0:0:0:0:
109,192,203105,1,0,0:0:0:0:
256,192,203105,1,0,0:0:0:0:
475,192,203105,1,0,0:0:0:0:
329,192,203195,1,0,0:0:0:0:
109,192,203285,1,0,0:0:0:0:
182,192,203285,1,0,0:0:0:0:
402,192,203285,1,0,0:0:0:0:
329,192,203375,1,0,0:0:0:0:
36,192,203465,1,2,0:0:0:0:
182,192,203465,1,8,0:0:0:0:
256,192,203465,1,0,0:0:0:0:
475,192,203465,1,0,0:0:0:0:
402,192,203554,1,0,0:0:0:0:
109,192,203644,1,0,0:0:0:0:
182,192,203644,1,0,0:0:0:0:
329,192,203644,1,0,0:0:0:0:
402,192,203734,1,0,0:0:0:0:
36,192,203824,1,2,0:0:0:0:
109,192,203824,1,0,0:0:0:0:
256,192,203824,1,0,0:0:0:0:
475,192,203824,1,0,0:0:0:0:
182,192,204003,1,0,0:0:0:0:
329,192,204003,1,0,0:0:0:0:
36,192,204183,1,2,0:0:0:0:
256,192,204183,1,8,0:0:0:0:
402,192,204183,1,0,0:0:0:0:
475,192,204183,1,0,0:0:0:0:
109,192,204363,1,2,0:0:0:0:
256,192,204363,1,0,0:0:0:0:
402,192,204363,1,0,0:0:0:0:
182,192,204542,1,2,0:0:0:0:
256,192,204542,1,0,0:0:0:0:
402,192,204542,1,0,0:0:0:0:
475,192,204542,1,0,0:0:0:0:
36,192,204632,1,0,0:0:0:0:
109,192,204722,1,0,0:0:0:0:
329,192,204722,1,0,0:0:0:0:
402,192,204722,1,0,0:0:0:0:
182,192,204812,1,0,0:0:0:0:
36,192,204902,1,8,0:0:0:0:
256,192,204902,1,2,0:0:0:0:
329,192,204902,1,0,0:0:0:0:
475,192,204902,1,0,0:0:0:0:
109,192,204991,1,0,0:0:0:0:
182,192,205081,1,0,0:0:0:0:
256,192,205081,1,0,0:0:0:0:
329,192,205171,1,0,0:0:0:0:
109,192,205261,1,2,0:0:0:0:
182,192,205261,1,0,0:0:0:0:
402,192,205261,1,0,0:0:0:0:
475,192,205261,1,0,0:0:0:0:
256,192,205351,1,0,0:0:0:0:
329,192,205441,1,0,0:0:0:0:
402,192,205441,1,0,0:0:0:0:
256,192,205500,1,0,0:0:0:0:
182,192,205560,1,0,0:0:0:0:
36,192,205620,1,8,0:0:0:0:
109,192,205620,1,2,0:0:0:0:
402,192,205620,1,0,0:0:0:0:
475,192,205620,1,0,0:0:0:0:
182,192,205800,1,0,0:0:0:0:
329,192,205800,1,0,0:0:0:0:
36,192,205979,1,2,0:0:0:0:
109,192,205979,1,0,0:0:0:0:
256,192,205979,1,0,0:0:0:0:
475,192,205979,1,0,0:0:0:0:
36,192,206159,1,0,0:0:0:0:
109,192,206159,1,0,0:0:0:0:
256,192,206159,1,0,0:0:0:0:
36,192,206339,1,8,0:0:0:0:
182,192,206339,1,2,0:0:0:0:
329,192,206339,1,4,0:0:0:0:
402,192,206339,1,0,0:0:0:0:
182,192,206518,1,0,0:0:0:0:
329,192,206518,1,0,0:0:0:0:
402,192,206518,1,0,0:0:0:0:
36,192,206698,1,2,0:0:0:0:
256,192,206698,1,0,0:0:0:0:
402,192,206698,1,0,0:0:0:0:
475,192,206698,1,0,0:0:0:0:
182,192,206788,1,8,0:0:0:0:
329,192,206788,1,0,0:0:0:0:
36,192,206878,1,8,0:0:0:0:
109,192,206878,1,0,0:0:0:0:
402,192,206878,1,0,0:0:0:0:
36,192,207057,1,8,0:0:0:0:
256,192,207057,1,2,0:0:0:0:
402,192,207057,1,0,0:0:0:0:
475,192,207057,1,0,0:0:0:0:
36,192,207237,1,8,0:0:0:0:
256,192,207237,1,0,0:0:0:0:
475,192,207237,1,0,0:0:0:0:
182,192,207327,1,8,0:0:0:0:
402,192,207327,1,0,0:0:0:0:
36,192,207417,1,4,0:0:0:0:
109,192,207417,1,2,0:0:0:0:
256,192,207417,1,0,0:0:0:0:
329,192,207417,1,0,0:0:0:0:
182,192,207506,1,0,0:0:0:0:
109,192,207596,1,0,0:0:0:0:
329,192,207596,1,0,0:0:0:0:
402,192,207596,1,0,0:0:0:0:
36,192,207686,1,0,0:0:0:0:
182,192,207776,1,2,0:0:0:0:
256,192,207776,1,8,0:0:0:0:
402,192,207776,1,0,0:0:0:0:
475,192,207776,1,0,0:0:0:0:
36,192,207866,1,0,0:0:0:0:
182,192,207956,1,0,0:0:0:0:
475,192,207956,1,0,0:0:0:0:
329,192,208045,1,0,0:0:0:0:
182,192,208135,1,2,0:0:0:0:
256,192,208135,1,0,0:0:0:0:
402,192,208135,1,0,0:0:0:0:
475,192,208135,1,0,0:0:0:0:
329,192,208225,1,0,0:0:0:0:
109,192,208315,1,0,0:0:0:0:
182,192,208315,1,0,0:0:0:0:
402,192,208315,1,0,0:0:0:0:
475,192,208405,1,0,0:0:0:0:
36,192,208494,1,2,0:0:0:0:
109,192,208494,1,8,0:0:0:0:
256,192,208494,1,0,0:0:0:0:
329,192,208494,1,0,0:0:0:0:
475,192,208584,1,0,0:0:0:0:
36,192,208674,1,0,0:0:0:0:
329,192,208674,1,0,0:0:0:0:
182,192,208764,1,0,0:0:0:0:
36,192,208854,1,2,0:0:0:0:
109,192,208854,1,0,0:0:0:0:
256,192,208854,1,0,0:0:0:0:
329,192,208854,1,0,0:0:0:0:
182,192,208944,1,0,0:0:0:0:
109,192,209033,1,0,0:0:0:0:
329,192,209033,1,0,0:0:0:0:
402,192,209033,1,0,0:0:0:0:
36,192,209123,1,0,0:0:0:0:
182,192,209213,1,2,0:0:0:0:
256,192,209213,1,8,0:0:0:0:
402,192,209213,1,0,0:0:0:0:
475,192,209213,1,0,0:0:0:0:
36,192,209303,1,0,0:0:0:0:
109,192,209393,1,0,0:0:0:0:
329,192,209393,1,0,0:0:0:0:
402,192,209393,1,0,0:0:0:0:
182,192,209482,1,0,0:0:0:0:
36,192,209572,1,2,0:0:0:0:
256,192,209572,1,0,0:0:0:0:
329,192,209572,1,0,0:0:0:0:
475,192,209572,1,0,0:0:0:0:
182,192,209752,1,0,0:0:0:0:
402,192,209752,1,0,0:0:0:0:
36,192,209932,1,2,0:0:0:0:
109,192,209932,1,8,0:0:0:0:
256,192,209932,1,0,0:0:0:0:
329,192,209932,1,0,0:0:0:0:
109,192,210111,1,2,0:0:0:0:
329,192,210111,1,0,0:0:0:0:
402,192,210111,1,0,0:0:0:0:
36,192,210291,1,2,0:0:0:0:
109,192,210291,1,0,0:0:0:0:
402,192,210291,1,0,0:0:0:0:
475,192,210291,1,0,0:0:0:0:
182,192,210381,1,0,0:0:0:0:
256,192,210470,1,0,0:0:0:0:
329,192,210470,1,0,0:0:0:0:
182,192,210530,1,0,0:0:0:0:
109,192,210590,1,0,0:0:0:0:
36,192,210650,1,2,0:0:0:0:
329,192,210650,1,8,0:0:0:0:
402,192,210650,1,0,0:0:0:0:
475,192,210650,1,0,0:0:0:0:
182,192,210830,1,0,0:0:0:0:
329,192,210830,1,0,0:0:0:0:
36,192,211009,1,2,0:0:0:0:
109,192,211009,1,0,0:0:0:0:
402,192,211009,1,0,0:0:0:0:
475,192,211009,1,0,0:0:0:0:
329,192,211099,1,0,0:0:0:0:
182,192,211189,1,0,0:0:0:0:
256,192,211189,1,0,0:0:0:0:
329,192,211249,1,0,0:0:0:0:
402,192,211309,1,0,0:0:0:0:
36,192,211369,1,2,0:0:0:0:
109,192,211369,1,8,0:0:0:0:
182,192,211369,1,0,0:0:0:0:
475,192,211369,1,0,0:0:0:0:
182,192,211548,1,0,0:0:0:0:
329,192,211548,1,0,0:0:0:0:
36,192,211728,1,2,0:0:0:0:
256,192,211728,1,4,0:0:0:0:
402,192,211728,1,0,0:0:0:0:
475,192,211728,1,0,0:0:0:0:
256,192,211908,1,0,0:0:0:0:
402,192,211908,1,0,0:0:0:0:
475,192,211908,1,0,0:0:0:0:
109,192,212087,1,2,0:0:0:0:
182,192,212087,1,8,0:0:0:0:
329,192,212087,1,4,0:0:0:0:
475,192,212087,1,0,0:0:0:0:
109,192,212267,1,0,0:0:0:0:
182,192,212267,1,0,0:0:0:0:
329,192,212267,1,0,0:0:0:0:
36,192,212447,1,2,0:0:0:0:
109,192,212447,1,8,0:0:0:0:
256,192,212447,1,4,0:0:0:0:
475,192,212447,1,0,0:0:0:0:
329,192,212536,1,8,0:0:0:0:
402,192,212536,1,0,0:0:0:0:
109,192,212626,1,8,0:0:0:0:
182,192,212626,1,0,0:0:0:0:
256,192,212626,1,0,0:0:0:0:
329,192,212716,1,8,0:0:0:0:
402,192,212716,1,0,0:0:0:0:
36,192,212806,1,8,0:0:0:0:
256,192,212806,1,2,0:0:0:0:
475,192,212806,1,0,0:0:0:0:
109,192,212896,1,8,0:0:0:0:
182,192,212896,1,0,0:0:0:0:
256,192,212985,1,8,0:0:0:0:
329,192,212985,1,0,0:0:0:0:
402,192,212985,1,0,0:0:0:0:
109,192,213075,1,8,0:0:0:0:
182,192,213075,1,0,0:0:0:0:
256,192,213165,128,0,213794:0:0:0:0:
109,192,213345,128,0,213794:0:0:0:0:
402,192,213345,128,0,213794:0:0:0:0:
36,192,213524,128,4,213794:0:0:0:0:
182,192,213524,128,2,213794:0:0:0:0:
329,192,213524,128,0,213794:0:0:0:0:
475,192,213524,128,0,213794:0:0:0:0:
109,192,213884,128,0,214512:0:0:0:0:
402,192,213884,128,0,214512:0:0:0:0:
256,192,214063,128,0,214512:0:0:0:0:
36,192,214243,128,2,214512:0:0:0:0:
182,192,214243,128,4,214512:0:0:0:0:
329,192,214243,128,0,214512:0:0:0:0:
475,192,214243,128,0,214512:0:0:0:0:
109,192,214602,1,8,0:0:0:0:
475,192,214602,1,0,0:0:0:0:
182,192,214692,1,8,0:0:0:0:
329,192,214692,1,0,0:0:0:0:
36,192,214782,1,8,0:0:0:0:
402,192,214782,1,0,0:0:0:0:
109,192,214872,1,8,0:0:0:0:
256,192,214872,1,0,0:0:0:0:
36,192,214962,1,8,0:0:0:0:
402,192,214962,1,0,0:0:0:0:
182,192,215051,1,8,0:0:0:0:
329,192,215051,1,0,0:0:0:0:
109,192,215141,1,8,0:0:0:0:
475,192,215141,1,0,0:0:0:0:
256,192,215231,1,8,0:0:0:0:
402,192,215231,1,0,0:0:0:0:
182,192,215321,1,8,0:0:0:0:
329,192,215321,1,0,0:0:0:0:
109,192,215500,1,2,0:0:0:0:
256,192,215500,1,0,0:0:0:0:
402,192,215500,1,0,0:0:0:0:
36,192,215680,128,2,215950:0:0:0:0:
182,192,215680,128,0,215950:0:0:0:100:breaking04.wav
329,192,215680,128,0,215950:0:0:0:0:
475,192,215680,128,0,215950:0:0:0:0:
182,192,216039,128,2,216219:0:0:0:0:
256,192,216039,1,4,0:0:0:0:
402,192,216039,128,0,216129:0:0:0:0:
475,192,216039,1,0,0:0:0:0:
109,192,216129,128,0,216219:0:0:0:0:
256,192,216219,128,0,216399:0:0:0:0:
402,192,216219,128,0,216578:0:0:0:0:
109,192,216309,128,0,216399:0:0:0:0:
36,192,216399,128,8,216578:0:0:0:0:
329,192,216399,1,2,0:0:0:0:
475,192,216399,128,0,216488:0:0:0:0:
182,192,216488,128,0,216578:0:0:0:0:
329,192,216578,128,0,216758:0:0:0:0:
475,192,216578,128,0,216938:0:0:0:0:
182,192,216668,128,0,216758:0:0:0:0:
36,192,216758,1,2,0:0:0:0:
109,192,216758,128,0,216848:0:0:0:0:
256,192,216758,128,0,216938:0:0:0:0:
402,192,216848,128,0,217027:0:0:0:0:
36,192,216938,128,0,217027:0:0:0:0:
182,192,216938,128,0,217117:0:0:0:0:
329,192,217027,128,0,217207:0:0:0:0:
36,192,217117,1,8,0:0:0:0:
109,192,217117,128,2,217297:0:0:0:0:
402,192,217117,1,0,0:0:0:0:
475,192,217117,128,0,217207:0:0:0:0:
256,192,217207,128,0,217387:0:0:0:0:
36,192,217297,128,0,217476:0:0:0:0:
402,192,217297,128,0,217387:0:0:0:0:
182,192,217387,128,0,217476:0:0:0:0:
109,192,217476,128,2,218015:0:0:0:0:
329,192,217476,128,0,217656:0:0:0:0:
402,192,217476,1,0,0:0:0:0:
475,192,217476,128,0,217566:0:0:0:0:
256,192,217566,128,0,217656:0:0:0:0:
402,192,217656,128,0,217746:0:0:0:0:
475,192,217656,128,0,217836:0:0:0:0:
256,192,217746,128,0,218015:0:0:0:0:
36,192,217836,128,8,218375:0:0:0:0:
329,192,217836,1,2,0:0:0:0:
402,192,217836,128,0,217926:0:0:0:0:
182,192,217926,128,0,218015:0:0:0:0:
329,192,218015,128,0,218105:0:0:0:0:
402,192,218015,128,0,218195:0:0:0:0:
182,192,218105,128,0,218375:0:0:0:0:
256,192,218195,1,2,0:0:0:0:
329,192,218195,128,4,218285:0:0:0:0:
475,192,218195,128,0,218734:0:0:0:0:
109,192,218285,128,0,218375:0:0:0:0:
256,192,218375,128,8,218465:0:0:0:0:
329,192,218375,128,0,218554:0:0:0:0:
402,192,218375,1,0,0:0:0:0:
109,192,218465,128,0,218734:0:0:0:0:
36,192,218554,1,8,0:0:0:0:
182,192,218554,128,2,218644:0:0:0:0:
256,192,218554,128,4,218734:0:0:0:0:
329,192,218644,128,0,218824:0:0:0:0:
182,192,218734,1,8,0:0:0:0:
402,192,218734,128,0,218824:0:0:0:0:
36,192,218824,1,8,0:0:0:0:
256,192,218824,1,0,0:0:0:0:
109,192,218914,128,4,219183:0:0:0:0:
329,192,218914,1,2,0:0:0:0:
402,192,218914,128,0,219003:0:0:0:0:
475,192,218914,1,0,0:0:0:0:
36,192,219003,128,0,219183:0:0:0:0:
256,192,219003,128,0,219093:0:0:0:0:
182,192,219093,1,0,0:0:0:0:
402,192,219093,128,0,219273:0:0:0:0:
256,192,219183,128,0,219273:0:0:0:0:
475,192,219183,128,0,219363:0:0:0:0:
36,192,219273,128,2,219542:0:0:0:0:
109,192,219273,1,8,0:0:0:0:
329,192,219273,128,0,219363:0:0:0:0:
182,192,219363,128,0,219453:0:0:0:0:
329,192,219453,128,0,219632:0:0:0:0:
475,192,219453,1,0,0:0:0:0:
182,192,219542,128,0,219632:0:0:0:0:
36,192,219632,1,2,0:0:0:0:
109,192,219632,128,0,219722:0:0:0:0:
402,192,219632,128,0,219902:0:0:0:0:
256,192,219722,128,0,219812:0:0:0:0:
475,192,219722,128,0,219902:0:0:0:0:
109,192,219812,128,0,219991:0:0:0:0:
329,192,219812,1,0,0:0:0:0:
36,192,219902,128,0,220081:0:0:0:0:
256,192,219902,128,0,219991:0:0:0:0:
182,192,219991,128,2,220081:0:0:0:0:
402,192,219991,1,8,0:0:0:0:
475,192,219991,128,0,220261:0:0:0:0:
329,192,220081,128,0,220171:0:0:0:0:
109,192,220171,1,0,0:0:0:0:
182,192,220171,128,0,220351:0:0:0:0:
329,192,220261,128,0,220351:0:0:0:0:
36,192,220351,1,2,0:0:0:0:
256,192,220351,128,0,220530:0:0:0:0:
402,192,220351,128,0,220441:0:0:0:0:
475,192,220351,1,0,0:0:0:0:
109,192,220441,128,0,220620:0:0:0:0:
329,192,220530,128,0,220710:0:0:0:0:
402,192,220530,128,0,220979:0:0:0:0:
182,192,220620,128,0,220800:0:0:0:0:
36,192,220710,128,2,220890:0:0:0:0:
109,192,220710,1,8,0:0:0:0:
475,192,220710,128,0,220800:0:0:0:0:
256,192,220800,128,0,220979:0:0:0:0:
109,192,220890,128,0,221069:0:0:0:0:
182,192,220890,1,0,0:0:0:0:
475,192,220890,128,0,221339:0:0:0:0:
329,192,220979,128,0,221159:0:0:0:0:
36,192,221069,128,2,221698:0:0:0:0:
182,192,221069,128,0,221249:0:0:0:0:
256,192,221069,1,0,0:0:0:0:
402,192,221159,128,0,221339:0:0:0:0:
256,192,221249,128,8,221429:0:0:0:0:
329,192,221249,1,0,0:0:0:0:
109,192,221339,128,0,221518:0:0:0:0:
182,192,221429,128,2,221608:0:0:0:0:
402,192,221429,1,0,0:0:0:0:
475,192,221429,128,0,221698:0:0:0:0:
256,192,221518,128,0,221698:0:0:0:0:
329,192,221608,128,8,221788:0:0:0:0:
402,192,221608,1,0,0:0:0:0:
109,192,221698,1,8,0:0:0:0:
182,192,221698,1,0,0:0:0:0:
256,192,221788,1,2,0:0:0:0:
402,192,221788,1,0,0:0:0:0:
475,192,221788,1,0,0:0:0:0:
36,192,221878,1,0,0:0:0:0:
109,192,221968,1,0,0:0:0:0:
256,192,221968,1,0,0:0:0:0:
329,192,222027,1,0,0:0:0:0:
182,192,222057,1,0,0:0:0:0:
402,192,222087,1,0,0:0:0:0:
36,192,222147,128,2,222327:0:0:0:0:
109,192,222147,128,8,222327:0:0:0:0:
256,192,222147,128,0,222327:0:0:0:0:
475,192,222147,128,0,222327:0:0:0:0:
329,192,222327,1,0,0:0:0:0:
182,192,222327,1,0,0:0:0:0:
36,192,222506,1,2,0:0:0:0:
109,192,222506,1,4,0:0:0:0:
256,192,222506,1,0,0:0:0:0:
475,192,222596,1,0,0:0:0:0:
256,192,222686,1,0,0:0:0:0:
402,192,222686,1,0,0:0:0:0:
182,192,222746,1,0,0:0:0:0:
329,192,222776,1,0,0:0:0:0:
109,192,222806,1,0,0:0:0:0:
36,192,222866,128,2,223045:0:0:0:0:
256,192,222866,128,8,223045:0:0:0:0:
402,192,222866,128,0,223045:0:0:0:0:
475,192,222866,128,0,223045:0:0:0:0:
329,192,223045,1,0,0:0:0:0:
182,192,223045,1,0,0:0:0:0:
36,192,223225,1,2,0:0:0:0:
256,192,223225,1,8,0:0:0:0:
475,192,223225,1,0,0:0:0:0:
329,192,223315,1,8,0:0:0:0:
402,192,223315,1,0,0:0:0:0:
36,192,223405,1,8,0:0:0:0:
109,192,223405,1,0,0:0:0:0:
182,192,223405,1,0,0:0:0:0:
329,192,223494,1,8,0:0:0:0:
402,192,223494,1,0,0:0:0:0:
36,192,223584,1,8,0:0:0:0:
256,192,223584,1,2,0:0:0:0:
475,192,223584,1,0,0:0:0:0:
109,192,223674,1,8,0:0:0:0:
182,192,223674,1,0,0:0:0:0:
329,192,223764,1,8,0:0:0:0:
402,192,223764,1,0,0:0:0:0:
475,192,223764,1,0,0:0:0:0:
109,192,223854,1,8,0:0:0:0:
182,192,223854,1,0,0:0:0:0:
36,192,223944,1,2,0:0:0:0:
256,192,223944,1,0,0:0:0:100:tom01.wav
475,192,223944,1,0,0:0:0:0:
182,192,224033,1,0,0:0:0:100:tom01.wav
402,192,224033,1,0,0:0:0:0:
36,192,224123,1,0,0:0:0:100:tom01.wav
109,192,224123,1,0,0:0:0:0:
329,192,224123,1,0,0:0:0:0:
182,192,224213,1,0,0:0:0:100:tom01.wav
402,192,224213,1,0,0:0:0:0:
36,192,224303,1,2,0:0:0:0:
256,192,224303,1,8,0:0:0:0:
475,192,224303,1,0,0:0:0:100:tom04.wav
109,192,224393,1,8,0:0:0:0:
329,192,224393,1,0,0:0:0:0:
182,192,224482,1,8,0:0:0:0:
402,192,224482,1,0,0:0:0:0:
475,192,224482,1,0,0:0:0:0:
109,192,224572,1,8,0:0:0:0:
329,192,224572,1,0,0:0:0:0:
36,192,224662,1,4,0:0:0:0:
182,192,224662,1,2,0:0:0:0:
256,192,224662,1,0,0:0:0:0:
475,192,224662,1,0,0:0:0:0:
402,192,224752,1,0,0:0:0:0:
109,192,224842,1,0,0:0:0:0:
182,192,224842,1,0,0:0:0:0:
329,192,224842,1,0,0:0:0:0:
36,192,224932,1,0,0:0:0:0:
182,192,225021,1,8,0:0:0:0:
256,192,225021,1,2,0:0:0:0:
402,192,225021,1,0,0:0:0:0:
475,192,225111,1,0,0:0:0:0:
109,192,225201,1,0,0:0:0:0:
182,192,225201,1,0,0:0:0:0:
329,192,225201,1,0,0:0:0:0:
402,192,225291,1,0,0:0:0:0:
36,192,225381,1,2,0:0:0:0:
109,192,225381,1,0,0:0:0:0:
256,192,225381,1,0,0:0:0:0:
475,192,225441,1,0,0:0:0:0:
402,192,225500,1,0,0:0:0:0:
182,192,225560,1,0,0:0:0:0:
329,192,225560,1,0,0:0:0:0:
109,192,225620,1,0,0:0:0:0:
36,192,225680,1,0,0:0:0:0:
182,192,225740,1,8,0:0:0:0:
256,192,225740,1,2,0:0:0:0:
402,192,225740,1,0,0:0:0:0:
475,192,225740,1,0,0:0:0:0:
109,192,225920,1,0,0:0:0:0:
329,192,225920,1,0,0:0:0:0:
256,192,226099,1,2,0:0:0:0:
402,192,226099,1,0,0:0:0:0:
475,192,226099,1,0,0:0:0:0:
36,192,226159,1,0,0:0:0:0:
109,192,226219,1,0,0:0:0:0:
182,192,226279,1,0,0:0:0:0:
329,192,226279,1,0,0:0:0:0:
402,192,226339,1,0,0:0:0:0:
475,192,226399,1,0,0:0:0:0:
36,192,226459,1,8,0:0:0:0:
109,192,226459,1,2,0:0:0:0:
256,192,226459,1,0,0:0:0:0:
329,192,226459,1,0,0:0:0:0:
182,192,226638,1,0,0:0:0:0:
402,192,226638,1,0,0:0:0:0:
36,192,226818,1,2,0:0:0:0:
109,192,226818,1,0,0:0:0:0:
329,192,226818,1,0,0:0:0:0:
256,192,226908,1,0,0:0:0:0:
109,192,226997,1,0,0:0:0:0:
182,192,226997,1,0,0:0:0:0:
402,192,226997,1,0,0:0:0:0:
329,192,227087,1,0,0:0:0:0:
182,192,227177,1,8,0:0:0:0:
256,192,227177,1,2,0:0:0:0:
475,192,227177,1,0,0:0:0:0:
182,192,227357,1,2,0:0:0:0:
256,192,227357,1,0,0:0:0:0:
402,192,227357,1,0,0:0:0:0:
36,192,227536,1,2,0:0:0:0:
109,192,227536,1,0,0:0:0:0:
329,192,227536,1,0,0:0:0:0:
256,192,227626,1,0,0:0:0:0:
182,192,227716,1,0,0:0:0:0:
402,192,227716,1,0,0:0:0:0:
475,192,227716,1,0,0:0:0:0:
329,192,227806,1,0,0:0:0:0:
36,192,227896,1,2,0:0:0:0:
109,192,227896,1,8,0:0:0:0:
256,192,227896,1,0,0:0:0:0:
475,192,227896,1,0,0:0:0:0:
402,192,227985,1,0,0:0:0:0:
109,192,228075,1,0,0:0:0:0:
182,192,228075,1,0,0:0:0:0:
329,192,228075,1,0,0:0:0:0:
36,192,228165,1,0,0:0:0:0:
182,192,228255,1,2,0:0:0:0:
402,192,228255,1,0,0:0:0:0:
475,192,228255,1,0,0:0:0:0:
256,192,228345,1,0,0:0:0:0:
36,192,228435,1,0,0:0:0:0:
109,192,228435,1,0,0:0:0:0:
329,192,228435,1,0,0:0:0:0:
182,192,228524,1,0,0:0:0:0:
36,192,228614,1,2,0:0:0:0:
256,192,228614,1,8,0:0:0:0:
402,192,228614,1,0,0:0:0:0:
475,192,228614,1,0,0:0:0:0:
109,192,228704,1,0,0:0:0:0:
182,192,228794,1,0,0:0:0:0:
329,192,228794,1,0,0:0:0:0:
402,192,228794,1,0,0:0:0:0:
475,192,228884,1,0,0:0:0:0:
36,192,228973,1,2,0:0:0:0:
256,192,228973,1,0,0:0:0:0:
329,192,228973,1,0,0:0:0:0:
182,192,229063,1,0,0:0:0:0:
109,192,229153,1,0,0:0:0:0:
329,192,229153,1,0,0:0:0:0:
402,192,229153,1,0,0:0:0:0:
256,192,229243,1,0,0:0:0:0:
182,192,229333,1,2,0:0:0:0:
402,192,229333,1,8,0:0:0:0:
475,192,229333,1,4,0:0:0:0:
256,192,229423,1,0,0:0:0:0:
109,192,229512,1,0,0:0:0:0:
329,192,229512,1,0,0:0:0:0:
402,192,229512,1,0,0:0:0:0:
182,192,229602,1,0,0:0:0:0:
36,192,229692,1,2,0:0:0:0:
256,192,229692,1,4,0:0:0:0:
329,192,229692,1,0,0:0:0:0:
475,192,229752,1,0,0:0:0:0:
402,192,229812,1,0,0:0:0:0:
182,192,229872,1,8,0:0:0:0:
329,192,229872,1,0,0:0:0:0:
109,192,229932,1,0,0:0:0:0:
36,192,229991,1,0,0:0:0:0:
182,192,230051,1,2,0:0:0:0:
256,192,230051,1,8,0:0:0:0:
402,192,230051,1,0,0:0:0:0:
475,192,230051,1,0,0:0:0:0:
36,192,230231,1,8,0:0:0:0:
256,192,230231,1,0,0:0:0:0:
109,192,230321,1,8,0:0:0:0:
329,192,230321,1,0,0:0:0:0:
36,192,230411,1,4,0:0:0:0:
182,192,230411,1,2,0:0:0:0:
402,192,230411,1,0,0:0:0:0:
475,192,230411,1,0,0:0:0:0:
256,192,230500,1,0,0:0:0:0:
109,192,230590,1,0,0:0:0:0:
329,192,230590,1,0,0:0:0:0:
402,192,230590,1,0,0:0:0:0:
182,192,230680,1,0,0:0:0:0:
36,192,230770,1,8,0:0:0:0:
256,192,230770,1,2,0:0:0:0:
329,192,230770,1,0,0:0:0:0:
475,192,230860,1,0,0:0:0:0:
109,192,230950,1,0,0:0:0:0:
329,192,230950,1,0,0:0:0:0:
402,192,230950,1,0,0:0:0:0:
36,192,231039,1,0,0:0:0:0:
182,192,231129,1,2,0:0:0:0:
402,192,231129,1,0,0:0:0:0:
475,192,231129,1,0,0:0:0:0:
256,192,231189,1,0,0:0:0:0:
329,192,231249,1,0,0:0:0:0:
109,192,231309,1,0,0:0:0:0:
402,192,231309,1,0,0:0:0:0:
182,192,231369,1,0,0:0:0:0:
256,192,231429,1,0,0:0:0:0:
36,192,231488,1,8,0:0:0:0:
109,192,231488,1,2,0:0:0:0:
329,192,231488,1,0,0:0:0:0:
475,192,231488,1,0,0:0:0:0:
182,192,231668,1,0,0:0:0:0:
402,192,231668,1,0,0:0:0:0:
36,192,231848,1,2,0:0:0:0:
109,192,231848,1,0,0:0:0:0:
329,192,231848,1,0,0:0:0:0:
256,192,231908,1,0,0:0:0:0:
182,192,231968,1,0,0:0:0:0:
109,192,232027,1,0,0:0:0:0:
402,192,232027,1,0,0:0:0:0:
329,192,232087,1,0,0:0:0:0:
256,192,232147,1,0,0:0:0:0:
36,192,232207,1,8,0:0:0:0:
182,192,232207,1,2,0:0:0:0:
402,192,232207,1,0,0:0:0:0:
475,192,232207,1,0,0:0:0:0:
109,192,232387,1,0,0:0:0:0:
329,192,232387,1,0,0:0:0:0:
36,192,232566,1,2,0:0:0:0:
182,192,232566,1,0,0:0:0:0:
256,192,232566,1,0,0:0:0:0:
402,192,232656,1,0,0:0:0:0:
109,192,232746,1,0,0:0:0:0:
256,192,232746,1,0,0:0:0:0:
329,192,232746,1,0,0:0:0:0:
475,192,232836,1,0,0:0:0:0:
182,192,232926,1,8,0:0:0:0:
329,192,232926,1,2,0:0:0:0:
402,192,232926,1,0,0:0:0:0:
109,192,233105,1,2,0:0:0:0:
329,192,233105,1,0,0:0:0:0:
402,192,233105,1,0,0:0:0:0:
36,192,233285,1,2,0:0:0:0:
256,192,233285,1,0,0:0:0:0:
475,192,233285,1,0,0:0:0:0:
109,192,233375,1,0,0:0:0:0:
182,192,233465,1,0,0:0:0:0:
329,192,233465,1,0,0:0:0:0:
402,192,233465,1,0,0:0:0:0:
36,192,233554,1,0,0:0:0:0:
109,192,233644,1,2,0:0:0:0:
256,192,233644,1,8,0:0:0:0:
329,192,233644,1,0,0:0:0:0:
475,192,233644,1,0,0:0:0:0:
402,192,233734,1,0,0:0:0:0:
36,192,233824,1,0,0:0:0:0:
182,192,233824,1,0,0:0:0:0:
256,192,233824,1,0,0:0:0:0:
329,192,233914,1,0,0:0:0:0:
256,192,234003,1,2,0:0:0:0:
402,192,234003,1,0,0:0:0:0:
475,192,234003,1,0,0:0:0:0:
109,192,234093,1,0,0:0:0:0:
182,192,234183,1,0,0:0:0:0:
329,192,234183,1,0,0:0:0:0:
402,192,234183,1,0,0:0:0:0:
36,192,234273,1,0,0:0:0:0:
109,192,234363,1,2,0:0:0:0:
256,192,234363,1,8,0:0:0:0:
329,192,234363,1,0,0:0:0:0:
475,192,234363,1,0,0:0:0:0:
402,192,234453,1,0,0:0:0:0:
36,192,234542,1,0,0:0:0:0:
182,192,234542,1,0,0:0:0:0:
256,192,234542,1,0,0:0:0:0:
329,192,234632,1,0,0:0:0:0:
109,192,234722,1,2,0:0:0:0:
182,192,234722,1,8,0:0:0:0:
402,192,234722,1,0,0:0:0:0:
256,192,234812,1,8,0:0:0:0:
475,192,234812,1,0,0:0:0:0:
36,192,234902,1,8,0:0:0:0:
109,192,234902,1,0,0:0:0:0:
329,192,234902,1,0,0:0:0:0:
256,192,234991,1,0,0:0:0:0:
109,192,235081,1,2,0:0:0:0:
182,192,235081,1,8,0:0:0:0:
402,192,235081,1,4,0:0:0:0:
36,192,235171,1,0,0:0:0:0:
182,192,235261,1,8,0:0:0:0:
256,192,235261,1,0,0:0:0:0:
475,192,235261,1,0,0:0:0:0:
109,192,235351,1,8,0:0:0:0:
402,192,235351,1,0,0:0:0:0:
36,192,235441,1,2,0:0:0:0:
256,192,235441,1,8,0:0:0:0:
329,192,235441,1,0,0:0:0:0:
402,192,235530,1,8,0:0:0:0:
475,192,235530,1,0,0:0:0:0:
36,192,235620,1,8,0:0:0:0:
182,192,235620,1,0,0:0:0:0:
256,192,235620,1,0,0:0:0:0:
402,192,235710,1,8,0:0:0:0:
475,192,235710,1,0,0:0:0:0:
36,192,235800,1,2,0:0:0:0:
109,192,235800,1,8,0:0:0:0:
182,192,235800,1,0,0:0:0:0:
329,192,235890,1,8,0:0:0:0:
402,192,235890,1,0,0:0:0:0:
109,192,235979,1,8,0:0:0:0:
182,192,235979,1,0,0:0:0:0:
256,192,235979,1,0,0:0:0:0:
329,192,236069,1,8,0:0:0:0:
402,192,236069,1,0,0:0:0:0:
36,192,236159,1,2,0:0:0:0:
182,192,236159,1,4,0:0:0:0:
256,192,236159,1,0,0:0:0:0:
475,192,236159,1,0,0:0:0:0:
402,192,236249,1,0,0:0:0:50:LR_TomSnare.wav
36,192,236339,1,0,0:0:0:50:LR_TomSnare.wav
182,192,236339,1,0,0:0:0:0:
329,192,236339,1,0,0:0:0:0:
256,192,236429,1,0,0:0:0:50:LR_TomSnare.wav
402,192,236429,1,0,0:0:0:0:
36,192,236518,1,2,0:0:0:0:
109,192,236518,1,0,0:0:0:50:LR_TomSnare.wav
329,192,236518,1,0,0:0:0:0:
475,192,236518,1,0,0:0:0:0:
182,192,236608,1,0,0:0:0:50:LR_TomSnare.wav
109,192,236698,1,0,0:0:0:50:LR_TomSnare.wav
256,192,236698,1,0,0:0:0:0:
402,192,236698,1,0,0:0:0:0:
329,192,236788,1,0,0:0:0:50:LR_TomSnare.wav
36,192,236878,1,2,0:0:0:0:
182,192,236878,1,0,0:0:0:50:LR_TomSnare.wav
402,192,236878,1,0,0:0:0:0:
475,192,236878,1,0,0:0:0:0:
256,192,236968,1,0,0:0:0:50:LR_TomSnare.wav
182,192,237057,1,0,0:0:0:50:LR_TomSnare.wav
329,192,237057,1,0,0:0:0:0:
475,192,237057,1,0,0:0:0:0:
109,192,237147,1,0,0:0:0:50:LR_TomSnare.wav
36,192,237237,1,2,0:0:0:0:
182,192,237237,1,0,0:0:0:50:LR_TomSnare.wav
256,192,237237,1,0,0:0:0:0:
402,192,237237,1,0,0:0:0:0:
329,192,237327,1,0,0:0:0:50:LR_TomSnare.wav
109,192,237417,1,0,0:0:0:50:LR_TomSnare.wav
182,192,237417,1,0,0:0:0:0:
402,192,237417,1,0,0:0:0:0:
475,192,237506,1,0,0:0:0:50:LR_TomSnare.wav
36,192,237596,1,2,0:0:0:0:
109,192,237596,1,0,0:0:0:75:LR_TomSnare.wav
329,192,237596,1,0,0:0:0:0:
402,192,237596,1,0,0:0:0:0:
256,192,237686,1,0,0:0:0:75:LR_TomSnare.wav
182,192,237776,1,0,0:0:0:75:LR_TomSnare.wav
329,192,237776,1,0,0:0:0:0:
475,192,237776,1,0,0:0:0:0:
109,192,237866,1,0,0:0:0:75:LR_TomSnare.wav
402,192,237866,1,0,0:0:0:0:
36,192,237956,1,2,0:0:0:0:
256,192,237956,1,0,0:0:0:75:LR_TomSnare.wav
329,192,237956,1,0,0:0:0:0:
475,192,237956,1,0,0:0:0:0:
182,192,238045,1,0,0:0:0:75:LR_TomSnare.wav
109,192,238135,1,0,0:0:0:75:LR_TomSnare.wav
256,192,238135,1,0,0:0:0:0:
402,192,238135,1,0,0:0:0:0:
329,192,238225,1,0,0:0:0:75:LR_TomSnare.wav
36,192,238315,1,2,0:0:0:0:
182,192,238315,1,0,0:0:0:75:LR_TomSnare.wav
402,192,238315,1,0,0:0:0:0:
475,192,238315,1,0,0:0:0:0:
256,192,238405,1,0,0:0:0:75:LR_TomSnare.wav
182,192,238494,1,0,0:0:0:75:LR_TomSnare.wav
329,192,238494,1,0,0:0:0:0:
402,192,238494,1,0,0:0:0:0:
109,192,238584,1,0,0:0:0:75:LR_TomSnare.wav
36,192,238674,1,2,0:0:0:0:
182,192,238674,1,0,0:0:0:75:LR_TomSnare.wav
256,192,238674,1,0,0:0:0:0:
475,192,238674,1,0,0:0:0:0:
329,192,238764,1,0,0:0:0:75:LR_TomSnare.wav
109,192,238854,1,0,0:0:0:75:LR_TomSnare.wav
256,192,238854,1,0,0:0:0:0:
402,192,238854,1,0,0:0:0:0:
182,192,238944,1,0,0:0:0:75:LR_TomSnare.wav
36,192,239033,1,2,0:0:0:0:
256,192,239033,1,0,0:0:0:100:LR_TomSnare.wav
329,192,239033,1,0,0:0:0:0:
475,192,239033,1,0,0:0:0:0:
109,192,239123,1,0,0:0:0:100:LR_TomSnare.wav
402,192,239123,1,0,0:0:0:0:
182,192,239213,1,0,0:0:0:100:LR_TomSnare.wav
475,192,239213,1,0,0:0:0:0:
329,192,239213,1,0,0:0:0:0:
109,192,239303,1,0,0:0:0:100:LR_TomSnare.wav
256,192,239303,1,0,0:0:0:0:
36,192,239393,1,2,0:0:0:0:
182,192,239393,1,0,0:0:0:100:LR_TomSnare.wav
329,192,239393,1,0,0:0:0:0:
402,192,239393,1,0,0:0:0:0:
475,192,239482,1,0,0:0:0:100:LR_TomSnare.wav
256,192,239482,1,0,0:0:0:0:
182,192,239572,1,0,0:0:0:100:LR_TomSnare.wav
109,192,239572,1,0,0:0:0:0:
402,192,239572,1,0,0:0:0:0:
36,192,239662,1,0,0:0:0:100:LR_TomSnare.wav
329,192,239662,1,0,0:0:0:0:
109,192,239752,1,2,0:0:0:0:
256,192,239752,1,0,0:0:0:100:LR_TomSnare.wav
402,192,239752,1,0,0:0:0:0:
475,192,239752,1,0,0:0:0:0:
329,192,239842,1,0,0:0:0:100:LR_TomSnare.wav
182,192,239842,1,0,0:0:0:0:
36,192,239932,1,0,0:0:0:100:LR_TomSnare.wav
256,192,239932,1,0,0:0:0:0:
402,192,239932,1,0,0:0:0:0:
109,192,240021,1,0,0:0:0:100:LR_TomSnare.wav
329,192,240021,1,0,0:0:0:0:
182,192,240111,1,2,0:0:0:0:
256,192,240111,1,0,0:0:0:100:LR_TomSnare.wav
36,192,240111,1,0,0:0:0:0:
475,192,240111,1,0,0:0:0:0:
402,192,240201,1,0,0:0:0:100:LR_TomSnare.wav
109,192,240201,1,0,0:0:0:0:
475,192,240291,1,0,0:0:0:100:LR_TomSnare.wav
182,192,240291,1,0,0:0:0:0:
329,192,240291,1,0,0:0:0:0:
109,192,240381,1,0,0:0:0:100:LR_TomSnare.wav
256,192,240381,1,0,0:0:0:0:
36,192,240470,1,2,0:0:0:0:
182,192,240470,1,4,0:0:0:0:
329,192,240470,1,0,0:0:0:0:
475,192,240470,1,0,0:0:0:0:
36,192,240830,128,2,241099:0:0:0:0:
182,192,240830,128,4,241099:0:0:0:0:
329,192,240830,128,0,241099:0:0:0:0:
475,192,240830,128,0,241099:0:0:0:0:
36,192,241189,1,2,0:0:0:0:
182,192,241189,1,4,0:0:0:0:
256,192,241189,1,0,0:0:0:0:
329,192,241189,1,0,0:0:0:0:
475,192,241189,1,0,0:0:0:0:
