osu file format v14

[General]
AudioFilename: audio.mp3
AudioLeadIn: 0
PreviewTime: 49333
Countdown: 0
SampleSet: Soft
StackLeniency: 0.7
Mode: 3
LetterboxInBreaks: 0
SpecialStyle: 0
WidescreenStoryboard: 0

[Editor]
DistanceSpacing: 0.8
BeatDivisor: 4
GridSize: 4
TimelineZoom: 2

[Metadata]
Title:Halloween of the Dead
TitleUnicode:Halloween of the Dead
Artist:Seifuu Meigetsu
ArtistUnicode:清風明月
Creator:A M D
Version:Halloween Night // 4K
Source:
Tags:AMD Seifuumeigetsu 葉月ゆら Hatsuki Yura drop japanese pop j-pop jpop exneko SEFU-009 M3-38 gothic
BeatmapID:4236395
BeatmapSetID:2032354

[Difficulty]
HPDrainRate:8
CircleSize:4
OverallDifficulty:8
ApproachRate:5
SliderMultiplier:1.4
SliderTickRate:1

[Events]
//Background and Video events
0,0,"93820815_p0.jpg",0,0
//Break Periods
//Storyboard Layer 0 (Background)
//Storyboard Layer 1 (Fail)
//Storyboard Layer 2 (Pass)
//Storyboard Layer 3 (Foreground)
//Storyboard Layer 4 (Overlay)
//Storyboard Sound Samples

[TimingPoints]
471,359.281437125748,4,2,1,85,1,0
49333,-100,4,2,1,85,0,1
72327,-100,4,2,1,85,0,0
126938,-100,4,2,1,85,0,1
149932,-100,4,2,1,85,0,0
201668,-100,4,2,1,85,0,1
213165,-100,4,2,1,85,0,0
216039,-100,4,2,1,85,0,1
224662,-100,4,2,1,85,0,0

[HitObjects]
64,192,471,5,2,0:0:0:0:
320,192,471,1,4,0:0:0:0:
448,192,471,1,0,0:0:0:0:
192,192,650,1,0,0:0:0:0:
320,192,830,1,0,0:0:0:0:
64,192,1009,1,0,0:0:0:0:
320,192,1189,1,0,0:0:0:0:
448,192,1189,1,0,0:0:0:0:
192,192,1369,1,0,0:0:0:0:
448,192,1548,1,0,0:0:0:0:
64,192,1728,1,0,0:0:0:70:LR_TomSnare.wav
192,192,1908,1,0,0:0:0:0:
320,192,1908,1,0,0:0:0:0:
448,192,2087,1,0,0:0:0:70:LR_TomSnare.wav
64,192,2267,1,0,0:0:0:0:
320,192,2267,1,0,0:0:0:0:
64,192,2626,1,0,0:0:0:0:
448,192,2626,1,0,0:0:0:0:
192,192,2985,1,0,0:0:0:0:
320,192,3165,1,0,0:0:0:70:LR_TomSnare.wav
64,192,3345,1,0,0:0:0:0:
448,192,3345,1,0,0:0:0:0:
192,192,3524,1,0,0:0:0:0:
320,192,3704,1,0,0:0:0:0:
64,192,3884,1,0,0:0:0:0:
320,192,4063,1,0,0:0:0:70:LR_TomSnare.wav
448,192,4063,1,0,0:0:0:0:
192,192,4243,1,0,0:0:0:0:
448,192,4423,1,0,0:0:0:0:
64,192,4602,1,0,0:0:0:70:LR_TomSnare.wav
320,192,4782,1,0,0:0:0:0:
448,192,4782,1,0,0:0:0:0:
192,192,4962,1,0,0:0:0:70:LR_TomSnare.wav
64,192,5141,1,0,0:0:0:0:
320,192,5141,1,0,0:0:0:0:
64,192,5500,1,0,0:0:0:100:breaking04.wav
192,192,5500,1,0,0:0:0:0:
448,192,5500,1,0,0:0:0:0:
320,192,5860,1,0,0:0:0:0:
192,192,6039,1,0,0:0:0:70:LR_TomSnare.wav
64,192,6219,1,2,0:0:0:0:
320,192,6219,1,8,0:0:0:0:
448,192,6219,1,4,0:0:0:0:
64,192,6399,1,0,0:0:0:0:
192,192,6578,1,2,0:0:0:0:
448,192,6578,1,0,0:0:0:0:
320,192,6758,1,0,0:0:0:0:
64,192,6938,1,2,0:0:0:0:
192,192,6938,1,0,0:0:0:100:LR_TomSnare.wav
448,192,6938,1,0,0:0:0:0:
448,192,7117,1,0,0:0:0:0:
64,192,7297,1,2,0:0:0:0:
320,192,7297,1,0,0:0:0:0:
192,192,7476,1,0,0:0:0:100:LR_TomSnare.wav
64,192,7656,1,2,0:0:0:0:
320,192,7656,1,0,0:0:0:0:
448,192,7656,1,0,0:0:0:0:
64,192,7836,1,0,0:0:0:100:LR_TomSnare.wav
192,192,8015,1,2,0:0:0:0:
320,192,8015,1,0,0:0:0:0:
448,192,8195,1,0,0:0:0:0:
64,192,8375,1,2,0:0:0:0:
192,192,8375,1,0,0:0:0:100:LR_TomSnare.wav
320,192,8375,1,0,0:0:0:0:
448,192,8554,1,0,0:0:0:0:
64,192,8734,1,2,0:0:0:0:
320,192,8734,1,0,0:0:0:0:
192,192,8914,1,0,0:0:0:100:LR_TomSnare.wav
64,192,9093,1,2,0:0:0:0:
320,192,9093,1,0,0:0:0:0:
448,192,9093,1,0,0:0:0:0:
448,192,9273,1,0,0:0:0:0:
64,192,9453,1,2,0:0:0:0:
320,192,9453,1,0,0:0:0:0:
192,192,9632,1,0,0:0:0:0:
64,192,9812,1,2,0:0:0:0:
320,192,9812,1,0,0:0:0:100:LR_TomSnare.wav
448,192,9812,1,0,0:0:0:0:
64,192,9991,1,0,0:0:0:0:
192,192,10171,1,2,0:0:0:0:
320,192,10171,1,0,0:0:0:0:
448,192,10351,1,0,0:0:0:100:LR_TomSnare.wav
64,192,10530,1,2,0:0:0:0:
320,192,10530,1,0,0:0:0:0:
448,192,10530,1,0,0:0:0:0:
192,192,10890,1,0,0:0:0:0:
320,192,11249,1,0,0:0:0:0:
64,192,11608,1,8,0:0:0:0:
448,192,11608,1,0,0:0:0:0:
192,192,11698,1,8,0:0:0:0:
320,192,11698,1,0,0:0:0:0:
64,192,11788,1,8,0:0:0:0:
448,192,11788,1,0,0:0:0:0:
192,192,11878,1,8,0:0:0:0:
64,192,11968,1,2,0:0:0:0:
320,192,11968,1,4,0:0:0:0:
448,192,11968,1,0,0:0:0:0:
320,192,12147,1,0,0:0:0:0:
64,192,12327,1,2,0:0:0:0:
192,192,12327,1,8,0:0:0:0:
448,192,12327,1,0,0:0:0:0:
448,192,12506,1,0,0:0:0:0:
64,192,12686,1,2,0:0:0:0:
320,192,12686,1,0,0:0:0:0:
192,192,12746,1,0,0:0:0:0:
448,192,12806,1,0,0:0:0:0:
320,192,12866,1,0,0:0:0:0:
64,192,12926,1,0,0:0:0:0:
192,192,12985,1,0,0:0:0:0:
320,192,13045,1,2,0:0:0:0:
448,192,13045,1,8,0:0:0:0:
64,192,13225,1,0,0:0:0:0:
192,192,13405,1,2,0:0:0:0:
448,192,13405,1,0,0:0:0:0:
320,192,13465,1,0,0:0:0:0:
64,192,13524,1,0,0:0:0:0:
192,192,13584,1,0,0:0:0:0:
448,192,13644,1,0,0:0:0:0:
320,192,13704,1,0,0:0:0:0:
64,192,13764,1,2,0:0:0:0:
192,192,13764,1,8,0:0:0:0:
448,192,13944,1,0,0:0:0:0:
64,192,14123,1,2,0:0:0:0:
320,192,14123,1,0,0:0:0:0:
320,192,14303,1,0,0:0:0:0:
64,192,14482,128,2,14662:0:0:0:0:
192,192,14482,1,8,0:0:0:0:
448,192,14482,1,0,0:0:0:0:
320,192,14662,1,2,0:0:0:0:
448,192,14662,1,0,0:0:0:0:
64,192,14842,1,2,0:0:0:0:
192,192,14842,1,0,0:0:0:0:
448,192,14932,1,0,0:0:0:0:
320,192,15021,1,0,0:0:0:0:
64,192,15111,1,0,0:0:0:0:
192,192,15201,1,2,0:0:0:0:
320,192,15201,1,8,0:0:0:0:
448,192,15201,1,4,0:0:0:0:
64,192,15291,1,0,0:0:0:0:
192,192,15381,1,0,0:0:0:0:
448,192,15470,1,0,0:0:0:0:
64,192,15560,1,2,0:0:0:0:
320,192,15560,1,0,0:0:0:0:
192,192,15650,1,0,0:0:0:0:
448,192,15740,1,0,0:0:0:0:
320,192,15830,1,0,0:0:0:0:
64,192,15920,1,2,0:0:0:0:
192,192,15920,1,8,0:0:0:0:
448,192,15920,1,4,0:0:0:0:
320,192,16009,1,0,0:0:0:0:
192,192,16099,1,0,0:0:0:0:
64,192,16189,1,0,0:0:0:0:
320,192,16279,1,2,0:0:0:0:
448,192,16279,1,0,0:0:0:0:
64,192,16369,1,0,0:0:0:0:
192,192,16459,1,0,0:0:0:0:
320,192,16459,1,0,0:0:0:0:
448,192,16548,1,0,0:0:0:0:
64,192,16638,1,2,0:0:0:0:
192,192,16638,1,8,0:0:0:0:
448,192,16728,1,0,0:0:0:0:
64,192,16818,1,0,0:0:0:0:
320,192,16818,1,0,0:0:0:0:
192,192,16908,1,0,0:0:0:0:
320,192,16997,1,2,0:0:0:0:
448,192,16997,1,0,0:0:0:0:
64,192,17057,1,0,0:0:0:0:
192,192,17117,1,0,0:0:0:0:
448,192,17177,1,0,0:0:0:0:
320,192,17237,1,0,0:0:0:0:
192,192,17297,1,0,0:0:0:0:
64,192,17357,1,2,0:0:0:0:
448,192,17357,1,8,0:0:0:0:
192,192,17536,1,8,0:0:0:0:
320,192,17536,1,0,0:0:0:0:
448,192,17626,1,8,0:0:0:0:
64,192,17716,1,2,0:0:0:0:
192,192,17716,1,4,0:0:0:0:
320,192,17716,1,0,0:0:0:0:
64,192,17896,1,0,0:0:0:0:
192,192,18075,1,2,0:0:0:0:
320,192,18075,1,8,0:0:0:0:
448,192,18075,1,0,0:0:0:0:
448,192,18255,1,0,0:0:0:0:
64,192,18435,1,2,0:0:0:0:
320,192,18435,1,0,0:0:0:0:
192,192,18494,1,0,0:0:0:0:
448,192,18554,1,0,0:0:0:0:
320,192,18614,1,0,0:0:0:0:
64,192,18674,1,0,0:0:0:0:
192,192,18734,1,0,0:0:0:0:
320,192,18794,1,2,0:0:0:0:
448,192,18794,1,8,0:0:0:0:
64,192,18973,1,0,0:0:0:0:
192,192,19153,1,2,0:0:0:0:
448,192,19153,1,0,0:0:0:0:
320,192,19213,1,0,0:0:0:0:
64,192,19273,1,0,0:0:0:0:
192,192,19333,1,0,0:0:0:0:
448,192,19393,1,0,0:0:0:0:
320,192,19453,1,0,0:0:0:0:
64,192,19512,1,2,0:0:0:0:
192,192,19512,1,8,0:0:0:0:
448,192,19692,1,0,0:0:0:0:
192,192,19872,1,2,0:0:0:0:
320,192,19872,1,0,0:0:0:0:
192,192,20051,1,0,0:0:0:0:
64,192,20231,1,2,0:0:0:0:
320,192,20231,1,8,0:0:0:0:
448,192,20231,128,0,20411:0:0:0:0:
64,192,20411,1,2,0:0:0:0:
192,192,20411,1,0,0:0:0:0:
320,192,20590,1,2,0:0:0:0:
448,192,20590,1,0,0:0:0:0:
64,192,20680,1,0,0:0:0:0:
192,192,20770,1,0,0:0:0:0:
448,192,20860,1,0,0:0:0:0:
64,192,20950,1,2,0:0:0:0:
192,192,20950,1,8,0:0:0:0:
320,192,20950,1,4,0:0:0:0:
448,192,21039,1,0,0:0:0:0:
320,192,21129,1,0,0:0:0:0:
64,192,21219,1,0,0:0:0:0:
192,192,21309,1,2,0:0:0:0:
448,192,21309,1,0,0:0:0:0:
320,192,21399,1,0,0:0:0:0:
64,192,21488,1,0,0:0:0:0:
192,192,21578,1,0,0:0:0:0:
64,192,21668,1,2,0:0:0:0:
320,192,21668,1,8,0:0:0:0:
448,192,21668,1,4,0:0:0:0:
192,192,21758,1,0,0:0:0:0:
320,192,21848,1,0,0:0:0:0:
448,192,21938,1,0,0:0:0:0:
64,192,22027,1,2,0:0:0:0:
192,192,22027,1,0,0:0:0:0:
448,192,22117,1,0,0:0:0:0:
192,192,22207,1,0,0:0:0:0:
320,192,22207,1,0,0:0:0:0:
64,192,22297,1,0,0:0:0:0:
320,192,22387,1,2,0:0:0:0:
448,192,22387,1,8,0:0:0:0:
64,192,22476,1,0,0:0:0:0:
192,192,22566,1,0,0:0:0:0:
448,192,22566,1,0,0:0:0:0:
320,192,22656,1,0,0:0:0:0:
64,192,22746,1,2,0:0:0:0:
192,192,22746,1,8,0:0:0:0:
320,192,22836,1,8,0:0:0:0:
448,192,22836,1,0,0:0:0:0:
64,192,22926,1,8,0:0:0:0:
192,192,22926,1,0,0:0:0:0:
320,192,23015,1,8,0:0:0:0:
448,192,23015,1,0,0:0:0:0:
64,192,23105,1,8,0:0:0:0:
192,192,23105,1,2,0:0:0:0:
320,192,23195,1,8,0:0:0:0:
448,192,23195,1,0,0:0:0:0:
64,192,23285,1,8,0:0:0:0:
192,192,23285,1,0,0:0:0:0:
320,192,23375,1,8,0:0:0:0:
448,192,23375,1,0,0:0:0:0:
64,192,23465,1,2,0:0:0:0:
192,192,23465,1,4,0:0:0:0:
64,192,23644,1,0,0:0:0:0:
192,192,23824,1,2,0:0:0:0:
448,192,23824,1,0,0:0:0:0:
320,192,24003,1,0,0:0:0:0:
64,192,24183,1,2,0:0:0:0:
448,192,24183,1,0,0:0:0:0:
448,192,24363,1,0,0:0:0:0:
64,192,24542,1,2,0:0:0:0:
320,192,24542,1,0,0:0:0:0:
192,192,24722,1,0,0:0:0:0:
64,192,24902,1,2,0:0:0:0:
448,192,24902,1,0,0:0:0:0:
64,192,25081,1,0,0:0:0:0:
192,192,25261,1,2,0:0:0:0:
448,192,25261,1,0,0:0:0:0:
448,192,25441,1,0,0:0:0:0:
64,192,25620,1,2,0:0:0:0:
320,192,25620,1,0,0:0:0:0:
192,192,25800,1,0,0:0:0:0:
64,192,25979,1,2,0:0:0:0:
448,192,25979,1,0,0:0:0:0:
64,192,26159,1,2,0:0:0:0:
320,192,26159,1,0,0:0:0:0:
64,192,26339,1,2,0:0:0:0:
448,192,26339,1,0,0:0:0:0:
192,192,26518,1,0,0:0:0:0:
320,192,26608,1,0,0:0:0:0:
64,192,26698,1,2,0:0:0:0:
448,192,26698,1,0,0:0:0:0:
192,192,26878,1,0,0:0:0:0:
64,192,27057,1,2,0:0:0:0:
448,192,27057,1,0,0:0:0:0:
320,192,27237,1,0,0:0:0:0:
64,192,27417,1,2,0:0:0:0:
448,192,27417,1,0,0:0:0:0:
192,192,27596,1,0,0:0:0:0:
64,192,27776,1,2,0:0:0:0:
448,192,27776,1,0,0:0:0:0:
320,192,27956,1,0,0:0:0:0:
192,192,28045,1,0,0:0:0:0:
64,192,28135,1,2,0:0:0:0:
448,192,28135,1,0,0:0:0:0:
320,192,28315,1,0,0:0:0:0:
64,192,28494,1,2,0:0:0:0:
448,192,28494,1,0,0:0:0:0:
192,192,28674,1,0,0:0:0:0:
64,192,28854,1,2,0:0:0:0:
448,192,28854,1,0,0:0:0:0:
320,192,29033,1,0,0:0:0:0:
64,192,29213,1,2,0:0:0:0:
192,192,29213,1,0,0:0:0:0:
448,192,29213,1,0,0:0:0:0:
448,192,29393,1,0,0:0:0:0:
64,192,29572,1,2,0:0:0:0:
320,192,29572,1,0,0:0:0:0:
192,192,29752,1,0,0:0:0:0:
64,192,29932,1,2,0:0:0:0:
448,192,29932,1,0,0:0:0:0:
64,192,30111,1,0,0:0:0:0:
192,192,30291,1,2,0:0:0:0:
448,192,30291,1,0,0:0:0:0:
320,192,30470,1,0,0:0:0:0:
64,192,30650,1,2,0:0:0:0:
448,192,30650,1,0,0:0:0:0:
448,192,30830,1,0,0:0:0:0:
64,192,31009,1,2,0:0:0:0:
320,192,31009,1,0,0:0:0:0:
64,192,31189,1,0,0:0:0:0:
192,192,31369,1,2,0:0:0:0:
448,192,31369,1,0,0:0:0:0:
320,192,31548,1,0,0:0:0:0:
64,192,31728,1,2,0:0:0:0:
448,192,31728,1,0,0:0:0:0:
192,192,31908,1,2,0:0:0:0:
448,192,31908,1,0,0:0:0:0:
64,192,32087,1,2,0:0:0:0:
448,192,32087,1,0,0:0:0:0:
192,192,32267,1,0,0:0:0:0:
320,192,32357,1,0,0:0:0:0:
64,192,32447,1,2,0:0:0:0:
192,192,32447,1,0,0:0:0:0:
448,192,32626,1,0,0:0:0:0:
192,192,32806,1,2,0:0:0:0:
320,192,32806,1,0,0:0:0:0:
64,192,32985,1,0,0:0:0:0:
192,192,33165,1,2,0:0:0:0:
448,192,33165,1,0,0:0:0:0:
320,192,33345,1,0,0:0:0:0:
64,192,33524,1,2,0:0:0:0:
448,192,33524,1,0,0:0:0:0:
64,192,33704,1,0,0:0:0:0:
192,192,33884,1,2,0:0:0:0:
320,192,33884,1,0,0:0:0:0:
320,192,34063,1,0,0:0:0:0:
64,192,34243,1,2,0:0:0:0:
448,192,34243,1,0,0:0:0:0:
320,192,34333,1,0,0:0:0:0:
64,192,34423,1,0,0:0:0:100:tom01.wav
192,192,34423,1,0,0:0:0:0:
320,192,34512,1,0,0:0:0:0:
64,192,34602,1,2,0:0:0:0:
448,192,34602,1,0,0:0:0:100:tom02.wav
192,192,34692,1,0,0:0:0:0:
320,192,34782,1,0,0:0:0:100:tom04.wav
448,192,34782,1,0,0:0:0:0:
192,192,34872,1,0,0:0:0:0:
64,192,34962,1,2,0:0:0:0:
320,192,34962,1,4,0:0:0:0:
448,192,34962,128,0,35321:0:0:0:0:
192,192,35321,1,0,0:0:0:0:
320,192,35321,128,0,35411:0:0:0:0:
64,192,35500,128,2,35590:0:0:0:0:
320,192,35500,1,0,0:0:0:0:
64,192,35680,1,8,0:0:0:0:
448,192,35680,128,0,36039:0:0:0:0:
64,192,36039,128,0,36219:0:0:0:0:
192,192,36039,1,0,0:0:0:0:
320,192,36219,1,2,0:0:0:0:
448,192,36219,1,0,0:0:0:0:
64,192,36399,1,2,0:0:0:0:
448,192,36399,128,0,36758:0:0:0:0:
320,192,36578,128,0,36758:0:0:0:0:
64,192,36758,1,0,0:0:0:0:
192,192,36758,128,0,37117:0:0:0:0:
320,192,36938,1,2,0:0:0:0:
448,192,36938,1,0,0:0:0:0:
64,192,37117,128,8,37476:0:0:0:0:
448,192,37117,1,0,0:0:0:0:
320,192,37297,1,0,0:0:0:0:
192,192,37476,1,0,0:0:0:0:
320,192,37656,1,0,0:0:0:0:
448,192,37656,1,0,0:0:0:0:
64,192,37836,1,2,0:0:0:0:
192,192,37836,1,4,0:0:0:0:
448,192,37836,1,0,0:0:0:0:
320,192,38015,1,0,0:0:0:0:
64,192,38195,1,2,0:0:0:0:
448,192,38195,1,8,0:0:0:0:
64,192,38375,1,0,0:0:0:0:
192,192,38554,1,2,0:0:0:0:
320,192,38554,1,0,0:0:0:0:
448,192,38734,1,0,0:0:0:0:
64,192,38914,1,2,0:0:0:0:
320,192,38914,1,8,0:0:0:0:
192,192,39093,1,0,0:0:0:0:
64,192,39273,1,2,0:0:0:0:
448,192,39273,1,0,0:0:0:0:
320,192,39453,1,0,0:0:0:0:
64,192,39632,1,2,0:0:0:0:
192,192,39632,1,8,0:0:0:0:
320,192,39812,1,0,0:0:0:0:
64,192,39991,1,2,0:0:0:0:
448,192,39991,1,0,0:0:0:0:
320,192,40081,1,0,0:0:0:0:
64,192,40171,1,8,0:0:0:0:
192,192,40171,1,0,0:0:0:0:
320,192,40261,1,0,0:0:0:0:
64,192,40351,1,8,0:0:0:0:
448,192,40351,1,2,0:0:0:0:
320,192,40441,1,0,0:0:0:0:
64,192,40530,1,8,0:0:0:0:
192,192,40530,1,0,0:0:0:0:
320,192,40620,1,0,0:0:0:0:
64,192,40710,128,2,41069:0:0:0:0:
192,192,40710,1,4,0:0:0:0:
448,192,40710,1,0,0:0:0:0:
192,192,41069,128,0,41159:0:0:0:0:
320,192,41069,1,0,0:0:0:0:
192,192,41249,1,2,0:0:0:0:
448,192,41249,128,0,41339:0:0:0:0:
64,192,41429,128,8,41608:0:0:0:0:
448,192,41429,1,0,0:0:0:0:
320,192,41788,1,0,0:0:0:0:
448,192,41788,128,0,41968:0:0:0:0:
64,192,41968,1,2,0:0:0:0:
192,192,41968,1,0,0:0:0:0:
64,192,42147,128,2,42506:0:0:0:0:
448,192,42147,1,0,0:0:0:0:
192,192,42327,128,0,42506:0:0:0:0:
320,192,42506,128,0,42866:0:0:0:0:
448,192,42506,1,0,0:0:0:0:
64,192,42686,1,2,0:0:0:0:
448,192,42686,128,0,42866:0:0:0:0:
64,192,42866,128,8,43225:0:0:0:0:
192,192,42866,1,0,0:0:0:0:
320,192,43045,1,0,0:0:0:0:
448,192,43135,1,0,0:0:0:0:
192,192,43225,1,0,0:0:0:0:
320,192,43405,1,0,0:0:0:0:
448,192,43405,1,0,0:0:0:0:
64,192,43584,1,2,0:0:0:0:
192,192,43584,1,4,0:0:0:0:
448,192,43584,128,0,43944:0:0:0:0:
64,192,43764,128,0,43944:0:0:0:0:
192,192,43944,128,2,44303:0:0:0:0:
320,192,43944,1,8,0:0:0:0:
320,192,44123,128,0,44303:0:0:0:0:
64,192,44303,128,2,44662:0:0:0:0:
448,192,44303,1,0,0:0:0:0:
448,192,44482,128,0,44662:0:0:0:0:
192,192,44662,1,2,0:0:0:0:
320,192,44662,128,8,45021:0:0:0:0:
192,192,44842,128,0,45021:0:0:0:0:
64,192,45021,1,2,0:0:0:0:
448,192,45021,1,0,0:0:0:0:
64,192,45201,128,0,45381:0:0:0:0:
320,192,45381,1,2,0:0:0:0:
448,192,45381,128,8,45560:0:0:0:0:
192,192,45560,128,0,45740:0:0:0:0:
64,192,45740,1,2,0:0:0:0:
448,192,45740,128,0,45920:0:0:0:0:
320,192,45920,128,0,46099:0:0:0:0:
64,192,46099,128,2,46279:0:0:0:0:
192,192,46099,1,8,0:0:0:0:
320,192,46279,1,2,0:0:0:0:
448,192,46279,128,0,46459:0:0:0:0:
64,192,46459,1,2,0:0:0:0:
192,192,46459,128,0,46818:0:0:0:0:
320,192,46818,1,8,0:0:0:0:
448,192,46818,1,0,0:0:0:0:
64,192,46997,1,2,0:0:0:0:
320,192,46997,1,0,0:0:0:0:
64,192,47177,1,2,0:0:0:0:
448,192,47177,128,0,47536:0:0:0:0:
192,192,47536,1,8,0:0:0:0:
320,192,47536,1,0,0:0:0:0:
192,192,47716,1,2,0:0:0:0:
448,192,47716,1,0,0:0:0:0:
64,192,47896,128,2,48255:0:0:0:0:
448,192,47896,1,0,0:0:0:0:
320,192,48075,1,0,0:0:0:0:
320,192,48255,1,0,0:0:0:0:
64,192,48435,1,0,0:0:0:0:
192,192,48494,1,0,0:0:0:0:
448,192,48554,1,0,0:0:0:0:
64,192,48614,1,0,0:0:0:50:clap.wav
320,192,48614,1,0,0:0:0:0:
192,192,48794,1,0,0:0:0:0:
64,192,48973,1,0,0:0:0:50:clap.wav
448,192,48973,1,0,0:0:0:0:
64,192,49333,128,2,49602:0:0:0:0:
192,192,49333,1,4,0:0:0:0:
448,192,49333,1,0,0:0:0:0:
192,192,49512,128,0,49782:0:0:0:0:
320,192,49512,1,0,0:0:0:0:
64,192,49692,128,2,49782:0:0:0:0:
320,192,49692,128,8,49962:0:0:0:0:
448,192,49692,1,0,0:0:0:0:
64,192,49872,1,0,0:0:0:0:
320,192,50051,1,2,0:0:0:0:
448,192,50051,128,0,50321:0:0:0:0:
192,192,50231,1,0,0:0:0:0:
320,192,50231,128,0,50500:0:0:0:0:
64,192,50411,1,2,0:0:0:0:
192,192,50411,128,8,50680:0:0:0:0:
448,192,50411,128,0,50500:0:0:0:0:
448,192,50590,1,0,0:0:0:0:
64,192,50770,128,2,50860:0:0:0:0:
192,192,50770,1,0,0:0:0:0:
448,192,50860,128,0,50950:0:0:0:0:
192,192,50950,128,0,51039:0:0:0:0:
320,192,50950,1,0,0:0:0:0:
448,192,51039,128,0,51219:0:0:0:0:
64,192,51129,128,2,51219:0:0:0:0:
192,192,51129,1,8,0:0:0:0:
320,192,51219,128,0,51309:0:0:0:0:
64,192,51309,128,0,51488:0:0:0:0:
192,192,51309,1,0,0:0:0:0:
320,192,51399,128,0,51488:0:0:0:0:
192,192,51488,128,2,51578:0:0:0:0:
448,192,51488,128,0,51758:0:0:0:0:
192,192,51668,128,0,51848:0:0:0:0:
64,192,51848,1,2,0:0:0:0:
320,192,51848,1,8,0:0:0:0:
448,192,51848,1,0,0:0:0:0:
192,192,52027,1,2,0:0:0:0:
448,192,52027,1,0,0:0:0:0:
64,192,52207,128,2,52297:0:0:0:0:
320,192,52207,128,0,52476:0:0:0:0:
192,192,52387,128,0,52656:0:0:0:0:
448,192,52387,128,0,52476:0:0:0:0:
64,192,52566,128,2,52836:0:0:0:0:
320,192,52566,128,8,52656:0:0:0:0:
448,192,52566,1,0,0:0:0:0:
192,192,52746,128,0,52836:0:0:0:0:
448,192,52746,128,0,53015:0:0:0:0:
64,192,52926,1,2,0:0:0:0:
320,192,52926,128,0,53195:0:0:0:0:
192,192,53015,128,0,53195:0:0:0:0:
64,192,53105,128,0,53195:0:0:0:0:
64,192,53285,1,2,0:0:0:0:
320,192,53285,1,8,0:0:0:0:
448,192,53285,128,0,53554:0:0:0:0:
192,192,53465,128,0,53554:0:0:0:0:
64,192,53644,128,2,53914:0:0:0:0:
448,192,53644,1,0,0:0:0:0:
192,192,53734,128,0,53914:0:0:0:0:
320,192,53824,128,0,53914:0:0:0:0:
64,192,54003,1,2,0:0:0:0:
192,192,54003,128,8,54273:0:0:0:0:
448,192,54003,1,0,0:0:0:0:
320,192,54093,128,0,54273:0:0:0:0:
448,192,54183,128,0,54273:0:0:0:0:
64,192,54363,128,2,54722:0:0:0:0:
448,192,54363,128,0,54722:0:0:0:0:
192,192,54542,1,8,0:0:0:0:
320,192,54542,1,0,0:0:0:0:
192,192,54722,1,8,0:0:0:0:
320,192,54722,1,2,0:0:0:0:
64,192,54902,1,8,0:0:0:0:
448,192,54902,1,0,0:0:0:0:
320,192,54991,1,8,0:0:0:0:
64,192,55081,1,2,0:0:0:0:
192,192,55081,1,4,0:0:0:0:
448,192,55081,1,0,0:0:0:0:
320,192,55171,1,0,0:0:0:0:
64,192,55261,1,0,0:0:0:0:
448,192,55261,1,0,0:0:0:0:
192,192,55351,1,0,0:0:0:0:
64,192,55441,1,2,0:0:0:0:
320,192,55441,1,8,0:0:0:0:
448,192,55441,1,0,0:0:0:0:
192,192,55620,1,0,0:0:0:0:
64,192,55800,1,2,0:0:0:0:
448,192,55800,1,0,0:0:0:0:
320,192,55890,1,0,0:0:0:0:
64,192,55979,1,0,0:0:0:0:
448,192,55979,1,0,0:0:0:0:
192,192,56069,1,0,0:0:0:0:
64,192,56159,1,2,0:0:0:0:
320,192,56159,1,8,0:0:0:0:
448,192,56159,1,0,0:0:0:0:
192,192,56339,1,0,0:0:0:0:
64,192,56518,128,2,56608:0:0:0:0:
320,192,56518,128,0,56788:0:0:0:0:
192,192,56698,128,0,56968:0:0:0:0:
448,192,56698,128,0,56788:0:0:0:0:
64,192,56878,128,2,57147:0:0:0:0:
320,192,56878,128,8,56968:0:0:0:0:
448,192,56878,1,0,0:0:0:0:
192,192,57057,128,0,57147:0:0:0:0:
448,192,57057,128,0,57417:0:0:0:0:
64,192,57237,1,2,0:0:0:0:
320,192,57237,128,0,57417:0:0:0:0:
192,192,57417,1,0,0:0:0:0:
64,192,57596,1,2,0:0:0:0:
320,192,57596,1,8,0:0:0:0:
448,192,57596,1,0,0:0:0:0:
64,192,57776,1,2,0:0:0:0:
320,192,57776,1,0,0:0:0:0:
192,192,57956,128,2,58195:0:0:0:0:
448,192,57956,128,0,58075:0:0:0:0:
64,192,58135,1,0,0:0:0:0:
448,192,58195,1,0,0:0:0:0:
320,192,58255,1,0,0:0:0:0:
64,192,58315,128,8,58494:0:0:0:0:
192,192,58315,128,2,58494:0:0:0:0:
448,192,58315,1,0,0:0:0:0:
320,192,58494,1,0,0:0:0:0:
64,192,58674,128,2,58794:0:0:0:0:
448,192,58674,128,0,58914:0:0:0:0:
320,192,58854,1,0,0:0:0:0:
64,192,58914,1,0,0:0:0:0:
192,192,58973,1,0,0:0:0:0:
64,192,59033,1,2,0:0:0:0:
320,192,59033,128,8,59213:0:0:0:0:
448,192,59033,128,0,59213:0:0:0:0:
192,192,59213,1,0,0:0:0:0:
64,192,59393,1,2,0:0:0:0:
320,192,59393,1,4,0:0:0:0:
448,192,59393,1,0,0:0:0:0:
192,192,59572,1,0,0:0:0:0:
448,192,59572,1,0,0:0:0:0:
64,192,59752,1,2,0:0:0:0:
192,192,59752,1,8,0:0:0:0:
320,192,59752,1,4,0:0:0:0:
64,192,59932,1,0,0:0:0:0:
448,192,59932,1,0,0:0:0:0:
320,192,60111,1,10,0:0:0:0:
448,192,60111,1,4,0:0:0:0:
64,192,60201,1,8,0:0:0:0:
192,192,60201,1,0,0:0:0:0:
320,192,60291,1,8,0:0:0:0:
448,192,60291,1,0,0:0:0:0:
64,192,60381,1,8,0:0:0:0:
192,192,60381,1,0,0:0:0:0:
320,192,60470,1,8,0:0:0:0:
448,192,60470,1,2,0:0:0:0:
64,192,60560,1,8,0:0:0:0:
192,192,60560,1,0,0:0:0:0:
320,192,60650,1,8,0:0:0:0:
448,192,60650,1,0,0:0:0:0:
64,192,60740,1,8,0:0:0:0:
192,192,60740,1,0,0:0:0:0:
320,192,60830,1,2,0:0:0:0:
448,192,60830,128,4,61099:0:0:0:0:
192,192,61009,1,0,0:0:0:0:
320,192,61009,128,0,61279:0:0:0:0:
64,192,61189,1,2,0:0:0:0:
192,192,61189,128,8,61459:0:0:0:0:
448,192,61189,128,0,61279:0:0:0:0:
448,192,61369,1,0,0:0:0:0:
64,192,61548,128,2,61818:0:0:0:0:
192,192,61548,1,0,0:0:0:0:
192,192,61728,128,0,61997:0:0:0:0:
320,192,61728,1,0,0:0:0:0:
64,192,61908,128,2,61997:0:0:0:0:
320,192,61908,128,8,62177:0:0:0:0:
448,192,61908,1,0,0:0:0:0:
64,192,62087,1,0,0:0:0:0:
320,192,62267,1,2,0:0:0:0:
448,192,62267,128,0,62357:0:0:0:0:
64,192,62357,128,0,62447:0:0:0:0:
192,192,62447,1,0,0:0:0:0:
320,192,62447,128,0,62536:0:0:0:0:
64,192,62536,128,0,62716:0:0:0:0:
320,192,62626,1,2,0:0:0:0:
448,192,62626,128,8,62716:0:0:0:0:
192,192,62716,128,0,62806:0:0:0:0:
320,192,62806,1,0,0:0:0:0:
448,192,62806,128,0,62985:0:0:0:0:
192,192,62896,128,0,62985:0:0:0:0:
64,192,62985,128,2,63255:0:0:0:0:
320,192,62985,128,0,63075:0:0:0:0:
320,192,63165,128,0,63345:0:0:0:0:
64,192,63345,1,2,0:0:0:0:
192,192,63345,1,8,0:0:0:0:
448,192,63345,1,0,0:0:0:0:
64,192,63524,1,2,0:0:0:0:
320,192,63524,1,0,0:0:0:0:
192,192,63704,128,2,63973:0:0:0:0:
448,192,63704,128,0,63794:0:0:0:0:
64,192,63884,128,0,63973:0:0:0:0:
320,192,63884,128,0,64153:0:0:0:0:
64,192,64063,1,2,0:0:0:0:
192,192,64063,128,8,64153:0:0:0:0:
448,192,64063,128,0,64333:0:0:0:0:
64,192,64243,128,0,64512:0:0:0:0:
320,192,64243,128,0,64333:0:0:0:0:
192,192,64423,128,2,64692:0:0:0:0:
448,192,64423,1,0,0:0:0:0:
320,192,64512,128,0,64692:0:0:0:0:
448,192,64602,128,0,64692:0:0:0:0:
64,192,64782,128,2,65051:0:0:0:0:
192,192,64782,1,8,0:0:0:0:
448,192,64782,1,0,0:0:0:0:
320,192,64962,128,0,65051:0:0:0:0:
64,192,65141,1,2,0:0:0:0:
448,192,65141,128,0,65411:0:0:0:0:
320,192,65231,128,0,65411:0:0:0:0:
192,192,65321,128,0,65411:0:0:0:0:
64,192,65500,1,2,0:0:0:0:
320,192,65500,128,8,65770:0:0:0:0:
448,192,65500,1,0,0:0:0:0:
192,192,65590,128,0,65770:0:0:0:0:
64,192,65680,128,0,65770:0:0:0:0:
64,192,65860,128,2,66219:0:0:0:0:
448,192,65860,128,0,66219:0:0:0:0:
192,192,66039,1,8,0:0:0:0:
320,192,66039,1,0,0:0:0:0:
192,192,66219,1,8,0:0:0:0:
320,192,66219,1,2,0:0:0:0:
64,192,66399,1,8,0:0:0:0:
448,192,66399,1,0,0:0:0:0:
192,192,66488,1,8,0:0:0:0:
64,192,66578,1,2,0:0:0:0:
320,192,66578,1,4,0:0:0:0:
448,192,66578,1,0,0:0:0:0:
192,192,66668,1,0,0:0:0:0:
64,192,66758,1,0,0:0:0:0:
448,192,66758,1,0,0:0:0:0:
320,192,66848,1,0,0:0:0:0:
64,192,66938,1,2,0:0:0:0:
192,192,66938,1,8,0:0:0:0:
448,192,66938,1,0,0:0:0:0:
320,192,67117,1,0,0:0:0:0:
64,192,67297,1,2,0:0:0:0:
448,192,67297,1,0,0:0:0:0:
192,192,67387,1,0,0:0:0:0:
64,192,67476,1,0,0:0:0:0:
448,192,67476,1,0,0:0:0:0:
320,192,67566,1,0,0:0:0:0:
64,192,67656,1,2,0:0:0:0:
192,192,67656,1,8,0:0:0:0:
448,192,67656,1,0,0:0:0:0:
64,192,67836,1,0,0:0:0:0:
320,192,67836,1,0,0:0:0:0:
192,192,68015,128,2,68285:0:0:0:0:
448,192,68015,128,0,68105:0:0:0:0:
64,192,68195,128,0,68285:0:0:0:0:
320,192,68195,128,0,68465:0:0:0:0:
64,192,68375,1,8,0:0:0:0:
192,192,68375,128,2,68465:0:0:0:0:
448,192,68375,128,0,68644:0:0:0:0:
64,192,68554,128,0,68914:0:0:0:0:
320,192,68554,128,0,68644:0:0:0:0:
192,192,68734,128,2,68914:0:0:0:0:
448,192,68734,1,0,0:0:0:0:
320,192,68914,1,0,0:0:0:0:
64,192,69093,1,2,0:0:0:0:
192,192,69093,1,8,0:0:0:0:
448,192,69093,1,0,0:0:0:0:
64,192,69273,1,2,0:0:0:0:
320,192,69273,1,0,0:0:0:0:
192,192,69453,128,2,69692:0:0:0:0:
448,192,69453,128,0,69572:0:0:0:0:
64,192,69632,1,0,0:0:0:0:
448,192,69692,1,0,0:0:0:0:
320,192,69752,1,0,0:0:0:0:
64,192,69812,128,2,69991:0:0:0:0:
192,192,69812,128,8,69991:0:0:0:0:
448,192,69812,1,0,0:0:0:0:
320,192,69991,1,0,0:0:0:0:
64,192,70171,128,2,70291:0:0:0:0:
448,192,70171,128,0,70411:0:0:0:0:
320,192,70351,1,0,0:0:0:0:
64,192,70411,1,0,0:0:0:0:
192,192,70470,1,0,0:0:0:0:
64,192,70530,1,2,0:0:0:0:
320,192,70530,128,8,70710:0:0:0:0:
448,192,70530,128,0,70710:0:0:0:0:
192,192,70710,1,0,0:0:0:0:
64,192,70890,1,2,0:0:0:0:
320,192,70890,1,4,0:0:0:0:
448,192,70890,1,0,0:0:0:0:
192,192,71069,1,0,0:0:0:0:
448,192,71069,1,0,0:0:0:0:
64,192,71249,1,2,0:0:0:0:
192,192,71249,1,8,0:0:0:0:
320,192,71249,1,4,0:0:0:0:
64,192,71429,1,0,0:0:0:0:
448,192,71429,1,0,0:0:0:0:
64,192,71608,1,6,0:0:0:0:
192,192,71608,1,8,0:0:0:0:
320,192,71698,1,8,0:0:0:0:
448,192,71698,1,0,0:0:0:0:
64,192,71788,1,8,0:0:0:0:
192,192,71788,1,0,0:0:0:0:
320,192,71878,1,8,0:0:0:0:
448,192,71878,1,0,0:0:0:0:
64,192,71968,1,8,0:0:0:0:
192,192,71968,1,2,0:0:0:0:
320,192,72057,1,8,0:0:0:0:
448,192,72057,1,0,0:0:0:0:
64,192,72147,1,8,0:0:0:0:
192,192,72147,1,0,0:0:0:0:
320,192,72237,1,8,0:0:0:0:
448,192,72237,1,0,0:0:0:0:
64,192,72327,128,2,72866:0:0:0:0:
192,192,72327,1,4,0:0:0:0:
448,192,72327,1,0,0:0:0:0:
448,192,72686,1,0,0:0:0:0:
192,192,72866,1,2,0:0:0:0:
320,192,72866,1,0,0:0:0:0:
192,192,73045,1,8,0:0:0:0:
448,192,73045,128,0,73584:0:0:0:0:
64,192,73405,1,0,0:0:0:0:
192,192,73584,1,2,0:0:0:0:
320,192,73584,1,0,0:0:0:0:
64,192,73764,128,2,74303:0:0:0:0:
320,192,73764,1,0,0:0:0:0:
448,192,74123,1,0,0:0:0:0:
192,192,74303,1,2,0:0:0:0:
320,192,74303,1,0,0:0:0:0:
192,192,74482,1,8,0:0:0:0:
448,192,74482,128,0,74842:0:0:0:0:
64,192,74842,1,0,0:0:0:0:
320,192,75021,1,2,0:0:0:0:
448,192,75021,1,0,0:0:0:0:
64,192,75201,1,2,0:0:0:0:
192,192,75201,1,4,0:0:0:0:
448,192,75261,1,0,0:0:0:0:
320,192,75321,1,0,0:0:0:0:
64,192,75381,1,0,0:0:0:0:
192,192,75441,1,0,0:0:0:0:
320,192,75500,1,0,0:0:0:0:
448,192,75560,1,0,0:0:0:0:
192,192,75620,1,0,0:0:0:0:
64,192,75680,1,0,0:0:0:0:
320,192,75740,1,2,0:0:0:0:
448,192,75740,1,0,0:0:0:0:
64,192,75920,128,8,76279:0:0:0:0:
192,192,75920,1,0,0:0:0:0:
320,192,76279,1,0,0:0:0:0:
64,192,76459,1,2,0:0:0:0:
192,192,76459,1,0,0:0:0:0:
320,192,76638,1,2,0:0:0:0:
448,192,76638,1,4,0:0:0:0:
64,192,76698,1,0,0:0:0:0:
192,192,76758,1,0,0:0:0:0:
448,192,76818,1,0,0:0:0:0:
320,192,76878,1,0,0:0:0:0:
192,192,76938,1,0,0:0:0:0:
64,192,76997,1,0,0:0:0:0:
320,192,77057,1,0,0:0:0:0:
448,192,77117,1,0,0:0:0:0:
64,192,77177,1,2,0:0:0:0:
192,192,77177,1,0,0:0:0:0:
320,192,77357,1,8,0:0:0:0:
448,192,77357,128,0,77716:0:0:0:0:
192,192,77716,1,0,0:0:0:0:
64,192,77896,1,2,0:0:0:0:
320,192,77896,1,0,0:0:0:0:
64,192,78075,128,2,78614:0:0:0:0:
192,192,78075,1,4,0:0:0:0:
320,192,78075,1,0,0:0:0:0:
448,192,78435,1,0,0:0:0:0:
192,192,78614,1,2,0:0:0:0:
320,192,78614,1,0,0:0:0:0:
192,192,78794,1,8,0:0:0:0:
448,192,78794,128,0,79333:0:0:0:0:
64,192,79153,1,0,0:0:0:0:
192,192,79333,1,2,0:0:0:0:
320,192,79333,1,0,0:0:0:0:
64,192,79512,128,2,80051:0:0:0:0:
320,192,79512,1,0,0:0:0:0:
448,192,79872,1,0,0:0:0:0:
192,192,80051,1,2,0:0:0:0:
320,192,80051,1,0,0:0:0:0:
192,192,80231,1,8,0:0:0:0:
448,192,80231,128,0,80770:0:0:0:0:
320,192,80590,1,0,0:0:0:0:
64,192,80770,1,2,0:0:0:0:
192,192,80770,1,0,0:0:0:0:
320,192,80950,1,2,0:0:0:0:
448,192,80950,1,0,0:0:0:0:
64,192,81009,1,0,0:0:0:0:
192,192,81069,1,0,0:0:0:0:
448,192,81129,1,0,0:0:0:0:
320,192,81189,1,0,0:0:0:0:
192,192,81249,1,0,0:0:0:0:
64,192,81309,1,0,0:0:0:0:
320,192,81369,1,0,0:0:0:0:
448,192,81429,1,0,0:0:0:0:
64,192,81488,1,2,0:0:0:0:
192,192,81488,1,0,0:0:0:0:
192,192,81668,1,8,0:0:0:0:
320,192,81668,128,4,82027:0:0:0:0:
448,192,81668,1,0,0:0:0:0:
64,192,82027,1,0,0:0:0:0:
320,192,82207,1,2,0:0:0:0:
448,192,82207,1,0,0:0:0:0:
64,192,82387,1,2,0:0:0:0:
192,192,82387,1,0,0:0:0:0:
448,192,82447,1,0,0:0:0:0:
320,192,82506,1,0,0:0:0:0:
64,192,82566,1,0,0:0:0:0:
192,192,82626,1,0,0:0:0:0:
320,192,82686,1,0,0:0:0:0:
448,192,82746,1,0,0:0:0:0:
192,192,82806,1,0,0:0:0:0:
64,192,82866,1,0,0:0:0:0:
320,192,82926,1,2,0:0:0:0:
448,192,82926,1,0,0:0:0:0:
64,192,83105,1,4,0:0:0:0:
192,192,83105,1,8,0:0:0:0:
320,192,83105,128,0,83465:0:0:0:0:
192,192,83285,1,8,0:0:0:0:
192,192,83465,1,8,0:0:0:0:
192,192,83644,1,8,0:0:0:0:
64,192,83824,128,2,84183:0:0:0:0:
320,192,83824,1,0,0:0:0:0:
448,192,83824,1,0,0:0:0:0:
448,192,84003,1,0,0:0:0:0:
192,192,84183,1,2,0:0:0:0:
320,192,84183,1,8,0:0:0:0:
320,192,84363,1,0,0:0:0:0:
192,192,84542,1,2,0:0:0:0:
448,192,84542,128,0,84722:0:0:0:0:
192,192,84722,1,0,0:0:0:0:
64,192,84902,1,2,0:0:0:0:
320,192,84902,128,8,85081:0:0:0:0:
448,192,84902,1,0,0:0:0:0:
64,192,85081,1,0,0:0:0:0:
192,192,85261,1,2,0:0:0:0:
448,192,85261,128,0,85620:0:0:0:0:
192,192,85441,1,0,0:0:0:0:
64,192,85620,1,2,0:0:0:0:
320,192,85620,1,8,0:0:0:0:
320,192,85800,1,0,0:0:0:0:
192,192,85890,1,0,0:0:0:0:
64,192,85979,1,2,0:0:0:0:
320,192,85979,128,0,86159:0:0:0:0:
448,192,85979,128,0,86069:0:0:0:0:
192,192,86069,128,0,86249:0:0:0:0:
64,192,86159,128,0,86339:0:0:0:0:
448,192,86159,1,0,0:0:0:0:
320,192,86249,128,0,86429:0:0:0:0:
192,192,86339,1,2,0:0:0:0:
448,192,86339,128,8,86518:0:0:0:0:
64,192,86429,128,0,86608:0:0:0:0:
192,192,86518,128,2,86698:0:0:0:0:
320,192,86518,1,0,0:0:0:0:
448,192,86608,128,0,86698:0:0:0:0:
64,192,86698,128,2,87237:0:0:0:0:
320,192,86698,1,4,0:0:0:0:
448,192,86878,1,0,0:0:0:0:
192,192,87057,1,2,0:0:0:0:
320,192,87057,1,8,0:0:0:0:
192,192,87237,1,0,0:0:0:0:
64,192,87417,1,2,0:0:0:0:
320,192,87417,128,0,87596:0:0:0:0:
64,192,87596,1,0,0:0:0:0:
192,192,87776,128,2,87956:0:0:0:0:
320,192,87776,1,8,0:0:0:0:
448,192,87776,1,0,0:0:0:0:
320,192,87956,1,0,0:0:0:0:
64,192,88135,1,2,0:0:0:0:
448,192,88135,128,0,88674:0:0:0:0:
64,192,88315,1,0,0:0:0:0:
192,192,88494,1,2,0:0:0:0:
320,192,88494,1,8,0:0:0:0:
192,192,88674,1,0,0:0:0:0:
320,192,88764,1,0,0:0:0:0:
64,192,88854,128,2,88944:0:0:0:0:
192,192,88854,128,0,89033:0:0:0:0:
448,192,88854,1,0,0:0:0:0:
320,192,88944,128,0,89123:0:0:0:0:
64,192,89033,1,8,0:0:0:0:
448,192,89033,128,0,89213:0:0:0:0:
192,192,89123,128,0,89303:0:0:0:0:
64,192,89213,128,8,89393:0:0:0:0:
320,192,89213,1,2,0:0:0:0:
448,192,89303,128,0,89482:0:0:0:0:
192,192,89393,1,8,0:0:0:0:
320,192,89393,128,0,89572:0:0:0:0:
64,192,89482,128,8,89572:0:0:0:0:
192,192,89572,1,2,0:0:0:0:
448,192,89572,128,4,90111:0:0:0:0:
64,192,89752,1,0,0:0:0:0:
192,192,89932,1,2,0:0:0:0:
320,192,89932,1,8,0:0:0:0:
64,192,90111,1,0,0:0:0:0:
192,192,90291,128,2,90470:0:0:0:0:
320,192,90291,1,0,0:0:0:0:
320,192,90470,1,0,0:0:0:0:
64,192,90650,128,2,90830:0:0:0:0:
192,192,90650,1,8,0:0:0:0:
448,192,90650,1,0,0:0:0:0:
448,192,90830,1,0,0:0:0:0:
192,192,91009,1,2,0:0:0:0:
320,192,91009,128,0,91189:0:0:0:0:
192,192,91189,1,0,0:0:0:0:
64,192,91369,1,2,0:0:0:0:
320,192,91369,1,8,0:0:0:0:
448,192,91369,128,0,91548:0:0:0:0:
64,192,91548,1,0,0:0:0:0:
192,192,91728,1,2,0:0:0:0:
320,192,91728,128,4,91908:0:0:0:0:
448,192,91728,1,0,0:0:0:0:
192,192,91908,1,0,0:0:0:0:
64,192,92087,128,2,92267:0:0:0:0:
320,192,92087,1,8,0:0:0:0:
448,192,92087,1,0,0:0:0:0:
320,192,92267,1,2,0:0:0:0:
448,192,92267,1,0,0:0:0:0:
64,192,92447,1,2,0:0:0:0:
192,192,92447,1,0,0:0:0:0:
320,192,92536,1,0,0:0:0:0:
192,192,92626,1,0,0:0:0:0:
448,192,92626,1,0,0:0:0:0:
320,192,92716,1,0,0:0:0:0:
64,192,92806,1,2,0:0:0:0:
448,192,92806,1,8,0:0:0:0:
192,192,92896,1,0,0:0:0:0:
64,192,92985,1,0,0:0:0:0:
320,192,92985,1,0,0:0:0:0:
192,192,93075,1,0,0:0:0:0:
320,192,93165,1,2,0:0:0:0:
448,192,93165,1,0,0:0:0:0:
192,192,93255,1,0,0:0:0:0:
64,192,93345,1,0,0:0:0:0:
448,192,93345,1,0,0:0:0:0:
320,192,93435,1,0,0:0:0:0:
64,192,93524,1,2,0:0:0:0:
192,192,93524,1,8,0:0:0:0:
320,192,93614,1,0,0:0:0:0:
64,192,93704,1,0,0:0:0:0:
448,192,93704,1,0,0:0:0:0:
192,192,93794,1,0,0:0:0:0:
320,192,93884,1,2,0:0:0:0:
448,192,93884,1,0,0:0:0:0:
64,192,93973,1,0,0:0:0:0:
192,192,94063,1,0,0:0:0:0:
320,192,94063,1,0,0:0:0:0:
64,192,94153,1,0,0:0:0:0:
192,192,94243,1,2,0:0:0:0:
448,192,94243,1,8,0:0:0:0:
320,192,94333,1,0,0:0:0:0:
64,192,94423,1,0,0:0:0:0:
192,192,94423,1,0,0:0:0:0:
320,192,94512,1,0,0:0:0:0:
64,192,94602,1,2,0:0:0:0:
448,192,94602,1,8,0:0:0:0:
192,192,94692,1,8,0:0:0:0:
320,192,94692,1,0,0:0:0:0:
64,192,94782,1,8,0:0:0:0:
448,192,94782,1,0,0:0:0:0:
192,192,94872,1,8,0:0:0:0:
320,192,94872,1,0,0:0:0:0:
64,192,94962,1,8,0:0:0:0:
448,192,94962,1,2,0:0:0:0:
192,192,95051,1,8,0:0:0:0:
320,192,95051,1,0,0:0:0:0:
64,192,95141,1,8,0:0:0:0:
448,192,95141,1,0,0:0:0:0:
192,192,95231,1,8,0:0:0:0:
320,192,95231,1,0,0:0:0:0:
64,192,95321,1,2,0:0:0:0:
448,192,95321,128,4,96758:0:0:0:0:
192,192,95500,1,0,0:0:0:0:
64,192,95680,1,2,0:0:0:0:
320,192,95680,1,0,0:0:0:0:
192,192,95860,1,0,0:0:0:0:
64,192,96039,1,2,0:0:0:0:
320,192,96039,1,0,0:0:0:0:
192,192,96219,1,0,0:0:0:0:
64,192,96399,1,2,0:0:0:0:
320,192,96399,1,0,0:0:0:0:
192,192,96578,1,0,0:0:0:0:
320,192,96668,1,0,0:0:0:0:
64,192,96758,128,2,98195:0:0:0:0:
192,192,96758,1,0,0:0:0:0:
320,192,96938,1,0,0:0:0:0:
192,192,97117,1,2,0:0:0:0:
448,192,97117,1,0,0:0:0:0:
320,192,97297,1,0,0:0:0:0:
192,192,97476,1,2,0:0:0:0:
448,192,97476,1,0,0:0:0:0:
320,192,97656,1,0,0:0:0:0:
192,192,97836,1,2,0:0:0:0:
448,192,97836,1,0,0:0:0:0:
192,192,98015,1,2,0:0:0:0:
320,192,98015,1,0,0:0:0:0:
320,192,98195,1,2,0:0:0:0:
448,192,98195,128,0,99632:0:0:0:0:
192,192,98375,1,0,0:0:0:0:
64,192,98554,1,2,0:0:0:0:
320,192,98554,1,0,0:0:0:0:
192,192,98734,1,0,0:0:0:0:
64,192,98914,1,2,0:0:0:0:
320,192,98914,1,0,0:0:0:0:
192,192,99093,1,0,0:0:0:0:
64,192,99273,1,2,0:0:0:0:
320,192,99273,1,0,0:0:0:0:
192,192,99453,1,0,0:0:0:0:
64,192,99542,1,0,0:0:0:0:
192,192,99632,1,2,0:0:0:0:
320,192,99632,128,0,100351:0:0:0:0:
64,192,99812,1,0,0:0:0:0:
192,192,99991,1,2,0:0:0:0:
448,192,99991,1,0,0:0:0:0:
64,192,100171,1,0,0:0:0:0:
192,192,100351,128,2,101069:0:0:0:0:
448,192,100351,1,0,0:0:0:0:
64,192,100530,1,8,0:0:0:0:
320,192,100530,1,0,0:0:0:0:
64,192,100710,1,2,0:0:0:0:
448,192,100710,1,0,0:0:0:0:
320,192,100890,1,8,0:0:0:0:
448,192,100979,1,8,0:0:0:0:
64,192,101069,1,2,0:0:0:0:
320,192,101069,1,4,0:0:0:0:
192,192,101249,1,0,0:0:0:0:
64,192,101429,1,8,0:0:0:0:
320,192,101429,1,2,0:0:0:0:
448,192,101429,1,0,0:0:0:0:
192,192,101608,1,0,0:0:0:0:
320,192,101788,1,2,0:0:0:0:
448,192,101788,1,0,0:0:0:0:
192,192,101968,1,0,0:0:0:0:
64,192,102147,1,2,0:0:0:0:
320,192,102147,1,8,0:0:0:0:
448,192,102147,1,0,0:0:0:0:
192,192,102327,1,0,0:0:0:0:
64,192,102506,1,2,0:0:0:0:
448,192,102506,1,0,0:0:0:0:
320,192,102686,1,0,0:0:0:0:
64,192,102866,1,2,0:0:0:0:
192,192,102866,1,8,0:0:0:0:
448,192,102866,1,0,0:0:0:0:
320,192,103045,1,0,0:0:0:0:
64,192,103225,1,2,0:0:0:0:
192,192,103225,1,0,0:0:0:0:
320,192,103405,1,0,0:0:0:0:
64,192,103584,1,2,0:0:0:0:
192,192,103584,1,8,0:0:0:0:
448,192,103584,1,0,0:0:0:0:
64,192,103764,1,2,0:0:0:0:
320,192,103764,1,0,0:0:0:0:
64,192,103944,1,2,0:0:0:0:
448,192,103944,1,0,0:0:0:0:
320,192,104123,1,0,0:0:0:0:
192,192,104213,1,0,0:0:0:0:
64,192,104303,1,2,0:0:0:0:
320,192,104303,1,8,0:0:0:0:
448,192,104303,1,0,0:0:0:0:
448,192,104482,1,0,0:0:0:0:
192,192,104662,1,2,0:0:0:0:
320,192,104662,1,0,0:0:0:0:
192,192,104842,1,0,0:0:0:0:
64,192,105021,1,2,0:0:0:0:
320,192,105021,1,8,0:0:0:0:
448,192,105021,1,0,0:0:0:0:
320,192,105201,1,0,0:0:0:0:
64,192,105381,1,2,0:0:0:0:
448,192,105381,1,0,0:0:0:0:
192,192,105560,1,0,0:0:0:0:
320,192,105650,1,0,0:0:0:0:
64,192,105740,1,2,0:0:0:0:
192,192,105740,1,8,0:0:0:0:
448,192,105740,1,0,0:0:0:0:
64,192,105920,1,0,0:0:0:0:
192,192,106099,1,2,0:0:0:0:
320,192,106099,1,0,0:0:0:0:
192,192,106279,1,0,0:0:0:0:
64,192,106459,1,8,0:0:0:0:
320,192,106459,1,2,0:0:0:0:
448,192,106459,1,0,0:0:0:0:
192,192,106638,1,0,0:0:0:0:
64,192,106818,1,2,0:0:0:0:
448,192,106818,1,0,0:0:0:0:
448,192,106997,1,0,0:0:0:0:
64,192,107177,1,2,0:0:0:0:
192,192,107177,1,8,0:0:0:0:
320,192,107177,1,0,0:0:0:0:
448,192,107357,1,0,0:0:0:0:
192,192,107536,1,2,0:0:0:0:
320,192,107536,1,0,0:0:0:0:
192,192,107716,1,0,0:0:0:0:
64,192,107896,1,2,0:0:0:0:
320,192,107896,1,8,0:0:0:0:
448,192,107896,1,0,0:0:0:0:
192,192,108075,1,0,0:0:0:0:
64,192,108255,1,2,0:0:0:0:
320,192,108255,1,0,0:0:0:0:
320,192,108435,1,0,0:0:0:0:
64,192,108614,1,2,0:0:0:0:
192,192,108614,1,8,0:0:0:0:
448,192,108614,1,0,0:0:0:0:
64,192,108794,1,0,0:0:0:0:
192,192,108973,1,2,0:0:0:0:
320,192,108973,1,0,0:0:0:0:
320,192,109153,1,0,0:0:0:0:
64,192,109333,1,2,0:0:0:0:
192,192,109333,1,8,0:0:0:0:
448,192,109333,1,0,0:0:0:0:
64,192,109512,1,2,0:0:0:0:
448,192,109512,1,0,0:0:0:0:
192,192,109692,1,2,0:0:0:0:
448,192,109692,1,0,0:0:0:0:
64,192,109872,1,0,0:0:0:0:
192,192,109962,1,0,0:0:0:0:
64,192,110051,1,2,0:0:0:0:
320,192,110051,1,8,0:0:0:0:
448,192,110051,1,0,0:0:0:0:
192,192,110231,1,0,0:0:0:0:
320,192,110411,1,2,0:0:0:0:
448,192,110411,1,0,0:0:0:0:
192,192,110590,1,0,0:0:0:0:
320,192,110680,1,0,0:0:0:0:
64,192,110770,1,2,0:0:0:0:
192,192,110770,1,8,0:0:0:0:
448,192,110770,1,0,0:0:0:0:
320,192,110950,1,0,0:0:0:0:
64,192,111129,1,2,0:0:0:0:
448,192,111129,1,0,0:0:0:0:
192,192,111309,1,0,0:0:0:0:
64,192,111488,1,8,0:0:0:0:
192,192,111488,1,2,0:0:0:0:
320,192,111488,1,0,0:0:0:0:
448,192,111668,1,0,0:0:0:0:
64,192,111848,1,2,0:0:0:0:
320,192,111848,1,0,0:0:0:0:
192,192,111938,1,0,0:0:0:0:
320,192,112027,1,8,0:0:0:0:
448,192,112027,1,0,0:0:0:100:tom01.wav
192,192,112117,1,0,0:0:0:0:
64,192,112207,1,10,0:0:0:0:
448,192,112207,1,0,0:0:0:100:tom02.wav
320,192,112297,1,0,0:0:0:0:
64,192,112387,1,8,0:0:0:0:
192,192,112387,1,0,0:0:0:100:tom04.wav
320,192,112476,1,8,0:0:0:0:
448,192,112476,1,0,0:0:0:0:
64,192,112566,1,2,0:0:0:0:
192,192,112566,1,4,0:0:0:0:
448,192,112566,128,0,112926:0:0:0:0:
64,192,112926,1,0,0:0:0:0:
320,192,112926,128,0,113105:0:0:0:0:
64,192,113105,128,2,113285:0:0:0:0:
448,192,113105,1,0,0:0:0:0:
192,192,113285,128,8,113644:0:0:0:0:
320,192,113285,1,0,0:0:0:0:
448,192,113285,1,0,0:0:0:0:
64,192,113644,1,0,0:0:0:0:
320,192,113644,128,0,113824:0:0:0:0:
192,192,113824,1,2,0:0:0:0:
448,192,113824,1,0,0:0:0:0:
64,192,114003,128,2,114183:0:0:0:0:
320,192,114003,1,0,0:0:0:0:
192,192,114183,1,0,0:0:0:0:
448,192,114183,128,0,114363:0:0:0:0:
64,192,114363,1,0,0:0:0:0:
192,192,114363,128,0,114542:0:0:0:0:
320,192,114542,1,2,0:0:0:0:
448,192,114542,1,0,0:0:0:0:
64,192,114722,1,8,0:0:0:0:
192,192,114722,1,0,0:0:0:0:
448,192,114722,128,0,115081:0:0:0:0:
320,192,114902,1,0,0:0:0:0:
64,192,115081,1,0,0:0:0:0:
192,192,115261,1,0,0:0:0:0:
448,192,115261,1,0,0:0:0:0:
64,192,115441,128,2,115800:0:0:0:0:
320,192,115441,1,4,0:0:0:0:
448,192,115441,1,0,0:0:0:0:
192,192,115620,128,0,115800:0:0:0:0:
320,192,115800,1,2,0:0:0:0:
448,192,115800,128,8,116159:0:0:0:0:
320,192,115979,128,0,116159:0:0:0:0:
64,192,116159,128,2,116339:0:0:0:0:
192,192,116159,128,0,116518:0:0:0:0:
448,192,116339,128,0,116518:0:0:0:0:
64,192,116518,1,2,0:0:0:0:
320,192,116518,128,8,116878:0:0:0:0:
192,192,116698,128,0,116878:0:0:0:0:
64,192,116878,128,2,117237:0:0:0:0:
448,192,116878,1,0,0:0:0:0:
320,192,117057,128,0,117237:0:0:0:0:
192,192,117237,1,8,0:0:0:0:
448,192,117237,1,2,0:0:0:0:
320,192,117417,128,0,117596:0:0:0:0:
64,192,117596,1,2,0:0:0:0:
448,192,117596,1,0,0:0:0:0:
192,192,117686,1,0,0:0:0:0:
320,192,117776,1,8,0:0:0:0:
448,192,117776,1,0,0:0:0:0:
192,192,117866,1,0,0:0:0:0:
64,192,117956,1,8,0:0:0:0:
448,192,117956,1,2,0:0:0:0:
192,192,118045,1,0,0:0:0:0:
320,192,118135,1,8,0:0:0:0:
448,192,118135,1,0,0:0:0:0:
192,192,118225,1,0,0:0:0:0:
64,192,118315,1,2,0:0:0:0:
320,192,118315,1,4,0:0:0:0:
448,192,118315,128,0,118674:0:0:0:0:
192,192,118494,1,0,0:0:0:0:
64,192,118674,1,0,0:0:0:0:
320,192,118674,128,0,118854:0:0:0:0:
64,192,118854,128,2,119033:0:0:0:0:
448,192,118854,1,0,0:0:0:0:
192,192,119033,128,8,119393:0:0:0:0:
320,192,119033,1,0,0:0:0:0:
448,192,119033,1,0,0:0:0:0:
64,192,119213,1,0,0:0:0:0:
320,192,119393,128,0,119572:0:0:0:0:
448,192,119393,1,0,0:0:0:0:
64,192,119572,1,2,0:0:0:0:
192,192,119572,1,0,0:0:0:0:
64,192,119752,128,2,119932:0:0:0:0:
320,192,119752,1,0,0:0:0:0:
192,192,119932,1,0,0:0:0:0:
448,192,119932,128,0,120111:0:0:0:0:
192,192,120111,1,0,0:0:0:0:
320,192,120111,128,0,120291:0:0:0:0:
64,192,120291,128,2,120470:0:0:0:0:
448,192,120291,1,0,0:0:0:0:
192,192,120470,1,8,0:0:0:0:
320,192,120470,1,0,0:0:0:0:
448,192,120470,128,0,120740:0:0:0:0:
64,192,120650,1,0,0:0:0:0:
320,192,120740,1,0,0:0:0:0:
192,192,120830,1,0,0:0:0:0:
64,192,121009,1,0,0:0:0:0:
64,192,121189,128,2,121548:0:0:0:0:
320,192,121189,1,4,0:0:0:0:
448,192,121189,1,0,0:0:0:0:
448,192,121369,128,0,121548:0:0:0:0:
192,192,121548,128,2,121908:0:0:0:0:
320,192,121548,1,8,0:0:0:0:
320,192,121728,128,0,121908:0:0:0:0:
64,192,121908,1,2,0:0:0:0:
448,192,121908,128,0,122267:0:0:0:0:
64,192,122087,128,0,122267:0:0:0:0:
192,192,122267,1,2,0:0:0:0:
320,192,122267,128,8,122626:0:0:0:0:
192,192,122447,128,0,122626:0:0:0:0:
64,192,122626,1,2,0:0:0:0:
448,192,122626,1,0,0:0:0:0:
448,192,122806,128,0,122985:0:0:0:0:
64,192,122985,1,2,0:0:0:0:
192,192,122985,1,8,0:0:0:0:
320,192,122985,128,0,123165:0:0:0:0:
64,192,123165,128,0,123345:0:0:0:0:
192,192,123345,1,2,0:0:0:0:
448,192,123345,128,0,123524:0:0:0:0:
320,192,123524,128,0,123704:0:0:0:0:
64,192,123704,128,2,123884:0:0:0:0:
192,192,123704,1,8,0:0:0:0:
448,192,123704,1,0,0:0:0:0:
192,192,123884,128,2,124063:0:0:0:0:
320,192,123884,1,0,0:0:0:0:
64,192,124063,1,2,0:0:0:0:
448,192,124063,128,0,124423:0:0:0:0:
64,192,124423,1,8,0:0:0:0:
192,192,124423,1,0,0:0:0:0:
320,192,124423,1,0,0:0:0:0:
192,192,124602,1,2,0:0:0:0:
448,192,124602,1,0,0:0:0:0:
64,192,124782,128,2,125141:0:0:0:0:
448,192,124782,1,0,0:0:0:0:
192,192,125141,1,8,0:0:0:0:
320,192,125141,1,0,0:0:0:0:
448,192,125141,1,0,0:0:0:0:
64,192,125321,1,2,0:0:0:0:
320,192,125321,1,0,0:0:0:0:
64,192,125500,1,2,0:0:0:0:
448,192,125500,128,0,125860:0:0:0:0:
192,192,125680,1,0,0:0:0:0:
192,192,125860,1,0,0:0:0:0:
448,192,126039,1,0,0:0:0:0:
320,192,126099,1,0,0:0:0:0:
64,192,126159,1,0,0:0:0:0:
192,192,126219,1,0,0:0:0:50:clap.wav
448,192,126219,1,0,0:0:0:0:
320,192,126399,1,0,0:0:0:0:
64,192,126578,1,0,0:0:0:50:clap.wav
448,192,126578,1,0,0:0:0:0:
64,192,126938,1,2,0:0:0:0:
320,192,126938,1,4,0:0:0:0:
448,192,126938,128,0,127207:0:0:0:0:
64,192,127117,128,0,127387:0:0:0:0:
192,192,127117,1,0,0:0:0:0:
192,192,127297,128,2,127387:0:0:0:0:
320,192,127297,128,8,127566:0:0:0:0:
448,192,127297,1,0,0:0:0:0:
192,192,127476,1,0,0:0:0:0:
64,192,127656,128,2,127926:0:0:0:0:
448,192,127656,1,0,0:0:0:0:
320,192,127836,1,0,0:0:0:0:
448,192,127836,128,0,128105:0:0:0:0:
64,192,128015,1,2,0:0:0:0:
192,192,128015,128,8,128285:0:0:0:0:
320,192,128015,128,0,128105:0:0:0:0:
320,192,128195,1,0,0:0:0:0:
192,192,128375,1,2,0:0:0:0:
64,192,128375,128,0,128465:0:0:0:0:
448,192,128465,128,0,128554:0:0:0:0:
320,192,128554,1,0,0:0:0:0:
192,192,128554,128,0,128644:0:0:0:0:
448,192,128644,128,0,128824:0:0:0:0:
192,192,128734,1,2,0:0:0:0:
64,192,128734,128,8,128824:0:0:0:0:
320,192,128824,128,0,128914:0:0:0:0:
192,192,128914,1,0,0:0:0:0:
64,192,128914,128,0,129093:0:0:0:0:
320,192,129003,128,0,129093:0:0:0:0:
448,192,129093,128,2,129363:0:0:0:0:
192,192,129093,128,0,129183:0:0:0:0:
192,192,129273,128,0,129453:0:0:0:0:
448,192,129453,1,2,0:0:0:0:
320,192,129453,1,8,0:0:0:0:
64,192,129453,1,0,0:0:0:0:
64,192,129632,1,2,0:0:0:0:
320,192,129632,1,0,0:0:0:0:
192,192,129812,128,2,130081:0:0:0:0:
448,192,129812,128,0,129902:0:0:0:0:
64,192,129991,128,0,130081:0:0:0:0:
320,192,129991,128,0,130261:0:0:0:0:
64,192,130171,1,8,0:0:0:0:
192,192,130171,128,2,130261:0:0:0:0:
448,192,130171,128,0,130441:0:0:0:0:
64,192,130351,128,0,130620:0:0:0:0:
320,192,130351,128,0,130441:0:0:0:0:
192,192,130530,128,2,130800:0:0:0:0:
448,192,130530,1,0,0:0:0:0:
320,192,130620,128,0,130800:0:0:0:0:
448,192,130710,128,0,130800:0:0:0:0:
64,192,130890,128,8,131159:0:0:0:0:
192,192,130890,1,2,0:0:0:0:
448,192,130890,1,0,0:0:0:0:
320,192,131069,128,0,131159:0:0:0:0:
64,192,131249,1,2,0:0:0:0:
448,192,131249,128,0,131518:0:0:0:0:
320,192,131339,128,0,131518:0:0:0:0:
192,192,131429,128,0,131518:0:0:0:0:
64,192,131608,1,8,0:0:0:0:
320,192,131608,128,2,131878:0:0:0:0:
448,192,131608,1,0,0:0:0:0:
192,192,131698,128,0,131878:0:0:0:0:
64,192,131788,128,0,131878:0:0:0:0:
64,192,131968,128,2,132327:0:0:0:0:
448,192,131968,128,0,132327:0:0:0:0:
192,192,132147,1,8,0:0:0:0:
320,192,132147,1,0,0:0:0:0:
192,192,132327,1,8,0:0:0:0:
320,192,132327,1,2,0:0:0:0:
64,192,132506,1,8,0:0:0:0:
448,192,132506,1,0,0:0:0:0:
192,192,132596,1,8,0:0:0:0:
64,192,132686,1,2,0:0:0:0:
320,192,132686,1,4,0:0:0:0:
448,192,132686,1,0,0:0:0:0:
192,192,132776,1,0,0:0:0:0:
64,192,132866,1,0,0:0:0:0:
448,192,132866,1,0,0:0:0:0:
320,192,132956,1,0,0:0:0:0:
64,192,133045,1,2,0:0:0:0:
192,192,133045,1,8,0:0:0:0:
448,192,133045,1,0,0:0:0:0:
320,192,133225,1,0,0:0:0:0:
64,192,133405,1,2,0:0:0:0:
448,192,133405,1,0,0:0:0:0:
192,192,133494,1,0,0:0:0:0:
64,192,133584,1,0,0:0:0:0:
448,192,133584,1,0,0:0:0:0:
320,192,133674,1,0,0:0:0:0:
64,192,133764,1,2,0:0:0:0:
192,192,133764,1,8,0:0:0:0:
448,192,133764,1,0,0:0:0:0:
320,192,133944,1,0,0:0:0:0:
192,192,134123,128,2,134393:0:0:0:0:
448,192,134123,128,0,134213:0:0:0:0:
64,192,134303,128,0,134393:0:0:0:0:
320,192,134303,128,0,134572:0:0:0:0:
64,192,134482,1,2,0:0:0:0:
192,192,134482,128,8,134572:0:0:0:0:
448,192,134482,128,0,134752:0:0:0:0:
64,192,134662,128,0,135021:0:0:0:0:
320,192,134662,128,0,134752:0:0:0:0:
192,192,134842,128,2,135021:0:0:0:0:
448,192,134842,1,0,0:0:0:0:
320,192,135021,1,0,0:0:0:0:
64,192,135201,1,2,0:0:0:0:
192,192,135201,1,8,0:0:0:0:
448,192,135201,1,0,0:0:0:0:
64,192,135381,1,2,0:0:0:0:
448,192,135381,1,0,0:0:0:0:
192,192,135560,128,2,135680:0:0:0:0:
320,192,135560,128,0,135800:0:0:0:0:
448,192,135740,1,0,0:0:0:0:
64,192,135800,1,0,0:0:0:0:
192,192,135860,1,0,0:0:0:0:
64,192,135920,128,2,136099:0:0:0:0:
320,192,135920,1,8,0:0:0:0:
448,192,135920,128,0,136099:0:0:0:0:
192,192,136099,1,0,0:0:0:0:
64,192,136279,128,2,136518:0:0:0:0:
448,192,136279,128,0,136399:0:0:0:0:
192,192,136459,1,0,0:0:0:0:
448,192,136518,1,0,0:0:0:0:
320,192,136578,1,0,0:0:0:0:
64,192,136638,128,2,136908:0:0:0:0:
192,192,136638,128,8,136908:0:0:0:0:
448,192,136638,1,0,0:0:0:0:
320,192,136818,1,0,0:0:0:0:
64,192,136997,1,2,0:0:0:0:
192,192,136997,1,4,0:0:0:0:
448,192,136997,1,0,0:0:0:0:
64,192,137177,1,0,0:0:0:0:
320,192,137177,1,0,0:0:0:0:
192,192,137357,1,2,0:0:0:0:
320,192,137357,1,8,0:0:0:0:
448,192,137357,1,4,0:0:0:0:
64,192,137536,1,0,0:0:0:0:
448,192,137536,1,0,0:0:0:0:
64,192,137716,1,6,0:0:0:0:
192,192,137716,1,8,0:0:0:0:
320,192,137806,1,8,0:0:0:0:
448,192,137806,1,0,0:0:0:0:
64,192,137896,1,8,0:0:0:0:
192,192,137896,1,0,0:0:0:0:
320,192,137985,1,8,0:0:0:0:
448,192,137985,1,0,0:0:0:0:
64,192,138075,1,2,0:0:0:0:
192,192,138075,1,8,0:0:0:0:
320,192,138165,1,8,0:0:0:0:
448,192,138165,1,0,0:0:0:0:
64,192,138255,1,8,0:0:0:0:
192,192,138255,1,0,0:0:0:0:
320,192,138345,1,8,0:0:0:0:
448,192,138345,1,0,0:0:0:0:
64,192,138435,128,4,138704:0:0:0:0:
192,192,138435,1,2,0:0:0:0:
320,192,138614,1,0,0:0:0:0:
448,192,138614,128,0,138884:0:0:0:0:
64,192,138794,1,8,0:0:0:0:
192,192,138794,128,2,139063:0:0:0:0:
320,192,138794,128,0,138884:0:0:0:0:
320,192,138973,1,0,0:0:0:0:
64,192,139153,1,2,0:0:0:0:
448,192,139153,128,0,139423:0:0:0:0:
64,192,139333,128,0,139602:0:0:0:0:
192,192,139333,1,0,0:0:0:0:
192,192,139512,128,8,139602:0:0:0:0:
320,192,139512,128,2,139782:0:0:0:0:
448,192,139512,1,0,0:0:0:0:
192,192,139692,1,0,0:0:0:0:
448,192,139872,128,2,139962:0:0:0:0:
320,192,139872,1,0,0:0:0:0:
64,192,139962,128,0,140051:0:0:0:0:
320,192,140051,128,0,140141:0:0:0:0:
192,192,140051,1,0,0:0:0:0:
64,192,140141,128,0,140321:0:0:0:0:
448,192,140231,128,8,140321:0:0:0:0:
320,192,140231,1,2,0:0:0:0:
192,192,140321,128,0,140411:0:0:0:0:
448,192,140411,128,0,140590:0:0:0:0:
320,192,140411,1,0,0:0:0:0:
192,192,140500,128,0,140590:0:0:0:0:
320,192,140590,128,2,140680:0:0:0:0:
64,192,140590,128,0,140860:0:0:0:0:
320,192,140770,128,0,140950:0:0:0:0:
448,192,140950,1,8,0:0:0:0:
192,192,140950,1,2,0:0:0:0:
64,192,140950,1,0,0:0:0:0:
192,192,141129,1,2,0:0:0:0:
448,192,141129,1,0,0:0:0:0:
64,192,141309,128,2,141399:0:0:0:0:
320,192,141309,128,0,141578:0:0:0:0:
192,192,141488,128,0,141758:0:0:0:0:
448,192,141488,128,0,141578:0:0:0:0:
64,192,141668,128,2,141938:0:0:0:0:
320,192,141668,128,8,141758:0:0:0:0:
448,192,141668,1,0,0:0:0:0:
192,192,141848,128,0,141938:0:0:0:0:
448,192,141848,128,0,142117:0:0:0:0:
64,192,142027,1,2,0:0:0:0:
320,192,142027,128,0,142297:0:0:0:0:
192,192,142117,128,0,142297:0:0:0:0:
64,192,142207,128,0,142297:0:0:0:0:
64,192,142387,1,2,0:0:0:0:
320,192,142387,1,8,0:0:0:0:
448,192,142387,128,0,142656:0:0:0:0:
192,192,142566,128,0,142656:0:0:0:0:
64,192,142746,128,2,143015:0:0:0:0:
448,192,142746,1,0,0:0:0:0:
192,192,142836,128,0,143015:0:0:0:0:
320,192,142926,128,0,143015:0:0:0:0:
64,192,143105,1,2,0:0:0:0:
192,192,143105,128,8,143375:0:0:0:0:
448,192,143105,1,0,0:0:0:0:
320,192,143195,128,0,143375:0:0:0:0:
448,192,143285,128,0,143375:0:0:0:0:
64,192,143465,128,2,143824:0:0:0:0:
448,192,143465,128,0,143824:0:0:0:0:
192,192,143644,1,8,0:0:0:0:
320,192,143644,1,0,0:0:0:0:
192,192,143824,1,2,0:0:0:0:
320,192,143824,1,8,0:0:0:0:
64,192,144003,1,8,0:0:0:0:
448,192,144003,1,0,0:0:0:0:
320,192,144093,1,8,0:0:0:0:
64,192,144183,1,2,0:0:0:0:
192,192,144183,1,4,0:0:0:0:
448,192,144183,1,0,0:0:0:0:
320,192,144273,1,0,0:0:0:0:
64,192,144363,1,0,0:0:0:0:
448,192,144363,1,0,0:0:0:0:
192,192,144453,1,0,0:0:0:0:
64,192,144542,1,2,0:0:0:0:
320,192,144542,1,8,0:0:0:0:
448,192,144542,1,0,0:0:0:0:
192,192,144722,1,0,0:0:0:0:
64,192,144902,1,2,0:0:0:0:
448,192,144902,1,0,0:0:0:0:
320,192,144991,1,0,0:0:0:0:
64,192,145081,1,0,0:0:0:0:
448,192,145081,1,0,0:0:0:0:
192,192,145171,1,0,0:0:0:0:
64,192,145261,1,2,0:0:0:0:
320,192,145261,1,8,0:0:0:0:
448,192,145261,1,0,0:0:0:0:
192,192,145441,1,0,0:0:0:0:
448,192,145441,1,0,0:0:0:0:
64,192,145620,128,2,145710:0:0:0:0:
320,192,145620,128,0,145890:0:0:0:0:
192,192,145800,128,0,146069:0:0:0:0:
448,192,145800,128,0,145890:0:0:0:0:
64,192,145979,128,2,146249:0:0:0:0:
320,192,145979,128,8,146069:0:0:0:0:
448,192,145979,1,0,0:0:0:0:
192,192,146159,128,0,146249:0:0:0:0:
448,192,146159,128,0,146518:0:0:0:0:
64,192,146339,1,2,0:0:0:0:
320,192,146339,128,0,146518:0:0:0:0:
192,192,146518,1,0,0:0:0:0:
64,192,146698,1,2,0:0:0:0:
320,192,146698,1,8,0:0:0:0:
448,192,146698,1,0,0:0:0:0:
64,192,146878,1,2,0:0:0:0:
448,192,146878,1,0,0:0:0:0:
192,192,147057,128,2,147177:0:0:0:0:
320,192,147057,128,0,147297:0:0:0:0:
448,192,147237,1,0,0:0:0:0:
64,192,147297,1,0,0:0:0:0:
192,192,147357,1,0,0:0:0:0:
64,192,147417,128,8,147596:0:0:0:0:
320,192,147417,1,2,0:0:0:0:
448,192,147417,128,0,147596:0:0:0:0:
192,192,147596,1,0,0:0:0:0:
64,192,147776,128,2,148015:0:0:0:0:
448,192,147776,128,0,147896:0:0:0:0:
192,192,147956,1,0,0:0:0:0:
448,192,148015,1,0,0:0:0:0:
320,192,148075,1,0,0:0:0:0:
64,192,148135,128,8,148315:0:0:0:0:
192,192,148135,128,2,148315:0:0:0:0:
448,192,148135,1,0,0:0:0:0:
320,192,148315,1,0,0:0:0:0:
64,192,148494,1,2,0:0:0:0:
192,192,148494,1,4,0:0:0:0:
448,192,148494,1,0,0:0:0:0:
64,192,148674,1,0,0:0:0:0:
320,192,148674,1,0,0:0:0:0:
192,192,148854,1,2,0:0:0:0:
320,192,148854,1,4,0:0:0:0:
448,192,148854,1,8,0:0:0:0:
64,192,149033,1,0,0:0:0:0:
448,192,149033,1,0,0:0:0:0:
320,192,149213,1,6,0:0:0:0:
448,192,149213,1,8,0:0:0:0:
64,192,149303,1,8,0:0:0:0:
192,192,149303,1,0,0:0:0:0:
320,192,149393,1,8,0:0:0:0:
448,192,149393,1,0,0:0:0:0:
64,192,149482,1,8,0:0:0:0:
192,192,149482,1,0,0:0:0:0:
320,192,149572,1,8,0:0:0:0:
448,192,149572,1,2,0:0:0:0:
64,192,149662,1,8,0:0:0:0:
192,192,149662,1,0,0:0:0:0:
320,192,149752,1,8,0:0:0:0:
448,192,149752,1,0,0:0:0:0:
64,192,149842,1,8,0:0:0:0:
192,192,149842,1,0,0:0:0:0:
64,192,149932,1,2,0:0:0:0:
320,192,149932,1,4,0:0:0:0:
448,192,149932,1,0,0:0:0:0:
192,192,150111,1,0,0:0:0:0:
320,192,150291,1,0,0:0:0:0:
64,192,150470,1,0,0:0:0:0:
192,192,150650,1,0,0:0:0:0:
448,192,150650,1,0,0:0:0:0:
320,192,150830,1,0,0:0:0:0:
448,192,151009,1,0,0:0:0:0:
192,192,151189,1,0,0:0:0:0:
64,192,151369,1,0,0:0:0:0:
320,192,151369,1,0,0:0:0:0:
448,192,151548,1,0,0:0:0:0:
192,192,151728,1,0,0:0:0:0:
64,192,151908,1,0,0:0:0:0:
192,192,152087,1,0,0:0:0:0:
320,192,152087,1,0,0:0:0:0:
448,192,152267,1,0,0:0:0:0:
192,192,152447,1,0,0:0:0:0:
64,192,152626,1,2,0:0:0:0:
448,192,152626,1,0,0:0:0:0:
64,192,152806,1,2,0:0:0:0:
320,192,152806,1,0,0:0:0:0:
448,192,152806,1,0,0:0:0:0:
192,192,152985,1,0,0:0:0:0:
320,192,153165,1,0,0:0:0:0:
64,192,153345,1,0,0:0:0:0:
192,192,153524,1,0,0:0:0:0:
448,192,153524,1,0,0:0:0:0:
320,192,153704,1,0,0:0:0:0:
192,192,153884,1,0,0:0:0:0:
448,192,154063,1,0,0:0:0:0:
64,192,154243,1,0,0:0:0:0:
320,192,154243,1,0,0:0:0:0:
192,192,154423,1,0,0:0:0:0:
64,192,154602,1,0,0:0:0:0:
448,192,154602,1,0,0:0:0:0:
320,192,154782,1,0,0:0:0:0:
64,192,154962,1,0,0:0:0:100:breaking04.wav
192,192,154962,1,0,0:0:0:0:
448,192,154962,1,0,0:0:0:0:
320,192,155141,1,0,0:0:0:0:
192,192,155321,1,0,0:0:0:0:
64,192,155500,1,2,0:0:0:0:
448,192,155500,1,0,0:0:0:0:
64,192,155680,1,2,0:0:0:0:
192,192,155680,1,4,0:0:0:0:
320,192,155680,1,0,0:0:0:0:
320,192,155860,1,0,0:0:0:0:
448,192,156039,1,0,0:0:0:0:
192,192,156219,1,0,0:0:0:0:
64,192,156399,1,8,0:0:0:0:
320,192,156399,1,0,0:0:0:0:
448,192,156399,1,0,0:0:0:0:
64,192,156578,1,0,0:0:0:0:
448,192,156758,1,0,0:0:0:0:
192,192,156938,1,0,0:0:0:0:
64,192,157117,1,0,0:0:0:0:
320,192,157117,1,0,0:0:0:0:
448,192,157297,1,0,0:0:0:0:
192,192,157476,1,0,0:0:0:0:
320,192,157656,1,0,0:0:0:0:
64,192,157836,1,8,0:0:0:0:
192,192,157836,1,0,0:0:0:0:
448,192,157836,1,0,0:0:0:0:
320,192,158015,1,0,0:0:0:0:
64,192,158195,1,0,0:0:0:0:
192,192,158375,1,2,0:0:0:0:
448,192,158375,1,0,0:0:0:0:
64,192,158554,1,2,0:0:0:0:
320,192,158554,1,0,0:0:0:0:
448,192,158554,1,0,0:0:0:0:
64,192,158734,1,0,0:0:0:0:
192,192,158914,1,0,0:0:0:0:
320,192,159093,1,0,0:0:0:0:
64,192,159273,1,8,0:0:0:0:
192,192,159273,1,0,0:0:0:0:
448,192,159273,1,0,0:0:0:0:
448,192,159453,1,0,0:0:0:0:
64,192,159632,1,0,0:0:0:0:
320,192,159812,1,0,0:0:0:0:
192,192,159991,1,0,0:0:0:0:
320,192,160351,1,0,0:0:0:0:
64,192,160710,1,0,0:0:0:0:
320,192,160860,1,0,0:0:0:100:tom01.wav
448,192,160860,1,0,0:0:0:0:
64,192,161069,1,0,0:0:0:100:tom02.wav
192,192,161069,1,0,0:0:0:0:
192,192,161249,1,0,0:0:0:100:tom04.wav
448,192,161249,1,0,0:0:0:0:
64,192,161429,128,4,161698:0:0:0:0:
320,192,161429,1,2,0:0:0:0:
448,192,161429,1,0,0:0:0:0:
320,192,161608,128,0,161698:0:0:0:0:
192,192,161788,1,2,0:0:0:0:
448,192,161788,128,8,162057:0:0:0:0:
192,192,161968,128,0,162057:0:0:0:0:
64,192,162147,1,2,0:0:0:0:
320,192,162147,128,0,162417:0:0:0:0:
64,192,162327,1,0,0:0:0:0:
448,192,162327,1,0,0:0:0:0:
192,192,162506,128,2,162686:0:0:0:0:
448,192,162506,1,8,0:0:0:0:
320,192,162686,1,0,0:0:0:0:
64,192,162866,128,2,163135:0:0:0:0:
448,192,162866,1,0,0:0:0:0:
192,192,163045,1,0,0:0:0:0:
448,192,163045,1,0,0:0:0:0:
192,192,163225,1,2,0:0:0:0:
320,192,163225,128,8,163405:0:0:0:0:
64,192,163405,1,0,0:0:0:0:
192,192,163584,1,2,0:0:0:0:
448,192,163584,128,0,163854:0:0:0:0:
320,192,163764,128,0,163854:0:0:0:0:
64,192,163944,128,2,164213:0:0:0:0:
448,192,163944,1,8,0:0:0:0:
192,192,164123,1,2,0:0:0:0:
320,192,164123,1,0,0:0:0:0:
64,192,164303,1,4,0:0:0:0:
192,192,164303,1,2,0:0:0:0:
448,192,164303,1,0,0:0:0:0:
320,192,164393,1,0,0:0:0:0:
192,192,164482,1,0,0:0:0:0:
320,192,164572,1,0,0:0:0:0:
64,192,164662,1,8,0:0:0:0:
448,192,164662,1,2,0:0:0:0:
192,192,164752,1,0,0:0:0:0:
320,192,164842,1,0,0:0:0:0:
448,192,164932,1,0,0:0:0:0:
64,192,165021,1,2,0:0:0:0:
320,192,165021,1,0,0:0:0:0:
192,192,165111,1,0,0:0:0:0:
320,192,165201,1,0,0:0:0:0:
192,192,165291,1,0,0:0:0:0:
64,192,165381,1,8,0:0:0:0:
448,192,165381,1,2,0:0:0:0:
320,192,165470,1,0,0:0:0:0:
192,192,165560,1,0,0:0:0:0:
64,192,165650,1,0,0:0:0:0:
320,192,165740,1,2,0:0:0:0:
448,192,165740,1,0,0:0:0:0:
192,192,165830,1,0,0:0:0:0:
320,192,165920,1,0,0:0:0:0:
192,192,166009,1,0,0:0:0:0:
64,192,166099,1,8,0:0:0:0:
448,192,166099,1,2,0:0:0:0:
192,192,166189,1,0,0:0:0:0:
320,192,166279,1,0,0:0:0:0:
448,192,166369,1,0,0:0:0:0:
64,192,166459,1,2,0:0:0:0:
192,192,166459,1,0,0:0:0:0:
320,192,166548,1,0,0:0:0:0:
64,192,166638,1,8,0:0:0:0:
448,192,166638,1,0,0:0:0:0:
192,192,166728,1,0,0:0:0:0:
320,192,166818,1,8,0:0:0:0:
448,192,166818,1,2,0:0:0:0:
192,192,166908,1,0,0:0:0:0:
64,192,166997,1,8,0:0:0:0:
448,192,166997,1,0,0:0:0:0:
320,192,167087,1,8,0:0:0:0:
64,192,167177,1,4,0:0:0:0:
192,192,167177,1,2,0:0:0:0:
448,192,167177,128,0,167447:0:0:0:0:
192,192,167357,128,0,167447:0:0:0:0:
64,192,167536,128,2,167806:0:0:0:0:
320,192,167536,1,8,0:0:0:0:
320,192,167716,128,0,167806:0:0:0:0:
192,192,167896,128,2,168165:0:0:0:0:
448,192,167896,1,0,0:0:0:0:
64,192,168075,1,0,0:0:0:0:
448,192,168075,1,0,0:0:0:0:
64,192,168255,1,2,0:0:0:0:
320,192,168255,128,8,168435:0:0:0:0:
192,192,168435,1,0,0:0:0:0:
64,192,168614,1,2,0:0:0:0:
448,192,168614,128,0,168884:0:0:0:0:
64,192,168794,1,0,0:0:0:0:
320,192,168794,1,0,0:0:0:0:
192,192,168973,128,2,169153:0:0:0:0:
320,192,168973,1,8,0:0:0:0:
448,192,169153,1,0,0:0:0:0:
64,192,169333,128,2,169602:0:0:0:0:
320,192,169333,1,0,0:0:0:0:
192,192,169512,128,0,169602:0:0:0:0:
64,192,169692,1,2,0:0:0:0:
448,192,169692,128,8,169962:0:0:0:0:
192,192,169872,1,2,0:0:0:0:
320,192,169872,1,0,0:0:0:0:
64,192,170051,1,4,0:0:0:0:
320,192,170051,1,2,0:0:0:0:
448,192,170051,1,0,0:0:0:0:
192,192,170141,1,0,0:0:0:0:
320,192,170231,1,0,0:0:0:0:
192,192,170321,1,0,0:0:0:0:
320,192,170411,1,8,0:0:0:0:
448,192,170411,1,2,0:0:0:0:
64,192,170500,1,0,0:0:0:0:
448,192,170590,1,0,0:0:0:0:
64,192,170680,1,0,0:0:0:0:
192,192,170770,1,2,0:0:0:0:
448,192,170770,1,0,0:0:0:0:
320,192,170860,1,0,0:0:0:0:
192,192,170950,1,0,0:0:0:0:
320,192,171039,1,0,0:0:0:0:
192,192,171129,1,8,0:0:0:0:
448,192,171129,1,2,0:0:0:0:
64,192,171219,1,0,0:0:0:0:
320,192,171309,1,0,0:0:0:0:
192,192,171399,1,0,0:0:0:0:
320,192,171488,1,2,0:0:0:0:
448,192,171488,1,4,0:0:0:0:
64,192,171578,1,0,0:0:0:0:
320,192,171668,1,0,0:0:0:0:
192,192,171758,1,0,0:0:0:0:
64,192,171848,1,10,0:0:0:0:
448,192,171848,1,4,0:0:0:0:
192,192,171938,1,0,0:0:0:0:
320,192,172027,1,0,0:0:0:0:
448,192,172117,1,0,0:0:0:0:
64,192,172207,1,6,0:0:0:0:
192,192,172207,1,8,0:0:0:0:
320,192,172297,1,8,0:0:0:0:
448,192,172297,1,0,0:0:0:0:
64,192,172387,1,8,0:0:0:0:
192,192,172387,1,0,0:0:0:0:
320,192,172476,1,8,0:0:0:0:
448,192,172476,1,0,0:0:0:0:
64,192,172566,1,8,0:0:0:0:
192,192,172566,1,2,0:0:0:0:
320,192,172656,1,8,0:0:0:0:
448,192,172656,1,0,0:0:0:0:
64,192,172746,1,8,0:0:0:0:
192,192,172746,1,0,0:0:0:0:
448,192,172836,1,8,0:0:0:0:
192,192,172926,128,2,172985:0:0:0:0:
320,192,172926,128,4,173045:0:0:0:0:
64,192,172985,128,0,173105:0:0:0:0:
448,192,173045,128,0,173165:0:0:0:0:
192,192,173105,128,0,173225:0:0:0:0:
320,192,173165,128,0,173285:0:0:0:0:
64,192,173225,128,0,173345:0:0:0:0:
448,192,173285,128,0,173405:0:0:0:0:
192,192,173345,128,0,173465:0:0:0:0:
320,192,173405,128,0,173465:0:0:0:0:
64,192,173465,1,2,0:0:0:0:
448,192,173465,1,0,0:0:0:0:
192,192,173554,1,0,0:0:0:0:
64,192,173644,128,8,173914:0:0:0:0:
320,192,173644,128,0,173734:0:0:0:0:
448,192,173644,128,0,174093:0:0:0:0:
320,192,173824,128,0,173914:0:0:0:0:
64,192,174003,128,0,174093:0:0:0:0:
192,192,174183,1,2,0:0:0:0:
448,192,174183,128,0,174273:0:0:0:0:
64,192,174363,128,2,174482:0:0:0:0:
448,192,174363,128,4,174423:0:0:0:0:
320,192,174423,128,0,174542:0:0:0:0:
192,192,174482,128,0,174602:0:0:0:0:
448,192,174542,128,0,174662:0:0:0:0:
64,192,174602,128,0,174722:0:0:0:0:
320,192,174662,128,0,174782:0:0:0:0:
192,192,174722,128,0,174842:0:0:0:0:
448,192,174782,128,0,174902:0:0:0:0:
64,192,174842,128,0,174902:0:0:0:0:
192,192,174902,1,2,0:0:0:0:
320,192,174902,1,0,0:0:0:0:
448,192,174991,1,0,0:0:0:0:
64,192,175081,128,8,175261:0:0:0:0:
192,192,175081,128,0,175171:0:0:0:0:
320,192,175081,1,0,0:0:0:0:
448,192,175171,128,0,175530:0:0:0:0:
320,192,175261,128,0,175441:0:0:0:0:
192,192,175351,1,0,0:0:0:0:
64,192,175441,128,0,175620:0:0:0:0:
192,192,175530,128,0,175620:0:0:0:0:
320,192,175620,1,2,0:0:0:0:
448,192,175620,1,0,0:0:0:0:
64,192,175710,1,2,0:0:0:0:
192,192,175710,1,0,0:0:0:0:
64,192,175800,1,4,0:0:0:0:
320,192,175800,1,2,0:0:0:0:
448,192,175800,1,0,0:0:0:0:
320,192,175979,1,0,0:0:0:0:
64,192,176159,1,2,0:0:0:0:
192,192,176159,1,8,0:0:0:0:
448,192,176159,1,0,0:0:0:0:
64,192,176339,1,0,0:0:0:0:
192,192,176518,1,2,0:0:0:0:
320,192,176518,1,0,0:0:0:0:
448,192,176518,1,0,0:0:0:0:
192,192,176698,1,0,0:0:0:0:
64,192,176878,1,2,0:0:0:0:
320,192,176878,1,8,0:0:0:0:
448,192,176878,1,0,0:0:0:0:
448,192,177057,1,0,0:0:0:0:
64,192,177237,1,2,0:0:0:0:
192,192,177237,1,0,0:0:0:0:
320,192,177237,1,0,0:0:0:0:
448,192,177417,1,0,0:0:0:0:
64,192,177596,1,2,0:0:0:0:
192,192,177596,1,8,0:0:0:0:
320,192,177596,1,0,0:0:0:0:
64,192,177776,1,0,0:0:0:0:
192,192,177956,1,2,0:0:0:0:
320,192,177956,1,0,0:0:0:0:
448,192,177956,1,0,0:0:0:0:
64,192,178135,1,8,0:0:0:0:
448,192,178135,1,0,0:0:0:0:
64,192,178315,1,2,0:0:0:0:
192,192,178315,1,8,0:0:0:0:
320,192,178315,1,0,0:0:0:0:
320,192,178494,1,8,0:0:0:0:
448,192,178494,1,0,0:0:0:0:
64,192,178584,1,8,0:0:0:0:
192,192,178674,128,2,178794:0:0:0:0:
320,192,178674,128,4,178734:0:0:0:0:
448,192,178734,128,0,178854:0:0:0:0:
64,192,178794,128,0,178914:0:0:0:0:
320,192,178854,128,0,178973:0:0:0:0:
192,192,178914,128,0,179033:0:0:0:0:
448,192,178973,128,0,179093:0:0:0:0:
64,192,179033,128,0,179153:0:0:0:0:
320,192,179093,128,0,179213:0:0:0:0:
192,192,179153,128,0,179213:0:0:0:0:
64,192,179213,1,2,0:0:0:0:
448,192,179213,1,0,0:0:0:0:
320,192,179303,1,0,0:0:0:0:
64,192,179393,128,8,179842:0:0:0:0:
192,192,179393,128,0,179482:0:0:0:0:
448,192,179393,128,0,179662:0:0:0:0:
192,192,179572,128,0,179662:0:0:0:0:
448,192,179752,128,0,179842:0:0:0:0:
64,192,179932,128,2,180021:0:0:0:0:
320,192,179932,1,0,0:0:0:0:
64,192,180111,128,4,180171:0:0:0:0:
448,192,180111,128,8,180231:0:0:0:0:
192,192,180171,128,0,180291:0:0:0:0:
320,192,180231,128,0,180351:0:0:0:0:
64,192,180291,128,0,180411:0:0:0:0:
448,192,180351,128,0,180470:0:0:0:0:
192,192,180411,128,0,180530:0:0:0:0:
320,192,180470,128,0,180590:0:0:0:0:
64,192,180530,128,0,180650:0:0:0:0:
448,192,180590,128,0,180650:0:0:0:0:
192,192,180650,1,2,0:0:0:0:
320,192,180650,1,0,0:0:0:0:
64,192,180740,1,0,0:0:0:0:
192,192,180830,1,8,0:0:0:0:
320,192,180830,128,0,180920:0:0:0:0:
448,192,180830,128,0,181009:0:0:0:0:
64,192,180920,128,0,181279:0:0:0:0:
192,192,181009,128,0,181189:0:0:0:0:
320,192,181099,1,0,0:0:0:0:
448,192,181189,128,0,181369:0:0:0:0:
320,192,181279,128,0,181369:0:0:0:0:
64,192,181369,1,2,0:0:0:0:
192,192,181369,1,0,0:0:0:0:
320,192,181459,1,2,0:0:0:0:
448,192,181459,1,0,0:0:0:0:
64,192,181548,1,4,0:0:0:0:
192,192,181548,1,2,0:0:0:0:
448,192,181548,1,0,0:0:0:0:
320,192,181728,1,0,0:0:0:0:
64,192,181908,1,8,0:0:0:0:
192,192,181908,1,2,0:0:0:0:
448,192,181908,1,0,0:0:0:0:
192,192,182087,1,0,0:0:0:0:
64,192,182267,1,2,0:0:0:0:
320,192,182267,1,0,0:0:0:0:
448,192,182267,1,0,0:0:0:0:
320,192,182447,1,0,0:0:0:0:
64,192,182626,1,8,0:0:0:0:
192,192,182626,1,2,0:0:0:0:
448,192,182626,1,0,0:0:0:0:
448,192,182806,1,0,0:0:0:0:
64,192,182985,1,2,0:0:0:0:
192,192,182985,1,8,0:0:0:0:
320,192,183075,1,8,0:0:0:0:
448,192,183075,1,0,0:0:0:0:
64,192,183165,1,8,0:0:0:0:
192,192,183165,1,0,0:0:0:0:
320,192,183255,1,8,0:0:0:0:
448,192,183255,1,0,0:0:0:0:
64,192,183345,1,8,0:0:0:0:
192,192,183345,1,2,0:0:0:0:
320,192,183435,1,8,0:0:0:0:
448,192,183435,1,0,0:0:0:0:
64,192,183524,1,8,0:0:0:0:
192,192,183524,1,0,0:0:0:0:
320,192,183614,1,8,0:0:0:0:
448,192,183614,1,0,0:0:0:0:
64,192,183704,1,2,0:0:0:0:
192,192,183704,1,8,0:0:0:0:
64,192,183794,1,8,0:0:0:0:
192,192,183794,1,0,0:0:0:0:
320,192,183884,1,8,0:0:0:0:
448,192,183884,1,0,0:0:0:0:
320,192,183973,1,8,0:0:0:0:
448,192,183973,1,0,0:0:0:0:
64,192,184063,1,8,0:0:0:0:
192,192,184063,1,2,0:0:0:0:
64,192,184153,1,8,0:0:0:0:
192,192,184153,1,0,0:0:0:0:
320,192,184243,1,8,0:0:0:0:
448,192,184243,1,0,0:0:0:0:
64,192,184333,1,8,0:0:0:0:
192,192,184333,1,0,0:0:0:0:
64,192,184423,128,2,185860:0:0:0:0:
320,192,184423,128,4,185860:0:0:0:0:
448,192,184423,1,0,0:0:0:0:
192,192,186219,128,0,186399:0:0:0:0:
320,192,186219,128,0,186399:0:0:0:0:
320,192,186578,128,0,186758:0:0:0:0:
448,192,186578,128,0,186758:0:0:0:0:
64,192,186938,128,0,187117:0:0:0:0:
192,192,186938,128,0,187117:0:0:0:0:
64,192,187297,1,2,0:0:0:0:
320,192,187297,128,4,187476:0:0:0:0:
448,192,187297,128,0,187476:0:0:0:0:
192,192,187656,1,8,0:0:0:0:
448,192,187656,1,0,0:0:0:0:
64,192,187836,1,2,0:0:0:0:
320,192,187836,1,0,0:0:0:0:
64,192,188015,128,2,188195:0:0:0:0:
192,192,188015,128,0,188195:0:0:0:0:
448,192,188015,1,0,0:0:0:0:
64,192,188375,1,8,0:0:0:0:
320,192,188375,1,0,0:0:0:0:
192,192,188554,1,2,0:0:0:0:
448,192,188554,1,0,0:0:0:0:
64,192,188734,1,2,0:0:0:0:
320,192,188734,128,0,188914:0:0:0:0:
448,192,188734,128,0,188914:0:0:0:0:
192,192,188914,1,0,0:0:0:0:
192,192,189093,1,0,0:0:0:0:
448,192,189273,1,0,0:0:0:0:
320,192,189333,1,0,0:0:0:0:
64,192,189393,1,0,0:0:0:0:
192,192,189453,1,0,0:0:0:50:clap.wav
448,192,189453,1,0,0:0:0:0:
320,192,189632,1,0,0:0:0:0:
64,192,189812,1,0,0:0:0:50:clap.wav
448,192,189812,1,0,0:0:0:0:
64,192,190171,1,2,0:0:0:0:
192,192,190171,1,4,0:0:0:0:
320,192,190171,1,0,0:0:0:0:
64,192,190351,1,0,0:0:0:0:
192,192,190530,1,0,0:0:0:0:
64,192,190710,1,2,0:0:0:0:
320,192,190710,1,0,0:0:0:0:
64,192,190890,1,8,0:0:0:0:
192,192,190890,1,0,0:0:0:0:
448,192,190890,1,0,0:0:0:0:
448,192,191069,1,0,0:0:0:0:
192,192,191249,1,0,0:0:0:0:
320,192,191429,1,2,0:0:0:0:
448,192,191429,1,0,0:0:0:0:
64,192,191608,1,0,0:0:0:0:
448,192,191788,1,0,0:0:0:0:
192,192,191968,1,2,0:0:0:0:
320,192,191968,1,0,0:0:0:0:
64,192,192147,1,0,0:0:0:0:
192,192,192327,1,8,0:0:0:0:
320,192,192327,1,0,0:0:0:0:
448,192,192327,1,0,0:0:0:0:
192,192,192686,1,0,0:0:0:0:
448,192,192686,1,0,0:0:0:0:
64,192,193045,128,2,193405:0:0:0:0:
320,192,193045,1,0,0:0:0:0:
192,192,193405,1,0,0:0:0:0:
320,192,193405,128,0,193764:0:0:0:0:
64,192,193584,1,2,0:0:0:0:
448,192,193584,1,0,0:0:0:0:
64,192,193764,128,8,194123:0:0:0:0:
192,192,193764,1,0,0:0:0:0:
448,192,193764,1,0,0:0:0:0:
320,192,194123,128,0,194482:0:0:0:0:
64,192,194482,128,2,195021:0:0:0:0:
192,192,194482,1,0,0:0:0:0:
320,192,194842,1,2,0:0:0:0:
448,192,194842,1,0,0:0:0:0:
192,192,195021,1,0,0:0:0:0:
64,192,195201,1,8,0:0:0:0:
192,192,195201,1,0,0:0:0:0:
448,192,195201,128,0,195920:0:0:0:0:
320,192,195560,1,0,0:0:0:0:
64,192,195920,1,2,0:0:0:0:
192,192,195920,1,4,0:0:0:0:
320,192,195920,1,0,0:0:0:0:
64,192,196099,1,0,0:0:0:0:
320,192,196279,1,0,0:0:0:0:
64,192,196459,1,2,0:0:0:0:
192,192,196459,1,0,0:0:0:0:
64,192,196638,1,8,0:0:0:0:
320,192,196638,1,0,0:0:0:0:
448,192,196638,1,0,0:0:0:0:
448,192,196818,1,0,0:0:0:0:
64,192,196997,1,0,0:0:0:0:
192,192,197177,1,2,0:0:0:0:
320,192,197177,1,0,0:0:0:0:
448,192,197357,1,0,0:0:0:0:
192,192,197536,1,0,0:0:0:0:
64,192,197716,1,2,0:0:0:0:
320,192,197716,1,0,0:0:0:0:
448,192,197896,1,0,0:0:0:0:
64,192,198075,1,8,0:0:0:0:
192,192,198075,1,0,0:0:0:0:
448,192,198075,1,0,0:0:0:0:
192,192,198435,1,0,0:0:0:0:
320,192,198435,1,0,0:0:0:0:
64,192,198794,128,2,199153:0:0:0:0:
320,192,198794,1,0,0:0:0:0:
448,192,198794,1,0,0:0:0:0:
320,192,199153,1,0,0:0:0:0:
64,192,199333,1,2,0:0:0:0:
448,192,199333,1,0,0:0:0:0:
320,192,199423,1,0,0:0:0:0:
64,192,199512,1,8,0:0:0:0:
192,192,199512,128,0,199872:0:0:0:0:
448,192,199512,1,0,0:0:0:0:
320,192,199872,1,0,0:0:0:0:
64,192,200231,1,0,0:0:0:0:
448,192,200231,1,0,0:0:0:0:
64,192,200411,1,0,0:0:0:0:
320,192,200411,1,0,0:0:0:0:
192,192,200590,1,0,0:0:0:0:
448,192,200590,1,0,0:0:0:0:
64,192,200770,1,0,0:0:0:0:
448,192,200770,1,0,0:0:0:0:
192,192,200950,128,0,201129:0:0:0:0:
320,192,200950,128,0,201129:0:0:0:0:
320,192,201309,1,8,0:0:0:0:
448,192,201309,1,0,0:0:0:0:
320,192,201399,1,8,0:0:0:0:
448,192,201399,1,0,0:0:0:0:
64,192,201488,1,8,0:0:0:0:
192,192,201488,1,0,0:0:0:0:
448,192,201578,1,8,0:0:0:0:
64,192,201668,1,2,0:0:0:0:
192,192,201668,1,4,0:0:0:0:
320,192,201668,1,0,0:0:0:0:
448,192,201758,1,0,0:0:0:0:
64,192,201848,1,0,0:0:0:0:
320,192,201848,1,0,0:0:0:0:
192,192,201938,1,0,0:0:0:0:
64,192,202027,1,2,0:0:0:0:
320,192,202027,1,8,0:0:0:0:
448,192,202027,1,0,0:0:0:0:
192,192,202117,1,0,0:0:0:0:
448,192,202207,1,0,0:0:0:0:
320,192,202297,1,0,0:0:0:0:
64,192,202387,1,2,0:0:0:0:
192,192,202387,1,0,0:0:0:0:
320,192,202476,1,0,0:0:0:0:
64,192,202566,1,0,0:0:0:0:
448,192,202566,1,0,0:0:0:0:
192,192,202656,1,0,0:0:0:0:
64,192,202746,1,2,0:0:0:0:
320,192,202746,1,8,0:0:0:0:
448,192,202746,1,0,0:0:0:0:
192,192,202836,1,0,0:0:0:0:
320,192,202926,1,0,0:0:0:0:
64,192,203015,1,0,0:0:0:0:
192,192,203105,1,2,0:0:0:0:
448,192,203105,1,0,0:0:0:0:
320,192,203195,1,0,0:0:0:0:
64,192,203285,1,0,0:0:0:0:
448,192,203285,1,0,0:0:0:0:
192,192,203375,1,0,0:0:0:0:
64,192,203465,1,2,0:0:0:0:
448,192,203465,1,8,0:0:0:0:
320,192,203465,1,0,0:0:0:0:
192,192,203554,1,0,0:0:0:0:
64,192,203644,1,0,0:0:0:0:
320,192,203644,1,0,0:0:0:0:
448,192,203734,1,0,0:0:0:0:
192,192,203824,1,2,0:0:0:0:
320,192,203824,1,0,0:0:0:0:
64,192,204003,1,0,0:0:0:0:
192,192,204183,1,2,0:0:0:0:
320,192,204183,1,8,0:0:0:0:
448,192,204183,1,0,0:0:0:0:
192,192,204363,1,2,0:0:0:0:
448,192,204363,1,0,0:0:0:0:
64,192,204542,1,2,0:0:0:0:
320,192,204542,1,0,0:0:0:0:
192,192,204632,1,0,0:0:0:0:
64,192,204722,1,0,0:0:0:0:
448,192,204722,1,0,0:0:0:0:
320,192,204812,1,0,0:0:0:0:
192,192,204902,1,8,0:0:0:0:
448,192,204902,1,2,0:0:0:0:
64,192,204902,1,0,0:0:0:0:
320,192,204991,1,0,0:0:0:0:
448,192,205081,1,0,0:0:0:0:
192,192,205081,1,0,0:0:0:0:
64,192,205171,1,0,0:0:0:0:
320,192,205261,1,2,0:0:0:0:
192,192,205261,128,0,205441:0:0:0:0:
448,192,205441,128,0,205560:0:0:0:0:
320,192,205500,128,0,205620:0:0:0:0:
192,192,205560,128,0,205680:0:0:0:0:
64,192,205620,128,8,205800:0:0:0:0:
448,192,205620,1,2,0:0:0:0:
192,192,205800,1,0,0:0:0:0:
64,192,205979,128,2,206339:0:0:0:0:
320,192,205979,1,0,0:0:0:0:
192,192,206159,128,0,206339:0:0:0:0:
448,192,206159,1,0,0:0:0:0:
320,192,206339,1,10,0:0:0:0:
448,192,206339,128,4,206698:0:0:0:0:
320,192,206518,128,0,206698:0:0:0:0:
64,192,206698,1,2,0:0:0:0:
192,192,206698,1,0,0:0:0:0:
320,192,206788,1,8,0:0:0:0:
448,192,206788,1,0,0:0:0:0:
64,192,206878,1,8,0:0:0:0:
192,192,206878,1,0,0:0:0:0:
64,192,207057,1,8,0:0:0:0:
192,192,207057,1,2,0:0:0:0:
448,192,207057,1,0,0:0:0:0:
320,192,207237,1,8,0:0:0:0:
448,192,207237,1,0,0:0:0:0:
64,192,207327,1,8,0:0:0:0:
192,192,207417,1,4,0:0:0:0:
320,192,207417,1,2,0:0:0:0:
448,192,207417,1,0,0:0:0:0:
64,192,207506,1,0,0:0:0:0:
192,192,207596,1,0,0:0:0:0:
448,192,207596,1,0,0:0:0:0:
320,192,207686,1,0,0:0:0:0:
64,192,207776,1,2,0:0:0:0:
192,192,207776,1,8,0:0:0:0:
448,192,207776,1,0,0:0:0:0:
320,192,207866,1,0,0:0:0:0:
64,192,207956,1,0,0:0:0:0:
192,192,208045,1,0,0:0:0:0:
320,192,208135,1,2,0:0:0:0:
448,192,208135,1,0,0:0:0:0:
192,192,208225,1,0,0:0:0:0:
64,192,208315,1,0,0:0:0:0:
448,192,208315,1,0,0:0:0:0:
320,192,208405,1,0,0:0:0:0:
64,192,208494,1,2,0:0:0:0:
192,192,208494,1,8,0:0:0:0:
448,192,208494,1,0,0:0:0:0:
320,192,208584,1,0,0:0:0:0:
192,192,208674,1,0,0:0:0:0:
448,192,208764,1,0,0:0:0:0:
64,192,208854,1,2,0:0:0:0:
320,192,208854,1,0,0:0:0:0:
192,192,208944,1,0,0:0:0:0:
64,192,209033,1,0,0:0:0:0:
448,192,209033,1,0,0:0:0:0:
320,192,209123,1,0,0:0:0:0:
64,192,209213,1,2,0:0:0:0:
192,192,209213,1,8,0:0:0:0:
448,192,209213,1,0,0:0:0:0:
320,192,209303,1,0,0:0:0:0:
64,192,209393,1,0,0:0:0:0:
448,192,209393,1,0,0:0:0:0:
192,192,209482,1,0,0:0:0:0:
320,192,209572,1,2,0:0:0:0:
448,192,209572,1,0,0:0:0:0:
64,192,209752,1,0,0:0:0:0:
192,192,209932,1,2,0:0:0:0:
320,192,209932,1,8,0:0:0:0:
448,192,209932,1,0,0:0:0:0:
64,192,210111,1,2,0:0:0:0:
448,192,210111,1,0,0:0:0:0:
192,192,210291,1,2,0:0:0:0:
320,192,210291,128,0,210470:0:0:0:0:
64,192,210470,128,0,210590:0:0:0:0:
192,192,210530,128,0,210650:0:0:0:0:
320,192,210590,128,0,210710:0:0:0:0:
64,192,210650,1,2,0:0:0:0:
448,192,210650,128,8,210830:0:0:0:0:
320,192,210830,1,0,0:0:0:0:
64,192,211009,1,2,0:0:0:0:
192,192,211009,128,0,211189:0:0:0:0:
448,192,211189,128,0,211309:0:0:0:0:
320,192,211249,128,0,211369:0:0:0:0:
192,192,211309,128,0,211429:0:0:0:0:
64,192,211369,128,2,211548:0:0:0:0:
448,192,211369,1,8,0:0:0:0:
192,192,211548,1,0,0:0:0:0:
64,192,211728,128,2,211997:0:0:0:0:
192,192,211728,1,4,0:0:0:0:
448,192,211728,128,0,211997:0:0:0:0:
192,192,211908,128,0,211997:0:0:0:0:
192,192,212087,128,2,212357:0:0:0:0:
320,192,212087,1,8,0:0:0:0:
448,192,212087,128,4,212357:0:0:0:0:
320,192,212267,128,0,212357:0:0:0:0:
192,192,212447,1,10,0:0:0:0:
64,192,212447,1,4,0:0:0:0:
448,192,212536,1,8,0:0:0:0:
64,192,212536,1,0,0:0:0:0:
320,192,212626,1,8,0:0:0:0:
192,192,212626,1,0,0:0:0:0:
448,192,212716,1,8,0:0:0:0:
64,192,212716,1,0,0:0:0:0:
320,192,212806,1,8,0:0:0:0:
192,192,212806,1,2,0:0:0:0:
64,192,212896,1,8,0:0:0:0:
320,192,212896,1,0,0:0:0:0:
448,192,212985,1,8,0:0:0:0:
192,192,212985,1,0,0:0:0:0:
320,192,213075,1,8,0:0:0:0:
64,192,213075,1,0,0:0:0:0:
192,192,213165,128,0,213435:0:0:0:0:
320,192,213345,128,0,213435:0:0:0:0:
64,192,213524,128,4,213614:0:0:0:0:
192,192,213524,128,2,213704:0:0:0:0:
320,192,213524,128,0,213794:0:0:0:0:
448,192,213524,128,0,213884:0:0:0:0:
192,192,213884,128,0,214153:0:0:0:0:
320,192,214063,128,0,214153:0:0:0:0:
64,192,214243,128,2,214602:0:0:0:0:
192,192,214243,128,4,214512:0:0:0:0:
320,192,214243,128,0,214423:0:0:0:0:
448,192,214243,128,0,214333:0:0:0:0:
320,192,214602,1,8,0:0:0:0:
192,192,214692,1,8,0:0:0:0:
320,192,214782,1,8,0:0:0:0:
192,192,214872,1,8,0:0:0:0:
320,192,214962,1,8,0:0:0:0:
448,192,214962,1,0,0:0:0:0:
64,192,215051,1,8,0:0:0:0:
192,192,215051,1,0,0:0:0:0:
320,192,215141,1,8,0:0:0:0:
448,192,215141,1,0,0:0:0:0:
64,192,215231,1,8,0:0:0:0:
192,192,215231,1,0,0:0:0:0:
320,192,215321,1,8,0:0:0:0:
448,192,215321,1,0,0:0:0:0:
192,192,215500,1,2,0:0:0:0:
320,192,215500,1,0,0:0:0:0:
64,192,215680,128,2,215950:0:0:0:0:
192,192,215680,128,0,215950:0:0:0:100:breaking04.wav
320,192,215680,128,0,215950:0:0:0:0:
448,192,215680,128,0,215950:0:0:0:0:
64,192,216039,128,2,216309:0:0:0:0:
320,192,216039,128,4,216309:0:0:0:0:
448,192,216039,128,0,216129:0:0:0:0:
192,192,216219,128,0,216309:0:0:0:0:
448,192,216219,128,0,216309:0:0:0:0:
64,192,216399,128,8,216668:0:0:0:0:
192,192,216399,128,2,216488:0:0:0:0:
320,192,216399,128,0,216668:0:0:0:0:
192,192,216578,128,0,216668:0:0:0:0:
448,192,216578,128,0,217027:0:0:0:0:
64,192,216758,128,2,216848:0:0:0:0:
320,192,216758,128,0,217027:0:0:0:0:
192,192,216848,128,0,217027:0:0:0:0:
64,192,216938,128,0,217027:0:0:0:0:
64,192,217117,128,8,217387:0:0:0:0:
320,192,217117,128,2,217207:0:0:0:0:
448,192,217117,128,0,217387:0:0:0:0:
192,192,217297,128,0,217387:0:0:0:0:
320,192,217297,128,0,217387:0:0:0:0:
64,192,217476,128,2,217746:0:0:0:0:
192,192,217476,128,0,217746:0:0:0:0:
448,192,217476,128,0,217566:0:0:0:0:
320,192,217566,128,0,217746:0:0:0:0:
448,192,217656,128,0,217746:0:0:0:0:
64,192,217836,128,8,217926:0:0:0:0:
320,192,217836,128,2,218105:0:0:0:0:
448,192,217836,128,0,218105:0:0:0:0:
192,192,217926,128,0,218105:0:0:0:0:
64,192,218015,128,0,218105:0:0:0:0:
64,192,218195,128,2,218465:0:0:0:0:
320,192,218195,128,4,218285:0:0:0:0:
448,192,218195,128,0,218285:0:0:0:0:
192,192,218375,128,8,218465:0:0:0:0:
448,192,218375,128,0,218644:0:0:0:0:
64,192,218554,128,8,218644:0:0:0:0:
192,192,218554,128,2,218644:0:0:0:0:
320,192,218554,128,4,218644:0:0:0:0:
64,192,218734,1,8,0:0:0:0:
448,192,218734,1,0,0:0:0:0:
192,192,218824,1,8,0:0:0:0:
320,192,218824,1,0,0:0:0:0:
64,192,218914,128,4,219183:0:0:0:0:
448,192,218914,128,2,219093:0:0:0:0:
320,192,219003,128,0,219093:0:0:0:0:
192,192,219093,128,0,219183:0:0:0:0:
448,192,219183,128,0,219273:0:0:0:0:
64,192,219273,128,2,219363:0:0:0:0:
192,192,219273,128,8,219542:0:0:0:0:
320,192,219273,128,0,219542:0:0:0:0:
64,192,219453,128,0,219542:0:0:0:0:
448,192,219453,128,0,219542:0:0:0:0:
64,192,219632,128,2,219812:0:0:0:0:
448,192,219632,128,0,219902:0:0:0:0:
192,192,219722,128,0,219812:0:0:0:0:
320,192,219812,128,0,219902:0:0:0:0:
64,192,219902,128,0,219991:0:0:0:0:
192,192,219991,128,2,220261:0:0:0:0:
320,192,219991,128,8,220261:0:0:0:0:
448,192,219991,128,0,220081:0:0:0:0:
64,192,220171,128,0,220261:0:0:0:0:
448,192,220171,128,0,220261:0:0:0:0:
64,192,220351,128,2,220620:0:0:0:0:
320,192,220351,1,0,0:0:0:0:
448,192,220351,128,0,220620:0:0:0:0:
192,192,220530,128,0,220800:0:0:0:0:
320,192,220530,128,0,220620:0:0:0:0:
64,192,220710,128,2,220979:0:0:0:0:
320,192,220710,128,8,220979:0:0:0:0:
448,192,220710,128,0,220979:0:0:0:0:
192,192,220890,128,0,220979:0:0:0:0:
64,192,221069,128,2,221159:0:0:0:0:
192,192,221069,1,0,0:0:0:0:
448,192,221069,128,0,221339:0:0:0:0:
64,192,221249,128,8,221339:0:0:0:0:
320,192,221249,128,0,221339:0:0:0:0:
64,192,221429,1,2,0:0:0:0:
192,192,221429,128,0,221698:0:0:0:0:
448,192,221429,128,0,221518:0:0:0:0:
64,192,221608,128,8,221698:0:0:0:0:
448,192,221608,128,0,221698:0:0:0:0:
320,192,221698,1,8,0:0:0:0:
64,192,221788,128,2,221878:0:0:0:0:
192,192,221788,128,0,222027:0:0:0:0:
320,192,221878,128,0,221968:0:0:0:0:
64,192,221968,128,0,222087:0:0:0:0:
448,192,221968,128,0,222087:0:0:0:0:
320,192,222027,128,0,222147:0:0:0:0:
192,192,222087,128,0,222147:0:0:0:0:
64,192,222147,128,2,222417:0:0:0:0:
448,192,222147,128,8,222417:0:0:0:0:
192,192,222327,128,0,222417:0:0:0:0:
320,192,222506,128,2,222746:0:0:0:0:
448,192,222506,128,4,222596:0:0:0:0:
192,192,222596,128,0,222686:0:0:0:0:
64,192,222686,128,0,222806:0:0:0:0:
448,192,222686,128,0,222806:0:0:0:0:
192,192,222746,128,0,222866:0:0:0:0:
320,192,222806,128,0,222866:0:0:0:0:
64,192,222866,128,2,223135:0:0:0:0:
448,192,222866,128,8,223135:0:0:0:0:
320,192,223045,128,0,223135:0:0:0:0:
64,192,223225,1,2,0:0:0:0:
192,192,223225,1,8,0:0:0:0:
320,192,223315,1,8,0:0:0:0:
448,192,223315,1,0,0:0:0:0:
64,192,223405,1,8,0:0:0:0:
192,192,223405,1,0,0:0:0:0:
320,192,223494,1,8,0:0:0:0:
448,192,223494,1,0,0:0:0:0:
64,192,223584,1,8,0:0:0:0:
192,192,223584,1,2,0:0:0:0:
320,192,223674,1,8,0:0:0:0:
448,192,223674,1,0,0:0:0:0:
64,192,223764,1,8,0:0:0:0:
192,192,223764,1,0,0:0:0:0:
320,192,223854,1,8,0:0:0:0:
448,192,223854,1,0,0:0:0:0:
64,192,223944,1,2,0:0:0:0:
192,192,223944,1,0,0:0:0:100:tom01.wav
64,192,224033,1,0,0:0:0:100:tom01.wav
448,192,224033,1,0,0:0:0:0:
192,192,224123,1,0,0:0:0:100:tom01.wav
320,192,224123,1,0,0:0:0:0:
64,192,224213,1,0,0:0:0:100:tom01.wav
448,192,224213,1,0,0:0:0:0:
192,192,224303,1,10,0:0:0:0:
448,192,224303,1,0,0:0:0:100:tom04.wav
64,192,224393,1,8,0:0:0:0:
320,192,224393,1,0,0:0:0:0:
192,192,224482,1,8,0:0:0:0:
448,192,224482,1,0,0:0:0:0:
64,192,224572,1,8,0:0:0:0:
320,192,224572,1,0,0:0:0:0:
64,192,224662,1,4,0:0:0:0:
192,192,224662,128,2,224752:0:0:0:0:
448,192,224662,128,0,224932:0:0:0:0:
64,192,224842,128,0,225111:0:0:0:0:
320,192,224842,128,0,224932:0:0:0:0:
192,192,225021,128,8,225291:0:0:0:0:
320,192,225021,1,2,0:0:0:0:
448,192,225021,128,0,225111:0:0:0:0:
64,192,225201,128,0,225291:0:0:0:0:
320,192,225201,128,0,225381:0:0:0:0:
64,192,225381,128,2,225500:0:0:0:0:
192,192,225381,128,0,225441:0:0:0:0:
448,192,225441,128,0,225560:0:0:0:0:
320,192,225500,128,0,225620:0:0:0:0:
192,192,225560,128,0,225680:0:0:0:0:
64,192,225620,128,0,225740:0:0:0:0:
448,192,225680,128,0,225740:0:0:0:0:
192,192,225740,1,8,0:0:0:0:
320,192,225740,128,2,226009:0:0:0:0:
64,192,225920,128,0,226009:0:0:0:0:
448,192,225920,1,0,0:0:0:0:
320,192,226099,128,2,226159:0:0:0:0:
448,192,226099,128,0,226219:0:0:0:0:
64,192,226159,128,0,226279:0:0:0:0:
192,192,226219,128,0,226339:0:0:0:0:
320,192,226279,128,0,226399:0:0:0:0:
448,192,226339,128,0,226459:0:0:0:0:
64,192,226399,128,0,226459:0:0:0:0:
192,192,226459,128,8,226728:0:0:0:0:
320,192,226459,1,2,0:0:0:0:
64,192,226638,1,0,0:0:0:0:
448,192,226638,128,0,226728:0:0:0:0:
192,192,226818,128,2,226908:0:0:0:0:
320,192,226818,128,0,227087:0:0:0:0:
64,192,226997,128,0,227087:0:0:0:0:
192,192,226997,128,0,227267:0:0:0:0:
64,192,227177,128,8,227447:0:0:0:0:
320,192,227177,1,2,0:0:0:0:
448,192,227177,128,0,227267:0:0:0:0:
320,192,227357,1,2,0:0:0:0:
448,192,227357,1,0,0:0:0:0:
192,192,227536,128,2,227626:0:0:0:0:
320,192,227536,128,0,227626:0:0:0:0:
448,192,227536,128,0,227806:0:0:0:0:
192,192,227716,128,0,227985:0:0:0:0:
64,192,227896,128,2,227985:0:0:0:0:
320,192,227896,128,8,227985:0:0:0:0:
448,192,227896,128,0,228165:0:0:0:0:
192,192,228075,128,0,228345:0:0:0:0:
64,192,228255,128,2,228524:0:0:0:0:
320,192,228255,128,0,228345:0:0:0:0:
448,192,228255,1,0,0:0:0:0:
320,192,228435,128,0,228704:0:0:0:0:
64,192,228614,128,2,228884:0:0:0:0:
192,192,228614,128,8,228704:0:0:0:0:
448,192,228614,128,0,228704:0:0:0:0:
320,192,228794,128,0,229063:0:0:0:0:
192,192,228973,128,2,229243:0:0:0:0:
448,192,228973,128,0,229063:0:0:0:0:
64,192,229153,128,0,229243:0:0:0:0:
320,192,229153,128,0,229423:0:0:0:0:
64,192,229333,1,2,0:0:0:0:
192,192,229333,128,8,229423:0:0:0:0:
448,192,229333,128,4,229602:0:0:0:0:
64,192,229512,128,0,229692:0:0:0:0:
320,192,229512,128,0,229602:0:0:0:0:
192,192,229692,128,2,229812:0:0:0:0:
320,192,229692,128,4,229752:0:0:0:0:
64,192,229752,128,0,229872:0:0:0:0:
448,192,229812,128,0,229932:0:0:0:0:
320,192,229872,128,8,229991:0:0:0:0:
192,192,229932,128,0,230051:0:0:0:0:
64,192,229991,128,0,230051:0:0:0:0:
320,192,230051,1,2,0:0:0:0:
448,192,230051,1,8,0:0:0:0:
64,192,230231,1,8,0:0:0:0:
320,192,230231,1,0,0:0:0:0:
192,192,230321,1,8,0:0:0:0:
64,192,230411,128,4,230680:0:0:0:0:
320,192,230411,128,2,230500:0:0:0:0:
448,192,230411,1,0,0:0:0:0:
192,192,230590,128,0,230680:0:0:0:0:
448,192,230590,128,0,230860:0:0:0:0:
64,192,230770,128,8,230860:0:0:0:0:
192,192,230770,1,2,0:0:0:0:
320,192,230770,128,0,231039:0:0:0:0:
192,192,230950,128,0,231129:0:0:0:0:
448,192,230950,128,0,231039:0:0:0:0:
320,192,231129,128,2,231189:0:0:0:0:
448,192,231129,128,0,231249:0:0:0:0:
64,192,231189,128,0,231309:0:0:0:0:
192,192,231249,128,0,231369:0:0:0:0:
320,192,231309,128,0,231429:0:0:0:0:
448,192,231369,128,0,231488:0:0:0:0:
64,192,231429,128,0,231488:0:0:0:0:
192,192,231488,128,8,231758:0:0:0:0:
320,192,231488,1,2,0:0:0:0:
64,192,231668,1,0,0:0:0:0:
448,192,231668,128,0,231758:0:0:0:0:
64,192,231848,128,2,231968:0:0:0:0:
192,192,231848,128,0,231908:0:0:0:0:
448,192,231908,128,0,232027:0:0:0:0:
320,192,231968,128,0,232087:0:0:0:0:
192,192,232027,128,0,232147:0:0:0:0:
64,192,232087,128,0,232207:0:0:0:0:
448,192,232147,128,0,232207:0:0:0:0:
192,192,232207,1,8,0:0:0:0:
320,192,232207,128,2,232476:0:0:0:0:
64,192,232387,128,0,232476:0:0:0:0:
448,192,232387,1,0,0:0:0:0:
192,192,232566,128,2,232836:0:0:0:0:
320,192,232566,128,0,232656:0:0:0:0:
320,192,232746,128,0,233015:0:0:0:0:
448,192,232746,128,0,232836:0:0:0:0:
64,192,232926,128,8,233015:0:0:0:0:
192,192,232926,1,2,0:0:0:0:
448,192,232926,128,0,233195:0:0:0:0:
64,192,233105,1,2,0:0:0:0:
192,192,233105,1,0,0:0:0:0:
64,192,233285,128,2,233554:0:0:0:0:
192,192,233285,128,0,233375:0:0:0:0:
320,192,233285,128,0,233375:0:0:0:0:
320,192,233465,128,0,233734:0:0:0:0:
64,192,233644,128,2,233914:0:0:0:0:
192,192,233644,128,8,233734:0:0:0:0:
448,192,233644,128,0,233734:0:0:0:0:
320,192,233824,128,0,234093:0:0:0:0:
64,192,234003,1,2,0:0:0:0:
192,192,234003,128,0,234093:0:0:0:0:
448,192,234003,128,0,234273:0:0:0:0:
192,192,234183,128,0,234453:0:0:0:0:
64,192,234363,128,2,234453:0:0:0:0:
320,192,234363,128,8,234453:0:0:0:0:
448,192,234363,128,0,234632:0:0:0:0:
192,192,234542,128,0,234722:0:0:0:0:
64,192,234722,1,2,0:0:0:0:
320,192,234722,1,8,0:0:0:0:
192,192,234812,1,8,0:0:0:0:
448,192,234812,1,0,0:0:0:0:
64,192,234902,1,8,0:0:0:0:
320,192,234902,1,0,0:0:0:0:
192,192,235081,1,2,0:0:0:0:
320,192,235081,1,8,0:0:0:0:
448,192,235081,1,4,0:0:0:0:
64,192,235261,1,8,0:0:0:0:
320,192,235261,1,0,0:0:0:0:
192,192,235351,1,8,0:0:0:0:
448,192,235351,1,0,0:0:0:0:
64,192,235441,1,10,0:0:0:0:
320,192,235530,1,8,0:0:0:0:
448,192,235530,1,0,0:0:0:0:
64,192,235620,1,8,0:0:0:0:
192,192,235620,1,0,0:0:0:0:
320,192,235710,1,8,0:0:0:0:
448,192,235710,1,0,0:0:0:0:
64,192,235800,1,2,0:0:0:0:
192,192,235800,1,8,0:0:0:0:
320,192,235890,1,8,0:0:0:0:
448,192,235890,1,0,0:0:0:0:
64,192,235979,1,8,0:0:0:0:
192,192,235979,1,0,0:0:0:0:
320,192,236069,1,8,0:0:0:0:
448,192,236069,1,0,0:0:0:0:
64,192,236159,1,2,0:0:0:0:
192,192,236159,1,4,0:0:0:0:
320,192,236249,1,0,0:0:0:50:LR_TomSnare.wav
64,192,236339,1,0,0:0:0:50:LR_TomSnare.wav
320,192,236429,1,0,0:0:0:50:LR_TomSnare.wav
64,192,236518,1,2,0:0:0:0:
192,192,236518,1,0,0:0:0:50:LR_TomSnare.wav
320,192,236608,1,0,0:0:0:50:LR_TomSnare.wav
64,192,236698,1,0,0:0:0:50:LR_TomSnare.wav
320,192,236788,1,0,0:0:0:50:LR_TomSnare.wav
64,192,236878,1,2,0:0:0:0:
192,192,236878,1,0,0:0:0:50:LR_TomSnare.wav
448,192,236968,1,0,0:0:0:50:LR_TomSnare.wav
64,192,237057,1,0,0:0:0:50:LR_TomSnare.wav
320,192,237057,1,0,0:0:0:0:
448,192,237147,1,0,0:0:0:50:LR_TomSnare.wav
64,192,237237,1,2,0:0:0:0:
192,192,237237,1,0,0:0:0:50:LR_TomSnare.wav
448,192,237327,1,0,0:0:0:50:LR_TomSnare.wav
64,192,237417,1,0,0:0:0:50:LR_TomSnare.wav
320,192,237417,1,0,0:0:0:0:
192,192,237506,1,0,0:0:0:50:LR_TomSnare.wav
320,192,237596,1,2,0:0:0:0:
448,192,237596,1,0,0:0:0:75:LR_TomSnare.wav
192,192,237686,1,0,0:0:0:75:LR_TomSnare.wav
448,192,237776,1,0,0:0:0:75:LR_TomSnare.wav
192,192,237866,1,0,0:0:0:75:LR_TomSnare.wav
320,192,237956,1,2,0:0:0:0:
448,192,237956,1,0,0:0:0:75:LR_TomSnare.wav
192,192,238045,1,0,0:0:0:75:LR_TomSnare.wav
448,192,238135,1,0,0:0:0:75:LR_TomSnare.wav
192,192,238225,1,0,0:0:0:75:LR_TomSnare.wav
320,192,238315,1,2,0:0:0:0:
448,192,238315,1,0,0:0:0:75:LR_TomSnare.wav
64,192,238405,1,0,0:0:0:75:LR_TomSnare.wav
192,192,238494,1,0,0:0:0:75:LR_TomSnare.wav
448,192,238494,1,0,0:0:0:0:
64,192,238584,1,0,0:0:0:75:LR_TomSnare.wav
320,192,238674,1,2,0:0:0:0:
448,192,238674,1,0,0:0:0:75:LR_TomSnare.wav
64,192,238764,1,0,0:0:0:75:LR_TomSnare.wav
192,192,238854,1,0,0:0:0:75:LR_TomSnare.wav
448,192,238854,1,0,0:0:0:0:
320,192,238944,1,0,0:0:0:75:LR_TomSnare.wav
64,192,239033,1,2,0:0:0:0:
192,192,239033,1,0,0:0:0:100:LR_TomSnare.wav
320,192,239123,1,0,0:0:0:100:LR_TomSnare.wav
448,192,239123,1,0,0:0:0:0:
64,192,239213,1,0,0:0:0:100:LR_TomSnare.wav
192,192,239213,1,0,0:0:0:0:
320,192,239303,1,0,0:0:0:100:LR_TomSnare.wav
448,192,239303,1,0,0:0:0:0:
64,192,239393,1,2,0:0:0:0:
192,192,239393,1,0,0:0:0:100:LR_TomSnare.wav
320,192,239482,1,0,0:0:0:100:LR_TomSnare.wav
448,192,239482,1,0,0:0:0:0:
64,192,239572,1,0,0:0:0:100:LR_TomSnare.wav
192,192,239572,1,0,0:0:0:0:
320,192,239662,1,0,0:0:0:100:LR_TomSnare.wav
448,192,239662,1,0,0:0:0:0:
64,192,239752,1,2,0:0:0:0:
192,192,239752,1,0,0:0:0:100:LR_TomSnare.wav
320,192,239842,1,0,0:0:0:100:LR_TomSnare.wav
448,192,239842,1,0,0:0:0:0:
64,192,239932,1,0,0:0:0:100:LR_TomSnare.wav
192,192,239932,1,0,0:0:0:0:
320,192,240021,1,0,0:0:0:100:LR_TomSnare.wav
448,192,240021,1,0,0:0:0:0:
64,192,240111,1,2,0:0:0:0:
192,192,240111,1,0,0:0:0:100:LR_TomSnare.wav
320,192,240201,1,0,0:0:0:100:LR_TomSnare.wav
448,192,240201,1,0,0:0:0:0:
64,192,240291,1,0,0:0:0:100:LR_TomSnare.wav
192,192,240291,1,0,0:0:0:0:
320,192,240381,1,0,0:0:0:100:LR_TomSnare.wav
448,192,240381,1,0,0:0:0:0:
64,192,240470,1,2,0:0:0:0:
192,192,240470,1,4,0:0:0:0:
448,192,240470,1,0,0:0:0:0:
192,192,240830,128,2,241189:0:0:0:0:
320,192,240830,128,4,241189:0:0:0:0:
64,192,241189,1,2,0:0:0:0:
448,192,241189,1,4,0:0:0:0:
