osu file format v14

[General]
AudioFilename: audio.mp3
AudioLeadIn: 0
PreviewTime: 48996
Countdown: 0
SampleSet: Soft
StackLeniency: 0.7
Mode: 3
LetterboxInBreaks: 0
SpecialStyle: 0
WidescreenStoryboard: 1

[Editor]
DistanceSpacing: 2
BeatDivisor: 8
GridSize: 16
TimelineZoom: 1

[Metadata]
Title:Starlight
TitleUnicode:Starlight
Artist:Seibin feat. Lucy
ArtistUnicode:Seibin feat. Lucy
Creator:Meowstic
Version:4K NM
Source:The Pleiades of Dreaming Starlight
Tags:Seibin Lucy
BeatmapID:1477637
BeatmapSetID:697573

[Difficulty]
HPDrainRate:7
CircleSize:4
OverallDifficulty:7
ApproachRate:5
SliderMultiplier:1.4
SliderTickRate:1

[Events]
//Background and Video events
Video,0,"The Pleiades of Dreaming Starlight PV.avi"
0,0,"starlight.jpg",0,0
//Break Periods
//Storyboard Layer 0 (Background)
//Storyboard Layer 1 (Fail)
//Storyboard Layer 2 (Pass)
//Storyboard Layer 3 (Foreground)
//Storyboard Sound Samples

[TimingPoints]
853,718.562874251497,4,2,0,10,1,0
49715,-100,4,2,0,10,0,1
69879,-100,4,2,0,10,0,0

[HitObjects]
192,192,808,5,0,0:0:0:0:
448,192,853,5,0,0:0:0:0:
64,192,853,1,0,0:0:0:0:
320,192,1032,1,0,0:0:0:0:
192,192,1212,1,0,0:0:0:0:
64,192,1391,1,0,0:0:0:0:
192,192,1751,1,0,0:0:0:0:
448,192,2110,1,0,0:0:0:0:
192,192,2649,1,0,0:0:0:0:
64,192,3008,1,0,0:0:0:0:
320,192,3367,1,0,0:0:0:0:
448,192,3727,1,0,0:0:0:0:
192,192,3727,1,0,0:0:0:0:
320,192,3906,1,0,0:0:0:0:
192,192,4086,1,0,0:0:0:0:
64,192,4266,1,0,0:0:0:0:
192,192,4625,1,0,0:0:0:0:
320,192,4984,1,0,0:0:0:0:
192,192,5523,1,0,0:0:0:0:
64,192,5882,1,0,0:0:0:0:
320,192,6242,1,0,0:0:0:0:
448,192,6601,1,0,0:0:0:0:
64,192,6601,1,0,0:0:0:0:
320,192,6781,1,0,0:0:0:0:
192,192,6960,1,0,0:0:0:0:
64,192,7140,1,0,0:0:0:0:
320,192,7499,1,0,0:0:0:0:
192,192,7858,1,0,0:0:0:0:
64,192,8397,1,0,0:0:0:0:
192,192,8757,1,0,0:0:0:0:
320,192,9116,1,0,0:0:0:0:
448,192,9475,1,0,0:0:0:0:
192,192,9475,1,0,0:0:0:0:
320,192,9655,1,0,0:0:0:0:
192,192,9835,1,0,0:0:0:0:
64,192,10014,1,0,0:0:0:0:
320,192,10373,1,0,0:0:0:0:
320,192,10733,128,0,12350:0:0:0:0:
192,192,10733,1,0,0:0:0:0:
64,192,12350,1,0,0:0:0:0:
448,192,12350,1,0,0:0:0:0:
64,192,12709,1,0,0:0:0:0:
64,192,13068,1,0,0:0:0:0:
64,192,13427,1,0,0:0:0:0:
448,192,13787,1,0,0:0:0:0:
320,192,13966,1,0,0:0:0:0:
448,192,14146,1,0,0:0:0:0:
192,192,14146,1,0,0:0:0:0:
320,192,14326,1,0,0:0:0:0:
448,192,14505,1,0,0:0:0:0:
64,192,14685,1,0,0:0:0:0:
192,192,14864,1,0,0:0:0:0:
448,192,14864,1,0,0:0:0:0:
320,192,15044,1,0,0:0:0:0:
448,192,15224,1,0,0:0:0:0:
192,192,15224,1,0,0:0:0:0:
192,192,15583,1,0,0:0:0:0:
448,192,15763,1,0,0:0:0:0:
64,192,15942,1,0,0:0:0:0:
64,192,16302,1,0,0:0:0:0:
320,192,16302,1,0,0:0:0:0:
320,192,16661,1,0,0:0:0:0:
64,192,16841,1,0,0:0:0:0:
192,192,17020,1,0,0:0:0:0:
448,192,17020,1,0,0:0:0:0:
64,192,17200,1,0,0:0:0:0:
448,192,17379,1,0,0:0:0:0:
192,192,17559,1,0,0:0:0:0:
320,192,17739,1,0,0:0:0:0:
64,192,17739,1,0,0:0:0:0:
448,192,17918,1,0,0:0:0:0:
192,192,18098,1,0,0:0:0:0:
320,192,18098,128,0,18637:0:0:0:0:
64,192,18457,1,0,0:0:0:0:
448,192,18637,128,0,19176:0:0:0:0:
192,192,18817,1,0,0:0:0:0:
64,192,19176,128,0,19715:0:0:0:0:
320,192,19176,1,0,0:0:0:0:
192,192,19535,1,0,0:0:0:0:
320,192,19894,1,0,0:0:0:0:
64,192,20254,1,0,0:0:0:0:
192,192,20254,1,0,0:0:0:0:
448,192,20433,1,0,0:0:0:0:
320,192,20613,1,0,0:0:0:0:
192,192,20613,1,0,0:0:0:0:
64,192,20793,1,0,0:0:0:0:
320,192,20972,1,0,0:0:0:0:
448,192,20972,1,0,0:0:0:0:
64,192,21332,1,0,0:0:0:0:
320,192,21332,1,0,0:0:0:0:
448,192,21511,1,0,0:0:0:0:
192,192,21691,1,0,0:0:0:0:
320,192,21870,1,0,0:0:0:0:
64,192,22050,1,0,0:0:0:0:
320,192,22409,1,0,0:0:0:0:
64,192,22769,1,0,0:0:0:0:
64,192,22948,1,0,0:0:0:0:
192,192,23128,1,0,0:0:0:0:
192,192,23308,1,0,0:0:0:0:
448,192,23487,1,0,0:0:0:0:
448,192,23667,1,0,0:0:0:0:
64,192,23847,1,0,0:0:0:0:
192,192,23847,1,0,0:0:0:0:
320,192,24206,1,0,0:0:0:0:
192,192,24385,1,0,0:0:0:0:
64,192,24565,1,0,0:0:0:0:
320,192,24924,1,0,0:0:0:0:
192,192,24924,1,0,0:0:0:0:
64,192,25284,1,0,0:0:0:0:
448,192,25463,1,0,0:0:0:0:
192,192,25643,1,0,0:0:0:0:
320,192,26002,1,0,0:0:0:0:
64,192,26002,1,0,0:0:0:0:
192,192,26361,1,0,0:0:0:0:
320,192,26361,1,0,0:0:0:0:
64,192,26721,1,0,0:0:0:0:
448,192,26721,1,0,0:0:0:0:
320,192,27080,1,0,0:0:0:0:
192,192,27260,1,0,0:0:0:0:
448,192,27439,1,0,0:0:0:0:
192,192,27799,1,0,0:0:0:0:
320,192,27799,1,0,0:0:0:0:
448,192,28158,1,0,0:0:0:0:
64,192,28338,1,0,0:0:0:0:
320,192,28517,1,0,0:0:0:0:
192,192,28697,1,0,0:0:0:0:
448,192,28876,1,0,0:0:0:0:
320,192,28876,1,0,0:0:0:0:
64,192,29056,1,0,0:0:0:0:
320,192,29236,1,0,0:0:0:0:
192,192,29236,1,0,0:0:0:0:
64,192,29415,1,0,0:0:0:0:
448,192,29595,1,0,0:0:0:0:
192,192,29595,1,0,0:0:0:0:
192,192,29954,1,0,0:0:0:0:
192,192,30314,1,0,0:0:0:0:
320,192,30673,1,0,0:0:0:0:
192,192,30673,1,0,0:0:0:0:
320,192,30853,1,0,0:0:0:0:
192,192,31032,1,0,0:0:0:0:
192,192,31391,1,0,0:0:0:0:
192,192,31751,1,0,0:0:0:0:
448,192,31930,1,0,0:0:0:0:
320,192,32110,1,0,0:0:0:0:
192,192,32110,1,0,0:0:0:0:
64,192,32290,1,0,0:0:0:0:
448,192,32469,1,0,0:0:0:0:
320,192,32469,1,0,0:0:0:0:
320,192,32829,1,0,0:0:0:0:
320,192,33188,1,0,0:0:0:0:
192,192,33367,1,0,0:0:0:0:
320,192,33547,1,0,0:0:0:0:
448,192,33727,1,0,0:0:0:0:
192,192,33906,1,0,0:0:0:0:
64,192,34086,1,0,0:0:0:0:
320,192,34266,1,0,0:0:0:0:
192,192,34266,1,0,0:0:0:0:
448,192,34445,1,0,0:0:0:0:
192,192,34625,1,0,0:0:0:0:
192,192,34805,1,0,0:0:0:0:
192,192,34984,1,0,0:0:0:0:
64,192,34984,1,0,0:0:0:0:
64,192,35344,1,0,0:0:0:0:
448,192,35344,1,0,0:0:0:0:
320,192,35344,1,0,0:0:0:0:
320,192,35703,1,0,0:0:0:0:
192,192,36062,1,0,0:0:0:0:
192,192,36242,1,0,0:0:0:0:
320,192,36421,1,0,0:0:0:0:
192,192,36601,1,0,0:0:0:0:
192,192,36960,1,0,0:0:0:0:
320,192,37140,1,0,0:0:0:0:
192,192,37499,1,0,0:0:0:0:
192,192,37679,1,0,0:0:0:0:
320,192,37858,1,0,0:0:0:0:
64,192,38218,1,0,0:0:0:0:
192,192,38218,1,0,0:0:0:0:
448,192,38577,1,0,0:0:0:0:
64,192,38936,1,0,0:0:0:0:
64,192,39116,1,0,0:0:0:0:
448,192,39296,1,0,0:0:0:0:
64,192,39475,1,0,0:0:0:0:
64,192,39835,1,0,0:0:0:0:
448,192,40014,1,0,0:0:0:0:
320,192,40373,1,0,0:0:0:0:
64,192,40553,1,0,0:0:0:0:
192,192,40553,1,0,0:0:0:0:
448,192,40733,1,0,0:0:0:0:
320,192,40912,1,0,0:0:0:0:
192,192,41092,1,0,0:0:0:0:
64,192,41092,1,0,0:0:0:0:
448,192,41092,1,0,0:0:0:0:
320,192,41451,1,0,0:0:0:0:
448,192,41451,1,0,0:0:0:0:
64,192,41811,1,0,0:0:0:0:
64,192,41990,1,0,0:0:0:0:
320,192,42170,1,0,0:0:0:0:
192,192,42170,1,0,0:0:0:0:
64,192,42350,1,0,0:0:0:0:
64,192,42709,1,0,0:0:0:0:
320,192,42888,1,0,0:0:0:0:
448,192,42888,1,0,0:0:0:0:
64,192,43248,1,0,0:0:0:0:
64,192,43427,1,0,0:0:0:0:
192,192,43607,1,0,0:0:0:0:
320,192,43607,1,0,0:0:0:0:
448,192,43787,1,0,0:0:0:0:
320,192,43876,1,0,0:0:0:0:
192,192,43966,1,0,0:0:0:0:
320,192,44326,1,0,0:0:0:0:
192,192,44505,1,0,0:0:0:0:
64,192,44685,1,0,0:0:0:0:
448,192,44685,1,0,0:0:0:0:
320,192,45044,1,0,0:0:0:0:
192,192,45224,1,0,0:0:0:0:
64,192,45583,1,0,0:0:0:0:
448,192,45583,1,0,0:0:0:0:
320,192,45763,1,0,0:0:0:0:
192,192,45942,1,0,0:0:0:0:
64,192,46122,1,0,0:0:0:0:
448,192,46122,1,0,0:0:0:0:
320,192,46481,1,0,0:0:0:0:
192,192,46481,1,0,0:0:0:0:
448,192,46841,1,0,0:0:0:0:
192,192,46841,1,0,0:0:0:0:
64,192,46841,1,0,0:0:0:0:
320,192,47200,1,0,0:0:0:0:
192,192,47379,1,0,0:0:0:0:
64,192,47559,1,0,0:0:0:0:
448,192,47559,1,0,0:0:0:0:
320,192,47918,1,0,0:0:0:0:
192,192,48098,1,0,0:0:0:0:
448,192,48098,1,0,0:0:0:0:
320,192,48278,1,0,0:0:0:0:
64,192,48457,1,0,0:0:0:0:
448,192,48457,1,0,0:0:0:0:
320,192,48637,1,0,0:0:0:0:
192,192,48817,1,0,0:0:0:0:
448,192,48996,1,0,0:0:0:0:
320,192,49086,1,0,0:0:0:0:
192,192,49176,1,0,0:0:0:0:
64,192,49266,1,0,0:0:0:0:
448,192,49355,1,0,0:0:0:0:
320,192,49445,1,0,0:0:0:0:
192,192,49535,1,0,0:0:0:0:
64,192,49625,1,0,0:0:0:0:
192,192,49715,1,0,0:0:0:0:
320,192,49715,1,0,0:0:0:0:
448,192,50074,1,0,0:0:0:0:
320,192,50074,1,0,0:0:0:0:
64,192,50433,1,0,0:0:0:0:
64,192,50613,1,0,0:0:0:0:
448,192,50793,1,0,0:0:0:0:
320,192,50793,1,0,0:0:0:0:
64,192,50972,1,0,0:0:0:0:
64,192,51332,1,0,0:0:0:0:
448,192,51511,1,0,0:0:0:0:
320,192,51511,1,0,0:0:0:0:
64,192,51870,1,0,0:0:0:0:
64,192,52050,1,0,0:0:0:0:
448,192,52230,1,0,0:0:0:0:
320,192,52230,1,0,0:0:0:0:
192,192,52589,1,0,0:0:0:0:
320,192,52948,1,0,0:0:0:0:
64,192,52948,1,0,0:0:0:0:
192,192,53308,1,0,0:0:0:0:
192,192,53487,1,0,0:0:0:0:
320,192,53667,1,0,0:0:0:0:
64,192,53667,1,0,0:0:0:0:
192,192,54026,1,0,0:0:0:0:
320,192,54385,1,0,0:0:0:0:
64,192,54385,1,0,0:0:0:0:
448,192,54565,1,0,0:0:0:0:
192,192,54565,1,0,0:0:0:0:
448,192,54924,1,0,0:0:0:0:
192,192,54924,1,0,0:0:0:0:
320,192,55104,1,0,0:0:0:0:
64,192,55104,1,0,0:0:0:0:
320,192,55463,1,0,0:0:0:0:
192,192,55463,1,0,0:0:0:0:
448,192,55463,1,0,0:0:0:0:
448,192,55823,1,0,0:0:0:0:
64,192,55823,1,0,0:0:0:0:
192,192,56182,1,0,0:0:0:0:
192,192,56361,1,0,0:0:0:0:
448,192,56541,1,0,0:0:0:0:
64,192,56541,1,0,0:0:0:0:
192,192,56721,1,0,0:0:0:0:
192,192,57080,1,0,0:0:0:0:
448,192,57260,1,0,0:0:0:0:
64,192,57260,1,0,0:0:0:0:
192,192,57619,1,0,0:0:0:0:
192,192,57799,1,0,0:0:0:0:
448,192,57978,1,0,0:0:0:0:
64,192,57978,1,0,0:0:0:0:
192,192,58338,1,0,0:0:0:0:
320,192,58697,1,0,0:0:0:0:
448,192,58697,1,0,0:0:0:0:
192,192,59056,1,0,0:0:0:0:
192,192,59236,1,0,0:0:0:0:
320,192,59415,1,0,0:0:0:0:
448,192,59415,1,0,0:0:0:0:
192,192,59595,1,0,0:0:0:0:
192,192,59954,1,0,0:0:0:0:
320,192,60134,1,0,0:0:0:0:
448,192,60134,1,0,0:0:0:0:
192,192,60493,1,0,0:0:0:0:
320,192,60673,1,0,0:0:0:0:
448,192,60673,1,0,0:0:0:0:
192,192,60853,1,0,0:0:0:0:
320,192,60942,1,0,0:0:0:0:
192,192,61032,1,0,0:0:0:0:
320,192,61122,1,0,0:0:0:0:
64,192,61212,1,0,0:0:0:0:
192,192,61212,1,0,0:0:0:0:
448,192,61212,1,0,0:0:0:0:
192,192,61571,1,0,0:0:0:0:
320,192,61571,1,0,0:0:0:0:
64,192,61930,1,0,0:0:0:0:
64,192,62110,1,0,0:0:0:0:
320,192,62290,1,0,0:0:0:0:
192,192,62290,1,0,0:0:0:0:
448,192,62469,1,0,0:0:0:0:
448,192,62829,1,0,0:0:0:0:
192,192,63008,1,0,0:0:0:0:
320,192,63008,1,0,0:0:0:0:
448,192,63278,1,0,0:0:0:0:
64,192,63367,1,0,0:0:0:0:
64,192,63547,1,0,0:0:0:0:
448,192,63637,1,0,0:0:0:0:
320,192,63727,1,0,0:0:0:0:
192,192,63727,1,0,0:0:0:0:
64,192,63906,1,0,0:0:0:0:
192,192,64086,1,0,0:0:0:0:
448,192,64086,1,0,0:0:0:0:
448,192,64445,1,0,0:0:0:0:
64,192,64445,1,0,0:0:0:0:
192,192,64805,1,0,0:0:0:0:
192,192,64984,1,0,0:0:0:0:
320,192,65164,1,0,0:0:0:0:
64,192,65164,1,0,0:0:0:0:
448,192,65523,1,0,0:0:0:0:
320,192,65882,1,0,0:0:0:0:
192,192,65882,1,0,0:0:0:0:
64,192,66062,1,0,0:0:0:0:
448,192,66062,1,0,0:0:0:0:
64,192,66421,1,0,0:0:0:0:
448,192,66421,1,0,0:0:0:0:
320,192,66601,1,0,0:0:0:0:
192,192,66601,1,0,0:0:0:0:
192,192,66960,1,0,0:0:0:0:
448,192,66960,1,0,0:0:0:0:
64,192,66960,1,0,0:0:0:0:
320,192,67320,1,0,0:0:0:0:
64,192,67320,1,0,0:0:0:0:
192,192,67679,1,0,0:0:0:0:
192,192,67858,1,0,0:0:0:0:
320,192,68038,1,0,0:0:0:0:
448,192,68038,1,0,0:0:0:0:
64,192,68218,1,0,0:0:0:0:
64,192,68577,1,0,0:0:0:0:
320,192,68757,1,0,0:0:0:0:
192,192,68757,1,0,0:0:0:0:
64,192,69116,1,0,0:0:0:0:
64,192,69296,1,0,0:0:0:0:
448,192,69475,1,0,0:0:0:0:
320,192,69475,1,0,0:0:0:0:
192,192,69655,1,0,0:0:0:0:
320,192,69745,1,0,0:0:0:0:
64,192,69835,1,0,0:0:0:0:
448,192,69835,1,0,0:0:0:0:
448,192,70373,1,0,0:0:0:0:
320,192,70553,1,0,0:0:0:0:
64,192,70553,1,0,0:0:0:0:
448,192,71092,1,0,0:0:0:0:
64,192,71451,1,0,0:0:0:0:
320,192,71451,1,0,0:0:0:0:
448,192,71631,1,0,0:0:0:0:
192,192,71811,1,0,0:0:0:0:
64,192,71990,1,0,0:0:0:0:
320,192,71990,1,0,0:0:0:0:
192,192,72350,1,0,0:0:0:0:
320,192,72709,1,0,0:0:0:0:
448,192,72709,1,0,0:0:0:0:
64,192,72709,1,0,0:0:0:0:
192,192,73248,1,0,0:0:0:0:
64,192,73427,1,0,0:0:0:0:
448,192,73427,1,0,0:0:0:0:
320,192,73966,1,0,0:0:0:0:
64,192,74326,1,0,0:0:0:0:
448,192,74326,1,0,0:0:0:0:
192,192,74685,1,0,0:0:0:0:
64,192,74864,1,0,0:0:0:0:
448,192,74864,1,0,0:0:0:0:
448,192,75224,1,0,0:0:0:0:
320,192,75314,1,0,0:0:0:0:
192,192,75403,1,0,0:0:0:0:
64,192,75493,1,0,0:0:0:0:
320,192,75942,128,0,79894:0:0:0:0:
