osu file format v14

[General]
AudioFilename: audio.mp3
AudioLeadIn: 0
PreviewTime: 61850
Countdown: 0
SampleSet: Soft
StackLeniency: 0.7
Mode: 3
LetterboxInBreaks: 0
SpecialStyle: 0
WidescreenStoryboard: 1

[Editor]
DistanceSpacing: 1.1
BeatDivisor: 16
GridSize: 8
TimelineZoom: 2.6

[Metadata]
Title:Voice
TitleUnicode:Voice
Artist:Seibin feat. Guriri
ArtistUnicode:Seibin feat. 구리리
Creator:Meowstic
Version:HD
Source:High 5
Tags:EZ2DJ EZ2AC High5 Rock Seibin Guriri Korean
BeatmapID:1438751
BeatmapSetID:680441

[Difficulty]
HPDrainRate:6
CircleSize:4
OverallDifficulty:7
ApproachRate:5
SliderMultiplier:1.4
SliderTickRate:1

[Events]
//Background and Video events
0,0,"243752.jpg",0,0
//Break Periods
//Storyboard Layer 0 (Background)
//Storyboard Layer 1 (Fail)
//Storyboard Layer 2 (Pass)
//Storyboard Layer 3 (Foreground)
//Storyboard Sound Samples

[TimingPoints]
42,352.941176470588,4,2,0,5,1,0
62159,-100,4,2,0,5,0,1
81924,-100,4,2,0,5,0,0
115806,-100,4,2,0,5,0,1
135394,-100,4,2,0,5,0,0

[HitObjects]
320,192,747,128,0,2865:0:0:0:0:
64,192,2159,1,0,0:0:0:0:
64,192,2512,1,0,0:0:0:0:
448,192,2865,1,0,0:0:0:0:
64,192,2865,1,0,0:0:0:0:
192,192,3041,1,0,0:0:0:0:
320,192,3218,1,0,0:0:0:0:
64,192,3394,1,0,0:0:0:0:
192,192,3571,1,0,0:0:0:0:
448,192,3571,1,0,0:0:0:0:
320,192,3747,1,0,0:0:0:0:
64,192,3924,1,0,0:0:0:0:
192,192,4100,1,0,0:0:0:0:
448,192,4100,128,0,4453:0:0:0:0:
64,192,4453,1,0,0:0:0:0:
320,192,4630,1,0,0:0:0:0:
64,192,4806,1,0,0:0:0:0:
192,192,4983,1,0,0:0:0:0:
64,192,5159,1,0,0:0:0:0:
320,192,5336,1,0,0:0:0:0:
192,192,5512,128,0,5865:0:0:0:0:
64,192,5865,1,0,0:0:0:0:
320,192,6041,1,0,0:0:0:0:
192,192,6218,1,0,0:0:0:0:
64,192,6394,1,0,0:0:0:0:
320,192,6571,128,0,6747:0:0:0:0:
192,192,6747,1,0,0:0:0:0:
448,192,6924,128,0,7277:0:0:0:0:
192,192,7277,1,0,0:0:0:0:
320,192,7453,128,0,7630:0:0:0:0:
64,192,7630,1,0,0:0:0:0:
448,192,7806,128,0,7983:0:0:0:0:
192,192,7983,1,0,0:0:0:0:
320,192,8159,1,0,0:0:0:0:
64,192,8336,1,0,0:0:0:0:
192,192,8512,1,0,0:0:0:0:
64,192,8689,1,0,0:0:0:0:
448,192,8865,1,0,0:0:0:0:
320,192,8865,1,0,0:0:0:0:
64,192,9041,1,0,0:0:0:0:
192,192,9218,1,0,0:0:0:0:
320,192,9394,1,0,0:0:0:0:
64,192,9571,1,0,0:0:0:0:
320,192,9747,128,0,10100:0:0:0:0:
448,192,9747,1,0,0:0:0:0:
64,192,10100,1,0,0:0:0:0:
448,192,10277,128,0,10453:0:0:0:0:
64,192,10453,1,0,0:0:0:0:
320,192,10630,128,0,10806:0:0:0:0:
64,192,10806,1,0,0:0:0:0:
448,192,10983,1,0,0:0:0:0:
192,192,11159,128,0,11512:0:0:0:0:
320,192,11159,1,0,0:0:0:0:
64,192,11512,1,0,0:0:0:0:
320,192,11689,1,0,0:0:0:0:
192,192,11865,1,0,0:0:0:0:
64,192,12041,1,0,0:0:0:0:
320,192,12218,128,0,12394:0:0:0:0:
64,192,12394,1,0,0:0:0:0:
192,192,12571,1,0,0:0:0:0:
448,192,12571,128,0,12924:0:0:0:0:
64,192,12924,1,0,0:0:0:0:
320,192,13100,128,0,13277:0:0:0:0:
64,192,13277,1,0,0:0:0:0:
448,192,13453,128,0,13630:0:0:0:0:
64,192,13630,1,0,0:0:0:0:
320,192,13806,128,0,13983:0:0:0:0:
64,192,13983,1,0,0:0:0:0:
448,192,14159,1,0,0:0:0:0:
192,192,14159,1,0,0:0:0:0:
320,192,14336,1,0,0:0:0:0:
64,192,14512,1,0,0:0:0:0:
448,192,14689,1,0,0:0:0:0:
320,192,14689,1,0,0:0:0:0:
192,192,14865,1,0,0:0:0:0:
64,192,15041,1,0,0:0:0:0:
448,192,15218,1,0,0:0:0:0:
192,192,15394,1,0,0:0:0:0:
320,192,15394,1,0,0:0:0:0:
64,192,15571,1,0,0:0:0:0:
448,192,15747,1,0,0:0:0:0:
320,192,15924,1,0,0:0:0:0:
192,192,15924,1,0,0:0:0:0:
64,192,16100,1,0,0:0:0:0:
192,192,16277,1,0,0:0:0:0:
320,192,16453,1,0,0:0:0:0:
448,192,16630,128,0,16806:0:0:0:0:
320,192,16806,128,0,16983:0:0:0:0:
64,192,16983,1,0,0:0:0:0:
192,192,17159,1,0,0:0:0:0:
448,192,17336,1,0,0:0:0:0:
64,192,17512,1,0,0:0:0:0:
320,192,17865,1,0,0:0:0:0:
192,192,18130,1,0,0:0:0:0:
320,192,18174,1,0,0:0:0:0:
448,192,18218,1,0,0:0:0:0:
64,192,18394,1,0,0:0:0:0:
448,192,18924,1,0,0:0:0:0:
320,192,19012,1,0,0:0:0:0:
192,192,19100,1,0,0:0:0:0:
64,192,19100,128,0,19453:0:0:0:0:
448,192,19453,1,0,0:0:0:0:
64,192,19806,128,0,20159:0:0:0:0:
192,192,19806,1,0,0:0:0:0:
320,192,19983,1,0,0:0:0:0:
448,192,20159,1,0,0:0:0:0:
192,192,20336,1,0,0:0:0:0:
320,192,20689,1,0,0:0:0:0:
448,192,21041,1,0,0:0:0:0:
64,192,21218,1,0,0:0:0:0:
320,192,21747,1,0,0:0:0:0:
64,192,21747,128,0,22277:0:0:0:0:
192,192,22100,1,0,0:0:0:0:
448,192,22277,1,0,0:0:0:0:
64,192,22630,128,0,22983:0:0:0:0:
320,192,22630,1,0,0:0:0:0:
192,192,22806,1,0,0:0:0:0:
320,192,22983,1,0,0:0:0:0:
448,192,23159,1,0,0:0:0:0:
192,192,23512,1,0,0:0:0:0:
320,192,23865,1,0,0:0:0:0:
64,192,24041,1,0,0:0:0:0:
192,192,24571,1,0,0:0:0:0:
320,192,24659,1,0,0:0:0:0:
192,192,24747,1,0,0:0:0:0:
448,192,24924,1,0,0:0:0:0:
64,192,25100,1,0,0:0:0:0:
320,192,25100,1,0,0:0:0:0:
192,192,25277,1,0,0:0:0:0:
448,192,25453,1,0,0:0:0:0:
192,192,25630,1,0,0:0:0:0:
64,192,25806,1,0,0:0:0:0:
320,192,25983,1,0,0:0:0:0:
192,192,26159,1,0,0:0:0:0:
64,192,26336,1,0,0:0:0:0:
448,192,26512,1,0,0:0:0:0:
320,192,26689,1,0,0:0:0:0:
192,192,26865,128,0,27218:0:0:0:0:
448,192,26865,128,0,27218:0:0:0:0:
64,192,27571,1,0,0:0:0:0:
320,192,27571,1,0,0:0:0:0:
64,192,27747,1,0,0:0:0:0:
320,192,27747,1,0,0:0:0:0:
320,192,28277,128,0,28630:0:0:0:0:
448,192,28277,1,0,0:0:0:0:
64,192,28277,1,0,0:0:0:0:
192,192,28630,1,0,0:0:0:0:
320,192,28806,1,0,0:0:0:0:
320,192,29159,1,0,0:0:0:0:
320,192,29512,1,0,0:0:0:0:
320,192,29865,1,0,0:0:0:0:
192,192,30041,1,0,0:0:0:0:
64,192,30394,1,0,0:0:0:0:
64,192,30571,1,0,0:0:0:0:
448,192,30747,1,0,0:0:0:0:
320,192,30747,1,0,0:0:0:0:
192,192,31100,128,0,31453:0:0:0:0:
64,192,31453,1,0,0:0:0:0:
192,192,31630,1,0,0:0:0:0:
192,192,31983,1,0,0:0:0:0:
192,192,32336,1,0,0:0:0:0:
64,192,32336,1,0,0:0:0:0:
192,192,32689,1,0,0:0:0:0:
64,192,32865,1,0,0:0:0:0:
448,192,33218,1,0,0:0:0:0:
448,192,33394,1,0,0:0:0:0:
64,192,33571,1,0,0:0:0:0:
192,192,33571,1,0,0:0:0:0:
320,192,33924,128,0,34277:0:0:0:0:
448,192,34277,1,0,0:0:0:0:
320,192,34453,1,0,0:0:0:0:
320,192,34806,1,0,0:0:0:0:
320,192,35159,1,0,0:0:0:0:
448,192,35159,1,0,0:0:0:0:
320,192,35512,1,0,0:0:0:0:
448,192,35689,1,0,0:0:0:0:
64,192,36041,1,0,0:0:0:0:
64,192,36218,1,0,0:0:0:0:
448,192,36394,1,0,0:0:0:0:
320,192,36394,1,0,0:0:0:0:
192,192,36747,128,0,37100:0:0:0:0:
448,192,37100,1,0,0:0:0:0:
192,192,37277,1,0,0:0:0:0:
192,192,37630,1,0,0:0:0:0:
192,192,37983,1,0,0:0:0:0:
448,192,37983,1,0,0:0:0:0:
192,192,38336,1,0,0:0:0:0:
448,192,38512,1,0,0:0:0:0:
320,192,38512,1,0,0:0:0:0:
192,192,38689,1,0,0:0:0:0:
192,192,39041,1,0,0:0:0:0:
192,192,39218,1,0,0:0:0:0:
448,192,39218,1,0,0:0:0:0:
64,192,39571,1,0,0:0:0:0:
320,192,39571,1,0,0:0:0:0:
448,192,39924,1,0,0:0:0:0:
448,192,40453,1,0,0:0:0:0:
64,192,40806,1,0,0:0:0:0:
448,192,40806,1,0,0:0:0:0:
192,192,41159,1,0,0:0:0:0:
64,192,41336,1,0,0:0:0:0:
448,192,41336,1,0,0:0:0:0:
320,192,41336,1,0,0:0:0:0:
192,192,42041,1,0,0:0:0:0:
64,192,42218,128,0,42394:0:0:0:0:
448,192,42218,1,0,0:0:0:0:
192,192,42571,1,0,0:0:0:0:
448,192,42747,1,0,0:0:0:0:
320,192,42747,1,0,0:0:0:0:
192,192,42924,1,0,0:0:0:0:
448,192,43100,1,0,0:0:0:0:
64,192,43100,1,0,0:0:0:0:
192,192,43277,1,0,0:0:0:0:
448,192,43453,1,0,0:0:0:0:
320,192,43453,1,0,0:0:0:0:
192,192,43630,1,0,0:0:0:0:
448,192,43806,1,0,0:0:0:0:
64,192,43983,1,0,0:0:0:0:
448,192,44159,1,0,0:0:0:0:
192,192,44159,1,0,0:0:0:0:
320,192,44336,1,0,0:0:0:0:
448,192,44512,1,0,0:0:0:0:
320,192,44689,1,0,0:0:0:0:
448,192,44865,1,0,0:0:0:0:
192,192,44865,1,0,0:0:0:0:
64,192,44953,1,0,0:0:0:0:
64,192,45218,1,0,0:0:0:0:
448,192,45218,1,0,0:0:0:0:
320,192,45218,1,0,0:0:0:0:
192,192,45571,1,0,0:0:0:0:
448,192,45747,1,0,0:0:0:0:
320,192,45836,1,0,0:0:0:0:
192,192,45924,1,0,0:0:0:0:
448,192,46100,1,0,0:0:0:0:
64,192,46277,1,0,0:0:0:0:
192,192,46453,1,0,0:0:0:0:
448,192,46453,1,0,0:0:0:0:
192,192,46806,1,0,0:0:0:0:
192,192,46983,1,0,0:0:0:0:
448,192,46983,1,0,0:0:0:0:
64,192,47247,1,0,0:0:0:0:
448,192,47512,1,0,0:0:0:0:
320,192,47689,1,0,0:0:0:0:
192,192,47689,1,0,0:0:0:0:
448,192,47865,1,0,0:0:0:0:
64,192,47865,128,0,48041:0:0:0:0:
192,192,48218,1,0,0:0:0:0:
448,192,48394,1,0,0:0:0:0:
320,192,48394,1,0,0:0:0:0:
64,192,48571,1,0,0:0:0:0:
448,192,48747,1,0,0:0:0:0:
320,192,48747,1,0,0:0:0:0:
64,192,48924,1,0,0:0:0:0:
448,192,49100,1,0,0:0:0:0:
192,192,49100,1,0,0:0:0:0:
320,192,49277,1,0,0:0:0:0:
448,192,49453,1,0,0:0:0:0:
64,192,49630,1,0,0:0:0:0:
192,192,49806,1,0,0:0:0:0:
448,192,49806,1,0,0:0:0:0:
320,192,49983,1,0,0:0:0:0:
448,192,50159,1,0,0:0:0:0:
320,192,50336,1,0,0:0:0:0:
64,192,50512,1,0,0:0:0:0:
448,192,50600,1,0,0:0:0:0:
64,192,50865,1,0,0:0:0:0:
320,192,50865,1,0,0:0:0:0:
448,192,51218,1,0,0:0:0:0:
192,192,51394,1,0,0:0:0:0:
320,192,51483,1,0,0:0:0:0:
64,192,51571,1,0,0:0:0:0:
448,192,51571,1,0,0:0:0:0:
192,192,51747,1,0,0:0:0:0:
64,192,52100,1,0,0:0:0:0:
448,192,52453,1,0,0:0:0:0:
64,192,52806,1,0,0:0:0:0:
448,192,52983,1,0,0:0:0:0:
192,192,53512,1,0,0:0:0:0:
320,192,53600,1,0,0:0:0:0:
448,192,53689,1,0,0:0:0:0:
64,192,53689,1,0,0:0:0:0:
192,192,53865,1,0,0:0:0:0:
320,192,54041,1,0,0:0:0:0:
64,192,54218,1,0,0:0:0:0:
448,192,54394,1,0,0:0:0:0:
64,192,54924,1,0,0:0:0:0:
448,192,55277,1,0,0:0:0:0:
64,192,55630,1,0,0:0:0:0:
320,192,55718,1,0,0:0:0:0:
448,192,55806,1,0,0:0:0:0:
192,192,55983,1,0,0:0:0:0:
64,192,55983,1,0,0:0:0:0:
64,192,56512,1,0,0:0:0:0:
320,192,56512,1,0,0:0:0:0:
320,192,56865,1,0,0:0:0:0:
192,192,57041,1,0,0:0:0:0:
320,192,57130,1,0,0:0:0:0:
64,192,57218,1,0,0:0:0:0:
448,192,57218,1,0,0:0:0:0:
192,192,57394,1,0,0:0:0:0:
64,192,57747,1,0,0:0:0:0:
448,192,58100,1,0,0:0:0:0:
64,192,58453,1,0,0:0:0:0:
448,192,58630,1,0,0:0:0:0:
320,192,58806,1,0,0:0:0:0:
192,192,59159,1,0,0:0:0:0:
320,192,59247,1,0,0:0:0:0:
64,192,59336,1,0,0:0:0:0:
64,192,59512,1,0,0:0:0:0:
192,192,59689,1,0,0:0:0:0:
320,192,59865,1,0,0:0:0:0:
64,192,59865,1,0,0:0:0:0:
448,192,60041,1,0,0:0:0:0:
192,192,60218,1,0,0:0:0:0:
448,192,60571,1,0,0:0:0:0:
64,192,60571,1,0,0:0:0:0:
448,192,60924,1,0,0:0:0:0:
64,192,60924,1,0,0:0:0:0:
64,192,61100,1,0,0:0:0:0:
448,192,61100,1,0,0:0:0:0:
192,192,61806,1,0,0:0:0:0:
320,192,61894,1,0,0:0:0:0:
448,192,61983,1,0,0:0:0:0:
64,192,62159,1,0,0:0:0:0:
320,192,62159,1,0,0:0:0:0:
192,192,62336,1,0,0:0:0:0:
448,192,62512,1,0,0:0:0:0:
64,192,62512,1,0,0:0:0:0:
320,192,62689,1,0,0:0:0:0:
64,192,62865,1,0,0:0:0:0:
320,192,63041,1,0,0:0:0:0:
192,192,63218,1,0,0:0:0:0:
448,192,63218,1,0,0:0:0:0:
64,192,63394,1,0,0:0:0:0:
320,192,63571,1,0,0:0:0:0:
192,192,63747,1,0,0:0:0:0:
64,192,63924,1,0,0:0:0:0:
448,192,63924,1,0,0:0:0:0:
320,192,64100,1,0,0:0:0:0:
192,192,64277,1,0,0:0:0:0:
64,192,64453,1,0,0:0:0:0:
448,192,64630,1,0,0:0:0:0:
320,192,64630,1,0,0:0:0:0:
192,192,64806,1,0,0:0:0:0:
64,192,64983,1,0,0:0:0:0:
192,192,65159,1,0,0:0:0:0:
448,192,65336,1,0,0:0:0:0:
320,192,65336,1,0,0:0:0:0:
192,192,65512,1,0,0:0:0:0:
64,192,65689,1,0,0:0:0:0:
320,192,65865,1,0,0:0:0:0:
192,192,66041,1,0,0:0:0:0:
448,192,66041,1,0,0:0:0:0:
64,192,66218,1,0,0:0:0:0:
448,192,66394,1,0,0:0:0:0:
192,192,66571,1,0,0:0:0:0:
64,192,66747,1,0,0:0:0:0:
448,192,66747,1,0,0:0:0:0:
320,192,66924,1,0,0:0:0:0:
192,192,67100,1,0,0:0:0:0:
64,192,67277,1,0,0:0:0:0:
448,192,67453,1,0,0:0:0:0:
320,192,67453,1,0,0:0:0:0:
192,192,67630,1,0,0:0:0:0:
64,192,67806,1,0,0:0:0:0:
192,192,67983,1,0,0:0:0:0:
320,192,68159,1,0,0:0:0:0:
448,192,68159,1,0,0:0:0:0:
192,192,68336,1,0,0:0:0:0:
64,192,68512,1,0,0:0:0:0:
320,192,68689,1,0,0:0:0:0:
448,192,68865,1,0,0:0:0:0:
192,192,68865,1,0,0:0:0:0:
64,192,69041,1,0,0:0:0:0:
320,192,69218,1,0,0:0:0:0:
192,192,69394,1,0,0:0:0:0:
64,192,69571,1,0,0:0:0:0:
448,192,69571,1,0,0:0:0:0:
320,192,69747,1,0,0:0:0:0:
192,192,69924,1,0,0:0:0:0:
64,192,70100,1,0,0:0:0:0:
320,192,70277,1,0,0:0:0:0:
448,192,70277,1,0,0:0:0:0:
192,192,70453,1,0,0:0:0:0:
64,192,70630,1,0,0:0:0:0:
320,192,70806,1,0,0:0:0:0:
448,192,70983,1,0,0:0:0:0:
192,192,70983,1,0,0:0:0:0:
64,192,71159,1,0,0:0:0:0:
192,192,71336,1,0,0:0:0:0:
320,192,71512,1,0,0:0:0:0:
192,192,71689,1,0,0:0:0:0:
448,192,71689,1,0,0:0:0:0:
64,192,71865,1,0,0:0:0:0:
320,192,72041,1,0,0:0:0:0:
192,192,72218,1,0,0:0:0:0:
64,192,72394,1,0,0:0:0:0:
448,192,72394,1,0,0:0:0:0:
192,192,72571,1,0,0:0:0:0:
320,192,72571,1,0,0:0:0:0:
320,192,72747,1,0,0:0:0:0:
64,192,72924,1,0,0:0:0:0:
448,192,72924,1,0,0:0:0:0:
320,192,73100,1,0,0:0:0:0:
192,192,73189,1,0,0:0:0:0:
320,192,73277,1,0,0:0:0:0:
64,192,73453,1,0,0:0:0:0:
64,192,73630,1,0,0:0:0:0:
448,192,73806,1,0,0:0:0:0:
192,192,73806,1,0,0:0:0:0:
64,192,73806,1,0,0:0:0:0:
320,192,73983,1,0,0:0:0:0:
448,192,74071,1,0,0:0:0:0:
64,192,74159,1,0,0:0:0:0:
448,192,74336,1,0,0:0:0:0:
192,192,74512,1,0,0:0:0:0:
320,192,74512,1,0,0:0:0:0:
64,192,74689,1,0,0:0:0:0:
448,192,74865,1,0,0:0:0:0:
192,192,75041,1,0,0:0:0:0:
64,192,75218,1,0,0:0:0:0:
448,192,75218,1,0,0:0:0:0:
320,192,75394,1,0,0:0:0:0:
448,192,75483,1,0,0:0:0:0:
192,192,75571,1,0,0:0:0:0:
64,192,75747,1,0,0:0:0:0:
192,192,75924,1,0,0:0:0:0:
320,192,75924,1,0,0:0:0:0:
448,192,76100,1,0,0:0:0:0:
64,192,76277,1,0,0:0:0:0:
320,192,76453,1,0,0:0:0:0:
448,192,76630,1,0,0:0:0:0:
64,192,76630,1,0,0:0:0:0:
192,192,76806,1,0,0:0:0:0:
320,192,76894,1,0,0:0:0:0:
64,192,76983,1,0,0:0:0:0:
448,192,77159,1,0,0:0:0:0:
192,192,77336,1,0,0:0:0:0:
320,192,77336,1,0,0:0:0:0:
64,192,77512,1,0,0:0:0:0:
448,192,77689,1,0,0:0:0:0:
320,192,77865,1,0,0:0:0:0:
64,192,78041,1,0,0:0:0:0:
448,192,78041,1,0,0:0:0:0:
320,192,78218,1,0,0:0:0:0:
448,192,78306,1,0,0:0:0:0:
192,192,78394,1,0,0:0:0:0:
64,192,78571,1,0,0:0:0:0:
320,192,78747,1,0,0:0:0:0:
192,192,78747,1,0,0:0:0:0:
448,192,78924,1,0,0:0:0:0:
64,192,79100,1,0,0:0:0:0:
192,192,79277,1,0,0:0:0:0:
64,192,79453,1,0,0:0:0:0:
448,192,79453,1,0,0:0:0:0:
192,192,79630,1,0,0:0:0:0:
448,192,79718,1,0,0:0:0:0:
64,192,79806,1,0,0:0:0:0:
448,192,79983,1,0,0:0:0:0:
320,192,80159,1,0,0:0:0:0:
192,192,80336,1,0,0:0:0:0:
64,192,80336,1,0,0:0:0:0:
448,192,80336,1,0,0:0:0:0:
64,192,80689,1,0,0:0:0:0:
448,192,80689,1,0,0:0:0:0:
192,192,80689,1,0,0:0:0:0:
64,192,80865,1,0,0:0:0:0:
448,192,80865,1,0,0:0:0:0:
192,192,80865,1,0,0:0:0:0:
448,192,81924,128,0,82806:0:0:0:0:
64,192,81924,1,0,0:0:0:0:
192,192,81924,1,0,0:0:0:0:
448,192,82894,128,0,83071:0:0:0:0:
320,192,83159,1,0,0:0:0:0:
192,192,83247,1,0,0:0:0:0:
320,192,83336,128,0,84041:0:0:0:0:
192,192,84218,1,0,0:0:0:0:
320,192,84394,1,0,0:0:0:0:
448,192,84571,128,0,84924:0:0:0:0:
320,192,84924,1,0,0:0:0:0:
192,192,85100,1,0,0:0:0:0:
64,192,85277,1,0,0:0:0:0:
448,192,85453,1,0,0:0:0:0:
320,192,85630,1,0,0:0:0:0:
192,192,85806,1,0,0:0:0:0:
448,192,85983,128,0,86336:0:0:0:0:
320,192,86336,1,0,0:0:0:0:
192,192,86512,1,0,0:0:0:0:
192,192,86689,128,0,87218:0:0:0:0:
64,192,87394,128,0,87571:0:0:0:0:
448,192,87571,1,0,0:0:0:0:
320,192,87747,1,0,0:0:0:0:
192,192,87924,1,0,0:0:0:0:
320,192,88100,1,0,0:0:0:0:
448,192,88277,1,0,0:0:0:0:
64,192,88453,1,0,0:0:0:0:
192,192,88630,1,0,0:0:0:0:
320,192,88806,1,0,0:0:0:0:
448,192,88983,1,0,0:0:0:0:
64,192,89159,1,0,0:0:0:0:
192,192,89336,1,0,0:0:0:0:
320,192,89512,1,0,0:0:0:0:
448,192,89689,1,0,0:0:0:0:
320,192,89865,1,0,0:0:0:0:
192,192,90041,1,0,0:0:0:0:
320,192,90218,128,0,91277:0:0:0:0:
192,192,91277,1,0,0:0:0:0:
320,192,91453,1,0,0:0:0:0:
448,192,91630,128,0,93041:0:0:0:0:
64,192,93218,1,0,0:0:0:0:
320,192,93218,1,0,0:0:0:0:
192,192,93394,1,0,0:0:0:0:
64,192,93571,1,0,0:0:0:0:
192,192,93747,1,0,0:0:0:0:
64,192,94100,1,0,0:0:0:0:
192,192,94277,1,0,0:0:0:0:
320,192,94453,1,0,0:0:0:0:
192,192,94983,1,0,0:0:0:0:
320,192,95336,1,0,0:0:0:0:
192,192,95689,1,0,0:0:0:0:
448,192,96041,1,0,0:0:0:0:
320,192,96218,1,0,0:0:0:0:
192,192,96394,1,0,0:0:0:0:
64,192,96571,1,0,0:0:0:0:
448,192,96924,1,0,0:0:0:0:
320,192,97100,1,0,0:0:0:0:
192,192,97277,1,0,0:0:0:0:
448,192,97983,128,0,98159:0:0:0:0:
64,192,98865,1,0,0:0:0:0:
320,192,99747,1,0,0:0:0:0:
448,192,100100,1,0,0:0:0:0:
192,192,101689,1,0,0:0:0:0:
192,192,102571,1,0,0:0:0:0:
320,192,102747,1,0,0:0:0:0:
448,192,102924,1,0,0:0:0:0:
192,192,103630,1,0,0:0:0:0:
64,192,103806,1,0,0:0:0:0:
192,192,103983,1,0,0:0:0:0:
320,192,104159,1,0,0:0:0:0:
448,192,104336,1,0,0:0:0:0:
320,192,104424,1,0,0:0:0:0:
64,192,104512,1,0,0:0:0:0:
192,192,104512,1,0,0:0:0:0:
64,192,104689,1,0,0:0:0:0:
64,192,105041,1,0,0:0:0:0:
448,192,105218,1,0,0:0:0:0:
320,192,105218,1,0,0:0:0:0:
64,192,105747,1,0,0:0:0:0:
448,192,106100,1,0,0:0:0:0:
320,192,106100,1,0,0:0:0:0:
64,192,106277,1,0,0:0:0:0:
448,192,106630,1,0,0:0:0:0:
320,192,106630,1,0,0:0:0:0:
192,192,107336,1,0,0:0:0:0:
320,192,107336,1,0,0:0:0:0:
192,192,107512,1,0,0:0:0:0:
192,192,107865,1,0,0:0:0:0:
448,192,108041,1,0,0:0:0:0:
320,192,108041,1,0,0:0:0:0:
192,192,108571,1,0,0:0:0:0:
448,192,108924,1,0,0:0:0:0:
320,192,108924,1,0,0:0:0:0:
192,192,109277,1,0,0:0:0:0:
448,192,109453,1,0,0:0:0:0:
320,192,109453,1,0,0:0:0:0:
192,192,109806,1,0,0:0:0:0:
64,192,110159,1,0,0:0:0:0:
64,192,110336,1,0,0:0:0:0:
64,192,110689,1,0,0:0:0:0:
448,192,110865,1,0,0:0:0:0:
320,192,110865,1,0,0:0:0:0:
64,192,111394,1,0,0:0:0:0:
448,192,111747,1,0,0:0:0:0:
320,192,111747,1,0,0:0:0:0:
64,192,111924,1,0,0:0:0:0:
448,192,112277,1,0,0:0:0:0:
320,192,112277,1,0,0:0:0:0:
320,192,112983,1,0,0:0:0:0:
192,192,112983,1,0,0:0:0:0:
320,192,113336,1,0,0:0:0:0:
192,192,113336,1,0,0:0:0:0:
64,192,113689,1,0,0:0:0:0:
448,192,113689,1,0,0:0:0:0:
64,192,114041,1,0,0:0:0:0:
448,192,114041,1,0,0:0:0:0:
192,192,114394,1,0,0:0:0:0:
320,192,114394,1,0,0:0:0:0:
192,192,114571,1,0,0:0:0:0:
320,192,114571,1,0,0:0:0:0:
64,192,115012,1,0,0:0:0:0:
448,192,115100,1,0,0:0:0:0:
192,192,115189,1,0,0:0:0:0:
320,192,115277,1,0,0:0:0:0:
64,192,115365,1,0,0:0:0:0:
448,192,115453,1,0,0:0:0:0:
192,192,115806,1,0,0:0:0:0:
448,192,116159,1,0,0:0:0:0:
192,192,116159,1,0,0:0:0:0:
64,192,116512,1,0,0:0:0:0:
64,192,116689,1,0,0:0:0:0:
448,192,116865,1,0,0:0:0:0:
320,192,117041,1,0,0:0:0:0:
192,192,117041,1,0,0:0:0:0:
64,192,117394,1,0,0:0:0:0:
448,192,117394,1,0,0:0:0:0:
64,192,117571,1,0,0:0:0:0:
448,192,117571,1,0,0:0:0:0:
320,192,117924,1,0,0:0:0:0:
192,192,118012,1,0,0:0:0:0:
320,192,118277,1,0,0:0:0:0:
192,192,118365,1,0,0:0:0:0:
64,192,118453,1,0,0:0:0:0:
448,192,118453,1,0,0:0:0:0:
192,192,118630,1,0,0:0:0:0:
64,192,118806,1,0,0:0:0:0:
320,192,118983,1,0,0:0:0:0:
448,192,118983,1,0,0:0:0:0:
192,192,119159,1,0,0:0:0:0:
64,192,119336,1,0,0:0:0:0:
320,192,119512,1,0,0:0:0:0:
192,192,119689,1,0,0:0:0:0:
448,192,119689,1,0,0:0:0:0:
64,192,119865,1,0,0:0:0:0:
320,192,120041,1,0,0:0:0:0:
192,192,120218,1,0,0:0:0:0:
64,192,120394,1,0,0:0:0:0:
448,192,120394,1,0,0:0:0:0:
320,192,120571,1,0,0:0:0:0:
192,192,120747,1,0,0:0:0:0:
64,192,120924,1,0,0:0:0:0:
448,192,121100,1,0,0:0:0:0:
320,192,121100,1,0,0:0:0:0:
192,192,121277,1,0,0:0:0:0:
320,192,121453,1,0,0:0:0:0:
192,192,121630,1,0,0:0:0:0:
64,192,121806,1,0,0:0:0:0:
448,192,121806,1,0,0:0:0:0:
192,192,121983,1,0,0:0:0:0:
320,192,122159,1,0,0:0:0:0:
448,192,122336,1,0,0:0:0:0:
192,192,122512,1,0,0:0:0:0:
64,192,122512,1,0,0:0:0:0:
320,192,122689,1,0,0:0:0:0:
448,192,122865,1,0,0:0:0:0:
320,192,123041,1,0,0:0:0:0:
64,192,123218,1,0,0:0:0:0:
192,192,123218,1,0,0:0:0:0:
448,192,123394,1,0,0:0:0:0:
320,192,123571,1,0,0:0:0:0:
192,192,123747,1,0,0:0:0:0:
320,192,123924,1,0,0:0:0:0:
64,192,123924,1,0,0:0:0:0:
192,192,124100,1,0,0:0:0:0:
320,192,124277,1,0,0:0:0:0:
192,192,124453,1,0,0:0:0:0:
64,192,124630,1,0,0:0:0:0:
448,192,124630,1,0,0:0:0:0:
320,192,124806,1,0,0:0:0:0:
192,192,124983,1,0,0:0:0:0:
64,192,125159,1,0,0:0:0:0:
192,192,125336,1,0,0:0:0:0:
448,192,125336,1,0,0:0:0:0:
320,192,125512,1,0,0:0:0:0:
192,192,125689,1,0,0:0:0:0:
320,192,125865,1,0,0:0:0:0:
192,192,126041,1,0,0:0:0:0:
64,192,126041,1,0,0:0:0:0:
320,192,126218,1,0,0:0:0:0:
448,192,126394,1,0,0:0:0:0:
320,192,126571,1,0,0:0:0:0:
448,192,126747,1,0,0:0:0:0:
64,192,126747,1,0,0:0:0:0:
192,192,126836,1,0,0:0:0:0:
320,192,126924,1,0,0:0:0:0:
448,192,127012,1,0,0:0:0:0:
192,192,127100,1,0,0:0:0:0:
192,192,127277,1,0,0:0:0:0:
64,192,127453,1,0,0:0:0:0:
320,192,127453,1,0,0:0:0:0:
448,192,127453,1,0,0:0:0:0:
192,192,127630,1,0,0:0:0:0:
448,192,127718,1,0,0:0:0:0:
64,192,127806,1,0,0:0:0:0:
192,192,127983,1,0,0:0:0:0:
448,192,128159,1,0,0:0:0:0:
320,192,128159,1,0,0:0:0:0:
64,192,128336,1,0,0:0:0:0:
192,192,128512,1,0,0:0:0:0:
448,192,128689,1,0,0:0:0:0:
320,192,128865,1,0,0:0:0:0:
64,192,128865,1,0,0:0:0:0:
192,192,129041,1,0,0:0:0:0:
448,192,129130,1,0,0:0:0:0:
320,192,129218,1,0,0:0:0:0:
192,192,129394,1,0,0:0:0:0:
64,192,129571,1,0,0:0:0:0:
448,192,129571,1,0,0:0:0:0:
320,192,129747,1,0,0:0:0:0:
192,192,129924,1,0,0:0:0:0:
320,192,130100,1,0,0:0:0:0:
448,192,130277,1,0,0:0:0:0:
64,192,130277,1,0,0:0:0:0:
192,192,130453,1,0,0:0:0:0:
448,192,130541,1,0,0:0:0:0:
320,192,130630,1,0,0:0:0:0:
64,192,130806,1,0,0:0:0:0:
192,192,130983,1,0,0:0:0:0:
320,192,130983,1,0,0:0:0:0:
448,192,131159,1,0,0:0:0:0:
320,192,131336,1,0,0:0:0:0:
192,192,131512,1,0,0:0:0:0:
64,192,131689,1,0,0:0:0:0:
448,192,131689,1,0,0:0:0:0:
192,192,131865,1,0,0:0:0:0:
320,192,132041,1,0,0:0:0:0:
64,192,132218,1,0,0:0:0:0:
192,192,132394,1,0,0:0:0:0:
448,192,132394,1,0,0:0:0:0:
320,192,132571,1,0,0:0:0:0:
192,192,132747,1,0,0:0:0:0:
64,192,132924,1,0,0:0:0:0:
448,192,133100,1,0,0:0:0:0:
320,192,133100,1,0,0:0:0:0:
192,192,133277,1,0,0:0:0:0:
448,192,133365,1,0,0:0:0:0:
320,192,133453,1,0,0:0:0:0:
192,192,133630,1,0,0:0:0:0:
64,192,133806,1,0,0:0:0:0:
448,192,133806,1,0,0:0:0:0:
448,192,133983,1,0,0:0:0:0:
64,192,133983,1,0,0:0:0:0:
320,192,134159,1,0,0:0:0:0:
448,192,134336,1,0,0:0:0:0:
320,192,134512,1,0,0:0:0:0:
192,192,134689,1,0,0:0:0:0:
64,192,134865,1,0,0:0:0:0:
192,192,135041,1,0,0:0:0:0:
320,192,135218,1,0,0:0:0:0:
64,192,135394,1,0,0:0:0:0:
448,192,135394,1,0,0:0:0:0:
448,192,135924,1,0,0:0:0:0:
448,192,136100,1,0,0:0:0:0:
448,192,136277,1,0,0:0:0:0:
320,192,136453,1,0,0:0:0:0:
192,192,136630,1,0,0:0:0:0:
64,192,136806,1,0,0:0:0:0:
320,192,137159,1,0,0:0:0:0:
320,192,137512,1,0,0:0:0:0:
192,192,138218,1,0,0:0:0:0:
320,192,138394,1,0,0:0:0:0:
192,192,138571,1,0,0:0:0:0:
320,192,138747,1,0,0:0:0:0:
64,192,138924,1,0,0:0:0:0:
320,192,139100,1,0,0:0:0:0:
448,192,139277,1,0,0:0:0:0:
192,192,139453,1,0,0:0:0:0:
64,192,139630,1,0,0:0:0:0:
448,192,139806,1,0,0:0:0:0:
192,192,139983,1,0,0:0:0:0:
320,192,140159,1,0,0:0:0:0:
192,192,140336,1,0,0:0:0:0:
64,192,140512,1,0,0:0:0:0:
320,192,140689,1,0,0:0:0:0:
192,192,140865,1,0,0:0:0:0:
64,192,141394,1,0,0:0:0:0:
448,192,141571,1,0,0:0:0:0:
320,192,141571,128,0,141747:0:0:0:0:
320,192,141924,128,0,142100:0:0:0:0:
192,192,142277,1,0,0:0:0:0:
64,192,142453,1,0,0:0:0:0:
448,192,142453,128,0,143512:0:0:0:0:
192,192,143512,1,0,0:0:0:0:
320,192,143689,1,0,0:0:0:0:
320,192,143865,1,0,0:0:0:0:
64,192,143865,1,0,0:0:0:0:
448,192,144041,1,0,0:0:0:0:
448,192,144218,1,0,0:0:0:0:
320,192,144394,1,0,0:0:0:0:
320,192,144571,1,0,0:0:0:0:
192,192,144747,1,0,0:0:0:0:
192,192,144924,1,0,0:0:0:0:
64,192,145100,1,0,0:0:0:0:
448,192,145277,128,0,145541:0:0:0:0:
192,192,145277,1,0,0:0:0:0:
320,192,145630,1,0,0:0:0:0:
192,192,145806,1,0,0:0:0:0:
64,192,145894,1,0,0:0:0:0:
320,192,145983,128,0,146865:0:0:0:0:
64,192,146865,1,0,0:0:0:0:
448,192,146865,1,0,0:0:0:0:
448,192,147041,1,0,0:0:0:0:
64,192,147041,1,0,0:0:0:0:
192,192,147394,1,0,0:0:0:0:
320,192,147394,1,0,0:0:0:0:
320,192,147571,1,0,0:0:0:0:
192,192,147571,1,0,0:0:0:0:
448,192,147924,1,0,0:0:0:0:
64,192,147924,1,0,0:0:0:0:
64,192,148100,1,0,0:0:0:0:
448,192,148100,1,0,0:0:0:0:
320,192,148453,1,0,0:0:0:0:
192,192,148453,1,0,0:0:0:0:
192,192,148630,128,0,149689:0:0:0:0:
320,192,148630,1,0,0:0:0:0:
