osu file format v14

[General]
AudioFilename: audio.mp3
AudioLeadIn: 0
PreviewTime: 89584
Countdown: 0
SampleSet: Soft
StackLeniency: 0.7
Mode: 3
LetterboxInBreaks: 0
SpecialStyle: 0
WidescreenStoryboard: 0

[Editor]
DistanceSpacing: 1.2
BeatDivisor: 4
GridSize: 4
TimelineZoom: 1

[Metadata]
Title:Oriental Shade
TitleUnicode:Oriental Shade
Artist:Seibin
ArtistUnicode:Seibin
Creator:Vampir
Version:MX
Source:EZ2AC : EVOLVE
Tags:Lari [Teleport] Beomsan Dailycare Enon leqek [_Zzz_] Oriental rock
BeatmapID:922369
BeatmapSetID:427284

[Difficulty]
HPDrainRate:8
CircleSize:4
OverallDifficulty:8
ApproachRate:5
SliderMultiplier:1.4
SliderTickRate:1

[Events]
//Background and Video events
0,0,"BG1.png",0,0
//Break Periods
//Storyboard Layer 0 (Background)
//Storyboard Layer 1 (Fail)
//Storyboard Layer 2 (Pass)
//Storyboard Layer 3 (Foreground)
//Storyboard Sound Samples

[TimingPoints]
1459,375,4,2,0,30,1,0
89959,-100,4,2,0,30,0,1
125959,-100,4,2,0,30,0,0

[HitObjects]
448,192,1459,128,0,3709:0:0:0:0:
64,192,3709,1,0,0:0:0:0:
64,192,4084,1,0,0:0:0:0:
64,192,4459,1,0,0:0:0:0:
320,192,4459,1,0,0:0:0:0:
448,192,4459,1,0,0:0:0:30:soft-hitwhistle.wav
192,192,4646,1,0,0:0:0:0:
320,192,4834,1,0,0:0:0:0:
448,192,5021,1,0,0:0:0:0:
192,192,5209,128,0,7459:0:0:0:0:
320,192,5209,1,0,0:0:0:30:soft-hitclap2.wav
64,192,5396,1,0,0:0:0:30:soft-hitwhistle.wav
64,192,5771,1,0,0:0:0:30:soft-hitwhistle.wav
64,192,6146,1,0,0:0:0:30:soft-hitwhistle.wav
64,192,6521,1,0,0:0:0:30:soft-hitwhistle.wav
320,192,6615,1,0,0:0:0:30:soft-hitwhistle.wav
448,192,6709,1,0,0:0:0:30:soft-hitclap2.wav
64,192,6896,1,0,0:0:0:30:soft-hitwhistle.wav
448,192,7084,1,0,0:0:0:30:soft-hitclap2.wav
448,192,7459,1,0,0:0:0:30:soft-hitwhistle.wav
64,192,7459,128,0,8959:0:0:0:0:
192,192,7834,1,0,0:0:0:0:
448,192,8021,1,0,0:0:0:30:soft-hitwhistle.wav
192,192,8209,1,0,0:0:0:30:soft-hitclap2.wav
320,192,8302,1,0,0:0:0:0:
448,192,8396,1,0,0:0:0:0:
320,192,8490,1,0,0:0:0:0:
448,192,8584,1,0,0:0:0:0:
320,192,8677,1,0,0:0:0:0:
448,192,8771,1,0,0:0:0:30:soft-hitwhistle.wav
192,192,8771,1,0,0:0:0:0:
320,192,8865,1,0,0:0:0:0:
192,192,8959,1,0,0:0:0:0:
320,192,9052,1,0,0:0:0:0:
192,192,9146,1,0,0:0:0:30:soft-hitwhistle.wav
448,192,9146,1,0,0:0:0:0:
64,192,9240,1,0,0:0:0:0:
192,192,9334,1,0,0:0:0:0:
320,192,9427,1,0,0:0:0:0:
64,192,9521,1,0,0:0:0:30:soft-hitwhistle.wav
448,192,9521,1,0,0:0:0:0:
192,192,9615,1,0,0:0:0:30:soft-hitwhistle.wav
320,192,9615,1,0,0:0:0:0:
64,192,9709,128,0,9896:0:0:0:30:soft-hitwhistle.wav
448,192,9709,1,0,0:0:0:0:
448,192,9896,128,0,10084:0:0:0:0:
64,192,10084,128,0,10271:0:0:0:0:
448,192,10271,128,0,10459:0:0:0:0:
64,192,10459,1,0,0:0:0:30:soft-hitwhistle.wav
320,192,10459,1,0,0:0:0:0:
192,192,10646,1,0,0:0:0:0:
320,192,10834,1,0,0:0:0:0:
448,192,10834,1,0,0:0:0:30:soft-hitwhistle.wav
64,192,11021,1,0,0:0:0:0:
320,192,11209,1,0,0:0:0:30:soft-hitwhistle.wav
448,192,11209,1,0,0:0:0:0:
192,192,11396,128,0,11584:0:0:0:0:
64,192,11584,1,0,0:0:0:30:soft-hitwhistle.wav
320,192,11584,1,0,0:0:0:0:
448,192,11771,128,0,11959:0:0:0:0:
192,192,11959,1,0,0:0:0:30:soft-hitwhistle.wav
64,192,11959,1,0,0:0:0:0:
448,192,12146,1,0,0:0:0:0:
320,192,12334,1,0,0:0:0:0:
64,192,12334,1,0,0:0:0:30:soft-hitwhistle.wav
192,192,12521,1,0,0:0:0:0:
448,192,12615,1,0,0:0:0:0:
192,192,12709,1,0,0:0:0:0:
320,192,12709,1,0,0:0:0:30:soft-hitwhistle.wav
64,192,12896,1,0,0:0:0:0:
448,192,13084,1,0,0:0:0:30:soft-hitwhistle.wav
192,192,13084,128,0,13459:0:0:0:0:
64,192,13459,1,0,0:0:0:30:soft-hitclap2.wav
448,192,13459,1,0,0:0:0:0:
192,192,13646,1,0,0:0:0:30:soft-hitwhistle.wav
320,192,13646,1,0,0:0:0:0:
64,192,13740,1,0,0:0:0:30:soft-hitwhistle.wav
192,192,13834,1,0,0:0:0:30:soft-hitwhistle.wav
320,192,13834,1,0,0:0:0:0:
64,192,14021,1,0,0:0:0:0:
448,192,14021,1,0,0:0:0:30:soft-hitclap2.wav
192,192,14209,1,0,0:0:0:0:
320,192,14209,1,0,0:0:0:30:soft-hitwhistle.wav
448,192,14302,1,0,0:0:0:30:soft-hitwhistle.wav
320,192,14396,1,0,0:0:0:30:soft-hitwhistle.wav
192,192,14396,1,0,0:0:0:0:
64,192,14584,1,0,0:0:0:30:soft-hitclap2.wav
192,192,14584,1,0,0:0:0:0:
320,192,14771,1,0,0:0:0:30:soft-hitclap2.wav
448,192,14959,128,0,15240:0:0:0:30:soft-hitnormal3.wav
64,192,14959,1,0,0:0:0:0:
320,192,15052,128,0,15334:0:0:0:30:soft-hitnormal3.wav
192,192,15146,128,0,15427:0:0:0:30:soft-hitnormal3.wav
64,192,15240,128,0,15521:0:0:0:30:soft-hitnormal3.wav
448,192,15334,1,0,0:0:0:30:soft-hitnormal3.wav
320,192,15427,1,0,0:0:0:30:soft-hitnormal3.wav
192,192,15521,1,0,0:0:0:30:soft-hitnormal3.wav
64,192,15615,1,0,0:0:0:30:soft-hitnormal3.wav
320,192,15709,128,0,16084:0:0:0:30:soft-hitnormal3.wav
448,192,15709,128,0,16084:0:0:0:0:
192,192,16084,1,0,0:0:0:0:
320,192,16271,1,0,0:0:0:0:
64,192,16459,1,0,0:0:0:30:soft-hitwhistle.wav
448,192,16459,128,0,16740:0:0:0:0:
192,192,16459,1,0,0:0:0:0:
192,192,16834,1,0,0:0:0:0:
448,192,16834,1,0,0:0:0:30:soft-hitclap2.wav
64,192,17021,1,0,0:0:0:0:
192,192,17209,1,0,0:0:0:0:
448,192,17209,1,0,0:0:0:30:soft-hitwhistle.wav
64,192,17396,1,0,0:0:0:0:
192,192,17490,1,0,0:0:0:0:
320,192,17584,1,0,0:0:0:0:
448,192,17584,1,0,0:0:0:30:soft-hitclap2.wav
64,192,17771,1,0,0:0:0:0:
192,192,17959,1,0,0:0:0:0:
448,192,17959,1,0,0:0:0:30:soft-hitwhistle.wav
320,192,18146,1,0,0:0:0:0:
192,192,18334,1,0,0:0:0:0:
448,192,18334,1,0,0:0:0:30:soft-hitclap2.wav
64,192,18521,1,0,0:0:0:0:
192,192,18709,128,0,19084:0:0:0:0:
448,192,18709,1,0,0:0:0:30:soft-hitwhistle.wav
64,192,19084,1,0,0:0:0:0:
320,192,19084,1,0,0:0:0:30:soft-hitclap2.wav
192,192,19271,1,0,0:0:0:0:
448,192,19271,1,0,0:0:0:0:
64,192,19459,128,0,19834:0:0:0:0:
320,192,19459,1,0,0:0:0:30:soft-hitwhistle.wav
192,192,19834,1,0,0:0:0:30:soft-hitclap2.wav
320,192,19834,128,0,20209:0:0:0:0:
64,192,20209,1,0,0:0:0:0:
448,192,20209,1,0,0:0:0:30:soft-hitwhistle.wav
320,192,20396,1,0,0:0:0:0:
192,192,20584,1,0,0:0:0:0:
448,192,20584,1,0,0:0:0:30:soft-hitclap2.wav
320,192,20771,1,0,0:0:0:0:
64,192,20959,1,0,0:0:0:30:soft-hitwhistle.wav
192,192,20959,1,0,0:0:0:0:
448,192,21146,1,0,0:0:0:0:
192,192,21240,1,0,0:0:0:0:
448,192,21334,1,0,0:0:0:70:soft-hitclap2.wav
320,192,21521,1,0,0:0:0:0:
64,192,21615,1,0,0:0:0:0:
320,192,21709,1,0,0:0:0:70:soft-hitwhistle.wav
448,192,21896,1,0,0:0:0:0:
192,192,21990,1,0,0:0:0:0:
448,192,22084,1,0,0:0:0:70:soft-hitclap2.wav
320,192,22271,1,0,0:0:0:0:
64,192,22459,1,0,0:0:0:30:soft-hitwhistle.wav
192,192,22459,1,0,0:0:0:0:
448,192,22459,128,0,22740:0:0:0:0:
192,192,22834,1,0,0:0:0:0:
448,192,22834,1,0,0:0:0:30:soft-hitclap2.wav
64,192,23021,1,0,0:0:0:0:
192,192,23209,1,0,0:0:0:0:
448,192,23209,1,0,0:0:0:30:soft-hitwhistle.wav
320,192,23396,1,0,0:0:0:0:
64,192,23490,1,0,0:0:0:0:
320,192,23584,1,0,0:0:0:0:
448,192,23584,1,0,0:0:0:30:soft-hitclap2.wav
64,192,23771,1,0,0:0:0:0:
192,192,23771,1,0,0:0:0:0:
448,192,23959,1,0,0:0:0:30:soft-hitwhistle.wav
320,192,23959,1,0,0:0:0:0:
192,192,24146,1,0,0:0:0:0:
320,192,24146,1,0,0:0:0:0:
64,192,24334,1,0,0:0:0:30:soft-hitclap2.wav
192,192,24334,1,0,0:0:0:0:
192,192,24521,1,0,0:0:0:0:
320,192,24521,1,0,0:0:0:0:
64,192,24709,128,0,25084:0:0:0:0:
448,192,24709,1,0,0:0:0:30:soft-hitwhistle.wav
320,192,24709,1,0,0:0:0:0:
192,192,25084,1,0,0:0:0:0:
448,192,25084,1,0,0:0:0:30:soft-hitclap2.wav
320,192,25271,1,0,0:0:0:0:
192,192,25459,128,0,25834:0:0:0:0:
448,192,25459,1,0,0:0:0:30:soft-hitwhistle.wav
64,192,25834,1,0,0:0:0:30:soft-hitclap2.wav
320,192,25834,128,0,26209:0:0:0:0:
192,192,26209,1,0,0:0:0:0:
448,192,26209,1,0,0:0:0:30:soft-hitwhistle.wav
64,192,26396,1,0,0:0:0:0:
192,192,26396,1,0,0:0:0:0:
320,192,26584,1,0,0:0:0:0:
448,192,26584,1,0,0:0:0:30:soft-hitclap2.wav
192,192,26771,1,0,0:0:0:0:
320,192,26771,1,0,0:0:0:0:
64,192,26959,128,0,28271:0:0:0:0:
448,192,26959,1,0,0:0:0:30:soft-hitwhistle.wav
192,192,27146,1,0,0:0:0:0:
448,192,27240,1,0,0:0:0:0:
320,192,27334,1,0,0:0:0:30:soft-hitclap2.wav
192,192,27334,1,0,0:0:0:0:
448,192,27521,1,0,0:0:0:0:
320,192,27615,1,0,0:0:0:0:
192,192,27709,1,0,0:0:0:30:soft-hitwhistle.wav
448,192,27896,1,0,0:0:0:0:
192,192,27990,1,0,0:0:0:0:
320,192,28084,1,0,0:0:0:30:soft-hitclap2.wav
448,192,28084,1,0,0:0:0:0:
192,192,28271,1,0,0:0:0:0:
320,192,28365,1,0,0:0:0:0:
192,192,28459,1,0,0:0:0:0:
448,192,28459,1,0,0:0:0:0:
64,192,28459,1,0,0:0:0:30:soft-hitwhistle.wav
192,192,28646,1,0,0:0:0:0:
448,192,28834,1,0,0:0:0:0:
320,192,28834,1,0,0:0:0:30:soft-hitclap2.wav
64,192,29021,1,0,0:0:0:0:
320,192,29209,1,0,0:0:0:30:soft-hitwhistle.wav
448,192,29209,1,0,0:0:0:0:
192,192,29396,128,0,29771:0:0:0:0:
64,192,29584,1,0,0:0:0:30:soft-hitclap2.wav
320,192,29584,1,0,0:0:0:0:
448,192,29771,128,0,30146:0:0:0:0:
320,192,29959,1,0,0:0:0:30:soft-hitwhistle.wav
64,192,29959,1,0,0:0:0:0:
192,192,30146,1,0,0:0:0:0:
320,192,30334,1,0,0:0:0:0:
64,192,30334,1,0,0:0:0:30:soft-hitclap2.wav
192,192,30521,1,0,0:0:0:0:
448,192,30615,1,0,0:0:0:30:soft-hitwhistle.wav
192,192,30709,1,0,0:0:0:30:soft-hitwhistle.wav
320,192,30802,1,0,0:0:0:30:soft-hitwhistle.wav
64,192,30896,1,0,0:0:0:30:soft-hitwhistle.wav
192,192,31084,128,0,31459:0:0:0:0:
448,192,31084,1,0,0:0:0:30:soft-hitclap2.wav
64,192,31459,1,0,0:0:0:30:soft-hitwhistle.wav
320,192,31459,1,0,0:0:0:0:
448,192,31646,1,0,0:0:0:0:
64,192,31740,1,0,0:0:0:0:
192,192,31834,1,0,0:0:0:30:soft-hitclap2.wav
320,192,31834,1,0,0:0:0:0:
64,192,32021,1,0,0:0:0:0:
448,192,32021,1,0,0:0:0:0:
192,192,32209,1,0,0:0:0:0:
320,192,32209,1,0,0:0:0:30:soft-hitwhistle.wav
448,192,32396,1,0,0:0:0:0:
64,192,32584,1,0,0:0:0:30:soft-hitclap2.wav
192,192,32584,1,0,0:0:0:0:
320,192,32771,128,0,33146:0:0:0:0:
192,192,32959,1,0,0:0:0:30:soft-hitclap2.wav
448,192,33146,1,0,0:0:0:0:
64,192,33334,1,0,0:0:0:30:soft-hitclap2.wav
320,192,33334,1,0,0:0:0:0:
192,192,33521,1,0,0:0:0:0:
64,192,33615,1,0,0:0:0:0:
192,192,33709,1,0,0:0:0:30:soft-hitwhistle.wav
448,192,33802,1,0,0:0:0:30:soft-hitwhistle.wav
320,192,33896,1,0,0:0:0:30:soft-hitwhistle.wav
64,192,34084,1,0,0:0:0:30:soft-hitclap2.wav
320,192,34084,1,0,0:0:0:0:
192,192,34271,1,0,0:0:0:30:soft-hitwhistle.wav
448,192,34271,1,0,0:0:0:0:
192,192,34365,1,0,0:0:0:30:soft-hitwhistle.wav
320,192,34459,1,0,0:0:0:0:
448,192,34459,1,0,0:0:0:30:soft-hitclap2.wav
64,192,34459,1,0,0:0:0:30:soft-hitwhistle.wav
64,192,34646,1,0,0:0:0:0:
192,192,34834,1,0,0:0:0:0:
448,192,34834,1,0,0:0:0:30:soft-hitclap2.wav
320,192,35021,1,0,0:0:0:0:
64,192,35209,1,0,0:0:0:0:
448,192,35209,1,0,0:0:0:30:soft-hitwhistle.wav
192,192,35396,128,0,35771:0:0:0:0:
320,192,35584,1,0,0:0:0:0:
64,192,35584,1,0,0:0:0:30:soft-hitclap2.wav
448,192,35771,128,0,36146:0:0:0:0:
320,192,35959,1,0,0:0:0:30:soft-hitwhistle.wav
64,192,35959,1,0,0:0:0:0:
192,192,36146,1,0,0:0:0:0:
64,192,36334,1,0,0:0:0:0:
320,192,36334,1,0,0:0:0:30:soft-hitclap2.wav
192,192,36521,1,0,0:0:0:0:
320,192,36709,1,0,0:0:0:0:
448,192,36709,1,0,0:0:0:30:soft-hitwhistle.wav
64,192,36896,1,0,0:0:0:0:
192,192,37084,128,0,37459:0:0:0:0:
448,192,37084,1,0,0:0:0:30:soft-hitclap2.wav
448,192,37459,1,0,0:0:0:0:
64,192,37459,1,0,0:0:0:30:soft-hitwhistle.wav
320,192,37646,1,0,0:0:0:30:soft-hitwhistle.wav
192,192,37646,1,0,0:0:0:0:
64,192,37740,1,0,0:0:0:30:soft-hitwhistle.wav
192,192,37834,1,0,0:0:0:30:soft-hitclap2.wav
320,192,37834,1,0,0:0:0:0:
448,192,38021,1,0,0:0:0:30:soft-hitwhistle.wav
64,192,38021,1,0,0:0:0:0:
320,192,38209,1,0,0:0:0:30:soft-hitwhistle.wav
192,192,38209,1,0,0:0:0:0:
448,192,38302,1,0,0:0:0:30:soft-hitwhistle.wav
320,192,38396,1,0,0:0:0:30:soft-hitwhistle.wav
192,192,38396,1,0,0:0:0:0:
64,192,38584,1,0,0:0:0:30:soft-hitclap2.wav
448,192,38584,1,0,0:0:0:0:
320,192,38771,128,0,39146:0:0:0:0:
448,192,38771,1,0,0:0:0:0:
192,192,38959,1,0,0:0:0:30:soft-hitclap2.wav
64,192,39146,1,0,0:0:0:0:
192,192,39334,1,0,0:0:0:0:
448,192,39334,1,0,0:0:0:30:soft-hitclap2.wav
320,192,39427,1,0,0:0:0:30:soft-hitwhistle.wav
192,192,39521,1,0,0:0:0:30:soft-hitwhistle.wav
64,192,39709,1,0,0:0:0:30:soft-hitwhistle.wav
320,192,39709,1,0,0:0:0:0:
192,192,39896,1,0,0:0:0:0:
448,192,40084,1,0,0:0:0:30:soft-hitclap2.wav
320,192,40084,1,0,0:0:0:0:
192,192,40271,1,0,0:0:0:0:
64,192,40459,1,0,0:0:0:0:
320,192,40459,1,0,0:0:0:0:
448,192,40459,1,0,0:0:0:30:soft-hitwhistle.wav
448,192,40834,1,0,0:0:0:30:soft-hitwhistle.wav
192,192,41021,1,0,0:0:0:0:
320,192,41115,1,0,0:0:0:0:
192,192,41209,1,0,0:0:0:0:
448,192,41209,1,0,0:0:0:30:soft-hitwhistle.wav
64,192,41584,1,0,0:0:0:0:
448,192,41584,1,0,0:0:0:30:soft-hitwhistle.wav
192,192,41959,1,0,0:0:0:0:
448,192,41959,1,0,0:0:0:30:soft-hitwhistle.wav
64,192,42334,1,0,0:0:0:0:
448,192,42334,1,0,0:0:0:30:soft-hitwhistle.wav
192,192,42521,1,0,0:0:0:0:
192,192,42709,1,0,0:0:0:0:
448,192,42709,1,0,0:0:0:30:soft-hitwhistle.wav
448,192,43084,1,0,0:0:0:30:soft-hitwhistle.wav
448,192,43271,1,0,0:0:0:0:
320,192,43365,1,0,0:0:0:0:
64,192,43459,1,0,0:0:0:30:soft-hitwhistle.wav
192,192,43459,1,0,0:0:0:0:
64,192,43834,1,0,0:0:0:0:
448,192,43834,1,0,0:0:0:30:soft-hitwhistle.wav
192,192,44209,1,0,0:0:0:0:
448,192,44209,1,0,0:0:0:30:soft-hitwhistle.wav
320,192,44584,1,0,0:0:0:0:
448,192,44584,1,0,0:0:0:30:soft-hitwhistle.wav
192,192,44959,1,0,0:0:0:0:
448,192,44959,1,0,0:0:0:30:soft-hitwhistle.wav
64,192,45240,1,0,0:0:0:0:
448,192,45334,1,0,0:0:0:30:soft-hitwhistle.wav
192,192,45521,1,0,0:0:0:0:
64,192,45709,1,0,0:0:0:0:
448,192,45709,1,0,0:0:0:30:soft-hitwhistle.wav
320,192,46084,1,0,0:0:0:0:
448,192,46084,1,0,0:0:0:30:soft-hitwhistle.wav
64,192,46459,1,0,0:0:0:30:soft-hitwhistle.wav
320,192,46459,1,0,0:0:0:0:
64,192,46834,1,0,0:0:0:30:soft-hitwhistle.wav
320,192,46834,1,0,0:0:0:0:
192,192,47021,1,0,0:0:0:0:
320,192,47115,1,0,0:0:0:0:
64,192,47209,1,0,0:0:0:30:soft-hitwhistle.wav
192,192,47209,1,0,0:0:0:0:
448,192,47209,1,0,0:0:0:0:
64,192,47584,1,0,0:0:0:30:soft-hitwhistle.wav
320,192,47584,1,0,0:0:0:0:
448,192,47584,1,0,0:0:0:0:
64,192,47959,1,0,0:0:0:30:soft-hitwhistle.wav
192,192,47959,1,0,0:0:0:0:
320,192,47959,1,0,0:0:0:0:
64,192,48334,1,0,0:0:0:30:soft-hitwhistle.wav
448,192,48334,1,0,0:0:0:0:
192,192,48521,1,0,0:0:0:0:
64,192,48709,1,0,0:0:0:30:soft-hitwhistle.wav
192,192,48709,1,0,0:0:0:0:
64,192,49084,1,0,0:0:0:30:soft-hitwhistle.wav
320,192,49084,1,0,0:0:0:0:
448,192,49271,1,0,0:0:0:0:
320,192,49365,1,0,0:0:0:0:
64,192,49459,1,0,0:0:0:30:soft-hitwhistle.wav
192,192,49459,1,0,0:0:0:0:
64,192,49834,1,0,0:0:0:30:soft-hitwhistle.wav
320,192,49834,1,0,0:0:0:0:
448,192,50021,1,0,0:0:0:0:
64,192,50209,1,0,0:0:0:30:soft-hitwhistle.wav
320,192,50209,1,0,0:0:0:0:
448,192,50209,1,0,0:0:0:0:
64,192,50584,1,0,0:0:0:30:soft-hitwhistle.wav
192,192,50584,1,0,0:0:0:0:
320,192,50584,1,0,0:0:0:0:
64,192,50959,1,0,0:0:0:30:soft-hitwhistle.wav
192,192,50959,1,0,0:0:0:0:
448,192,50959,1,0,0:0:0:0:
64,192,51334,1,0,0:0:0:30:soft-hitwhistle.wav
320,192,51334,1,0,0:0:0:0:
64,192,51521,1,0,0:0:0:0:
192,192,51615,1,0,0:0:0:0:
320,192,51709,1,0,0:0:0:0:
448,192,51709,1,0,0:0:0:30:soft-hitwhistle.wav
192,192,52084,1,0,0:0:0:0:
448,192,52084,1,0,0:0:0:30:soft-hitwhistle.wav
64,192,52459,1,0,0:0:0:30:soft-hitwhistle.wav
320,192,52459,1,0,0:0:0:0:
448,192,52459,1,0,0:0:0:0:
64,192,52834,1,0,0:0:0:30:soft-hitclap2.wav
448,192,52834,1,0,0:0:0:0:
64,192,53021,1,0,0:0:0:0:
448,192,53021,1,0,0:0:0:0:
192,192,53115,1,0,0:0:0:0:
320,192,53115,1,0,0:0:0:0:
64,192,53209,1,0,0:0:0:0:
448,192,53209,1,0,0:0:0:30:soft-hitwhistle.wav
192,192,53584,1,0,0:0:0:0:
448,192,53584,1,0,0:0:0:30:soft-hitclap2.wav
320,192,53584,1,0,0:0:0:0:
64,192,53959,1,0,0:0:0:30:soft-hitwhistle.wav
320,192,53959,1,0,0:0:0:0:
448,192,53959,1,0,0:0:0:0:
64,192,54334,1,0,0:0:0:30:soft-hitclap2.wav
192,192,54334,1,0,0:0:0:0:
448,192,54334,1,0,0:0:0:0:
64,192,54709,1,0,0:0:0:0:
320,192,54709,1,0,0:0:0:0:
448,192,54709,1,0,0:0:0:30:soft-hitwhistle.wav
192,192,55084,1,0,0:0:0:0:
448,192,55084,1,0,0:0:0:30:soft-hitclap2.wav
64,192,55271,1,0,0:0:0:0:
320,192,55271,1,0,0:0:0:0:
192,192,55365,1,0,0:0:0:0:
448,192,55365,1,0,0:0:0:0:
64,192,55459,1,0,0:0:0:30:soft-hitwhistle.wav
320,192,55459,1,0,0:0:0:0:
64,192,55834,1,0,0:0:0:0:
192,192,55834,1,0,0:0:0:0:
448,192,55834,1,0,0:0:0:30:soft-hitclap2.wav
64,192,56209,1,0,0:0:0:30:soft-hitwhistle.wav
320,192,56209,1,0,0:0:0:0:
448,192,56209,1,0,0:0:0:0:
64,192,56584,1,0,0:0:0:30:soft-hitclap2.wav
192,192,56584,1,0,0:0:0:0:
320,192,56584,1,0,0:0:0:0:
192,192,56959,1,0,0:0:0:0:
320,192,56959,1,0,0:0:0:0:
448,192,56959,1,0,0:0:0:30:soft-hitwhistle.wav
64,192,57240,1,0,0:0:0:0:
192,192,57240,1,0,0:0:0:0:
448,192,57334,1,0,0:0:0:30:soft-hitclap2.wav
320,192,57521,1,0,0:0:0:0:
64,192,57521,1,0,0:0:0:0:
192,192,57709,1,0,0:0:0:0:
448,192,57709,1,0,0:0:0:30:soft-hitwhistle.wav
64,192,58084,1,0,0:0:0:30:soft-hitclap2.wav
320,192,58084,1,0,0:0:0:0:
64,192,58459,1,0,0:0:0:30:soft-hitwhistle.wav
192,192,58459,1,0,0:0:0:0:
448,192,58459,1,0,0:0:0:0:
64,192,58834,1,0,0:0:0:0:
448,192,58834,1,0,0:0:0:30:soft-hitclap2.wav
64,192,59021,1,0,0:0:0:0:
192,192,59021,1,0,0:0:0:0:
320,192,59115,1,0,0:0:0:0:
448,192,59115,1,0,0:0:0:0:
64,192,59209,1,0,0:0:0:30:soft-hitwhistle.wav
192,192,59209,1,0,0:0:0:0:
64,192,59584,1,0,0:0:0:30:soft-hitclap2.wav
320,192,59584,1,0,0:0:0:0:
448,192,59584,1,0,0:0:0:0:
64,192,59959,1,0,0:0:0:30:soft-hitwhistle.wav
192,192,59959,1,0,0:0:0:0:
320,192,59959,1,0,0:0:0:0:
192,192,60334,1,0,0:0:0:0:
448,192,60334,1,0,0:0:0:30:soft-hitclap2.wav
320,192,60521,1,0,0:0:0:0:
64,192,60709,1,0,0:0:0:30:soft-hitwhistle.wav
192,192,60709,1,0,0:0:0:0:
64,192,61084,1,0,0:0:0:30:soft-hitclap2.wav
320,192,61084,1,0,0:0:0:0:
64,192,61271,1,0,0:0:0:0:
192,192,61365,1,0,0:0:0:0:
320,192,61459,1,0,0:0:0:0:
448,192,61459,1,0,0:0:0:30:soft-hitwhistle.wav
64,192,61834,1,0,0:0:0:30:soft-hitclap2.wav
192,192,61834,1,0,0:0:0:0:
320,192,62021,1,0,0:0:0:0:
320,192,62209,1,0,0:0:0:0:
448,192,62209,1,0,0:0:0:30:soft-hitwhistle.wav
64,192,62584,1,0,0:0:0:30:soft-hitclap2.wav
320,192,62584,1,0,0:0:0:0:
192,192,62959,1,0,0:0:0:0:
448,192,62959,1,0,0:0:0:30:soft-hitwhistle.wav
64,192,63334,1,0,0:0:0:30:soft-hitclap2.wav
320,192,63334,1,0,0:0:0:0:
448,192,63521,1,0,0:0:0:0:
320,192,63615,1,0,0:0:0:0:
64,192,63709,1,0,0:0:0:30:soft-hitwhistle.wav
192,192,63709,1,0,0:0:0:0:
320,192,63896,1,0,0:0:0:0:
192,192,63990,1,0,0:0:0:0:
64,192,64084,1,0,0:0:0:30:soft-hitclap2.wav
320,192,64084,128,0,64459:0:0:0:0:
192,192,64271,128,0,64459:0:0:0:0:
64,192,64459,1,0,0:0:0:30:soft-hitwhistle.wav
448,192,64459,128,0,65115:0:0:0:0:
64,192,65209,1,0,0:0:0:0:
448,192,65209,1,0,0:0:0:30:soft-hitclap2.wav
320,192,65396,128,0,65584:0:0:0:0:
192,192,65584,1,0,0:0:0:0:
64,192,65771,1,0,0:0:0:0:
192,192,65771,128,0,66709:0:0:0:0:
448,192,65771,1,0,0:0:0:30:soft-hitwhistle.wav
64,192,66146,1,0,0:0:0:0:
448,192,66146,1,0,0:0:0:30:soft-hitwhistle.wav
448,192,66521,1,0,0:0:0:30:soft-hitwhistle.wav
448,192,66615,1,0,0:0:0:30:soft-hitwhistle.wav
64,192,66709,1,0,0:0:0:30:soft-hitclap2.wav
320,192,66709,1,0,0:0:0:0:
448,192,67084,1,0,0:0:0:30:soft-hitwhistle.wav
64,192,67084,1,0,0:0:0:0:
320,192,67271,1,0,0:0:0:0:
192,192,67365,1,0,0:0:0:0:
64,192,67459,1,0,0:0:0:0:
320,192,67459,128,0,67834:0:0:0:0:
448,192,67459,1,0,0:0:0:30:soft-hitwhistle.wav
192,192,67834,128,0,68021:0:0:0:0:
64,192,68021,128,0,68396:0:0:0:0:
448,192,68021,1,0,0:0:0:0:
448,192,68209,1,0,0:0:0:30:soft-hitclap2.wav
320,192,68209,1,0,0:0:0:0:
192,192,68396,128,0,68771:0:0:0:0:
64,192,68771,1,0,0:0:0:0:
320,192,68771,128,0,69146:0:0:0:0:
448,192,68771,1,0,0:0:0:30:soft-hitwhistle.wav
192,192,69146,1,0,0:0:0:30:soft-hitwhistle.wav
448,192,69146,128,0,69334:0:0:0:0:
64,192,69334,128,0,69521:0:0:0:0:
192,192,69521,128,0,70459:0:0:0:0:
320,192,69521,1,0,0:0:0:30:soft-hitwhistle.wav
448,192,69615,1,0,0:0:0:30:soft-hitwhistle.wav
320,192,69709,1,0,0:0:0:30:soft-hitclap2.wav
64,192,69709,1,0,0:0:0:0:
64,192,70084,1,0,0:0:0:0:
320,192,70084,1,0,0:0:0:30:soft-hitclap2.wav
64,192,70459,1,0,0:0:0:0:
448,192,70459,1,0,0:0:0:30:soft-hitwhistle.wav
320,192,70646,128,0,71021:0:0:0:0:
192,192,71021,128,0,71209:0:0:0:0:
320,192,71209,128,0,71396:0:0:0:0:
448,192,71209,1,0,0:0:0:30:soft-hitclap2.wav
192,192,71396,1,0,0:0:0:0:
64,192,71490,1,0,0:0:0:0:
448,192,71584,1,0,0:0:0:0:
64,192,71771,1,0,0:0:0:30:soft-hitwhistle.wav
320,192,71771,128,0,72146:0:0:0:0:
448,192,71771,1,0,0:0:0:0:
64,192,72146,1,0,0:0:0:30:soft-hitwhistle.wav
448,192,72146,1,0,0:0:0:0:
320,192,72334,1,0,0:0:0:0:
192,192,72521,128,0,73271:0:0:0:0:
448,192,72521,1,0,0:0:0:30:soft-hitwhistle.wav
448,192,72615,1,0,0:0:0:30:soft-hitwhistle.wav
64,192,72709,1,0,0:0:0:30:soft-hitclap2.wav
320,192,72709,1,0,0:0:0:0:
448,192,73084,1,0,0:0:0:30:soft-hitwhistle.wav
64,192,73084,1,0,0:0:0:0:
64,192,73459,1,0,0:0:0:0:
448,192,73459,1,0,0:0:0:30:soft-hitwhistle.wav
192,192,73646,128,0,73834:0:0:0:0:
64,192,73834,1,0,0:0:0:0:
320,192,73834,128,0,74021:0:0:0:0:
448,192,74021,128,0,74209:0:0:0:0:
64,192,74209,128,0,74396:0:0:0:0:
192,192,74209,1,0,0:0:0:30:soft-hitclap2.wav
320,192,74396,128,0,74584:0:0:0:0:
64,192,74584,128,0,74771:0:0:0:0:
192,192,74771,128,0,75146:0:0:0:0:
448,192,74771,1,0,0:0:0:30:soft-hitwhistle.wav
448,192,74959,1,0,0:0:0:30:soft-hitwhistle.wav
320,192,75146,128,0,75334:0:0:0:0:
448,192,75334,128,0,75521:0:0:0:0:
320,192,75521,128,0,76459:0:0:0:0:
64,192,76459,1,0,0:0:0:30:soft-hitwhistle.wav
448,192,76459,128,0,77115:0:0:0:0:
192,192,76459,1,0,0:0:0:0:
64,192,76834,1,0,0:0:0:0:
192,192,76834,1,0,0:0:0:30:soft-hitwhistle.wav
448,192,77209,128,0,77490:0:0:0:0:
192,192,77209,1,0,0:0:0:30:soft-hitwhistle.wav
64,192,77396,1,0,0:0:0:0:
192,192,77584,1,0,0:0:0:30:soft-hitwhistle.wav
320,192,77584,128,0,77771:0:0:0:0:
64,192,77771,1,0,0:0:0:0:
448,192,77771,128,0,78146:0:0:0:0:
192,192,77959,1,0,0:0:0:30:soft-hitwhistle.wav
320,192,78146,128,0,79084:0:0:0:0:
64,192,78334,1,0,0:0:0:0:
448,192,78334,1,0,0:0:0:30:soft-hitwhistle.wav
448,192,78709,1,0,0:0:0:30:soft-hitwhistle.wav
64,192,78896,1,0,0:0:0:0:
448,192,79084,1,0,0:0:0:30:soft-hitwhistle.wav
64,192,79271,1,0,0:0:0:0:
320,192,79271,1,0,0:0:0:0:
192,192,79365,1,0,0:0:0:0:
320,192,79459,128,0,79646:0:0:0:0:
448,192,79459,1,0,0:0:0:30:soft-hitwhistle.wav
192,192,79646,128,0,79834:0:0:0:0:
64,192,79834,128,0,80021:0:0:0:0:
448,192,79834,1,0,0:0:0:30:soft-hitwhistle.wav
192,192,80021,128,0,80209:0:0:0:0:
448,192,80209,1,0,0:0:0:30:soft-hitwhistle.wav
320,192,80396,1,0,0:0:0:0:
64,192,80584,1,0,0:0:0:0:
448,192,80584,1,0,0:0:0:30:soft-hitwhistle.wav
320,192,80771,128,0,81146:0:0:0:0:
192,192,80959,1,0,0:0:0:30:soft-hitwhistle.wav
64,192,81146,128,0,81334:0:0:0:0:
320,192,81334,128,0,81521:0:0:0:0:
448,192,81334,1,0,0:0:0:30:soft-hitwhistle.wav
192,192,81521,128,0,82459:0:0:0:0:
448,192,81709,1,0,0:0:0:30:soft-hitwhistle.wav
448,192,82084,1,0,0:0:0:30:soft-hitwhistle.wav
64,192,82459,1,0,0:0:0:30:soft-hitwhistle.wav
448,192,82459,1,0,0:0:0:0:
192,192,82646,128,0,82834:0:0:0:0:
320,192,82646,1,0,0:0:0:0:
64,192,82834,1,0,0:0:0:30:soft-hitwhistle.wav
320,192,82834,128,0,83021:0:0:0:0:
448,192,83021,128,0,83209:0:0:0:0:
192,192,83021,1,0,0:0:0:0:
64,192,83209,128,0,83396:0:0:0:0:
320,192,83209,1,0,0:0:0:30:soft-hitwhistle.wav
192,192,83396,128,0,83584:0:0:0:0:
448,192,83396,1,0,0:0:0:0:
64,192,83584,128,0,83771:0:0:0:0:
320,192,83584,1,0,0:0:0:30:soft-hitwhistle.wav
320,192,83771,128,0,83959:0:0:0:0:
448,192,83771,1,0,0:0:0:0:
64,192,83959,1,0,0:0:0:30:soft-hitwhistle.wav
448,192,83959,128,0,84146:0:0:0:0:
192,192,84146,128,0,84334:0:0:0:0:
320,192,84146,1,0,0:0:0:0:
64,192,84334,1,0,0:0:0:30:soft-hitwhistle.wav
320,192,84334,128,0,84521:0:0:0:0:
192,192,84521,128,0,84709:0:0:0:0:
448,192,84521,1,0,0:0:0:0:
64,192,84709,1,0,0:0:0:30:soft-hitwhistle.wav
64,192,84896,1,0,0:0:0:0:
320,192,84896,128,0,85459:0:0:0:0:
192,192,85084,1,0,0:0:0:30:soft-hitwhistle.wav
448,192,85271,1,0,0:0:0:0:
64,192,85459,1,0,0:0:0:0:
448,192,85459,1,0,0:0:0:30:soft-hitwhistle.wav
192,192,85646,1,0,0:0:0:0:
448,192,85740,1,0,0:0:0:0:
64,192,85834,1,0,0:0:0:30:soft-hitwhistle.wav
192,192,85834,1,0,0:0:0:0:
320,192,86021,1,0,0:0:0:0:
448,192,86115,1,0,0:0:0:0:
192,192,86209,1,0,0:0:0:30:soft-hitwhistle.wav
64,192,86302,1,0,0:0:0:0:
320,192,86396,1,0,0:0:0:0:
448,192,86490,1,0,0:0:0:0:
192,192,86584,1,0,0:0:0:30:soft-hitwhistle.wav
64,192,86677,1,0,0:0:0:0:
320,192,86771,1,0,0:0:0:0:
192,192,86865,1,0,0:0:0:0:
448,192,86959,1,0,0:0:0:30:soft-hitwhistle.wav
320,192,87052,1,0,0:0:0:0:
192,192,87146,1,0,0:0:0:0:
64,192,87240,1,0,0:0:0:0:
320,192,87334,1,0,0:0:0:30:soft-hitwhistle.wav
64,192,87427,1,0,0:0:0:0:
320,192,87521,1,0,0:0:0:0:
64,192,87615,1,0,0:0:0:0:
448,192,87709,1,0,0:0:0:0:
320,192,87709,1,0,0:0:0:30:soft-hitwhistle.wav
64,192,87802,1,0,0:0:0:0:
192,192,87802,1,0,0:0:0:30:soft-hitwhistle.wav
448,192,87896,1,0,0:0:0:0:
320,192,87896,1,0,0:0:0:30:soft-hitwhistle.wav
64,192,87990,1,0,0:0:0:0:
192,192,87990,1,0,0:0:0:30:soft-hitwhistle.wav
448,192,88084,1,0,0:0:0:0:
320,192,88084,1,0,0:0:0:30:soft-hitwhistle.wav
64,192,88177,1,0,0:0:0:0:
192,192,88177,1,0,0:0:0:30:soft-hitwhistle.wav
448,192,88271,1,0,0:0:0:0:
320,192,88271,1,0,0:0:0:30:soft-hitwhistle.wav
64,192,88365,1,0,0:0:0:0:
192,192,88365,1,0,0:0:0:30:soft-hitwhistle.wav
448,192,88459,1,0,0:0:0:30:soft-hitnormal3.wav
64,192,88459,1,0,0:0:0:0:
320,192,88459,1,0,0:0:0:0:
192,192,88646,1,0,0:0:0:30:soft-hitnormal3.wav
320,192,88834,1,0,0:0:0:30:soft-hitnormal3.wav
448,192,89021,1,0,0:0:0:30:soft-hitnormal3.wav
64,192,89115,1,0,0:0:0:30:soft-hitnormal3.wav
448,192,89209,1,0,0:0:0:30:soft-hitnormal3.wav
64,192,89302,1,0,0:0:0:30:soft-hitnormal3.wav
448,192,89396,128,0,89584:0:0:0:30:soft-hitnormal3.wav
192,192,89584,1,0,0:0:0:0:
320,192,89771,1,0,0:0:0:0:
64,192,89959,1,0,0:0:0:30:soft-hitwhistle.wav
448,192,89959,128,0,90240:0:0:0:0:
192,192,89959,1,0,0:0:0:0:
448,192,90334,1,0,0:0:0:30:soft-hitclap2.wav
192,192,90334,1,0,0:0:0:0:
64,192,90521,1,0,0:0:0:0:
192,192,90709,1,0,0:0:0:0:
448,192,90709,1,0,0:0:0:30:soft-hitwhistle.wav
64,192,90896,1,0,0:0:0:0:
192,192,90990,1,0,0:0:0:0:
320,192,91084,1,0,0:0:0:0:
448,192,91084,1,0,0:0:0:30:soft-hitclap2.wav
64,192,91271,1,0,0:0:0:0:
320,192,91271,1,0,0:0:0:0:
192,192,91459,1,0,0:0:0:0:
448,192,91459,1,0,0:0:0:30:soft-hitwhistle.wav
320,192,91646,1,0,0:0:0:0:
192,192,91834,1,0,0:0:0:0:
448,192,91834,1,0,0:0:0:30:soft-hitclap2.wav
64,192,92021,1,0,0:0:0:0:
192,192,92209,128,0,92584:0:0:0:0:
448,192,92209,1,0,0:0:0:30:soft-hitwhistle.wav
64,192,92584,1,0,0:0:0:30:soft-hitclap2.wav
320,192,92584,1,0,0:0:0:0:
192,192,92771,1,0,0:0:0:0:
448,192,92771,1,0,0:0:0:0:
64,192,92959,128,0,93334:0:0:0:0:
320,192,92959,1,0,0:0:0:30:soft-hitwhistle.wav
192,192,93334,1,0,0:0:0:30:soft-hitclap2.wav
320,192,93334,128,0,93709:0:0:0:0:
64,192,93709,1,0,0:0:0:0:
448,192,93709,1,0,0:0:0:30:soft-hitwhistle.wav
320,192,93896,1,0,0:0:0:0:
192,192,94084,1,0,0:0:0:0:
448,192,94084,1,0,0:0:0:30:soft-hitclap2.wav
320,192,94271,1,0,0:0:0:0:
64,192,94459,1,0,0:0:0:30:soft-hitwhistle.wav
192,192,94459,1,0,0:0:0:0:
448,192,94646,1,0,0:0:0:0:
192,192,94740,1,0,0:0:0:0:
448,192,94834,1,0,0:0:0:70:soft-hitclap2.wav
320,192,95021,1,0,0:0:0:0:
64,192,95115,1,0,0:0:0:0:
320,192,95209,1,0,0:0:0:70:soft-hitwhistle.wav
448,192,95396,1,0,0:0:0:0:
192,192,95490,1,0,0:0:0:0:
448,192,95584,1,0,0:0:0:70:soft-hitclap2.wav
320,192,95771,1,0,0:0:0:0:
64,192,95959,1,0,0:0:0:30:soft-hitwhistle.wav
192,192,95959,1,0,0:0:0:0:
448,192,95959,128,0,96240:0:0:0:0:
192,192,96334,1,0,0:0:0:0:
448,192,96334,1,0,0:0:0:30:soft-hitclap2.wav
64,192,96521,1,0,0:0:0:0:
192,192,96709,1,0,0:0:0:0:
448,192,96709,1,0,0:0:0:30:soft-hitwhistle.wav
320,192,96896,1,0,0:0:0:0:
64,192,96990,1,0,0:0:0:0:
320,192,97084,1,0,0:0:0:0:
448,192,97084,1,0,0:0:0:30:soft-hitclap2.wav
64,192,97271,1,0,0:0:0:0:
192,192,97271,1,0,0:0:0:0:
320,192,97459,1,0,0:0:0:0:
448,192,97459,1,0,0:0:0:30:soft-hitwhistle.wav
192,192,97646,1,0,0:0:0:0:
320,192,97646,1,0,0:0:0:0:
64,192,97834,1,0,0:0:0:30:soft-hitclap2.wav
192,192,97834,1,0,0:0:0:0:
192,192,98021,1,0,0:0:0:0:
320,192,98021,1,0,0:0:0:0:
64,192,98209,128,0,98584:0:0:0:0:
448,192,98209,1,0,0:0:0:30:soft-hitwhistle.wav
320,192,98209,1,0,0:0:0:0:
192,192,98584,1,0,0:0:0:0:
448,192,98584,1,0,0:0:0:30:soft-hitclap2.wav
320,192,98771,1,0,0:0:0:0:
192,192,98959,128,0,99334:0:0:0:0:
448,192,98959,1,0,0:0:0:30:soft-hitwhistle.wav
64,192,99334,1,0,0:0:0:30:soft-hitclap2.wav
320,192,99334,128,0,99709:0:0:0:0:
192,192,99709,1,0,0:0:0:0:
448,192,99709,1,0,0:0:0:30:soft-hitwhistle.wav
64,192,99896,1,0,0:0:0:0:
192,192,99896,1,0,0:0:0:0:
320,192,100084,1,0,0:0:0:0:
448,192,100084,1,0,0:0:0:30:soft-hitclap2.wav
192,192,100271,1,0,0:0:0:0:
320,192,100271,1,0,0:0:0:0:
64,192,100459,128,0,101584:0:0:0:0:
192,192,100459,1,0,0:0:0:30:soft-hitwhistle.wav
448,192,100646,1,0,0:0:0:0:
192,192,100740,1,0,0:0:0:0:
320,192,100834,1,0,0:0:0:30:soft-hitclap2.wav
448,192,100834,1,0,0:0:0:0:
192,192,101021,1,0,0:0:0:0:
320,192,101115,1,0,0:0:0:0:
448,192,101209,1,0,0:0:0:30:soft-hitwhistle.wav
320,192,101396,1,0,0:0:0:0:
192,192,101490,1,0,0:0:0:0:
320,192,101584,1,0,0:0:0:0:
448,192,101584,1,0,0:0:0:30:soft-hitclap2.wav
192,192,101771,1,0,0:0:0:0:
320,192,101771,1,0,0:0:0:0:
64,192,101959,128,0,102240:0:0:0:0:
192,192,101959,128,0,102240:0:0:0:0:
448,192,101959,1,0,0:0:0:30:soft-hitwhistle.wav
64,192,102334,1,0,0:0:0:30:soft-hitclap2.wav
320,192,102334,1,0,0:0:0:0:
192,192,102521,1,0,0:0:0:0:
448,192,102521,1,0,0:0:0:0:
64,192,102709,1,0,0:0:0:30:soft-hitwhistle.wav
320,192,102709,1,0,0:0:0:0:
192,192,102896,1,0,0:0:0:0:
448,192,102896,1,0,0:0:0:0:
64,192,102990,1,0,0:0:0:0:
320,192,102990,1,0,0:0:0:0:
192,192,103084,1,0,0:0:0:0:
448,192,103084,1,0,0:0:0:30:soft-hitclap2.wav
192,192,103271,1,0,0:0:0:0:
320,192,103271,1,0,0:0:0:0:
64,192,103459,1,0,0:0:0:30:soft-hitwhistle.wav
320,192,103459,1,0,0:0:0:0:
192,192,103646,1,0,0:0:0:0:
448,192,103646,1,0,0:0:0:0:
64,192,103834,1,0,0:0:0:30:soft-hitclap2.wav
320,192,103834,1,0,0:0:0:0:
192,192,104021,1,0,0:0:0:0:
320,192,104021,1,0,0:0:0:0:
64,192,104209,1,0,0:0:0:30:soft-hitwhistle.wav
320,192,104209,128,0,104490:0:0:0:0:
448,192,104209,128,0,104490:0:0:0:0:
192,192,104584,1,0,0:0:0:0:
448,192,104584,1,0,0:0:0:30:soft-hitclap2.wav
64,192,104771,1,0,0:0:0:0:
320,192,104771,1,0,0:0:0:0:
192,192,104959,1,0,0:0:0:30:soft-hitwhistle.wav
320,192,104959,128,0,105240:0:0:0:0:
448,192,104959,128,0,105240:0:0:0:0:
192,192,105334,128,0,105615:0:0:0:0:
448,192,105334,128,0,105615:0:0:0:30:soft-hitclap2.wav
64,192,105709,1,0,0:0:0:30:soft-hitwhistle.wav
448,192,105709,1,0,0:0:0:0:
192,192,105896,1,0,0:0:0:0:
320,192,105896,1,0,0:0:0:0:
64,192,106084,1,0,0:0:0:30:soft-hitclap2.wav
320,192,106084,1,0,0:0:0:0:
192,192,106271,1,0,0:0:0:0:
448,192,106271,1,0,0:0:0:0:
64,192,106459,128,0,107209:0:0:0:0:
320,192,106459,1,0,0:0:0:30:soft-hitwhistle.wav
448,192,106646,1,0,0:0:0:0:
192,192,106740,1,0,0:0:0:0:
448,192,106834,1,0,0:0:0:0:
320,192,106834,1,0,0:0:0:30:soft-hitclap2.wav
192,192,107021,1,0,0:0:0:0:
448,192,107115,1,0,0:0:0:0:
192,192,107209,1,0,0:0:0:30:soft-hitwhistle.wav
448,192,107396,1,0,0:0:0:0:
192,192,107490,1,0,0:0:0:0:
320,192,107584,1,0,0:0:0:0:
448,192,107584,1,0,0:0:0:30:soft-hitclap2.wav
192,192,107771,1,0,0:0:0:0:
320,192,107771,1,0,0:0:0:0:
64,192,107959,128,0,108240:0:0:0:0:
192,192,107959,128,0,108240:0:0:0:0:
448,192,107959,1,0,0:0:0:30:soft-hitwhistle.wav
64,192,108334,1,0,0:0:0:30:soft-hitclap2.wav
320,192,108334,1,0,0:0:0:0:
192,192,108521,1,0,0:0:0:0:
448,192,108521,1,0,0:0:0:0:
64,192,108709,1,0,0:0:0:30:soft-hitwhistle.wav
320,192,108709,1,0,0:0:0:0:
192,192,108896,1,0,0:0:0:0:
320,192,108896,1,0,0:0:0:0:
64,192,108990,1,0,0:0:0:0:
448,192,108990,1,0,0:0:0:0:
192,192,109084,1,0,0:0:0:0:
320,192,109084,1,0,0:0:0:30:soft-hitclap2.wav
320,192,109271,1,0,0:0:0:0:
448,192,109271,1,0,0:0:0:0:
64,192,109459,1,0,0:0:0:30:soft-hitwhistle.wav
192,192,109459,1,0,0:0:0:0:
320,192,109646,1,0,0:0:0:0:
192,192,109646,1,0,0:0:0:0:
320,192,109834,1,0,0:0:0:0:
448,192,109834,1,0,0:0:0:30:soft-hitclap2.wav
320,192,110021,1,0,0:0:0:0:
192,192,110021,1,0,0:0:0:0:
64,192,110209,1,0,0:0:0:30:soft-hitwhistle.wav
448,192,110209,128,0,110584:0:0:0:0:
192,192,110209,1,0,0:0:0:0:
64,192,110584,1,0,0:0:0:30:soft-hitclap2.wav
320,192,110584,1,0,0:0:0:0:
192,192,110771,1,0,0:0:0:0:
448,192,110771,1,0,0:0:0:0:
64,192,110959,1,0,0:0:0:30:soft-hitwhistle.wav
192,192,110959,128,0,111146:0:0:0:0:
320,192,110959,128,0,111146:0:0:0:0:
64,192,111334,128,0,111521:0:0:0:0:
192,192,111334,128,0,111521:0:0:0:0:
448,192,111334,1,0,0:0:0:30:soft-hitclap2.wav
64,192,111709,1,0,0:0:0:30:soft-hitwhistle.wav
192,192,111709,1,0,0:0:0:0:
320,192,111896,1,0,0:0:0:0:
448,192,111896,1,0,0:0:0:0:
64,192,112084,1,0,0:0:0:30:soft-hitclap2.wav
192,192,112084,1,0,0:0:0:0:
192,192,112271,1,0,0:0:0:0:
320,192,112271,1,0,0:0:0:0:
64,192,112459,128,0,113584:0:0:0:0:
448,192,112459,128,0,113584:0:0:0:30:soft-hitwhistle.wav
192,192,112459,1,0,0:0:0:0:
320,192,112646,1,0,0:0:0:0:
192,192,112834,1,0,0:0:0:30:soft-hitclap2.wav
320,192,113021,1,0,0:0:0:0:
192,192,113209,1,0,0:0:0:30:soft-hitwhistle.wav
320,192,113396,1,0,0:0:0:0:
192,192,113584,1,0,0:0:0:30:soft-hitclap2.wav
320,192,113771,1,0,0:0:0:0:
192,192,113959,1,0,0:0:0:30:soft-hitwhistle.wav
64,192,114021,1,0,0:0:0:0:
192,192,114084,1,0,0:0:0:0:
320,192,114146,1,0,0:0:0:0:
448,192,114209,1,0,0:0:0:0:
320,192,114271,1,0,0:0:0:0:
192,192,114334,1,0,0:0:0:30:soft-hitclap2.wav
64,192,114396,1,0,0:0:0:0:
192,192,114459,1,0,0:0:0:0:
320,192,114521,1,0,0:0:0:0:
448,192,114584,1,0,0:0:0:0:
320,192,114646,1,0,0:0:0:0:
192,192,114709,1,0,0:0:0:30:soft-hitwhistle.wav
64,192,114771,1,0,0:0:0:0:
192,192,114834,1,0,0:0:0:0:
320,192,114896,1,0,0:0:0:0:
448,192,114959,1,0,0:0:0:0:
320,192,115021,1,0,0:0:0:0:
192,192,115084,1,0,0:0:0:30:soft-hitclap2.wav
64,192,115146,1,0,0:0:0:0:
192,192,115209,1,0,0:0:0:0:
320,192,115271,1,0,0:0:0:0:
448,192,115334,1,0,0:0:0:0:
320,192,115396,1,0,0:0:0:0:
64,192,115459,1,0,0:0:0:30:soft-hitwhistle.wav
192,192,115521,1,0,0:0:0:0:
448,192,115584,1,0,0:0:0:0:
320,192,115646,1,0,0:0:0:0:
64,192,115709,1,0,0:0:0:0:
192,192,115771,1,0,0:0:0:0:
448,192,115834,1,0,0:0:0:30:soft-hitclap2.wav
320,192,115896,1,0,0:0:0:0:
64,192,115959,1,0,0:0:0:0:
192,192,116021,1,0,0:0:0:0:
448,192,116084,1,0,0:0:0:0:
320,192,116146,1,0,0:0:0:0:
64,192,116209,1,0,0:0:0:30:soft-hitwhistle.wav
192,192,116271,1,0,0:0:0:0:
448,192,116334,1,0,0:0:0:0:
320,192,116396,1,0,0:0:0:0:
64,192,116459,1,0,0:0:0:0:
192,192,116521,1,0,0:0:0:0:
448,192,116584,1,0,0:0:0:30:soft-hitclap2.wav
320,192,116646,1,0,0:0:0:0:
64,192,116709,1,0,0:0:0:0:
192,192,116771,1,0,0:0:0:0:
448,192,116834,1,0,0:0:0:0:
320,192,116896,1,0,0:0:0:0:
64,192,116959,1,0,0:0:0:30:soft-hitwhistle.wav
192,192,117146,1,0,0:0:0:0:
448,192,117146,128,0,117521:0:0:0:0:
64,192,117334,1,0,0:0:0:30:soft-hitclap2.wav
192,192,117521,1,0,0:0:0:0:
320,192,117521,128,0,117709:0:0:0:0:
448,192,117709,128,0,118084:0:0:0:30:soft-hitwhistle.wav
192,192,117896,1,0,0:0:0:0:
64,192,117990,1,0,0:0:0:0:
192,192,118084,1,0,0:0:0:30:soft-hitclap2.wav
320,192,118084,128,0,118271:0:0:0:0:
64,192,118271,1,0,0:0:0:0:
192,192,118271,128,0,118646:0:0:0:0:
448,192,118459,1,0,0:0:0:30:soft-hitwhistle.wav
64,192,118646,128,0,118834:0:0:0:0:
320,192,118646,1,0,0:0:0:0:
192,192,118834,1,0,0:0:0:30:soft-hitclap2.wav
448,192,118834,128,0,119021:0:0:0:0:
64,192,119021,1,0,0:0:0:0:
320,192,119021,128,0,119771:0:0:0:0:
192,192,119209,1,0,0:0:0:30:soft-hitwhistle.wav
448,192,119396,1,0,0:0:0:0:
192,192,119584,1,0,0:0:0:30:soft-hitclap2.wav
448,192,119771,1,0,0:0:0:0:
320,192,119865,1,0,0:0:0:0:
192,192,119959,1,0,0:0:0:0:
448,192,119959,1,0,0:0:0:30:soft-hitwhistle.wav
64,192,120052,1,0,0:0:0:0:
192,192,120146,1,0,0:0:0:0:
448,192,120146,1,0,0:0:0:0:
64,192,120334,1,0,0:0:0:0:
320,192,120334,1,0,0:0:0:30:soft-hitclap2.wav
192,192,120521,1,0,0:0:0:0:
448,192,120521,1,0,0:0:0:0:
64,192,120709,1,0,0:0:0:30:soft-hitwhistle.wav
320,192,120709,128,0,120896:0:0:0:0:
64,192,120896,1,0,0:0:0:0:
448,192,120896,128,0,121084:0:0:0:0:
192,192,121084,128,0,121271:0:0:0:0:
320,192,121084,1,0,0:0:0:30:soft-hitclap2.wav
64,192,121271,1,0,0:0:0:0:
320,192,121271,128,0,121646:0:0:0:0:
448,192,121459,1,0,0:0:0:30:soft-hitwhistle.wav
64,192,121646,128,0,121834:0:0:0:0:
192,192,121646,1,0,0:0:0:0:
448,192,121834,128,0,122021:0:0:0:30:soft-hitclap2.wav
320,192,122021,128,0,122396:0:0:0:0:
192,192,122209,1,0,0:0:0:30:soft-hitwhistle.wav
64,192,122396,1,0,0:0:0:0:
192,192,122490,1,0,0:0:0:0:
320,192,122584,1,0,0:0:0:30:soft-hitclap2.wav
448,192,122677,128,0,122959:0:0:0:0:
192,192,122771,1,0,0:0:0:0:
64,192,122959,1,0,0:0:0:30:soft-hitwhistle.wav
64,192,123146,1,0,0:0:0:0:
320,192,123146,128,0,123334:0:0:0:0:
192,192,123334,1,0,0:0:0:30:soft-hitclap2.wav
448,192,123334,128,0,123521:0:0:0:0:
64,192,123521,128,0,123709:0:0:0:0:
320,192,123521,1,0,0:0:0:0:
192,192,123709,128,0,123896:0:0:0:0:
448,192,123709,1,0,0:0:0:30:soft-hitwhistle.wav
64,192,123896,1,0,0:0:0:0:
320,192,123896,128,0,124084:0:0:0:0:
192,192,124084,1,0,0:0:0:30:soft-hitclap2.wav
448,192,124084,128,0,124271:0:0:0:0:
64,192,124271,128,0,124646:0:0:0:0:
320,192,124271,1,0,0:0:0:0:
192,192,124459,1,0,0:0:0:30:soft-hitwhistle.wav
192,192,124646,1,0,0:0:0:0:
448,192,124646,1,0,0:0:0:0:
64,192,124834,1,0,0:0:0:30:soft-hitclap2.wav
320,192,124834,1,0,0:0:0:0:
64,192,125021,1,0,0:0:0:0:
192,192,125021,1,0,0:0:0:0:
320,192,125115,1,0,0:0:0:0:
448,192,125209,1,0,0:0:0:30:soft-hitwhistle.wav
64,192,125396,1,0,0:0:0:0:
320,192,125396,1,0,0:0:0:0:
192,192,125584,1,0,0:0:0:0:
448,192,125584,1,0,0:0:0:30:soft-hitclap2.wav
64,192,125771,1,0,0:0:0:0:
320,192,125865,1,0,0:0:0:0:
64,192,125959,1,0,0:0:0:0:
192,192,125959,1,0,0:0:0:0:
448,192,125959,1,0,0:0:0:30:soft-hitwhistle.wav
192,192,126146,1,0,0:0:0:0:
320,192,126146,1,0,0:0:0:0:
320,192,126334,1,0,0:0:0:0:
448,192,126334,1,0,0:0:0:30:soft-hitclap2.wav
64,192,126521,1,0,0:0:0:0:
192,192,126521,1,0,0:0:0:0:
320,192,126709,1,0,0:0:0:0:
448,192,126709,1,0,0:0:0:30:soft-hitwhistle.wav
192,192,126896,128,0,127271:0:0:0:0:
64,192,127084,1,0,0:0:0:0:
320,192,127084,1,0,0:0:0:30:soft-hitclap2.wav
448,192,127271,128,0,127646:0:0:0:0:
320,192,127459,1,0,0:0:0:30:soft-hitwhistle.wav
64,192,127459,1,0,0:0:0:0:
192,192,127646,1,0,0:0:0:0:
64,192,127834,1,0,0:0:0:30:soft-hitclap2.wav
320,192,127834,1,0,0:0:0:0:
192,192,128021,1,0,0:0:0:0:
448,192,128115,1,0,0:0:0:30:soft-hitwhistle.wav
192,192,128209,1,0,0:0:0:30:soft-hitwhistle.wav
320,192,128302,1,0,0:0:0:30:soft-hitwhistle.wav
64,192,128396,1,0,0:0:0:30:soft-hitwhistle.wav
192,192,128584,128,0,128959:0:0:0:0:
448,192,128584,1,0,0:0:0:30:soft-hitclap2.wav
64,192,128959,1,0,0:0:0:30:soft-hitwhistle.wav
320,192,128959,1,0,0:0:0:0:
448,192,129146,1,0,0:0:0:0:
64,192,129240,1,0,0:0:0:0:
192,192,129334,1,0,0:0:0:30:soft-hitclap2.wav
320,192,129334,1,0,0:0:0:0:
64,192,129521,1,0,0:0:0:0:
448,192,129521,1,0,0:0:0:0:
192,192,129709,1,0,0:0:0:0:
320,192,129709,1,0,0:0:0:30:soft-hitwhistle.wav
448,192,129896,1,0,0:0:0:0:
64,192,130084,1,0,0:0:0:30:soft-hitclap2.wav
192,192,130084,1,0,0:0:0:0:
320,192,130271,128,0,130646:0:0:0:0:
192,192,130459,1,0,0:0:0:30:soft-hitclap2.wav
448,192,130646,1,0,0:0:0:0:
64,192,130834,1,0,0:0:0:30:soft-hitclap2.wav
320,192,130834,1,0,0:0:0:0:
192,192,131021,1,0,0:0:0:0:
64,192,131115,1,0,0:0:0:0:
192,192,131209,1,0,0:0:0:30:soft-hitwhistle.wav
448,192,131302,1,0,0:0:0:0:
320,192,131396,1,0,0:0:0:0:
64,192,131584,1,0,0:0:0:0:
320,192,131584,1,0,0:0:0:30:soft-hitclap2.wav
192,192,131771,1,0,0:0:0:30:soft-hitwhistle.wav
448,192,131771,1,0,0:0:0:0:
192,192,131865,1,0,0:0:0:30:soft-hitwhistle.wav
64,192,131959,1,0,0:0:0:30:soft-hitwhistle.wav
320,192,131959,1,0,0:0:0:0:
448,192,131959,1,0,0:0:0:30:soft-hitclap2.wav
64,192,132146,1,0,0:0:0:0:
192,192,132146,1,0,0:0:0:0:
192,192,132334,1,0,0:0:0:0:
448,192,132334,1,0,0:0:0:30:soft-hitclap2.wav
64,192,132521,1,0,0:0:0:0:
320,192,132521,1,0,0:0:0:0:
64,192,132709,1,0,0:0:0:0:
448,192,132709,1,0,0:0:0:30:soft-hitwhistle.wav
192,192,132896,128,0,133271:0:0:0:0:
64,192,133084,1,0,0:0:0:30:soft-hitclap2.wav
320,192,133084,1,0,0:0:0:0:
448,192,133271,128,0,133646:0:0:0:0:
320,192,133459,1,0,0:0:0:30:soft-hitwhistle.wav
64,192,133459,1,0,0:0:0:0:
192,192,133646,1,0,0:0:0:0:
64,192,133834,1,0,0:0:0:30:soft-hitclap2.wav
320,192,133834,1,0,0:0:0:0:
192,192,134021,1,0,0:0:0:0:
448,192,134021,1,0,0:0:0:0:
320,192,134209,1,0,0:0:0:0:
448,192,134209,1,0,0:0:0:30:soft-hitwhistle.wav
64,192,134396,1,0,0:0:0:0:
320,192,134396,1,0,0:0:0:0:
192,192,134584,128,0,134959:0:0:0:0:
448,192,134584,1,0,0:0:0:30:soft-hitclap2.wav
64,192,134959,1,0,0:0:0:30:soft-hitwhistle.wav
448,192,134959,1,0,0:0:0:0:
320,192,135146,1,0,0:0:0:30:soft-hitwhistle.wav
192,192,135146,1,0,0:0:0:0:
64,192,135240,1,0,0:0:0:30:soft-hitwhistle.wav
192,192,135334,1,0,0:0:0:30:soft-hitclap2.wav
320,192,135334,1,0,0:0:0:0:
64,192,135521,1,0,0:0:0:0:
448,192,135521,1,0,0:0:0:30:soft-hitwhistle.wav
192,192,135709,1,0,0:0:0:30:soft-hitwhistle.wav
320,192,135709,1,0,0:0:0:0:
448,192,135802,1,0,0:0:0:0:
320,192,135896,1,0,0:0:0:30:soft-hitwhistle.wav
192,192,135896,1,0,0:0:0:0:
64,192,136084,1,0,0:0:0:30:soft-hitclap2.wav
448,192,136084,1,0,0:0:0:0:
320,192,136271,128,0,136646:0:0:0:0:
448,192,136271,1,0,0:0:0:0:
192,192,136459,1,0,0:0:0:30:soft-hitclap2.wav
64,192,136646,1,0,0:0:0:0:
192,192,136834,1,0,0:0:0:0:
448,192,136834,1,0,0:0:0:30:soft-hitclap2.wav
320,192,136927,1,0,0:0:0:0:
192,192,137021,1,0,0:0:0:0:
64,192,137209,1,0,0:0:0:0:
320,192,137209,1,0,0:0:0:30:soft-hitwhistle.wav
192,192,137396,1,0,0:0:0:0:
448,192,137396,1,0,0:0:0:0:
64,192,137584,1,0,0:0:0:0:
448,192,137584,1,0,0:0:0:30:soft-hitclap2.wav
192,192,137771,1,0,0:0:0:0:
320,192,137771,1,0,0:0:0:0:
64,192,137959,1,0,0:0:0:0:
320,192,137959,1,0,0:0:0:0:
448,192,137959,1,0,0:0:0:30:soft-hitwhistle.wav
