osu file format v14

[General]
AudioFilename: audio.mp3
AudioLeadIn: 0
PreviewTime: 89585
Countdown: 0
SampleSet: Normal
StackLeniency: 0.7
Mode: 1
LetterboxInBreaks: 0
WidescreenStoryboard: 1

[Editor]
DistanceSpacing: 1.1
BeatDivisor: 4
GridSize: 4
TimelineZoom: 2.5

[Metadata]
Title:Oriental Shade
TitleUnicode:Oriental Shade
Artist:Seibin
ArtistUnicode:Seibin
Creator:R-18
Version:Kantan
Source:EZ2AC : EVOLVE
Tags:Oriental rock
BeatmapID:2383447
BeatmapSetID:1141068

[Difficulty]
HPDrainRate:8
CircleSize:2
OverallDifficulty:3
ApproachRate:10
SliderMultiplier:1.4
SliderTickRate:1

[Events]
//Background and Video events
0,0,"bg.jpg",0,0
//Break Periods
//Storyboard Layer 0 (Background)
//Storyboard Layer 1 (Fail)
//Storyboard Layer 2 (Pass)
//Storyboard Layer 3 (Foreground)
//Storyboard Layer 4 (Overlay)
//Storyboard Sound Samples

[TimingPoints]
1455,375,4,1,0,75,1,0
4455,-100,4,1,0,70,0,0
10455,-100,4,1,0,75,0,0
16455,-100,4,1,0,85,0,1
28455,-100,4,1,0,80,0,0
40455,-100,4,1,0,70,0,0
52455,-100,4,1,0,80,0,0
64455,-100,4,1,0,75,0,0
76455,-100,4,1,0,80,0,0
88455,-100,4,1,0,72,0,0
89955,-100,4,1,0,90,0,1
101955,-100,4,1,0,95,0,1
113955,-100,4,1,0,85,0,1
125955,-100,4,1,0,80,0,0

[HitObjects]
256,192,1455,12,0,3705,0:0:0:0:
264,202,4455,5,4,0:0:0:0:
196,132,5392,1,0,0:0:0:0:
308,142,5767,1,0,0:0:0:0:
247,194,6705,1,8,0:0:0:0:
247,194,7080,1,8,0:0:0:0:
346,251,7455,1,0,0:0:0:0:
267,162,8392,1,0,0:0:0:0:
257,159,8767,1,0,0:0:0:0:
311,211,9705,1,0,0:0:0:0:
263,212,10455,1,12,0:0:0:0:
373,230,11392,1,8,0:0:0:0:
373,230,11767,1,8,0:0:0:0:
312,169,12705,1,8,0:0:0:0:
312,169,13080,1,0,0:0:0:0:
244,233,13455,1,8,0:0:0:0:
277,170,14205,1,0,0:0:0:0:
277,170,14955,1,8,0:0:0:0:
354,263,15705,1,0,0:0:0:0:
250,198,16455,1,12,0:0:0:0:
244,175,17205,1,0,0:0:0:0:
244,175,17580,1,8,0:0:0:0:
244,175,17955,1,0,0:0:0:0:
212,148,18705,1,8,0:0:0:0:
225,211,19455,1,0,0:0:0:0:
384,225,20205,1,0,0:0:0:0:
384,225,20580,1,8,0:0:0:0:
384,225,20955,1,0,0:0:0:0:
282,222,21705,1,0,0:0:0:0:
382,245,22455,1,12,0:0:0:0:
278,169,23205,1,0,0:0:0:0:
278,169,23580,1,8,0:0:0:0:
278,169,23955,1,0,0:0:0:0:
328,234,24705,1,8,0:0:0:0:
369,286,25455,1,0,0:0:0:0:
310,215,26205,1,8,0:0:0:0:
310,215,26580,1,0,0:0:0:0:
296,276,26955,1,8,0:0:0:0:
328,241,28455,1,0,0:0:0:0:
414,254,29205,1,0,0:0:0:0:
414,254,29580,1,8,0:0:0:0:
414,254,29955,1,0,0:0:0:0:
386,204,30705,1,8,0:0:0:0:
386,204,31080,1,8,0:0:0:0:
235,284,31455,1,0,0:0:0:0:
313,187,32205,1,0,0:0:0:0:
320,188,32580,1,8,0:0:0:0:
320,188,32955,1,0,0:0:0:0:
380,191,33705,1,8,0:0:0:0:
380,191,34080,1,8,0:0:0:0:
121,176,34455,1,12,0:0:0:0:
380,191,35205,1,0,0:0:0:0:
238,179,35580,1,8,0:0:0:0:
238,179,35955,1,0,0:0:0:0:
406,253,36705,1,8,0:0:0:0:
406,253,37080,1,8,0:0:0:0:
240,183,37455,1,0,0:0:0:0:
281,179,38205,1,8,0:0:0:0:
278,147,38580,1,8,0:0:0:0:
244,162,38955,1,0,0:0:0:0:
377,258,39705,1,8,0:0:0:0:
377,258,40455,1,0,0:0:0:0:
373,188,41205,1,0,0:0:0:0:
373,188,41580,1,8,0:0:0:0:
373,188,41955,1,0,0:0:0:0:
220,213,42705,1,8,0:0:0:0:
317,233,43455,1,0,0:0:0:0:
317,233,44205,1,8,0:0:0:0:
335,144,44580,1,0,0:0:0:0:
201,189,44955,1,0,0:0:0:0:
361,223,45705,1,8,0:0:0:0:
361,223,46455,1,8,0:0:0:0:
272,182,47205,1,0,0:0:0:0:
272,182,47580,1,8,0:0:0:0:
272,182,47955,1,0,0:0:0:0:
322,247,48705,1,8,0:0:0:0:
261,164,49455,1,0,0:0:0:0:
261,164,50205,1,8,0:0:0:0:
261,164,50580,1,0,0:0:0:0:
397,306,50955,1,0,0:0:0:0:
287,222,51705,1,0,0:0:0:0:
231,108,52455,1,4,0:0:0:0:
355,238,53205,1,0,0:0:0:0:
355,238,53580,1,8,0:0:0:0:
355,238,53955,1,0,0:0:0:0:
215,204,54705,1,8,0:0:0:0:
362,222,55455,1,0,0:0:0:0:
362,222,55830,1,8,0:0:0:0:
362,222,56205,1,0,0:0:0:0:
326,235,56955,1,0,0:0:0:0:
326,235,57705,1,8,0:0:0:0:
371,177,58080,1,0,0:0:0:0:
270,161,58455,1,0,0:0:0:0:
303,157,59205,1,0,0:0:0:0:
303,157,59580,1,8,0:0:0:0:
303,157,59955,1,0,0:0:0:0:
351,248,60705,1,8,0:0:0:0:
232,219,61455,1,0,0:0:0:0:
356,259,62205,1,8,0:0:0:0:
356,259,62580,1,0,0:0:0:0:
254,225,62955,1,0,0:0:0:0:
326,258,63705,1,0,0:0:0:0:
235,209,64455,1,12,0:0:0:0:
265,175,65205,1,8,0:0:0:0:
335,227,65767,1,0,0:0:0:0:
239,235,66705,1,8,0:0:0:0:
284,198,67455,1,0,0:0:0:0:
331,216,68205,1,8,0:0:0:0:
331,216,68767,1,0,0:0:0:0:
298,185,69705,1,8,0:0:0:0:
298,185,70080,1,8,0:0:0:0:
177,219,70455,1,0,0:0:0:0:
287,159,71205,1,8,0:0:0:0:
287,159,71767,1,0,0:0:0:0:
353,234,72705,1,8,0:0:0:0:
353,234,73080,1,0,0:0:0:0:
257,207,73455,1,0,0:0:0:0:
233,205,74205,1,8,0:0:0:0:
130,197,74767,1,0,0:0:0:0:
261,190,76455,1,4,0:0:0:0:
208,189,77205,1,0,0:0:0:0:
208,189,77580,1,8,0:0:0:0:
286,185,77955,1,0,0:0:0:0:
224,239,78705,1,8,0:0:0:0:
224,239,79080,1,8,0:0:0:0:
330,237,79455,1,0,0:0:0:0:
308,188,80205,1,0,0:0:0:0:
298,257,80580,1,8,0:0:0:0:
308,188,80955,1,0,0:0:0:0:
251,186,81705,1,8,0:0:0:0:
251,186,82080,1,8,0:0:0:0:
197,234,82455,1,0,0:0:0:0:
197,234,83205,1,8,0:0:0:0:
197,234,83580,1,0,0:0:0:0:
292,185,83955,1,0,0:0:0:0:
242,249,84705,1,8,0:0:0:0:
242,249,85080,1,0,0:0:0:0:
257,190,85455,1,0,0:0:0:0:
336,241,86205,1,0,0:0:0:0:
195,184,86955,1,8,0:0:0:0:
195,184,87705,1,8,0:0:0:0:
200,189,88455,1,0,0:0:0:0:
200,189,89205,1,0,0:0:0:0:
200,189,89580,1,8,0:0:0:0:
343,236,89955,1,12,0:0:0:0:
231,175,90705,1,0,0:0:0:0:
231,175,91080,1,8,0:0:0:0:
231,175,91455,1,0,0:0:0:0:
266,197,92205,1,8,0:0:0:0:
336,222,92580,1,8,0:0:0:0:
336,222,92955,1,0,0:0:0:0:
227,227,93705,1,8,0:0:0:0:
162,131,94455,1,0,0:0:0:0:
162,131,94830,1,8,0:0:0:0:
162,131,95205,1,0,0:0:0:0:
277,206,95955,1,12,0:0:0:0:
309,215,96705,1,0,0:0:0:0:
231,127,97080,1,8,0:0:0:0:
231,127,97455,1,0,0:0:0:0:
231,236,98205,1,8,0:0:0:0:
330,172,98580,1,8,0:0:0:0:
244,207,98955,1,0,0:0:0:0:
221,165,99705,1,8,0:0:0:0:
221,165,100080,1,0,0:0:0:0:
221,165,100455,1,8,0:0:0:0:
246,208,101205,1,0,0:0:0:0:
254,197,101955,1,12,0:0:0:0:
216,160,102705,1,0,0:0:0:0:
216,160,103080,1,8,0:0:0:0:
216,160,103455,1,8,0:0:0:0:
158,198,104205,1,8,0:0:0:0:
158,198,104580,1,8,0:0:0:0:
387,256,104955,1,0,0:0:0:0:
278,212,105705,1,0,0:0:0:0:
278,212,106080,1,8,0:0:0:0:
278,212,106455,1,0,0:0:0:0:
282,182,107205,1,0,0:0:0:0:
282,182,107580,1,8,0:0:0:0:
282,182,107955,1,12,0:0:0:0:
117,185,108705,1,0,0:0:0:0:
295,231,109080,1,8,0:0:0:0:
389,269,109455,1,0,0:0:0:0:
324,240,110205,1,8,0:0:0:0:
329,144,110580,1,8,0:0:0:0:
246,199,110955,1,0,0:0:0:0:
308,188,111705,1,8,0:0:0:0:
308,188,112080,1,0,0:0:0:0:
308,188,112455,1,8,0:0:0:0:
401,239,113205,1,0,0:0:0:0:
256,192,113955,12,0,116955,0:0:0:0:
258,191,117705,5,0,0:0:0:0:
258,191,118080,1,8,0:0:0:0:
258,191,118455,1,0,0:0:0:0:
366,218,119205,1,8,0:0:0:0:
366,218,119580,1,8,0:0:0:0:
366,218,119955,1,12,0:0:0:0:
253,162,120705,1,8,0:0:0:0:
351,226,121455,1,0,0:0:0:0:
351,226,121830,1,8,0:0:0:0:
351,226,122205,1,0,0:0:0:0:
337,261,122955,1,0,0:0:0:0:
337,261,123705,1,8,0:0:0:0:
232,126,124455,1,8,0:0:0:0:
232,126,124830,1,0,0:0:0:0:
232,126,125205,1,8,0:0:0:0:
361,264,125955,1,12,0:0:0:0:
289,197,126705,1,0,0:0:0:0:
289,197,127080,1,8,0:0:0:0:
289,197,127455,1,0,0:0:0:0:
230,217,128205,1,8,0:0:0:0:
230,217,128580,1,8,0:0:0:0:
189,121,128955,1,0,0:0:0:0:
378,273,129705,1,0,0:0:0:0:
272,192,130080,1,8,0:0:0:0:
244,239,130455,1,0,0:0:0:0:
282,235,131205,1,8,0:0:0:0:
282,235,131580,1,8,0:0:0:0:
282,235,131955,1,4,0:0:0:0:
183,96,132705,1,0,0:0:0:0:
183,96,133080,1,8,0:0:0:0:
291,196,133455,1,0,0:0:0:0:
256,219,134205,1,8,0:0:0:0:
256,219,134580,1,8,0:0:0:0:
301,170,134955,1,0,0:0:0:0:
307,156,135705,1,0,0:0:0:0:
325,247,136455,1,8,0:0:0:0:
325,247,136830,1,0,0:0:0:0:
325,247,137205,1,8,0:0:0:0:
325,247,137955,1,12,0:0:0:0:
