osu file format v14

[General]
AudioFilename: audio.mp3
AudioLeadIn: 0
PreviewTime: 89585
Countdown: 0
SampleSet: Normal
StackLeniency: 0.7
Mode: 1
LetterboxInBreaks: 0
WidescreenStoryboard: 0

[Editor]
DistanceSpacing: 1.1
BeatDivisor: 4
GridSize: 4
TimelineZoom: 1.8

[Metadata]
Title:Oriental Shade
TitleUnicode:Oriental Shade
Artist:Seibin
ArtistUnicode:Seibin
Creator:R-18
Version:Inner Oni
Source:EZ2AC : EVOLVE
Tags:Oriental rock
BeatmapID:2383446
BeatmapSetID:1141068

[Difficulty]
HPDrainRate:6
CircleSize:5
OverallDifficulty:6
ApproachRate:5
SliderMultiplier:1.4
SliderTickRate:1

[Events]
//Background and Video events
0,0,"bg.jpg",0,0
//Break Periods
//Storyboard Layer 0 (Background)
//Storyboard Layer 1 (Fail)
//Storyboard Layer 2 (Pass)
//Storyboard Layer 3 (Foreground)
//Storyboard Layer 4 (Overlay)
//Storyboard Sound Samples

[TimingPoints]
1455,375,4,1,0,75,1,0
4455,-100,4,1,0,70,0,0
10455,-100,4,1,0,75,0,0
16455,-100,4,1,0,85,0,1
28455,-100,4,1,0,80,0,0
40455,-100,4,1,0,70,0,0
52455,-100,4,1,0,80,0,0
64455,-100,4,1,0,75,0,0
76455,-100,4,1,0,80,0,0
88455,-100,4,1,0,72,0,0
89955,-100,4,1,0,90,0,1
101955,-100,4,1,0,95,0,1
113955,-100,4,1,0,85,0,1
125955,-100,4,1,0,80,0,0

[HitObjects]
256,192,1455,12,0,3330,0:0:0:0:
217,246,3705,5,8,0:0:0:0:
217,246,4080,1,8,0:0:0:0:
309,155,4455,1,4,0:0:0:0:
302,241,4705,1,8,0:0:0:0:
302,241,4830,1,0,0:0:0:0:
302,241,4955,1,8,0:0:0:0:
302,241,5080,1,0,0:0:0:0:
192,233,5392,1,0,0:0:0:0:
294,169,5767,1,0,0:0:0:0:
186,221,6142,1,0,0:0:0:0:
359,249,6517,1,0,0:0:0:0:
359,249,6611,1,0,0:0:0:0:
359,249,6705,1,8,0:0:0:0:
359,249,6892,1,0,0:0:0:0:
359,249,7080,1,8,0:0:0:0:
355,185,7267,1,8,0:0:0:0:
355,185,7361,1,0,0:0:0:0:
355,185,7455,1,0,0:0:0:0:
234,240,7642,1,0,0:0:0:0:
301,298,8017,1,0,0:0:0:0:
290,182,8205,1,0,0:0:0:0:
290,182,8298,1,0,0:0:0:0:
290,182,8392,1,8,0:0:0:0:
290,182,8486,1,8,0:0:0:0:
336,138,8580,1,0,0:0:0:0:
336,138,8673,1,8,0:0:0:0:
336,138,8767,1,8,0:0:0:0:
336,138,8861,1,8,0:0:0:0:
188,151,8955,1,8,0:0:0:0:
188,151,9048,1,0,0:0:0:0:
188,151,9142,1,0,0:0:0:0:
328,291,9236,1,8,0:0:0:0:
328,291,9330,1,0,0:0:0:0:
328,291,9423,1,0,0:0:0:0:
254,68,9517,1,8,0:0:0:0:
379,240,9611,1,0,0:0:0:0:
261,135,9705,1,0,0:0:0:0:
170,206,10455,1,4,0:0:0:0:
170,206,10642,1,8,0:0:0:0:
170,206,10736,1,8,0:0:0:0:
170,206,10830,1,0,0:0:0:0:
170,206,11017,1,8,0:0:0:0:
170,206,11205,1,0,0:0:0:0:
304,115,11392,1,8,0:0:0:0:
304,115,11486,1,0,0:0:0:0:
304,115,11580,1,0,0:0:0:0:
305,186,11767,1,8,0:0:0:0:
179,199,11955,1,0,0:0:0:0:
179,199,12142,1,8,0:0:0:0:
179,199,12236,1,8,0:0:0:0:
179,199,12330,1,0,0:0:0:0:
179,199,12517,1,8,0:0:0:0:
308,211,12705,1,0,0:0:0:0:
308,211,12798,1,8,0:0:0:0:
308,211,12986,1,8,0:0:0:0:
308,211,13080,1,0,0:0:0:0:
308,211,13267,1,8,0:0:0:0:
174,168,13455,1,0,0:0:0:0:
174,168,13642,1,0,0:0:0:0:
174,168,13736,1,8,0:0:0:0:
174,168,13830,1,0,0:0:0:0:
185,162,14017,1,8,0:0:0:0:
285,232,14205,1,0,0:0:0:0:
285,232,14298,1,0,0:0:0:0:
285,232,14392,1,8,0:0:0:0:
285,232,14486,1,8,0:0:0:0:
285,232,14580,1,0,0:0:0:0:
285,232,14767,1,8,0:0:0:0:
388,211,14955,1,8,0:0:0:0:
388,211,15048,1,8,0:0:0:0:
388,211,15142,1,0,0:0:0:0:
388,211,15236,1,0,0:0:0:0:
388,211,15330,1,8,0:0:0:0:
388,211,15423,1,0,0:0:0:0:
388,211,15517,1,0,0:0:0:0:
244,120,15611,1,8,0:0:0:0:
388,211,15705,1,0,0:0:0:0:
241,219,16080,1,0,0:0:0:0:
241,219,16267,1,8,0:0:0:0:
331,238,16455,1,12,0:0:0:0:
150,197,16830,1,0,0:0:0:0:
150,197,17017,1,8,0:0:0:0:
339,199,17205,1,0,0:0:0:0:
339,199,17392,1,8,0:0:0:0:
339,199,17486,1,8,0:0:0:0:
339,199,17580,1,0,0:0:0:0:
349,224,17767,1,0,0:0:0:0:
212,251,17955,1,0,0:0:0:0:
217,253,18142,1,0,0:0:0:0:
234,135,18236,1,0,0:0:0:0:
203,248,18330,1,8,0:0:0:0:
212,251,18517,1,8,0:0:0:0:
212,251,18705,1,0,0:0:0:0:
369,249,18986,1,8,0:0:0:0:
369,249,19080,1,0,0:0:0:0:
369,249,19267,1,8,0:0:0:0:
272,238,19455,1,0,0:0:0:0:
216,64,19736,1,8,0:0:0:0:
272,238,19830,1,0,0:0:0:0:
105,237,20017,1,0,0:0:0:0:
196,112,20111,1,0,0:0:0:0:
292,197,20205,1,0,0:0:0:0:
292,197,20392,1,0,0:0:0:0:
292,197,20580,1,8,0:0:0:0:
292,197,20767,1,0,0:0:0:0:
172,160,20955,1,0,0:0:0:0:
172,160,21142,1,8,0:0:0:0:
172,160,21236,1,0,0:0:0:0:
172,160,21330,1,0,0:0:0:0:
172,160,21517,1,8,0:0:0:0:
172,160,21705,1,0,0:0:0:0:
172,160,21892,1,8,0:0:0:0:
172,160,21986,1,0,0:0:0:0:
172,160,22080,1,0,0:0:0:0:
174,166,22267,1,0,0:0:0:0:
363,215,22455,1,12,0:0:0:0:
297,274,22736,1,8,0:0:0:0:
297,274,22830,1,0,0:0:0:0:
297,274,23017,1,8,0:0:0:0:
279,168,23205,1,0,0:0:0:0:
265,140,23392,1,8,0:0:0:0:
265,140,23486,1,8,0:0:0:0:
265,140,23580,1,0,0:0:0:0:
265,140,23767,1,8,0:0:0:0:
196,192,23955,1,0,0:0:0:0:
196,192,24142,1,0,0:0:0:0:
222,254,24236,1,0,0:0:0:0:
196,192,24330,1,8,0:0:0:0:
196,192,24517,1,8,0:0:0:0:
196,192,24705,1,0,0:0:0:0:
298,187,24892,1,8,0:0:0:0:
298,187,24986,1,0,0:0:0:0:
298,187,25080,1,0,0:0:0:0:
298,187,25267,1,8,0:0:0:0:
223,258,25455,1,0,0:0:0:0:
223,258,25736,1,8,0:0:0:0:
223,258,25830,1,0,0:0:0:0:
319,240,26017,1,0,0:0:0:0:
143,52,26111,1,0,0:0:0:0:
176,178,26205,1,0,0:0:0:0:
180,179,26392,1,8,0:0:0:0:
180,179,26580,1,0,0:0:0:0:
180,179,26767,1,0,0:0:0:0:
180,179,26955,1,8,0:0:0:0:
315,224,27142,1,0,0:0:0:0:
315,224,27236,1,0,0:0:0:0:
315,224,27330,1,0,0:0:0:0:
223,232,27517,1,8,0:0:0:0:
223,232,27705,1,0,0:0:0:0:
223,232,27892,1,8,0:0:0:0:
223,232,27986,1,8,0:0:0:0:
223,232,28080,1,0,0:0:0:0:
223,232,28267,1,8,0:0:0:0:
317,214,28455,1,8,0:0:0:0:
317,214,28548,1,0,0:0:0:0:
317,214,28642,1,0,0:0:0:0:
317,214,28736,1,0,0:0:0:0:
317,214,28830,1,8,0:0:0:0:
317,214,28923,1,0,0:0:0:0:
317,214,29017,1,8,0:0:0:0:
317,214,29111,1,0,0:0:0:0:
317,214,29205,1,8,0:0:0:0:
317,214,29298,1,0,0:0:0:0:
317,214,29392,1,0,0:0:0:0:
212,61,29486,1,8,0:0:0:0:
265,115,29580,1,0,0:0:0:0:
174,160,29673,1,0,0:0:0:0:
299,72,29767,1,8,0:0:0:0:
317,214,29861,1,0,0:0:0:0:
205,283,29955,1,8,0:0:0:0:
231,197,30048,1,0,0:0:0:0:
231,197,30142,1,0,0:0:0:0:
231,197,30236,1,0,0:0:0:0:
59,195,30330,1,8,0:0:0:0:
59,195,30423,1,0,0:0:0:0:
59,195,30517,1,8,0:0:0:0:
113,228,30611,1,0,0:0:0:0:
248,181,30705,1,0,0:0:0:0:
306,193,30798,1,8,0:0:0:0:
190,134,30892,1,0,0:0:0:0:
176,51,30986,1,8,0:0:0:0:
306,193,31080,1,0,0:0:0:0:
306,193,31267,1,8,0:0:0:0:
168,198,31455,1,8,0:0:0:0:
191,201,31548,1,0,0:0:0:0:
191,201,31642,1,0,0:0:0:0:
191,201,31736,1,0,0:0:0:0:
168,198,31830,1,8,0:0:0:0:
191,201,31923,1,0,0:0:0:0:
266,98,32017,1,8,0:0:0:0:
93,175,32111,1,0,0:0:0:0:
175,296,32205,1,8,0:0:0:0:
191,201,32298,1,0,0:0:0:0:
186,87,32392,1,0,0:0:0:0:
167,138,32486,1,8,0:0:0:0:
167,138,32580,1,8,0:0:0:0:
191,201,32673,1,0,0:0:0:0:
167,138,32767,1,8,0:0:0:0:
191,201,32861,1,0,0:0:0:0:
319,203,32955,1,0,0:0:0:0:
319,203,33048,1,0,0:0:0:0:
319,203,33142,1,8,0:0:0:0:
319,203,33236,1,0,0:0:0:0:
230,138,33330,1,0,0:0:0:0:
192,256,33423,1,0,0:0:0:0:
160,85,33517,1,8,0:0:0:0:
192,256,33611,1,0,0:0:0:0:
241,203,33705,1,8,0:0:0:0:
160,85,33798,1,8,0:0:0:0:
192,256,33892,1,0,0:0:0:0:
99,160,33986,1,8,0:0:0:0:
88,263,34080,1,0,0:0:0:0:
106,158,34267,1,8,0:0:0:0:
317,214,34455,1,8,0:0:0:0:
317,214,34548,1,0,0:0:0:0:
317,214,34642,1,0,0:0:0:0:
317,214,34736,1,0,0:0:0:0:
317,214,34830,1,8,0:0:0:0:
317,214,34923,1,0,0:0:0:0:
317,214,35017,1,8,0:0:0:0:
317,214,35111,1,0,0:0:0:0:
317,214,35205,1,8,0:0:0:0:
317,214,35298,1,0,0:0:0:0:
317,214,35392,1,0,0:0:0:0:
212,61,35486,1,8,0:0:0:0:
265,115,35580,1,0,0:0:0:0:
174,160,35673,1,0,0:0:0:0:
299,72,35767,1,8,0:0:0:0:
317,214,35861,1,0,0:0:0:0:
443,202,35955,1,0,0:0:0:0:
231,197,36048,1,0,0:0:0:0:
361,295,36142,1,8,0:0:0:0:
231,197,36236,1,0,0:0:0:0:
59,195,36330,1,8,0:0:0:0:
59,195,36423,1,0,0:0:0:0:
59,195,36517,1,8,0:0:0:0:
113,228,36611,1,0,0:0:0:0:
285,112,36705,1,8,0:0:0:0:
306,193,36798,1,8,0:0:0:0:
190,134,36892,1,0,0:0:0:0:
176,51,36986,1,8,0:0:0:0:
306,193,37080,1,0,0:0:0:0:
171,202,37267,1,8,0:0:0:0:
85,193,37455,1,0,0:0:0:0:
268,146,37642,1,8,0:0:0:0:
276,245,37736,1,8,0:0:0:0:
276,245,37830,1,0,0:0:0:0:
276,245,38017,1,8,0:0:0:0:
135,222,38205,1,0,0:0:0:0:
135,222,38298,1,8,0:0:0:0:
135,222,38486,1,8,0:0:0:0:
141,219,38580,1,0,0:0:0:0:
141,219,38767,1,8,0:0:0:0:
257,204,38955,1,0,0:0:0:0:
257,204,39048,1,0,0:0:0:0:
353,235,39142,1,8,0:0:0:0:
257,204,39236,1,0,0:0:0:0:
257,204,39330,1,0,0:0:0:0:
353,235,39423,1,8,0:0:0:0:
257,204,39517,1,0,0:0:0:0:
257,204,39611,1,0,0:0:0:0:
353,235,39705,1,8,0:0:0:0:
100,173,39798,1,0,0:0:0:0:
197,115,39892,1,0,0:0:0:0:
285,81,39986,1,8,0:0:0:0:
100,173,40080,1,0,0:0:0:0:
285,81,40267,1,8,0:0:0:0:
293,185,40455,1,8,0:0:0:0:
42,174,40830,1,0,0:0:0:0:
186,208,41017,1,8,0:0:0:0:
186,208,41111,1,0,0:0:0:0:
186,208,41205,1,0,0:0:0:0:
149,95,41580,1,8,0:0:0:0:
440,298,41955,1,0,0:0:0:0:
236,169,42330,1,8,0:0:0:0:
236,169,42517,1,0,0:0:0:0:
236,169,42705,1,0,0:0:0:0:
379,248,43080,1,0,0:0:0:0:
151,213,43267,1,8,0:0:0:0:
177,219,43361,1,8,0:0:0:0:
177,219,43455,1,0,0:0:0:0:
214,138,43830,1,8,0:0:0:0:
293,227,44205,1,8,0:0:0:0:
293,227,44580,1,0,0:0:0:0:
151,166,44955,1,0,0:0:0:0:
151,166,45236,1,0,0:0:0:0:
151,166,45330,1,8,0:0:0:0:
396,271,45517,1,0,0:0:0:0:
249,156,45705,1,8,0:0:0:0:
249,156,46080,1,0,0:0:0:0:
172,219,46455,1,8,0:0:0:0:
307,200,46830,1,8,0:0:0:0:
307,200,47017,1,8,0:0:0:0:
307,200,47111,1,0,0:0:0:0:
307,200,47205,1,0,0:0:0:0:
275,269,47580,1,8,0:0:0:0:
174,189,47955,1,0,0:0:0:0:
328,166,48330,1,8,0:0:0:0:
328,166,48517,1,0,0:0:0:0:
328,166,48705,1,0,0:0:0:0:
363,264,49080,1,8,0:0:0:0:
248,243,49267,1,8,0:0:0:0:
248,243,49361,1,0,0:0:0:0:
248,243,49455,1,0,0:0:0:0:
145,171,49830,1,0,0:0:0:0:
145,171,50017,1,8,0:0:0:0:
145,171,50205,1,8,0:0:0:0:
368,228,50580,1,8,0:0:0:0:
286,254,50955,1,0,0:0:0:0:
181,164,51330,1,8,0:0:0:0:
181,164,51517,1,0,0:0:0:0:
181,164,51611,1,0,0:0:0:0:
181,164,51705,1,0,0:0:0:0:
300,199,52080,1,8,0:0:0:0:
220,246,52455,1,4,0:0:0:0:
140,172,52642,1,0,0:0:0:0:
387,211,52830,1,0,0:0:0:0:
387,211,53017,1,8,0:0:0:0:
387,211,53111,1,0,0:0:0:0:
387,211,53205,1,0,0:0:0:0:
286,210,53392,1,0,0:0:0:0:
286,210,53580,1,8,0:0:0:0:
136,188,53767,1,0,0:0:0:0:
215,233,53955,1,0,0:0:0:0:
215,233,54330,1,8,0:0:0:0:
215,233,54705,1,0,0:0:0:0:
144,121,55080,1,8,0:0:0:0:
277,166,55267,1,8,0:0:0:0:
277,166,55361,1,8,0:0:0:0:
277,166,55455,1,0,0:0:0:0:
221,202,55642,1,0,0:0:0:0:
221,202,55830,1,8,0:0:0:0:
334,253,56017,1,0,0:0:0:0:
132,237,56205,1,0,0:0:0:0:
132,237,56580,1,0,0:0:0:0:
279,219,56955,1,0,0:0:0:0:
279,219,57236,1,8,0:0:0:0:
279,219,57330,1,0,0:0:0:0:
279,219,57517,1,8,0:0:0:0:
427,192,57705,1,8,0:0:0:0:
427,192,57892,1,8,0:0:0:0:
427,192,58080,1,0,0:0:0:0:
427,192,58267,1,0,0:0:0:0:
159,166,58455,1,8,0:0:0:0:
159,166,58642,1,0,0:0:0:0:
159,166,58830,1,0,0:0:0:0:
159,166,59017,1,8,0:0:0:0:
159,166,59111,1,8,0:0:0:0:
159,166,59205,1,0,0:0:0:0:
276,89,59580,1,8,0:0:0:0:
157,212,59955,1,0,0:0:0:0:
314,228,60330,1,8,0:0:0:0:
314,228,60517,1,8,0:0:0:0:
314,228,60705,1,0,0:0:0:0:
202,194,60986,1,8,0:0:0:0:
202,194,61080,1,0,0:0:0:0:
395,232,61267,1,8,0:0:0:0:
395,232,61361,1,0,0:0:0:0:
395,232,61455,1,0,0:0:0:0:
91,165,61830,1,0,0:0:0:0:
91,165,62017,1,0,0:0:0:0:
91,165,62205,1,8,0:0:0:0:
291,232,62580,1,0,0:0:0:0:
159,187,62955,1,0,0:0:0:0:
159,187,63330,1,0,0:0:0:0:
159,187,63517,1,8,0:0:0:0:
159,187,63611,1,0,0:0:0:0:
159,187,63705,1,0,0:0:0:0:
297,185,63892,1,0,0:0:0:0:
297,185,64080,1,8,0:0:0:0:
234,213,64455,1,12,0:0:0:0:
295,143,65205,1,8,0:0:0:0:
295,143,65392,1,8,0:0:0:0:
295,143,65580,1,0,0:0:0:0:
295,143,65767,1,0,0:0:0:0:
427,319,66142,1,0,0:0:0:0:
235,239,66517,1,0,0:0:0:0:
235,239,66611,1,0,0:0:0:0:
235,239,66705,1,8,0:0:0:0:
305,182,67080,1,0,0:0:0:0:
211,161,67267,1,8,0:0:0:0:
211,161,67361,1,0,0:0:0:0:
211,161,67455,1,8,0:0:0:0:
420,282,67830,1,0,0:0:0:0:
420,282,68017,1,8,0:0:0:0:
278,195,68392,1,0,0:0:0:0:
132,242,68767,1,0,0:0:0:0:
274,253,69142,1,0,0:0:0:0:
393,268,69330,1,8,0:0:0:0:
321,292,69517,1,0,0:0:0:0:
321,292,69611,1,0,0:0:0:0:
321,292,69705,1,8,0:0:0:0:
214,243,69892,1,0,0:0:0:0:
214,243,70080,1,8,0:0:0:0:
290,175,70455,1,0,0:0:0:0:
166,147,70642,1,8,0:0:0:0:
388,278,71205,1,8,0:0:0:0:
388,278,71392,1,0,0:0:0:0:
388,278,71486,1,0,0:0:0:0:
388,278,71580,1,0,0:0:0:0:
231,243,71767,1,8,0:0:0:0:
137,187,72142,1,0,0:0:0:0:
137,187,72330,1,8,0:0:0:0:
137,187,72517,1,0,0:0:0:0:
137,187,72611,1,0,0:0:0:0:
137,187,72705,1,8,0:0:0:0:
326,262,73080,1,0,0:0:0:0:
233,224,73455,1,0,0:0:0:0:
233,224,73642,1,0,0:0:0:0:
233,224,73830,1,8,0:0:0:0:
233,224,74017,1,8,0:0:0:0:
233,224,74205,1,0,0:0:0:0:
233,224,74392,1,0,0:0:0:0:
233,224,74580,1,0,0:0:0:0:
233,224,74767,1,8,0:0:0:0:
377,239,75142,1,0,0:0:0:0:
377,239,75330,1,0,0:0:0:0:
233,177,75517,1,8,0:0:0:0:
256,192,75705,12,8,76080,0:0:0:0:
233,177,76455,5,4,0:0:0:0:
226,161,76642,1,8,0:0:0:0:
226,161,76736,1,8,0:0:0:0:
226,161,76830,1,0,0:0:0:0:
226,161,77017,1,0,0:0:0:0:
226,161,77205,1,0,0:0:0:0:
226,161,77392,1,8,0:0:0:0:
155,82,77486,1,8,0:0:0:0:
195,130,77580,1,0,0:0:0:0:
329,197,77767,1,0,0:0:0:0:
126,172,77955,1,0,0:0:0:0:
126,172,78142,1,8,0:0:0:0:
133,158,78236,1,0,0:0:0:0:
133,158,78330,1,0,0:0:0:0:
133,158,78517,1,8,0:0:0:0:
133,158,78705,1,0,0:0:0:0:
133,158,78798,1,8,0:0:0:0:
133,158,78986,1,8,0:0:0:0:
133,158,79080,1,0,0:0:0:0:
133,158,79267,1,8,0:0:0:0:
205,203,79455,1,0,0:0:0:0:
205,203,79642,1,8,0:0:0:0:
207,271,79736,1,8,0:0:0:0:
205,203,79830,1,0,0:0:0:0:
299,162,80017,1,8,0:0:0:0:
309,258,80205,1,0,0:0:0:0:
205,203,80392,1,8,0:0:0:0:
411,250,80486,1,8,0:0:0:0:
309,258,80580,1,0,0:0:0:0:
196,117,80767,1,8,0:0:0:0:
207,248,80955,1,8,0:0:0:0:
207,248,81142,1,0,0:0:0:0:
274,115,81236,1,0,0:0:0:0:
207,248,81330,1,0,0:0:0:0:
207,248,81517,1,8,0:0:0:0:
207,248,81705,1,0,0:0:0:0:
207,248,81798,1,8,0:0:0:0:
207,248,81986,1,8,0:0:0:0:
207,248,82080,1,0,0:0:0:0:
207,248,82267,1,8,0:0:0:0:
301,189,82455,1,8,0:0:0:0:
301,189,82548,1,0,0:0:0:0:
301,189,82642,1,0,0:0:0:0:
301,189,82736,1,0,0:0:0:0:
301,189,82830,1,8,0:0:0:0:
301,189,82923,1,0,0:0:0:0:
301,189,83017,1,0,0:0:0:0:
301,189,83111,1,0,0:0:0:0:
173,200,83205,1,8,0:0:0:0:
173,200,83298,1,0,0:0:0:0:
173,200,83392,1,0,0:0:0:0:
173,200,83486,1,8,0:0:0:0:
173,200,83580,1,8,0:0:0:0:
173,200,83673,1,0,0:0:0:0:
275,252,83767,1,8,0:0:0:0:
173,200,83861,1,0,0:0:0:0:
338,212,83955,1,8,0:0:0:0:
338,212,84048,1,0,0:0:0:0:
338,212,84142,1,0,0:0:0:0:
338,212,84236,1,0,0:0:0:0:
338,212,84330,1,8,0:0:0:0:
338,212,84423,1,0,0:0:0:0:
338,212,84517,1,0,0:0:0:0:
196,188,84611,1,0,0:0:0:0:
193,245,84705,1,8,0:0:0:0:
338,212,84798,1,8,0:0:0:0:
338,212,84892,1,0,0:0:0:0:
338,212,84986,1,8,0:0:0:0:
338,212,85080,1,0,0:0:0:0:
338,212,85173,1,0,0:0:0:0:
338,212,85267,1,8,0:0:0:0:
99,210,85455,1,8,0:0:0:0:
141,266,85548,1,0,0:0:0:0:
141,266,85642,1,0,0:0:0:0:
206,200,85736,1,8,0:0:0:0:
206,200,85830,1,0,0:0:0:0:
142,126,85923,1,0,0:0:0:0:
142,126,86017,1,8,0:0:0:0:
142,126,86111,1,0,0:0:0:0:
321,280,86205,1,0,0:0:0:0:
142,126,86298,1,0,0:0:0:0:
321,280,86392,1,8,0:0:0:0:
374,148,86486,1,0,0:0:0:0:
235,45,86580,1,8,0:0:0:0:
136,210,86673,1,0,0:0:0:0:
321,280,86767,1,0,0:0:0:0:
136,210,86861,1,0,0:0:0:0:
136,210,86955,1,8,0:0:0:0:
78,221,87048,1,0,0:0:0:0:
78,221,87142,1,0,0:0:0:0:
234,235,87236,1,8,0:0:0:0:
78,221,87330,1,0,0:0:0:0:
78,221,87423,1,0,0:0:0:0:
234,235,87517,1,8,0:0:0:0:
78,221,87611,1,0,0:0:0:0:
78,221,87705,1,0,0:0:0:0:
78,221,87798,1,0,0:0:0:0:
325,297,87892,1,8,0:0:0:0:
78,221,87986,1,0,0:0:0:0:
240,233,88080,1,8,0:0:0:0:
240,233,88173,1,8,0:0:0:0:
240,233,88267,1,8,0:0:0:0:
240,233,88361,1,8,0:0:0:0:
163,166,88455,1,0,0:0:0:0:
141,241,88642,1,0,0:0:0:0:
141,241,88830,1,8,0:0:0:0:
327,210,89017,1,0,0:0:0:0:
333,215,89111,1,0,0:0:0:0:
333,215,89205,1,8,0:0:0:0:
285,127,89267,1,0,0:0:0:0:
285,127,89330,1,0,0:0:0:0:
231,230,89392,1,8,0:0:0:0:
181,78,89455,1,0,0:0:0:0:
181,78,89517,1,0,0:0:0:0:
109,153,89580,1,8,0:0:0:0:
109,153,89767,1,0,0:0:0:0:
331,238,89955,1,12,0:0:0:0:
150,197,90330,1,0,0:0:0:0:
150,197,90517,1,8,0:0:0:0:
339,199,90705,1,0,0:0:0:0:
339,199,90892,1,8,0:0:0:0:
339,199,90986,1,8,0:0:0:0:
339,199,91080,1,0,0:0:0:0:
349,224,91267,1,0,0:0:0:0:
212,251,91455,1,0,0:0:0:0:
217,253,91642,1,0,0:0:0:0:
234,135,91736,1,0,0:0:0:0:
203,248,91830,1,8,0:0:0:0:
212,251,92017,1,8,0:0:0:0:
212,251,92205,1,0,0:0:0:0:
369,249,92486,1,8,0:0:0:0:
369,249,92580,1,0,0:0:0:0:
369,249,92767,1,8,0:0:0:0:
272,238,92955,1,0,0:0:0:0:
216,64,93236,1,8,0:0:0:0:
272,238,93330,1,0,0:0:0:0:
105,237,93517,1,0,0:0:0:0:
196,112,93611,1,0,0:0:0:0:
292,197,93705,1,0,0:0:0:0:
292,197,93892,1,0,0:0:0:0:
292,197,94080,1,8,0:0:0:0:
292,197,94267,1,0,0:0:0:0:
172,160,94455,1,0,0:0:0:0:
172,160,94642,1,8,0:0:0:0:
172,160,94736,1,0,0:0:0:0:
172,160,94830,1,0,0:0:0:0:
172,160,95017,1,8,0:0:0:0:
172,160,95205,1,0,0:0:0:0:
172,160,95392,1,8,0:0:0:0:
172,160,95486,1,0,0:0:0:0:
172,160,95580,1,0,0:0:0:0:
174,166,95767,1,0,0:0:0:0:
363,215,95955,1,12,0:0:0:0:
297,274,96236,1,8,0:0:0:0:
297,274,96330,1,0,0:0:0:0:
297,274,96517,1,8,0:0:0:0:
279,168,96705,1,0,0:0:0:0:
265,140,96892,1,8,0:0:0:0:
265,140,96986,1,8,0:0:0:0:
265,140,97080,1,0,0:0:0:0:
265,140,97267,1,8,0:0:0:0:
196,192,97455,1,0,0:0:0:0:
196,192,97642,1,0,0:0:0:0:
222,254,97736,1,0,0:0:0:0:
196,192,97830,1,8,0:0:0:0:
196,192,98017,1,8,0:0:0:0:
196,192,98205,1,0,0:0:0:0:
298,187,98392,1,8,0:0:0:0:
298,187,98486,1,0,0:0:0:0:
298,187,98580,1,0,0:0:0:0:
298,187,98767,1,8,0:0:0:0:
223,258,98955,1,0,0:0:0:0:
223,258,99236,1,8,0:0:0:0:
223,258,99330,1,0,0:0:0:0:
319,240,99517,1,0,0:0:0:0:
143,52,99611,1,0,0:0:0:0:
176,178,99705,1,0,0:0:0:0:
180,179,99892,1,8,0:0:0:0:
180,179,100080,1,0,0:0:0:0:
180,179,100267,1,0,0:0:0:0:
180,179,100455,1,8,0:0:0:0:
315,224,100642,1,0,0:0:0:0:
315,224,100736,1,0,0:0:0:0:
315,224,100830,1,0,0:0:0:0:
223,232,101017,1,8,0:0:0:0:
223,232,101205,1,0,0:0:0:0:
222,66,101298,1,8,0:0:0:0:
223,232,101486,1,8,0:0:0:0:
223,232,101580,1,0,0:0:0:0:
223,232,101767,1,8,0:0:0:0:
331,238,101955,1,12,0:0:0:0:
202,110,102142,1,8,0:0:0:0:
202,110,102236,1,0,0:0:0:0:
150,197,102330,1,0,0:0:0:0:
150,197,102517,1,8,0:0:0:0:
339,199,102705,1,0,0:0:0:0:
339,199,102892,1,8,0:0:0:0:
339,199,102986,1,8,0:0:0:0:
339,199,103080,1,0,0:0:0:0:
349,224,103267,1,0,0:0:0:0:
212,251,103455,1,0,0:0:0:0:
217,253,103642,1,0,0:0:0:0:
234,135,103736,1,0,0:0:0:0:
203,248,103830,1,8,0:0:0:0:
212,251,104017,1,8,0:0:0:0:
212,251,104205,1,0,0:0:0:0:
369,249,104486,1,8,0:0:0:0:
369,249,104580,1,0,0:0:0:0:
369,249,104767,1,8,0:0:0:0:
272,238,104955,1,0,0:0:0:0:
216,64,105236,1,8,0:0:0:0:
272,238,105330,1,0,0:0:0:0:
105,237,105517,1,0,0:0:0:0:
196,112,105611,1,0,0:0:0:0:
292,197,105705,1,0,0:0:0:0:
292,197,105892,1,0,0:0:0:0:
292,197,106080,1,8,0:0:0:0:
292,197,106267,1,0,0:0:0:0:
172,160,106455,1,0,0:0:0:0:
172,160,106642,1,8,0:0:0:0:
172,160,106736,1,0,0:0:0:0:
172,160,106830,1,0,0:0:0:0:
172,160,107017,1,8,0:0:0:0:
172,160,107205,1,0,0:0:0:0:
172,160,107392,1,8,0:0:0:0:
172,160,107486,1,0,0:0:0:0:
172,160,107580,1,0,0:0:0:0:
174,166,107767,1,0,0:0:0:0:
363,215,107955,1,12,0:0:0:0:
297,274,108236,1,8,0:0:0:0:
297,274,108330,1,0,0:0:0:0:
297,274,108517,1,8,0:0:0:0:
279,168,108705,1,0,0:0:0:0:
265,140,108892,1,8,0:0:0:0:
265,140,108986,1,8,0:0:0:0:
265,140,109080,1,0,0:0:0:0:
265,140,109267,1,8,0:0:0:0:
196,192,109455,1,0,0:0:0:0:
196,192,109642,1,0,0:0:0:0:
222,254,109736,1,0,0:0:0:0:
196,192,109830,1,8,0:0:0:0:
196,192,110017,1,8,0:0:0:0:
136,126,110111,1,8,0:0:0:0:
196,192,110205,1,8,0:0:0:0:
298,187,110392,1,8,0:0:0:0:
298,187,110486,1,0,0:0:0:0:
298,187,110580,1,0,0:0:0:0:
298,187,110767,1,8,0:0:0:0:
223,258,110955,1,0,0:0:0:0:
223,258,111236,1,8,0:0:0:0:
223,258,111330,1,0,0:0:0:0:
319,240,111517,1,0,0:0:0:0:
143,52,111611,1,0,0:0:0:0:
176,178,111705,1,0,0:0:0:0:
180,179,111892,1,8,0:0:0:0:
180,179,112080,1,0,0:0:0:0:
180,179,112267,1,0,0:0:0:0:
180,179,112455,1,8,0:0:0:0:
315,224,112642,1,0,0:0:0:0:
315,224,112736,1,0,0:0:0:0:
315,224,112830,1,0,0:0:0:0:
223,232,113017,1,8,0:0:0:0:
223,232,113205,1,0,0:0:0:0:
222,66,113298,1,8,0:0:0:0:
223,232,113486,1,8,0:0:0:0:
223,232,113580,1,0,0:0:0:0:
223,232,113767,1,8,0:0:0:0:
185,171,113955,1,0,0:0:0:0:
185,171,114048,1,0,0:0:0:0:
263,98,114142,1,8,0:0:0:0:
263,98,114205,1,8,0:0:0:0:
263,98,114267,1,8,0:0:0:0:
338,133,114330,1,0,0:0:0:0:
259,189,114423,1,0,0:0:0:0:
336,197,114517,1,8,0:0:0:0:
336,197,114580,1,8,0:0:0:0:
185,171,114642,1,0,0:0:0:0:
211,236,114705,1,0,0:0:0:0:
452,94,114798,1,0,0:0:0:0:
160,87,114892,1,8,0:0:0:0:
160,87,114955,1,8,0:0:0:0:
160,87,115017,1,8,0:0:0:0:
80,165,115080,1,0,0:0:0:0:
80,165,115173,1,0,0:0:0:0:
291,115,115267,1,8,0:0:0:0:
291,115,115330,1,8,0:0:0:0:
291,115,115392,1,0,0:0:0:0:
273,243,115455,1,0,0:0:0:0:
273,243,115548,1,0,0:0:0:0:
371,172,115642,1,8,0:0:0:0:
371,172,115705,1,8,0:0:0:0:
371,172,115767,1,0,0:0:0:0:
371,172,115830,1,0,0:0:0:0:
264,173,115923,1,0,0:0:0:0:
198,127,116017,1,8,0:0:0:0:
198,127,116080,1,8,0:0:0:0:
198,127,116142,1,8,0:0:0:0:
198,127,116205,1,0,0:0:0:0:
425,104,116298,1,0,0:0:0:0:
321,79,116392,1,8,0:0:0:0:
321,79,116455,1,8,0:0:0:0:
321,79,116517,1,0,0:0:0:0:
318,72,116580,1,0,0:0:0:0:
384,74,116673,1,0,0:0:0:0:
273,132,116767,1,8,0:0:0:0:
273,132,116830,1,8,0:0:0:0:
273,132,116892,1,8,0:0:0:0:
273,132,116955,1,0,0:0:0:0:
341,255,117142,1,8,0:0:0:0:
145,244,117330,1,0,0:0:0:0:
145,244,117423,1,0,0:0:0:0:
170,149,117517,1,8,0:0:0:0:
170,149,117705,1,8,0:0:0:0:
145,244,117892,1,0,0:0:0:0:
145,244,118080,1,8,0:0:0:0:
145,244,118173,1,8,0:0:0:0:
170,149,118267,1,0,0:0:0:0:
276,208,118455,1,0,0:0:0:0:
276,208,118642,1,8,0:0:0:0:
276,208,118736,1,8,0:0:0:0:
276,208,118830,1,0,0:0:0:0:
276,208,119017,1,8,0:0:0:0:
276,208,119205,1,0,0:0:0:0:
276,208,119298,1,8,0:0:0:0:
276,208,119486,1,8,0:0:0:0:
276,208,119580,1,0,0:0:0:0:
276,208,119767,1,8,0:0:0:0:
222,142,119955,1,0,0:0:0:0:
300,141,120048,1,8,0:0:0:0:
222,142,120142,1,0,0:0:0:0:
222,142,120236,1,0,0:0:0:0:
222,142,120330,1,8,0:0:0:0:
350,226,120517,1,8,0:0:0:0:
210,205,120705,1,0,0:0:0:0:
210,205,120892,1,0,0:0:0:0:
153,146,120986,1,0,0:0:0:0:
210,205,121080,1,8,0:0:0:0:
210,205,121267,1,8,0:0:0:0:
328,199,121455,1,8,0:0:0:0:
328,199,121548,1,0,0:0:0:0:
328,199,121642,1,0,0:0:0:0:
328,199,121736,1,0,0:0:0:0:
328,199,121830,1,8,0:0:0:0:
328,199,122017,1,8,0:0:0:0:
192,207,122205,1,0,0:0:0:0:
192,207,122298,1,8,0:0:0:0:
192,207,122486,1,8,0:0:0:0:
192,207,122580,1,0,0:0:0:0:
192,207,122767,1,8,0:0:0:0:
306,210,122955,1,0,0:0:0:0:
306,210,123142,1,0,0:0:0:0:
199,163,123236,1,0,0:0:0:0:
306,210,123330,1,8,0:0:0:0:
306,210,123517,1,8,0:0:0:0:
114,187,123705,1,0,0:0:0:0:
114,187,123892,1,8,0:0:0:0:
189,155,123986,1,0,0:0:0:0:
114,187,124080,1,0,0:0:0:0:
186,101,124267,1,8,0:0:0:0:
332,214,124455,1,0,0:0:0:0:
332,214,124736,1,8,0:0:0:0:
332,214,124830,1,0,0:0:0:0:
332,214,125017,1,8,0:0:0:0:
230,205,125205,1,0,0:0:0:0:
230,205,125392,1,8,0:0:0:0:
230,205,125486,1,8,0:0:0:0:
230,205,125580,1,0,0:0:0:0:
230,205,125767,1,8,0:0:0:0:
317,214,125955,1,0,0:0:0:0:
317,214,126142,1,8,0:0:0:0:
317,214,126330,1,8,0:0:0:0:
317,214,126423,1,0,0:0:0:0:
316,321,126517,1,0,0:0:0:0:
317,214,126611,1,0,0:0:0:0:
317,214,126705,1,8,0:0:0:0:
317,214,126798,1,0,0:0:0:0:
317,214,126892,1,0,0:0:0:0:
212,61,126986,1,8,0:0:0:0:
265,115,127080,1,0,0:0:0:0:
174,160,127173,1,0,0:0:0:0:
299,72,127267,1,8,0:0:0:0:
317,214,127361,1,0,0:0:0:0:
205,283,127455,1,8,0:0:0:0:
231,197,127548,1,0,0:0:0:0:
231,197,127642,1,0,0:0:0:0:
231,197,127736,1,0,0:0:0:0:
59,195,127830,1,8,0:0:0:0:
59,195,127923,1,0,0:0:0:0:
59,195,128017,1,8,0:0:0:0:
113,228,128111,1,0,0:0:0:0:
306,193,128205,1,0,0:0:0:0:
306,193,128298,1,8,0:0:0:0:
190,134,128392,1,0,0:0:0:0:
176,51,128486,1,8,0:0:0:0:
306,193,128580,1,0,0:0:0:0:
181,199,128767,1,8,0:0:0:0:
317,214,128955,1,8,0:0:0:0:
317,214,129048,1,0,0:0:0:0:
317,214,129142,1,0,0:0:0:0:
317,214,129236,1,0,0:0:0:0:
317,214,129330,1,8,0:0:0:0:
317,214,129423,1,0,0:0:0:0:
317,214,129517,1,8,0:0:0:0:
317,214,129611,1,0,0:0:0:0:
317,214,129705,1,8,0:0:0:0:
317,214,129798,1,0,0:0:0:0:
317,214,129892,1,0,0:0:0:0:
212,61,129986,1,8,0:0:0:0:
265,115,130080,1,0,0:0:0:0:
174,160,130173,1,0,0:0:0:0:
299,72,130267,1,8,0:0:0:0:
317,214,130361,1,0,0:0:0:0:
443,202,130455,1,0,0:0:0:0:
231,197,130548,1,0,0:0:0:0:
361,295,130642,1,8,0:0:0:0:
231,197,130736,1,0,0:0:0:0:
59,195,130830,1,8,0:0:0:0:
59,195,130923,1,0,0:0:0:0:
59,195,131017,1,8,0:0:0:0:
113,228,131111,1,0,0:0:0:0:
306,193,131205,1,0,0:0:0:0:
306,193,131298,1,8,0:0:0:0:
190,134,131392,1,0,0:0:0:0:
176,51,131486,1,8,0:0:0:0:
306,193,131580,1,0,0:0:0:0:
171,202,131767,1,8,0:0:0:0:
317,214,131955,1,8,0:0:0:0:
317,214,132048,1,0,0:0:0:0:
317,214,132142,1,0,0:0:0:0:
317,214,132236,1,0,0:0:0:0:
317,214,132330,1,8,0:0:0:0:
317,214,132423,1,0,0:0:0:0:
317,214,132517,1,8,0:0:0:0:
317,214,132611,1,0,0:0:0:0:
317,214,132705,1,8,0:0:0:0:
317,214,132798,1,0,0:0:0:0:
317,214,132892,1,0,0:0:0:0:
212,61,132986,1,8,0:0:0:0:
265,115,133080,1,0,0:0:0:0:
174,160,133173,1,0,0:0:0:0:
299,72,133267,1,8,0:0:0:0:
317,214,133361,1,0,0:0:0:0:
443,202,133455,1,0,0:0:0:0:
231,197,133548,1,0,0:0:0:0:
361,295,133642,1,8,0:0:0:0:
231,197,133736,1,0,0:0:0:0:
59,195,133830,1,8,0:0:0:0:
59,195,133923,1,0,0:0:0:0:
59,195,134017,1,8,0:0:0:0:
113,228,134111,1,0,0:0:0:0:
306,193,134205,1,0,0:0:0:0:
306,193,134298,1,8,0:0:0:0:
190,134,134392,1,0,0:0:0:0:
176,51,134486,1,8,0:0:0:0:
306,193,134580,1,0,0:0:0:0:
171,202,134767,1,8,0:0:0:0:
71,146,134955,1,0,0:0:0:0:
307,228,135142,1,8,0:0:0:0:
311,237,135236,1,8,0:0:0:0:
311,237,135330,1,0,0:0:0:0:
311,237,135517,1,8,0:0:0:0:
181,196,135705,1,0,0:0:0:0:
182,196,135798,1,8,0:0:0:0:
261,117,135986,1,8,0:0:0:0:
261,117,136080,1,0,0:0:0:0:
175,89,136267,1,8,0:0:0:0:
257,204,136455,1,0,0:0:0:0:
257,204,136548,1,0,0:0:0:0:
353,235,136642,1,8,0:0:0:0:
257,204,136736,1,0,0:0:0:0:
257,204,136830,1,0,0:0:0:0:
353,235,136923,1,8,0:0:0:0:
257,204,137017,1,0,0:0:0:0:
257,204,137111,1,0,0:0:0:0:
353,235,137205,1,8,0:0:0:0:
100,173,137298,1,0,0:0:0:0:
197,115,137392,1,0,0:0:0:0:
280,296,137486,1,0,0:0:0:0:
280,296,137580,1,8,0:0:0:0:
155,248,137673,1,8,0:0:0:0:
155,248,137767,1,8,0:0:0:0:
155,248,137861,1,8,0:0:0:0:
155,248,137955,1,0,0:0:0:0:
