osu file format v14

[General]
AudioFilename: audio.mp3
AudioLeadIn: 0
PreviewTime: -1
Countdown: 1
SampleSet: Normal
StackLeniency: 0.7
Mode: 0
LetterboxInBreaks: 0
WidescreenStoryboard: 0

[Editor]
Bookmarks: 34539,55539,66205,97747,119038,129872,130205,140872,148705,153414,169747,178830,183580,193914,194247,215580,237080,247580,268914
DistanceSpacing: 0.8
BeatDivisor: 4
GridSize: 32
TimelineZoom: 1.3

[Metadata]
Title:Pluton (Produced by DJ Artz)
TitleUnicode:Plüton (Produced by DJ Artz)
Artist:Sehinsah
ArtistUnicode:Şehinşah
Creator:Coldrod
Version:Dev gezegenler ardinda.
Source:
Tags:
BeatmapID:2192631
BeatmapSetID:1049022

[Difficulty]
HPDrainRate:6
CircleSize:4.1
OverallDifficulty:8.5
ApproachRate:9.7
SliderMultiplier:2.2
SliderTickRate:1

[Events]
//Background and Video events
0,0,"bg.jpg",0,0
//Break Periods
2,97947,106405
2,194114,201752
2,215780,223085
//Storyboard Layer 0 (Background)
//Storyboard Layer 1 (Fail)
//Storyboard Layer 2 (Pass)
//Storyboard Layer 3 (Foreground)
//Storyboard Layer 4 (Overlay)
//Storyboard Sound Samples

[TimingPoints]
23581,333.333333333333,4,1,0,100,1,0
46914,-133.333333333333,4,1,0,100,0,0
47581,-100,4,1,0,100,0,0
53081,-117.647058823529,4,1,0,100,0,0
54247,-166.666666666667,4,1,0,100,0,0
55581,-100,4,1,0,100,0,0
65914,-66.6666666666667,4,1,0,100,0,0
66081,-100,4,1,0,100,0,0
108914,-100,4,1,0,100,0,1
116205,-133.333333333333,4,1,0,100,0,1
129247,-181.818181818181,4,1,0,100,0,1
129414,-166.666666666667,4,1,0,100,0,0
140747,-100,4,1,0,100,0,0
151080,-133.333333333333,4,1,0,100,0,0
177247,-181.818181818181,4,1,0,100,0,0
191080,-285.714285714284,4,1,0,100,0,0
204914,-100,4,1,0,100,0,0
225914,-100,4,1,0,100,0,1
247580,-399.999999999997,4,1,0,100,0,0

[Colours]
Combo1 : 0,157,157
Combo2 : 114,114,186
Combo3 : 255,218,106
Combo4 : 255,156,108

[HitObjects]
86,149,22247,5,0,0:0:0:0:
179,114,22581,1,0,0:0:0:0:
124,206,22914,1,0,0:0:0:0:
253,365,23247,5,0,0:0:0:0:
269,362,23581,2,0,B|298:298|247:260|300:140,1,220
328,149,24081,5,0,0:0:0:0:
328,149,24247,1,0,0:0:0:0:
137,227,24414,2,0,B|161:170|161:170|151:109,1,110
97,101,24747,5,0,0:0:0:0:
198,37,24914,1,0,0:0:0:0:
274,191,25081,2,0,L|297:340,1,110
274,335,25414,1,0,0:0:0:0:
106,122,25581,6,0,L|71:356,1,220
103,357,26081,1,0,0:0:0:0:
222,255,26247,1,0,0:0:0:0:
69,278,26414,1,0,0:0:0:0:
265,317,26581,1,0,0:0:0:0:
171,172,26747,1,0,0:0:0:0:
206,271,26914,1,0,0:0:0:0:
114,366,27081,2,0,L|132:237,1,110
105,233,27414,5,0,0:0:0:0:
105,233,27581,1,0,0:0:0:0:
186,157,27747,1,0,0:0:0:0:
266,358,27914,2,0,P|280:244|274:228,1,110
389,179,28247,2,0,P|380:110|399:59,2,110
158,355,28747,2,0,L|190:89,1,220
199,98,29247,5,0,0:0:0:0:
314,180,29414,1,0,0:0:0:0:
119,209,29581,1,0,0:0:0:0:
212,328,29747,1,0,0:0:0:0:
212,328,29831,1,0,0:0:0:0:
212,328,29914,1,0,0:0:0:0:
237,124,30081,5,0,0:0:0:0:
152,261,30247,1,0,0:0:0:0:
332,285,30414,1,0,0:0:0:0:
141,167,30581,1,0,0:0:0:0:
219,332,30747,1,0,0:0:0:0:
219,332,30831,1,0,0:0:0:0:
219,332,30914,1,0,0:0:0:0:
213,326,31081,2,0,L|243:96,1,220
60,98,31581,6,0,P|126:69|189:80,1,110
370,189,31914,6,0,P|286:192|248:177,1,110
255,57,32247,6,0,P|314:60|366:86,1,110
234,247,32581,2,0,P|161:221|137:187,1,110
155,146,32914,1,0,0:0:0:0:
123,309,33081,1,0,0:0:0:0:
209,235,33247,1,0,0:0:0:0:
299,338,33414,2,0,L|454:357,2,110
24,322,33914,1,0,0:0:0:0:
214,289,34081,1,0,0:0:0:0:
110,352,34247,2,0,P|99:274|122:197,1,110
353,190,34581,5,0,0:0:0:0:
395,318,34747,2,0,L|401:258,2,55
208,304,35081,1,0,0:0:0:0:
196,326,35247,2,0,P|141:322|55:348,1,110
33,215,35581,1,0,0:0:0:0:
52,282,35747,2,0,L|92:55,1,220
117,64,36247,1,0,0:0:0:0:
117,64,36414,1,0,0:0:0:0:
165,144,36581,5,0,0:0:0:0:
302,176,36747,1,0,0:0:0:0:
153,256,36914,5,0,0:0:0:0:
280,186,37081,1,0,0:0:0:0:
230,339,37247,5,0,0:0:0:0:
108,171,37414,1,0,0:0:0:0:
97,320,37581,5,0,0:0:0:0:
193,223,37747,1,0,0:0:0:0:
259,268,37914,5,0,0:0:0:0:
85,185,38081,1,0,0:0:0:0:
168,338,38247,1,0,0:0:0:0:
254,189,38414,2,0,L|268:80,1,110
286,98,38747,2,0,L|298:221,1,110
156,315,39081,5,0,0:0:0:0:
120,344,39247,2,0,P|29:342|6:348,1,110
45,116,39581,2,0,L|65:252,1,110
127,270,39914,1,0,0:0:0:0:
172,247,40081,1,0,0:0:0:0:
281,260,40247,1,0,0:0:0:0:
367,358,40414,2,0,P|371:284|395:248,1,110
441,195,40747,1,0,0:0:0:0:
456,241,40914,2,0,P|471:175|461:119,1,110
366,62,41247,6,0,B|261:52|259:109|142:91,1,220
118,94,41747,1,0,0:0:0:0:
118,94,41914,1,0,0:0:0:0:
118,94,42081,1,0,0:0:0:0:
76,360,42247,6,0,L|52:213,1,110
111,118,42581,1,0,0:0:0:0:
103,268,42747,1,0,0:0:0:0:
56,137,42914,1,0,0:0:0:0:
193,216,43081,1,0,0:0:0:0:
50,229,43247,1,0,0:0:0:0:
124,65,43414,1,0,0:0:0:0:
260,161,43581,5,0,0:0:0:0:
182,240,43747,1,0,0:0:0:0:
208,278,43831,1,0,0:0:0:0:
244,287,43914,1,0,0:0:0:0:
349,217,44081,2,0,P|369:88|232:140,1,330
151,313,44747,1,0,0:0:0:0:
150,168,44914,1,0,0:0:0:0:
154,308,45081,6,0,L|283:324,2,110
48,353,45581,1,0,0:0:0:0:
188,220,45747,2,0,P|168:152|179:98,1,110
437,258,46081,2,0,B|390:289|390:289|307:308,1,110
202,331,46414,1,0,0:0:0:0:
142,246,46581,1,0,0:0:0:0:
262,213,46747,1,0,0:0:0:0:
178,148,46914,2,0,P|117:112|105:67,2,82.5000031471254
354,342,47414,1,0,0:0:0:0:
302,239,47581,6,0,L|327:99,1,110
392,75,47914,1,0,0:0:0:0:
256,214,48081,1,0,0:0:0:0:
375,346,48247,2,0,L|395:195,1,110
157,278,48581,1,0,0:0:0:0:
272,145,48747,1,0,0:0:0:0:
261,353,48914,1,0,0:0:0:0:
154,141,49081,1,0,0:0:0:0:
123,349,49247,6,0,L|106:204,1,110
128,120,49581,1,0,0:0:0:0:
100,118,49747,2,0,P|146:84|228:72,1,110
426,147,50081,1,0,0:0:0:0:
183,224,50247,1,0,0:0:0:0:
135,325,50414,6,0,P|206:324|257:339,1,110
269,351,50747,1,0,0:0:0:0:
404,266,50914,2,0,P|389:213|405:142,1,110
435,133,51247,1,0,0:0:0:0:
325,201,51414,1,0,0:0:0:0:
364,111,51581,1,0,0:0:0:0:
397,307,51747,1,0,0:0:0:0:
297,337,51914,2,0,L|149:317,1,110
23,257,52247,6,0,L|148:243,1,110
207,159,52581,1,0,0:0:0:0:
246,323,52747,1,0,0:0:0:0:
289,113,52914,1,0,0:0:0:0:
107,273,53081,2,0,P|75:208|115:140,2,140.250002675057
190,275,53914,1,0,0:0:0:0:
269,322,54247,2,0,L|416:349,2,131.99999597168
367,111,55581,5,0,0:0:0:0:
279,172,55747,2,0,P|163:162|135:180,1,110
68,292,56081,1,0,0:0:0:0:
106,346,56247,2,0,L|132:206,1,110
205,123,56581,2,0,L|210:57,2,55
305,310,56914,2,0,P|342:219|336:181,1,110
158,156,57247,1,0,0:0:0:0:
340,91,57414,1,0,0:0:0:0:
163,153,57581,1,0,0:0:0:0:
340,91,57747,1,0,0:0:0:0:
229,328,57914,5,0,0:0:0:0:
177,244,58081,2,0,P|166:166|182:98,1,110
350,222,58414,2,0,P|368:277|359:338,1,110
55,273,58747,2,0,B|108:271|108:271|175:297,1,110
193,316,59081,1,0,0:0:0:0:
290,276,59247,1,0,0:0:0:0:
388,353,59414,2,0,B|377:299|377:299|408:138,2,220
148,228,60247,5,0,0:0:0:0:
292,56,61247,5,0,0:0:0:0:
201,110,61414,2,0,L|92:132,1,110
56,173,61747,1,0,0:0:0:0:
56,173,61914,1,0,0:0:0:0:
114,304,62080,2,0,P|211:304|252:326,1,110
253,334,62414,1,0,0:0:0:0:
296,183,62580,1,0,0:0:0:0:
217,237,62747,1,0,0:0:0:0:
373,244,62914,1,0,0:0:0:0:
145,282,63080,1,0,0:0:0:0:
196,97,63247,5,0,0:0:0:0:
223,226,63414,1,0,0:0:0:0:
294,148,63580,1,0,0:0:0:0:
279,329,63747,1,0,0:0:0:0:
120,192,63914,1,0,0:0:0:0:
379,230,64080,1,0,0:0:0:0:
74,272,64247,5,0,0:0:0:0:
329,182,64414,1,0,0:0:0:0:
169,126,64580,1,0,0:0:0:0:
273,243,64747,1,0,0:0:0:0:
152,319,64914,5,0,0:0:0:0:
152,319,64997,1,0,0:0:0:0:
152,319,65080,1,0,0:0:0:0:
227,129,65247,1,0,0:0:0:0:
66,229,65414,1,0,0:0:0:0:
319,222,65581,1,0,0:0:0:0:
114,162,65747,1,0,0:0:0:0:
197,344,65914,2,0,L|227:163,1,165.000006294251
301,48,66247,6,0,L|314:187,1,110
192,282,66581,1,0,0:0:0:0:
393,202,66747,1,0,0:0:0:0:
197,169,66914,2,0,L|36:152,1,110
39,204,67247,2,0,L|181:181,1,110
296,351,67581,6,0,P|317:278|312:211,1,110
175,88,67914,1,0,0:0:0:0:
401,180,68081,1,0,0:0:0:0:
121,333,68247,2,0,L|152:181,1,110
110,157,68581,2,0,L|125:282,1,110
270,93,68914,5,0,0:0:0:0:
388,213,69081,1,0,0:0:0:0:
350,328,69247,2,0,P|359:226|342:169,1,110
174,170,69580,1,0,0:0:0:0:
89,311,69747,2,0,L|235:325,1,110
234,332,70080,1,0,0:0:0:0:
357,216,70247,2,0,L|346:88,2,110
187,262,70747,1,0,0:0:0:0:
154,268,70914,2,0,P|97:260|33:275,1,110
108,338,71247,6,0,P|167:353|225:347,1,110
267,224,71580,5,0,0:0:0:0:
217,325,71747,1,0,0:0:0:0:
174,152,71914,1,0,0:0:0:0:
283,264,72080,1,0,0:0:0:0:
265,86,72247,1,0,0:0:0:0:
170,224,72414,1,0,0:0:0:0:
254,344,72580,1,0,0:0:0:0:
234,155,72747,1,0,0:0:0:0:
154,343,72914,2,0,L|135:202,1,110
257,118,73247,5,0,0:0:0:0:
293,140,73414,2,0,P|355:132|412:148,1,110
266,296,73747,1,0,0:0:0:0:
230,302,73914,2,0,B|168:321|168:321|88:319,2,110
306,366,74414,2,0,B|293:297|359:284|299:149,1,220
265,148,74914,1,0,0:0:0:0:
117,185,75580,5,0,0:0:0:0:
365,260,75747,1,0,0:0:0:0:
107,266,75914,1,0,0:0:0:0:
254,106,76080,1,0,0:0:0:0:
202,345,76247,1,0,0:0:0:0:
140,72,76414,1,0,0:0:0:0:
211,226,76580,5,0,0:0:0:0:
245,210,76664,1,0,0:0:0:0:
282,189,76747,1,0,0:0:0:0:
306,172,76830,1,0,0:0:0:0:
332,159,76914,2,0,L|408:118,1,55
257,300,77247,6,0,P|193:284|152:249,1,110
70,93,77580,1,0,0:0:0:0:
114,119,77747,2,0,L|91:248,1,110
103,341,78080,2,0,P|157:316|217:313,1,110
304,343,78414,1,0,0:0:0:0:
337,338,78497,1,0,0:0:0:0:
365,334,78580,1,0,0:0:0:0:
394,358,78747,2,0,L|415:197,1,110
445,215,79080,1,0,0:0:0:0:
236,224,79247,6,0,L|128:203,2,110
256,319,79747,1,0,0:0:0:0:
284,130,79914,1,0,0:0:0:0:
183,234,80080,1,0,0:0:0:0:
337,268,80247,6,0,P|416:316|454:323,2,110
205,114,80747,1,0,0:0:0:0:
241,317,80914,1,0,0:0:0:0:
305,112,81080,1,0,0:0:0:0:
144,240,81247,1,0,0:0:0:0:
241,317,81414,2,0,B|178:332|178:332|20:307,1,220
9,342,81914,6,0,P|58:290|54:213,1,110
32,82,82247,1,0,0:0:0:0:
171,158,82414,1,0,0:0:0:0:
35,202,82580,2,0,P|89:217|130:270,1,110
119,341,82914,1,0,0:0:0:0:
192,179,83080,1,0,0:0:0:0:
212,289,83247,1,0,0:0:0:0:
294,182,83414,1,0,0:0:0:0:
332,360,83580,2,0,L|366:108,1,220
333,75,84080,5,0,0:0:0:0:
333,75,84247,1,0,0:0:0:0:
254,152,84414,2,0,L|118:171,1,110
58,246,84747,1,0,0:0:0:0:
170,361,84914,2,0,P|200:307|194:226,1,110
106,155,85247,1,0,0:0:0:0:
299,232,85414,1,0,0:0:0:0:
57,338,85580,2,0,L|43:206,1,110
70,65,85914,1,0,0:0:0:0:
72,220,86080,1,0,0:0:0:0:
324,142,86247,6,0,P|266:134|198:151,1,110
72,220,86580,2,0,P|143:250|205:242,1,110
295,325,86914,1,0,0:0:0:0:
336,367,87080,6,0,L|357:209,1,110
255,81,87414,1,0,0:0:0:0:
174,175,87580,2,0,B|191:111|191:111|176:40,2,110
50,337,88080,2,0,P|140:337|204:366,1,110
308,303,88414,2,0,B|373:310|373:310|442:304,2,110
142,218,88914,1,0,0:0:0:0:
150,260,89080,2,0,P|186:192|176:112,1,110
421,60,89414,2,0,B|299:36|288:98|169:64,1,220
98,117,89914,5,0,0:0:0:0:
156,272,90080,1,0,0:0:0:0:
298,160,90247,1,0,0:0:0:0:
93,133,90414,5,0,0:0:0:0:
169,283,90580,1,0,0:0:0:0:
275,134,90747,1,0,0:0:0:0:
92,151,90914,5,0,0:0:0:0:
183,296,91080,1,0,0:0:0:0:
251,116,91247,1,0,0:0:0:0:
86,215,91414,5,0,0:0:0:0:
251,116,91580,1,0,0:0:0:0:
107,325,91747,1,0,0:0:0:0:
314,197,91914,2,0,P|356:121|239:42,1,220
82,60,92414,5,0,0:0:0:0:
134,126,92580,2,0,L|148:257,1,110
124,285,92914,1,0,0:0:0:0:
124,285,93080,1,0,0:0:0:0:
212,173,93247,5,0,0:0:0:0:
230,348,93414,1,0,0:0:0:0:
129,140,93580,1,0,0:0:0:0:
79,280,93747,1,0,0:0:0:0:
230,348,93914,2,0,L|250:215,1,110
357,44,94247,2,0,L|336:166,1,110
177,101,94580,6,0,L|191:228,1,110
61,266,94914,2,0,L|38:378,1,110
59,368,95247,1,0,0:0:0:0:
59,368,95414,1,0,0:0:0:0:
167,289,95580,2,0,P|252:297|301:322,1,110
388,338,95914,2,0,P|355:260|356:215,1,110
389,148,96247,1,0,0:0:0:0:
389,148,96414,1,0,0:0:0:0:
218,95,96580,5,0,0:0:0:0:
218,95,96747,1,0,0:0:0:0:
143,289,96914,1,0,0:0:0:0:
143,289,97080,1,0,0:0:0:0:
143,289,97247,2,0,P|85:231|228:243,1,330
256,192,106914,12,0,108747,0:0:0:0:
80,71,108914,5,0,0:0:0:0:
121,301,109080,2,0,P|131:237|114:167,1,110
25,200,109414,1,0,0:0:0:0:
283,200,109580,1,0,0:0:0:0:
140,238,109747,1,0,0:0:0:0:
339,294,109914,1,0,0:0:0:0:
175,113,110080,1,0,0:0:0:0:
226,324,110247,1,0,0:0:0:0:
309,62,110414,1,0,0:0:0:0:
140,238,110580,2,0,B|103:180|103:180|135:20,1,220
168,41,111080,5,0,0:0:0:0:
111,192,111247,1,0,0:0:0:0:
360,167,111414,5,0,0:0:0:0:
150,165,111580,1,0,0:0:0:0:
208,342,111747,5,0,0:0:0:0:
272,122,111914,1,0,0:0:0:0:
91,64,112080,5,0,0:0:0:0:
128,246,112247,1,0,0:0:0:0:
386,197,112414,5,0,0:0:0:0:
86,156,112580,1,0,0:0:0:0:
232,329,112747,5,0,0:0:0:0:
301,48,112914,1,0,0:0:0:0:
109,139,113080,5,0,0:0:0:0:
376,215,113247,1,0,0:0:0:0:
232,329,113414,6,0,B|205:267|297:238|219:126|240:97,1,220
63,105,113914,2,0,P|118:61|152:167,1,220
54,302,114414,5,0,0:0:0:0:
81,197,114580,1,0,0:0:0:0:
170,367,114747,2,0,L|162:224,1,110
143,61,115080,1,0,0:0:0:0:
332,161,115247,1,0,0:0:0:0:
78,188,115414,1,0,0:0:0:0:
272,263,115580,5,0,0:0:0:0:
143,61,115747,1,0,0:0:0:0:
183,342,115914,1,0,0:0:0:0:
234,104,116080,1,0,0:0:0:0:
277,266,116247,2,0,L|309:101,1,165.000006294251
188,33,116747,5,0,0:0:0:0:
339,237,116914,1,0,0:0:0:0:
118,112,117080,5,0,0:0:0:0:
167,308,117247,1,0,0:0:0:0:
220,42,117414,5,0,0:0:0:0:
78,253,117580,1,0,0:0:0:0:
352,123,117747,5,0,0:0:0:0:
93,135,117914,1,0,0:0:0:0:
405,234,118080,5,0,0:0:0:0:
180,170,118247,1,0,0:0:0:0:
335,57,118414,5,0,0:0:0:0:
180,276,118580,1,0,0:0:0:0:
114,54,118747,5,0,0:0:0:0:
53,341,118914,1,0,0:0:0:0:
180,170,119080,2,0,P|277:112|285:228,1,247.500009441376
127,263,119747,5,0,0:0:0:0:
291,212,119914,1,0,0:0:0:0:
77,201,120080,1,0,0:0:0:0:
315,250,120247,1,0,0:0:0:0:
176,348,120414,1,0,0:0:0:0:
265,92,120580,1,0,0:0:0:0:
96,188,120747,1,0,0:0:0:0:
176,348,120914,2,0,P|192:278|158:172,1,165.000006294251
181,162,121414,5,0,0:0:0:0:
403,217,121580,1,0,0:0:0:0:
93,294,121747,5,0,0:0:0:0:
314,208,121914,1,0,0:0:0:0:
55,226,122080,5,0,0:0:0:0:
389,284,122247,1,0,0:0:0:0:
160,251,122414,5,0,0:0:0:0:
459,218,122581,1,0,0:0:0:0:
218,308,122747,5,0,0:0:0:0:
239,63,122914,1,0,0:0:0:0:
290,219,123080,5,0,0:0:0:0:
130,48,123247,1,0,0:0:0:0:
47,200,123414,1,0,0:0:0:0:
146,361,123580,1,0,0:0:0:0:
239,321,123747,2,0,P|307:316|397:354,1,165.000006294251
398,327,124247,5,0,0:0:0:0:
356,81,124414,2,0,P|336:157|455:123,1,247.500009441376
261,58,125080,5,0,0:0:0:0:
254,233,125247,1,0,0:0:0:0:
392,282,125414,1,0,0:0:0:0:
225,55,125580,5,0,0:0:0:0:
227,229,125747,1,0,0:0:0:0:
375,311,125914,1,0,0:0:0:0:
179,53,126080,5,0,0:0:0:0:
188,238,126247,1,0,0:0:0:0:
339,320,126414,1,0,0:0:0:0:
65,349,126580,2,0,P|83:311|65:168,1,165.000006294251
66,175,127080,1,0,0:0:0:0:
54,160,127247,1,0,0:0:0:0:
179,44,127414,5,0,0:0:0:0:
37,294,127580,1,0,0:0:0:0:
329,32,127747,5,0,0:0:0:0:
384,327,127914,1,0,0:0:0:0:
66,33,128080,5,0,0:0:0:0:
141,306,128247,1,0,0:0:0:0:
422,39,128414,5,0,0:0:0:0:
292,320,128580,1,0,0:0:0:0:
48,146,128747,5,0,0:0:0:0:
401,215,128914,1,0,0:0:0:0:
44,227,129080,1,0,0:0:0:0:
401,215,129247,1,0,0:0:0:0:
219,340,129414,6,0,B|212:297|270:291|228:247|241:193,1,131.99999597168
178,68,129914,1,0,0:0:0:0:
263,90,130080,1,0,0:0:0:0:
349,41,130247,2,0,L|442:49,1,65.9999979858399
451,138,130580,2,0,L|386:148,1,65.9999979858399
349,41,130914,2,0,L|418:52,1,65.9999979858399
323,216,131247,1,0,0:0:0:0:
283,107,131414,1,0,0:0:0:0:
247,335,131580,1,0,0:0:0:0:
394,152,131747,1,0,0:0:0:0:
240,333,131914,2,0,P|217:260|153:237,1,131.99999597168
83,144,132414,5,0,0:0:0:0:
98,276,132580,1,0,0:0:0:0:
184,89,132747,1,0,0:0:0:0:
140,188,132914,1,0,0:0:0:0:
258,251,133080,1,0,0:0:0:0:
33,275,133247,1,0,0:0:0:0:
178,335,133414,1,0,0:0:0:0:
204,338,133497,1,0,0:0:0:0:
225,341,133580,1,0,0:0:0:0:
258,251,133747,6,0,P|287:268|295:365,1,131.99999597168
335,87,134247,2,0,L|323:157,1,65.9999979858399
308,236,134580,1,0,0:0:0:0:
273,65,134747,1,0,0:0:0:0:
185,136,134914,6,0,P|182:185|168:220,2,65.9999979858399
129,46,135414,1,0,0:0:0:0:
91,132,135580,1,0,0:0:0:0:
110,247,135747,1,0,0:0:0:0:
198,134,135914,6,0,P|194:192|184:210,2,65.9999979858399
111,35,136414,1,0,0:0:0:0:
68,139,136580,1,0,0:0:0:0:
110,247,136747,1,0,0:0:0:0:
170,116,136914,1,0,0:0:0:0:
32,197,137080,1,0,0:0:0:0:
108,350,137247,2,0,B|120:307|120:307|111:255|111:255|130:210,1,131.99999597168
214,50,137747,5,0,0:0:0:0:
204,87,137914,1,0,0:0:0:0:
294,237,138080,1,0,0:0:0:0:
285,201,138247,1,0,0:0:0:0:
63,160,138414,1,0,0:0:0:0:
178,188,138580,1,0,0:0:0:0:
209,338,138747,1,0,0:0:0:0:
209,338,138830,1,0,0:0:0:0:
209,338,138914,1,0,0:0:0:0:
112,243,139080,1,0,0:0:0:0:
308,272,139247,1,0,0:0:0:0:
230,71,139414,5,0,0:0:0:0:
222,103,139497,1,0,0:0:0:0:
213,137,139580,1,0,0:0:0:0:
320,271,139747,1,0,0:0:0:0:
100,263,139914,1,0,0:0:0:0:
344,181,140080,1,0,0:0:0:0:
100,263,140247,1,0,0:0:0:0:
379,155,140414,1,0,0:0:0:0:
100,263,140580,1,0,0:0:0:0:
406,134,140747,1,0,0:0:0:0:
185,88,140914,5,0,0:0:0:0:
280,178,141080,2,0,L|259:330,1,110
116,295,141414,1,0,0:0:0:0:
222,175,141580,1,0,0:0:0:0:
69,224,141747,1,0,0:0:0:0:
116,295,141914,2,0,P|182:290|248:347,1,110
222,95,142247,1,0,0:0:0:0:
254,238,142414,2,0,L|229:371,2,110
399,160,142914,5,0,0:0:0:0:
346,83,143080,1,0,0:0:0:0:
432,43,143247,5,0,0:0:0:0:
323,210,143414,1,0,0:0:0:0:
260,143,143580,2,0,L|247:30,1,110
127,51,143914,1,0,0:0:0:0:
205,84,144080,1,0,0:0:0:0:
70,166,144247,2,0,P|136:160|200:195,2,110
20,261,144747,1,0,0:0:0:0:
20,261,144914,1,0,0:0:0:0:
98,343,145080,2,0,P|160:325|224:342,1,110
333,277,145414,2,0,P|275:228|212:218,1,110
142,56,145747,1,0,0:0:0:0:
94,133,145914,6,0,L|111:263,1,110
209,341,146247,1,0,0:0:0:0:
240,40,146414,2,0,L|217:181,1,110
121,223,146747,1,0,0:0:0:0:
326,121,146914,2,0,L|349:266,1,110
121,223,147247,1,0,0:0:0:0:
199,58,147414,1,0,0:0:0:0:
270,215,147580,1,0,0:0:0:0:
220,360,147747,2,0,L|201:240,1,110
192,56,148080,1,0,0:0:0:0:
339,81,148247,2,0,L|313:189,2,110
411,36,148747,5,0,0:0:0:0:
387,138,148914,1,0,0:0:0:0:
269,140,149080,1,0,0:0:0:0:
430,155,149247,1,0,0:0:0:0:
213,188,149414,1,0,0:0:0:0:
333,84,149580,1,0,0:0:0:0:
297,261,149747,1,0,0:0:0:0:
162,91,149914,5,0,0:0:0:0:
386,198,150080,1,0,0:0:0:0:
142,215,150247,1,0,0:0:0:0:
287,94,150414,1,0,0:0:0:0:
276,141,150498,1,0,0:0:0:0:
269,177,150581,1,0,0:0:0:0:
195,340,150747,1,0,0:0:0:0:
140,209,150914,1,0,0:0:0:0:
224,84,151080,2,0,L|47:62,1,165.000006294251
308,283,151580,5,0,0:0:0:0:
217,195,151747,1,0,0:0:0:0:
274,93,151914,2,0,L|391:76,1,82.5000031471254
447,123,152247,1,0,0:0:0:0:
295,150,152414,1,0,0:0:0:0:
401,206,152580,1,0,0:0:0:0:
169,208,152747,2,0,L|153:307,1,82.5000031471254
189,347,153080,1,0,0:0:0:0:
240,128,153247,6,0,B|225:82|225:82|257:15,2,82.5000031471254
195,334,153747,1,0,0:0:0:0:
303,285,153914,1,0,0:0:0:0:
417,349,154080,1,0,0:0:0:0:
443,257,154247,2,0,L|463:85,1,165.000006294251
281,84,154747,1,0,0:0:0:0:
397,117,154914,1,0,0:0:0:0:
304,164,155080,1,0,0:0:0:0:
180,91,155247,1,0,0:0:0:0:
323,52,155414,1,0,0:0:0:0:
323,52,155497,1,0,0:0:0:0:
323,52,155580,1,0,0:0:0:0:
180,91,155747,6,0,L|84:75,1,82.5000031471254
69,199,156080,2,0,L|161:181,1,82.5000031471254
252,291,156414,2,0,L|150:281,1,82.5000031471254
128,309,156747,1,0,0:0:0:0:
128,309,156914,1,0,0:0:0:0:
190,54,157080,2,0,P|201:120|185:169,1,82.5000031471254
55,232,157414,1,0,0:0:0:0:
128,309,157580,2,0,L|319:334,1,165.000006294251
411,346,158080,5,0,0:0:0:0:
370,254,158247,1,0,0:0:0:0:
453,163,158414,1,0,0:0:0:0:
402,88,158580,1,0,0:0:0:0:
292,142,158747,2,0,P|252:113|119:107,1,165.000006294251
68,210,159247,5,0,0:0:0:0:
156,145,159414,1,0,0:0:0:0:
212,45,159580,1,0,0:0:0:0:
234,211,159747,1,0,0:0:0:0:
71,68,159914,1,0,0:0:0:0:
49,177,160080,1,0,0:0:0:0:
140,264,160247,5,0,0:0:0:0:
189,270,160330,1,0,0:0:0:0:
223,273,160414,1,0,0:0:0:0:
193,182,160580,1,0,0:0:0:0:
318,318,160747,1,0,0:0:0:0:
364,199,160914,1,0,0:0:0:0:
162,99,161080,2,0,L|258:108,1,82.5000031471254
260,137,161414,2,0,P|319:118|367:128,1,82.5000031471254
374,97,161747,1,0,0:0:0:0:
304,354,161914,6,0,L|283:184,1,165.000006294251
157,73,162414,1,0,0:0:0:0:
260,137,162580,1,0,0:0:0:0:
255,39,162747,2,0,P|321:60|330:70,2,82.5000031471254
212,230,163247,1,0,0:0:0:0:
100,121,163414,1,0,0:0:0:0:
237,140,163580,2,0,P|272:172|275:217,1,82.5000031471254
338,369,163914,2,0,L|353:265,1,82.5000031471254
391,43,164247,1,0,0:0:0:0:
446,116,164414,1,0,0:0:0:0:
367,124,164580,6,0,B|262:90|303:162|177:118,1,165.000006294251
148,52,165080,1,0,0:0:0:0:
123,148,165247,1,0,0:0:0:0:
110,300,165414,2,0,B|152:283|152:283|201:285|201:285|264:252,1,165.000006294251
321,192,165914,2,0,P|340:240|336:289,1,82.5000031471254
339,352,166247,5,0,0:0:0:0:
380,212,166580,1,0,0:0:0:0:
242,260,166914,1,0,0:0:0:0:
355,87,167247,1,0,0:0:0:0:
333,107,167414,1,0,0:0:0:0:
244,63,167580,6,0,P|248:125|230:167,1,82.5000031471254
136,152,167914,2,0,P|139:212|154:243,1,82.5000031471254
252,201,168247,1,0,0:0:0:0:
299,284,168414,1,0,0:0:0:0:
222,338,168580,2,0,P|161:318|49:349,1,165.000006294251
57,352,169080,2,0,P|72:307|54:254,1,82.5000031471254
64,344,169414,2,0,P|82:301|58:247,1,82.5000031471254
56,101,169747,5,0,0:0:0:0:
225,160,169914,1,0,0:0:0:0:
100,178,170080,1,0,0:0:0:0:
203,83,170247,5,0,0:0:0:0:
240,264,170414,1,0,0:0:0:0:
101,172,170580,1,0,0:0:0:0:
293,170,170747,5,0,0:0:0:0:
172,225,170914,1,0,0:0:0:0:
293,99,171080,1,0,0:0:0:0:
179,237,171247,1,0,0:0:0:0:
349,182,171414,1,0,0:0:0:0:
255,305,171580,1,0,0:0:0:0:
130,238,171747,1,0,0:0:0:0:
255,305,171914,2,0,P|315:328|338:364,1,82.5000031471254
343,141,172247,6,0,L|356:252,1,82.5000031471254
418,330,172580,2,0,P|438:278|465:261,1,82.5000031471254
401,182,172914,1,0,0:0:0:0:
298,224,173080,6,0,L|134:201,1,165.000006294251
58,104,173580,1,0,0:0:0:0:
52,132,173747,1,0,0:0:0:0:
53,232,173914,1,0,0:0:0:0:
127,308,174080,1,0,0:0:0:0:
222,279,174247,2,0,P|274:292|298:326,1,82.5000031471254
431,360,174580,2,0,P|423:297|436:263,1,82.5000031471254
377,155,174914,2,0,P|344:121|338:82,1,82.5000031471254
440,55,175247,5,0,0:0:0:0:
403,65,175414,1,0,0:0:0:0:
326,46,175580,1,0,0:0:0:0:
222,95,175747,1,0,0:0:0:0:
108,59,175914,1,0,0:0:0:0:
205,165,176080,1,0,0:0:0:0:
63,151,176247,5,0,0:0:0:0:
186,244,176414,1,0,0:0:0:0:
62,284,176580,1,0,0:0:0:0:
248,317,176747,1,0,0:0:0:0:
186,244,176914,2,0,L|275:224,1,82.5000031471254
382,351,177247,2,0,P|378:300|408:226,1,121.000003692627
434,220,177747,1,0,0:0:0:0:
432,116,177914,1,0,0:0:0:0:
359,80,178080,2,0,L|282:63,1,60.5000018463135
231,118,178414,2,0,L|291:111,2,60.5000018463135
127,189,178914,5,0,0:0:0:0:
146,171,179080,1,0,0:0:0:0:
182,168,179247,1,0,0:0:0:0:
269,252,179414,5,0,0:0:0:0:
193,307,179580,1,0,0:0:0:0:
111,279,179747,1,0,0:0:0:0:
119,170,179914,5,0,0:0:0:0:
226,217,180080,1,0,0:0:0:0:
338,121,180247,5,0,0:0:0:0:
199,151,180414,1,0,0:0:0:0:
322,287,180580,1,0,0:0:0:0:
94,203,180747,1,0,0:0:0:0:
127,309,180914,6,0,P|209:318|240:358,1,121.000003692627
263,361,181414,1,0,0:0:0:0:
278,355,181580,1,0,0:0:0:0:
382,368,181747,2,0,P|361:304|367:294,1,60.5000018463135
377,280,182080,1,0,0:0:0:0:
280,95,182247,2,0,P|320:110|352:181,1,121.000003692627
160,281,182747,1,0,0:0:0:0:
160,281,182914,2,0,B|108:260|108:296|36:253,1,121.000003692627
272,52,183580,6,0,P|282:102|262:132,1,60.5000018463135
164,174,183914,1,0,0:0:0:0:
173,178,184080,1,0,0:0:0:0:
184,185,184247,2,0,L|264:193,1,60.5000018463135
308,251,184580,1,0,0:0:0:0:
358,183,184747,5,0,0:0:0:0:
327,104,184914,1,0,0:0:0:0:
416,122,185080,1,0,0:0:0:0:
292,88,185247,1,0,0:0:0:0:
388,128,185414,1,0,0:0:0:0:
256,111,185580,1,0,0:0:0:0:
281,331,185747,2,0,P|285:278|248:211,1,121.000003692627
84,233,186247,5,0,0:0:0:0:
118,244,186414,1,0,0:0:0:0:
170,245,186580,1,0,0:0:0:0:
236,183,186747,1,0,0:0:0:0:
206,104,186914,1,0,0:0:0:0:
111,125,187080,2,0,L|29:102,1,60.5000018463135
138,41,187414,5,0,0:0:0:0:
197,124,187580,1,0,0:0:0:0:
150,39,187747,1,0,0:0:0:0:
208,118,187914,1,0,0:0:0:0:
157,37,188080,1,0,0:0:0:0:
216,117,188247,1,0,0:0:0:0:
265,40,188414,2,0,P|308:75|301:150,1,121.000003692627
254,197,188914,6,0,P|251:289|267:321,1,121.000003692627
271,331,189414,2,0,P|313:329|339:360,1,60.5000018463135
397,360,189747,1,0,0:0:0:0:
430,345,189914,1,0,0:0:0:0:
435,230,190080,6,0,B|401:240|401:240|319:215,1,121.000003692627
292,249,190580,2,0,P|310:188|300:172,1,60.5000018463135
304,143,190914,1,0,0:0:0:0:
321,64,191080,1,0,0:0:0:0:
246,120,191247,6,0,L|203:132,1,38.4999988250733
113,201,191580,2,0,P|139:204|161:194,1,38.4999988250733
236,201,191914,2,0,L|224:287,1,76.9999976501466
217,356,192580,1,0,0:0:0:0:
316,135,192914,2,0,P|351:176|319:274,1,153.999995300293
377,343,193914,5,0,0:0:0:0:
256,192,202247,12,0,204914,0:0:0:0:
87,83,205080,5,0,0:0:0:0:
173,87,205247,1,0,0:0:0:0:
260,29,205414,1,0,0:0:0:0:
356,66,205580,2,0,P|419:83|445:130,1,110
425,220,205914,1,0,0:0:0:0:
419,250,206080,1,0,0:0:0:0:
362,353,206247,2,0,B|329:301|329:301|360:123,1,220
356,66,206747,1,0,0:0:0:0:
260,29,206914,1,0,0:0:0:0:
172,94,207080,1,0,0:0:0:0:
84,205,207247,6,0,L|203:185,2,110
204,284,207747,2,0,L|322:298,1,110
443,210,208080,2,0,L|320:230,1,110
229,361,208414,1,0,0:0:0:0:
253,284,208580,1,0,0:0:0:0:
194,227,208747,1,0,0:0:0:0:
100,329,208914,6,0,B|42:203|127:246|56:70,1,220
116,35,209414,2,0,P|155:84|155:135,1,110
165,274,209747,1,0,0:0:0:0:
239,204,209914,5,0,0:0:0:0:
291,187,210081,1,0,0:0:0:0:
346,193,210247,1,0,0:0:0:0:
300,272,210414,1,0,0:0:0:0:
358,341,210580,5,0,0:0:0:0:
385,317,210746,1,0,0:0:0:0:
397,279,210913,1,0,0:0:0:0:
300,272,211080,1,0,0:0:0:0:
141,324,211247,5,0,0:0:0:0:
187,333,211414,1,0,0:0:0:0:
222,342,211580,1,0,0:0:0:0:
305,334,211747,1,0,0:0:0:0:
369,280,211914,1,0,0:0:0:0:
250,175,212080,2,0,B|304:194|304:194|382:186|382:186|471:215,1,220
477,262,212580,6,0,P|453:188|467:142,1,110
306,40,212914,1,0,0:0:0:0:
336,123,213080,1,0,0:0:0:0:
254,158,213247,1,0,0:0:0:0:
197,99,213414,2,0,P|138:81|69:98,1,110
59,121,213747,1,0,0:0:0:0:
94,212,213914,2,0,L|64:346,1,110
166,281,214247,2,0,L|187:407,1,110
243,85,214580,6,0,L|222:224,1,110
313,186,214914,2,0,L|338:311,1,110
435,363,215247,6,0,L|455:244,1,110
352,54,215580,5,0,0:0:0:0:
256,192,223580,12,0,225914,0:0:0:0:
92,85,226080,5,0,0:0:0:0:
148,167,226247,2,0,P|169:232|154:299,1,110
105,344,226580,1,0,0:0:0:0:
278,282,226747,1,0,0:0:0:0:
111,254,226914,1,0,0:0:0:0:
379,224,227080,1,0,0:0:0:0:
198,327,227247,1,0,0:0:0:0:
379,224,227414,1,0,0:0:0:0:
198,327,227580,1,0,0:0:0:0:
346,67,227747,2,0,P|245:63|218:170,1,220
198,327,228247,5,0,0:0:0:0:
409,288,228414,1,0,0:0:0:0:
116,254,228580,5,0,0:0:0:0:
378,204,228747,1,0,0:0:0:0:
103,161,228914,5,0,0:0:0:0:
355,116,229081,1,0,0:0:0:0:
123,72,229247,5,0,0:0:0:0:
355,116,229414,1,0,0:0:0:0:
109,185,229580,5,0,0:0:0:0:
352,108,229747,1,0,0:0:0:0:
86,291,229914,5,0,0:0:0:0:
352,108,230080,1,0,0:0:0:0:
70,142,230247,5,0,0:0:0:0:
420,246,230414,1,0,0:0:0:0:
75,235,230580,5,0,0:0:0:0:
411,117,230747,1,0,0:0:0:0:
243,360,230914,6,0,P|223:293|259:145,1,220
424,37,231414,2,0,B|299:12|339:98|191:39,1,220
169,27,231914,5,0,0:0:0:0:
312,104,232080,1,0,0:0:0:0:
196,151,232247,2,0,L|62:124,1,110
74,256,232580,1,0,0:0:0:0:
256,233,232747,1,0,0:0:0:0:
80,313,232914,1,0,0:0:0:0:
205,136,233080,5,0,0:0:0:0:
220,339,233247,1,0,0:0:0:0:
186,160,233414,1,0,0:0:0:0:
340,258,233580,1,0,0:0:0:0:
425,181,233747,2,0,L|278:153,1,110
115,329,234080,5,0,0:0:0:0:
148,64,234247,1,0,0:0:0:0:
349,251,234414,5,0,0:0:0:0:
139,95,234581,1,0,0:0:0:0:
309,327,234748,5,0,0:0:0:0:
327,71,234914,1,0,0:0:0:0:
121,194,235080,5,0,0:0:0:0:
327,71,235247,1,0,0:0:0:0:
134,227,235414,5,0,0:0:0:0:
398,126,235580,1,0,0:0:0:0:
212,323,235747,5,0,0:0:0:0:
253,30,235914,1,0,0:0:0:0:
385,273,236080,5,0,0:0:0:0:
90,93,236247,1,0,0:0:0:0:
40,164,236414,2,0,P|108:177|135:232,1,110
184,276,236747,2,0,B|169:218|169:218|193:131,1,110
377,147,237080,1,0,0:0:0:0:
277,56,237247,5,0,0:0:0:0:
206,150,237414,2,0,L|69:110,1,110
53,211,237747,1,0,0:0:0:0:
87,182,237914,1,0,0:0:0:0:
109,72,238080,1,0,0:0:0:0:
169,340,238247,2,0,B|170:298|170:298|188:269|188:269|201:195,1,110
251,58,238580,2,0,P|285:114|276:177,1,110
166,346,238914,5,0,0:0:0:0:
420,218,239080,1,0,0:0:0:0:
108,178,239247,5,0,0:0:0:0:
336,264,239414,1,0,0:0:0:0:
404,140,239580,5,0,0:0:0:0:
162,211,239747,1,0,0:0:0:0:
116,98,239914,5,0,0:0:0:0:
426,152,240080,1,0,0:0:0:0:
88,216,240247,5,0,0:0:0:0:
209,144,240414,1,0,0:0:0:0:
328,324,240580,5,0,0:0:0:0:
391,56,240747,1,0,0:0:0:0:
209,144,240914,2,0,B|167:86|166:148|83:81,1,110
98,155,241247,2,0,P|120:78|104:43,1,110
165,290,241580,2,0,B|277:222|274:339|409:223,2,220
81,342,242414,5,0,0:0:0:0:
162,278,242580,1,0,0:0:0:0:
262,299,242747,1,0,0:0:0:0:
374,274,242914,1,0,0:0:0:0:
314,131,243080,5,0,0:0:0:0:
129,184,243247,1,0,0:0:0:0:
204,345,243414,1,0,0:0:0:0:
367,265,243580,1,0,0:0:0:0:
306,79,243747,5,0,0:0:0:0:
128,174,243914,1,0,0:0:0:0:
208,354,244080,1,0,0:0:0:0:
367,253,244247,1,0,0:0:0:0:
263,77,244414,5,0,0:0:0:0:
103,177,244580,1,0,0:0:0:0:
207,366,244747,1,0,0:0:0:0:
379,257,244914,5,0,0:0:0:0:
103,177,245080,1,0,0:0:0:0:
350,126,245247,1,0,0:0:0:0:
188,334,245414,1,0,0:0:0:0:
290,72,245580,5,0,0:0:0:0:
196,338,245747,1,0,0:0:0:0:
90,58,245914,5,0,0:0:0:0:
337,300,246080,1,0,0:0:0:0:
169,315,246247,5,0,0:0:0:0:
384,45,246414,1,0,0:0:0:0:
77,154,246580,5,0,0:0:0:0:
425,198,246747,1,0,0:0:0:0:
169,315,246914,2,0,P|198:237|177:93,1,220
298,296,247580,6,0,L|359:307,1,55
387,329,248247,1,0,0:0:0:0:
410,315,248580,1,0,0:0:0:0:
460,237,248914,6,0,L|450:174,1,55
396,90,249580,2,0,P|383:85|353:57,1,55
376,33,250247,1,0,0:0:0:0:
339,46,250580,1,0,0:0:0:0:
261,101,250914,6,0,L|203:91,1,55
92,139,251580,1,0,0:0:0:0:
178,107,252247,1,0,0:0:0:0:
244,165,252580,1,0,0:0:0:0:
211,250,252914,2,0,L|218:315,1,55
292,371,253580,2,0,L|299:317,1,55
196,229,254247,6,0,L|207:287,1,55
310,367,254914,2,0,L|314:312,1,55
331,197,255580,1,0,0:0:0:0:
284,108,255914,2,0,L|350:98,1,55
334,200,256580,1,0,0:0:0:0:
230,244,256914,2,0,L|171:223,1,55
93,267,257580,2,0,P|98:228|93:206,1,55
120,121,258247,6,0,L|115:55,2,55
186,226,259247,2,0,L|197:160,2,55
124,315,260247,1,0,0:0:0:0:
200,336,260580,1,0,0:0:0:0:
219,331,260914,1,0,0:0:0:0:
310,328,261247,2,0,P|332:336|359:358,1,55
311,327,261914,2,0,P|299:283|315:215,1,110
376,272,262914,2,0,L|435:283,1,55
402,162,263580,6,0,P|349:135|321:87,1,110
461,57,264580,2,0,L|401:67,1,55
398,98,265247,2,0,L|344:88,2,55
273,205,266247,5,0,0:0:0:0:
256,192,266330,12,0,268914,0:0:0:0:
