osu file format v14

[General]
AudioFilename: audio.mp3
AudioLeadIn: 0
PreviewTime: 51170
Countdown: 0
SampleSet: Soft
StackLeniency: 0.4
Mode: 0
LetterboxInBreaks: 1
WidescreenStoryboard: 1

[Editor]
Bookmarks: 1683,2452,10657,35273,43478,51170,68093,72196,76298,84503,100401,117324,125529,133734,141939,150144,157837,182965,191170,199375
DistanceSpacing: 1.2
BeatDivisor: 4
GridSize: 16
TimelineZoom: 2.450004

[Metadata]
Title:Ding
TitleUnicode:Ding
Artist:Seeed
ArtistUnicode:Seeed
Creator:IceKalt
Version:Normal
Source:
Tags:NEXT! german dancehall hip hop reggae groove peter fox deramok gottagof4st
BeatmapID:1732894
BeatmapSetID:727333

[Difficulty]
HPDrainRate:4
CircleSize:3.3
OverallDifficulty:4
ApproachRate:5
SliderMultiplier:1.55
SliderTickRate:1

[Events]
//Background and Video events
0,0,"seeed.jpg",0,0
Video,-3000,"ding+2.avi"
//Break Periods
2,117524,124329
//Storyboard Layer 0 (Background)
//Storyboard Layer 1 (Fail)
//Storyboard Layer 2 (Pass)
//Storyboard Layer 3 (Foreground)
//Storyboard Sound Samples

[TimingPoints]
2453,512.820512820513,4,2,2,55,1,0
8093,-100,4,2,3,55,0,0
9887,-100,4,2,2,55,0,0
10657,-100,4,2,2,60,0,0
13862,-100,4,2,2,5,0,0
13990,-100,4,2,2,60,0,0
15913,-100,4,2,2,5,0,0
16041,-100,4,2,2,60,0,0
28990,-100,4,2,2,5,0,0
29118,-100,4,2,2,60,0,0
31041,-100,4,2,2,5,0,0
31169,-100,4,2,2,60,0,0
33093,-100,4,2,2,5,0,0
33221,-100,4,2,2,60,0,0
37195,-100,4,2,2,5,0,0
37323,-100,4,2,2,60,0,0
38477,-100,4,2,2,5,0,0
38605,-100,4,2,2,60,0,0
39246,-100,4,2,2,5,0,0
39375,-100,4,2,2,60,0,0
40528,-100,4,2,2,5,0,0
40657,-100,4,2,2,60,0,0
41298,-100,4,2,2,5,0,0
41426,-100,4,2,2,60,0,0
43349,-100,4,2,2,5,0,0
43477,-100,4,2,2,60,0,0
44375,-100,4,2,2,5,0,0
44503,-100,4,2,2,60,0,0
49503,-100,4,2,2,5,0,0
49631,-100,4,2,2,60,0,0
51362,-100,4,2,2,5,0,0
51426,-100,4,2,2,60,0,0
51618,-100,4,2,4,5,0,0
51682,-100,4,2,2,60,0,0
51683,-100,4,2,2,70,0,0
52003,-100,4,2,4,70,0,0
52067,-100,4,2,2,70,0,0
52644,-100,4,2,4,70,0,0
52708,-100,4,2,2,70,0,0
53926,-100,4,2,4,70,0,0
53990,-100,4,2,2,70,0,0
54439,-100,4,2,4,70,0,0
54503,-100,4,2,2,70,0,0
54695,-100,4,2,4,70,0,0
54759,-100,4,2,2,70,0,0
55337,-100,4,2,2,5,0,0
55401,-100,4,2,2,70,0,0
55465,-100,4,2,2,5,0,0
55529,-100,4,2,2,70,0,0
55977,-100,4,2,4,70,0,0
56041,-100,4,2,2,70,0,0
56490,-100,4,2,4,70,0,0
56554,-100,4,2,2,70,0,0
56746,-100,4,2,4,70,0,0
56810,-100,4,2,2,70,0,0
58028,-100,4,2,4,70,0,0
58093,-100,4,2,2,70,0,0
58541,-100,4,2,4,70,0,0
58605,-100,4,2,2,70,0,0
58798,-100,4,2,4,70,0,0
58862,-100,4,2,2,70,0,0
60208,-100,4,2,4,70,0,0
60272,-100,4,2,2,70,0,0
60849,-100,4,2,4,70,0,0
60913,-100,4,2,2,70,0,0
62131,-100,4,2,4,70,0,0
62195,-100,4,2,2,70,0,0
62644,-100,4,2,4,70,0,0
62708,-100,4,2,2,70,0,0
62900,-100,4,2,4,70,0,0
62964,-100,4,2,2,70,0,0
64182,-100,4,2,4,70,0,0
64246,-100,4,2,2,70,0,0
64952,-100,4,2,4,70,0,0
65016,-100,4,2,2,70,0,0
65528,-100,4,2,3,70,0,0
65593,-100,4,2,3,5,0,0
65657,-100,4,2,3,70,0,0
65721,-100,4,2,3,5,0,0
65785,-100,4,2,3,70,0,0
65849,-100,4,2,3,5,0,0
65914,-100,4,2,3,70,0,0
65978,-100,4,2,3,5,0,0
66042,-100,4,2,3,70,0,0
66234,-100,4,2,4,5,0,0
66298,-100,4,2,3,70,0,0
66746,-100,4,2,4,5,0,0
66810,-100,4,2,3,70,0,0
67323,-100,4,2,2,70,0,0
68094,-100,4,2,2,65,0,0
72196,-100,4,2,2,60,0,0
84504,-100,4,2,2,65,0,0
100401,-100,4,2,2,60,0,0
100593,-100,4,2,4,60,0,0
100657,-100,4,2,2,60,0,0
100849,-100,4,2,4,60,0,0
100913,-100,4,2,2,60,0,0
100914,-100,4,2,2,70,0,0
101234,-100,4,2,4,70,0,0
101298,-100,4,2,2,70,0,0
101875,-100,4,2,4,70,0,0
101939,-100,4,2,2,70,0,0
103157,-100,4,2,4,70,0,0
103221,-100,4,2,2,70,0,0
103669,-100,4,2,4,70,0,0
103734,-100,4,2,2,70,0,0
103926,-100,4,2,4,70,0,0
103990,-100,4,2,2,70,0,0
104567,-100,4,2,2,5,0,0
104632,-100,4,2,2,70,0,0
104696,-100,4,2,2,5,0,0
104760,-100,4,2,2,70,0,0
105208,-100,4,2,4,70,0,0
105272,-100,4,2,2,70,0,0
105721,-100,4,2,4,70,0,0
105785,-100,4,2,2,70,0,0
105977,-100,4,2,4,70,0,0
106041,-100,4,2,2,70,0,0
107259,-100,4,2,4,70,0,0
107323,-100,4,2,2,70,0,0
107772,-100,4,2,4,70,0,0
107836,-100,4,2,2,70,0,0
108028,-100,4,2,4,70,0,0
108093,-100,4,2,2,70,0,0
109439,-100,4,2,4,70,0,0
109503,-100,4,2,2,70,0,0
110080,-100,4,2,4,70,0,0
110144,-100,4,2,2,70,0,0
111362,-100,4,2,4,70,0,0
111426,-100,4,2,2,70,0,0
111875,-100,4,2,4,70,0,0
111939,-100,4,2,2,70,0,0
112131,-100,4,2,4,70,0,0
112195,-100,4,2,2,70,0,0
113413,-100,4,2,4,70,0,0
113477,-100,4,2,2,70,0,0
113926,-100,4,2,4,70,0,0
113990,-100,4,2,2,70,0,0
114182,-100,4,2,4,70,0,0
114246,-100,4,2,2,70,0,0
114759,-100,4,2,3,70,0,0
114824,-100,4,2,3,5,0,0
114888,-100,4,2,3,60,0,0
114952,-100,4,2,3,5,0,0
115016,-100,4,2,3,60,0,0
115080,-100,4,2,3,5,0,0
115144,-100,4,2,3,60,0,0
115208,-100,4,2,3,5,0,0
115273,-100,4,2,3,70,0,0
115464,-100,4,2,4,70,0,0
115528,-100,4,2,3,70,0,0
115977,-100,4,2,4,70,0,0
116041,-100,4,2,3,70,0,0
116554,-100,4,2,2,70,0,0
125529,-100,4,2,2,60,0,0
142644,-100,4,2,2,5,0,0
142708,-100,4,2,2,60,0,0
142900,-100,4,2,2,5,0,0
142964,-100,4,2,2,60,0,0
144695,-100,4,2,2,5,0,0
144759,-100,4,2,2,60,0,0
144952,-100,4,2,2,5,0,0
145016,-100,4,2,2,60,0,0
147003,-100,4,2,2,5,0,0
147067,-100,4,2,2,60,0,0
150144,-100,4,2,2,65,0,0
156299,-100,4,2,2,60,0,0
158028,-100,4,2,4,5,0,0
158093,-100,4,2,2,60,0,0
158285,-100,4,2,4,5,0,0
158350,-100,4,2,2,70,0,0
158669,-100,4,2,4,70,0,0
158734,-100,4,2,2,70,0,0
159310,-100,4,2,4,70,0,0
159375,-100,4,2,2,70,0,0
160593,-100,4,2,4,70,0,0
160657,-100,4,2,2,70,0,0
161105,-100,4,2,4,70,0,0
161169,-100,4,2,2,70,0,0
161362,-100,4,2,4,70,0,0
161426,-100,4,2,2,70,0,0
162003,-100,4,2,2,5,0,0
162067,-100,4,2,2,70,0,0
162132,-100,4,2,2,5,0,0
162196,-100,4,2,2,70,0,0
162644,-100,4,2,4,70,0,0
162708,-100,4,2,2,70,0,0
163157,-100,4,2,4,70,0,0
163221,-100,4,2,2,70,0,0
163413,-100,4,2,4,70,0,0
163477,-100,4,2,2,70,0,0
164695,-100,4,2,4,70,0,0
164759,-100,4,2,2,70,0,0
165208,-100,4,2,4,70,0,0
165272,-100,4,2,2,70,0,0
165464,-100,4,2,4,70,0,0
165528,-100,4,2,2,70,0,0
166875,-100,4,2,4,70,0,0
166939,-100,4,2,2,70,0,0
167259,-100,4,2,4,70,0,0
167323,-100,4,2,2,70,0,0
167516,-100,4,2,4,70,0,0
167580,-100,4,2,2,70,0,0
168798,-100,4,2,4,70,0,0
168862,-100,4,2,2,70,0,0
169310,-100,4,2,4,70,0,0
169375,-100,4,2,2,70,0,0
169567,-100,4,2,4,70,0,0
169631,-100,4,2,2,70,0,0
170849,-100,4,2,4,70,0,0
170913,-100,4,2,2,70,0,0
172195,-100,4,2,3,70,0,0
172260,-100,4,2,3,5,0,0
172324,-100,4,2,3,70,0,0
172388,-100,4,2,3,5,0,0
172452,-100,4,2,3,70,0,0
172516,-100,4,2,3,5,0,0
172580,-100,4,2,3,70,0,0
172644,-100,4,2,3,5,0,0
172708,-100,4,2,3,70,0,0
172900,-100,4,2,4,70,0,0
172964,-100,4,2,3,70,0,0
173413,-100,4,2,4,70,0,0
173477,-100,4,2,3,70,0,0
173990,-100,4,2,2,70,0,0
175080,-100,4,2,4,70,0,0
175144,-100,4,2,2,70,0,0
175721,-100,4,2,4,70,0,0
175785,-100,4,2,2,70,0,0
177003,-100,4,2,4,70,0,0
177067,-100,4,2,2,70,0,0
177516,-100,4,2,4,70,0,0
177580,-100,4,2,2,70,0,0
177772,-100,4,2,4,70,0,0
177836,-100,4,2,2,70,0,0
178414,-100,4,2,2,5,0,0
178478,-100,4,2,2,70,0,0
178542,-100,4,2,2,5,0,0
178606,-100,4,2,2,70,0,0
179054,-100,4,2,4,70,0,0
179118,-100,4,2,2,70,0,0
179567,-100,4,2,4,70,0,0
179631,-100,4,2,2,70,0,0
179823,-100,4,2,4,70,0,0
179887,-100,4,2,2,70,0,0
181105,-100,4,2,4,70,0,0
181169,-100,4,2,2,70,0,0
181618,-100,4,2,4,70,0,0
181682,-100,4,2,2,70,0,0
181875,-100,4,2,4,70,0,0
181939,-100,4,2,2,70,0,0
182965,-100,4,2,2,60,0,0
188605,-100,4,2,3,60,0,0
190400,-100,4,2,2,60,0,0
191235,-100,4,2,2,5,0,0

[Colours]
Combo1 : 244,0,24
Combo2 : 128,255,0
Combo3 : 255,34,145
Combo4 : 0,225,56

[HitObjects]
322,102,2453,6,0,P|386:82|460:153,1,155,4|0,3:1|0:0,0:0:0:0:
504,207,3222,1,0,1:0:0:0:
439,274,3478,2,0,B|332:287|332:287|246:295|240:207,1,232.5,4|0,3:0|0:0,0:0:0:0:
283,139,4504,6,0,P|312:44|255:16,1,155,4|0,3:0|0:0,0:0:0:0:
189,41,5273,1,0,1:0:0:0:
100,69,5529,2,0,L|88:218,1,116.25,4|2,3:0|0:3,0:0:0:0:
25,251,6170,1,2,0:3:0:0:
126,349,6555,6,0,B|206:316|207:372|277:347,1,155,4|0,3:2|0:0,0:0:0:0:
351,291,7324,1,0,1:0:0:0:
436,327,7581,2,0,B|471:259|471:259|447:163,1,155,4|2,3:0|0:0,0:0:0:0:
391,112,8350,1,0,0:0:0:0:
335,37,8606,6,0,L|250:49,1,77.5,4|0,3:0|0:0,0:0:0:0:
225,135,9119,2,0,L|301:145,1,77.5,2|2,0:0|1:2,0:0:0:0:
348,226,9632,2,0,P|404:236|467:199,2,116.25,4|2|0,3:0|0:3|1:0,0:0:0:0:
259,254,10658,5,4,3:1:0:0:
114,138,11170,2,0,L|18:147,1,77.5,2|0,0:0|1:0,0:0:0:0:
82,226,11683,2,0,B|79:301|79:301|52:360,2,116.25,0|2|0,3:0|0:2|3:0,0:0:0:0:
114,138,12709,6,0,P|162:145|212:132,1,77.5,2|0,3:2|0:0,0:0:0:0:
258,77,13222,2,0,P|306:70|356:83,1,77.5,2|0,0:2|1:0,0:0:0:0:
410,128,13735,2,0,B|425:185|425:185|411:246,1,116.25,0|2,3:0|0:2,0:0:0:0:
351,311,14376,1,2,0:3:0:0:
214,337,14760,6,0,P|243:284|231:188,1,155,2|2,3:2|0:0,0:0:0:0:
164,129,15529,1,0,1:0:0:0:
70,128,15786,2,0,P|48:163|43:245,2,116.25,0|2|0,3:0|0:2|0:0,0:0:0:0:
158,100,16811,6,0,B|275:111|275:111|343:85,1,155,0|2,3:0|0:0,0:0:0:0:
400,75,17581,2,0,L|453:81,1,38.75,0|0,1:0|0:0,0:0:0:0:
454,96,17837,2,0,P|445:157|456:218,1,116.25,4|2,3:0|0:2,0:0:0:0:
434,222,18350,2,0,P|397:210|358:209,1,77.5,4|0,3:0|0:0,0:0:0:0:
266,220,18863,5,6,0:2:0:0:
129,346,19376,2,0,L|67:338,2,38.75,2|0|0,0:0|0:0|1:0,0:0:0:0:
218,370,19888,2,0,L|386:361,1,155,2|0,3:2|3:0,0:0:0:0:
438,294,20658,2,0,L|441:232,1,38.75,0|0,0:0|0:0,0:0:0:0:
448,233,20914,6,0,L|280:224,1,155,0|2,3:0|0:0,0:0:0:0:
212,271,21683,2,0,L|156:271,1,38.75,0|0,1:0|0:0,0:0:0:0:
153,283,21940,2,0,L|140:129,1,155,0|2,3:0|3:2,0:0:0:0:
79,57,22709,1,0,1:0:0:0:
156,7,22965,6,0,L|243:14,1,77.5,2|0,3:2|0:0,0:0:0:0:
311,63,23478,2,0,L|398:56,1,77.5,2|0,0:0|1:0,0:0:0:0:
476,85,23991,2,0,P|484:41|479:-11,2,77.5,2|2|0,3:0|0:0|3:2,0:0:0:0:
410,150,24760,1,2,3:2:0:0:
447,235,25017,6,0,B|467:304|467:304|459:365,2,116.25,2|0|2,3:2|0:0|0:0,0:0:0:0:
410,150,26042,1,2,0:0:0:0:
283,209,26427,1,2,3:2:0:0:
283,209,26555,2,0,L|194:205,1,77.5,0|2,3:0|0:0,0:0:0:0:
135,267,27068,6,0,P|152:183|119:119,1,155,4|2,3:1|0:0,0:0:0:0:
45,71,27837,1,0,1:0:0:0:
123,21,28094,2,0,P|173:14|257:29,1,116.25,4|2,3:0|0:2,0:0:0:0:
300,91,28735,1,2,0:3:0:0:
425,31,29119,6,0,B|448:104|448:104|419:187,1,155,4|2,3:0|0:0,0:0:0:0:
380,261,29888,1,0,1:0:0:0:
410,349,30145,2,0,L|276:351,1,116.25,4|2,3:0|0:2,0:0:0:0:
203,371,30786,1,2,0:3:0:0:
85,295,31170,5,4,3:0:0:0:
85,295,31299,2,0,P|75:222|79:173,1,116.25,0|2,0:0|0:0,0:0:0:0:
124,98,31940,2,0,L|175:96,1,38.75,0|0,1:0|0:0,0:0:0:0:
179,80,32196,2,0,L|311:87,1,116.25,4|2,3:0|0:2,0:0:0:0:
387,73,32837,1,2,0:3:0:0:
467,188,33222,6,0,L|373:196,1,77.5,4|0,3:0|0:0,0:0:0:0:
301,223,33735,1,2,0:0:0:0:
221,175,33991,1,2,1:2:0:0:
128,187,34247,2,0,B|71:243|92:313|92:313|149:342,1,193.75,4|2,3:0|0:2,0:0:0:0:
277,304,35273,6,0,B|338:313|362:275|401:293,1,116.25,4|0,3:1|1:0,0:0:0:0:
407,271,35786,2,0,L|412:188,1,77.5,2|0,0:0|1:0,0:0:0:0:
434,104,36299,2,0,B|374:112|350:74|321:89,1,116.25,8|2,3:0|0:3,0:0:0:0:
303,103,36811,1,2,3:2:0:0:
211,87,37068,1,2,3:2:0:0:
124,121,37324,6,0,B|105:163|105:163|103:208|129:264,2,116.25,4|0|0,3:2|0:0|1:0,0:0:0:0:
196,180,38350,2,0,L|292:186,1,77.5,8|2,3:0|0:2,0:0:0:0:
349,238,38863,2,0,L|445:232,1,77.5,0|2,3:0|1:2,0:0:0:0:
497,172,39376,6,0,P|494:90|479:41,1,116.25,8|0,3:0|1:0,0:0:0:0:
465,46,39888,1,2,0:0:0:0:
373,63,40145,1,0,1:0:0:0:
287,28,40401,2,0,P|252:101|257:188,1,155,8|0,3:0|3:0,0:0:0:0:
318,239,41170,1,2,0:0:0:0:
310,331,41427,6,0,B|344:359|384:352|384:352|456:357,2,116.25,8|2|0,3:0|1:2|1:0,0:0:0:0:
234,276,42453,2,0,B|200:304|160:297|160:297|88:302,2,116.25,4|2|0,3:0|0:2|1:0,0:0:0:0:
318,239,43478,6,0,B|313:191|289:161|289:161|329:141|329:141|302:96|318:20,1,232.5,4|2,3:1|1:2,0:0:0:0:
229,2,44504,2,0,L|127:15,1,77.5,8|2,3:0|0:3,0:0:0:0:
113,96,45017,2,0,L|215:109,1,77.5,2|2,3:2|3:2,0:0:0:0:
246,179,45529,6,0,P|254:233|157:266,1,155,8|2,3:0|0:0,0:0:0:0:
95,226,46299,1,0,1:0:0:0:
11,267,46555,2,0,P|12:333|57:374,2,116.25,0|2|2,0:0|0:3|0:0,0:0:0:0:
27,175,47581,6,0,L|33:77,1,77.5,8|0,3:0|0:0,0:0:0:0:
116,59,48094,1,2,0:0:0:0:
195,107,48350,1,2,1:2:0:0:
281,74,48606,2,0,P|325:75|380:91,1,77.5,8|2,3:0|0:2,0:0:0:0:
449,67,49119,2,0,P|476:101|499:153,1,77.5,0|2,3:2|0:2,0:0:0:0:
467,221,49632,5,0,3:0:0:0:
484,44,51683,6,0,L|303:43,1,155,4|2,3:1|0:0,0:0:0:0:
245,0,52453,1,2,2:0:0:0:
178,65,52709,2,0,B|158:123|204:141|183:214,1,116.25,4|2,3:0|0:3,0:0:0:0:
182,201,53222,1,2,3:2:0:0:
178,293,53478,1,2,3:2:0:0:
257,341,53735,6,0,L|349:324,1,77.5,4|2,3:0|0:0,0:0:0:0:
385,250,54247,2,0,L|462:265,1,77.5,2|2,0:0|1:2,0:0:0:0:
511,186,54760,1,4,3:0:0:0:
331,138,55273,2,0,B|323:85|323:85|335:61|335:61|296:24,1,116.25,2|2,3:2|0:0,0:0:0:0:
223,37,55786,6,0,L|126:44,1,77.5,4|0,3:2|0:0,0:0:0:0:
77,105,56299,1,2,0:0:0:0:
121,186,56555,1,2,1:2:0:0:
50,246,56811,2,0,P|55:326|136:347,1,155,4|2,3:0|3:2,0:0:0:0:
189,292,57581,1,2,3:2:0:0:
271,334,57837,6,0,L|359:322,1,77.5,4|2,3:0|0:0,0:0:0:0:
395,243,58350,2,0,L|318:232,1,77.5,2|2,0:0|1:2,0:0:0:0:
267,154,58863,1,4,3:0:0:0:
126,32,59376,2,0,B|168:4|178:63|253:32,1,116.25,2|0,3:2|0:0,0:0:0:0:
257,26,59888,6,0,L|426:33,1,155,4|2,3:1|0:2,0:0:0:0:
478,98,60658,1,2,1:2:0:0:
412,164,60914,2,0,B|406:221|421:258|421:258|417:313,1,116.25,4|2,3:0|0:3,0:0:0:0:
416,302,61427,1,2,3:2:0:0:
333,345,61683,1,2,3:2:0:0:
251,299,61940,6,0,L|168:292,1,77.5,4|2,3:0|0:0,0:0:0:0:
86,260,62453,2,0,L|79:182,1,77.5,2|2,0:0|0:0,0:0:0:0:
120,99,62965,1,4,3:0:0:0:
229,185,63350,1,2,0:2:0:0:
229,185,63478,2,0,P|276:198|330:185,1,77.5,2|2,3:2|0:2,0:0:0:0:
362,121,63991,6,0,L|357:39,1,77.5,4|2,3:2|0:0,0:0:0:0:
273,3,64504,1,2,0:0:0:0:
189,43,64760,1,2,1:2:0:0:
104,4,65016,2,0,B|57:40|57:40|45:117,1,116.25,4|2,3:0|0:3,0:0:0:0:
57,119,65529,1,2,3:2:0:0:
21,205,65786,1,2,3:2:0:0:
95,260,66042,6,0,L|183:248,1,77.5,4|2,3:0|0:0,0:0:0:0:
202,161,66555,2,0,L|278:171,1,77.5,2|2,0:0|1:2,0:0:0:0:
345,106,67068,1,4,3:0:0:0:
374,291,67581,2,0,P|446:273|448:230,1,116.25,0|0,3:0|0:0,0:0:0:0:
446,217,68094,5,4,3:1:0:0:
178,218,69119,1,4,3:0:0:0:
446,217,70145,5,4,3:0:0:0:
178,218,71170,1,4,3:0:0:0:
446,217,72196,5,4,3:2:0:0:
446,217,73222,2,0,P|443:139|385:160,1,155,8|2,3:0|3:2,0:0:0:0:
349,236,73991,1,2,0:0:0:0:
377,324,74247,5,8,3:0:0:0:
377,324,74376,2,0,L|251:339,1,116.25,0|2,0:0|0:0,0:0:0:0:
174,305,75017,1,0,1:0:0:0:
91,263,75273,2,0,P|94:165|180:212,1,232.5,4|0,3:0|0:0,0:0:0:0:
174,305,76299,6,0,B|296:272|281:353|405:317,1,232.5,4|2,3:0|1:2,0:0:0:0:
455,243,77324,2,0,B|444:180|474:131|474:131|414:149|362:116,1,232.5,8|2,3:0|0:0,0:0:0:0:
269,123,78350,6,0,B|228:55|124:49|124:49|113:101|129:139,1,232.5,8|2,3:0|1:2,0:0:0:0:
137,203,79376,1,8,3:0:0:0:
137,203,80401,6,0,B|219:234|279:197|279:197|306:247|374:259,1,232.5,8|2,3:0|1:2,0:0:0:0:
434,237,81427,2,0,B|389:162|495:88|439:12,1,232.5,8|2,3:0|0:0,0:0:0:0:
351,39,82453,6,0,L|262:37,1,77.5,8|0,3:0|0:0,0:0:0:0:
257,53,82837,2,0,P|197:47|138:62,1,116.25,2|0,1:2|0:0,0:0:0:0:
77,125,83478,2,0,L|65:224,1,77.5,4|2,3:0|0:3,0:0:0:0:
146,252,83991,2,0,L|155:175,1,77.5,0|0,0:0|0:0,0:0:0:0:
222,109,84504,5,4,3:0:0:0:
479,216,85273,1,0,1:0:0:0:
402,268,85529,2,0,L|283:279,1,116.25,8|2,3:0|0:2,0:0:0:0:
166,351,86299,1,2,3:0:0:0:
113,274,86555,6,0,L|109:211,1,38.75,8|0,3:0|0:0,0:0:0:0:
121,214,86811,2,0,P|84:190|68:127,2,77.5,2|2|0,0:0|0:0|1:0,0:0:0:0:
198,160,87581,2,0,B|252:123|317:168|317:168|384:174|422:103,1,232.5,8|0,3:0|0:0,0:0:0:0:
461,50,88606,6,0,L|465:210,1,155,8|2,3:0|0:0,0:0:0:0:
501,291,89376,1,0,1:0:0:0:
425,346,89632,2,0,B|328:393|324:291|188:348,1,232.5,8|0,3:0|0:0,0:0:0:0:
111,371,90658,5,8,3:0:0:0:
94,279,90914,1,2,0:0:0:0:
94,279,91042,2,0,P|87:190|109:142,1,116.25,2|2,1:2|1:2,0:0:0:0:
175,118,91683,2,0,B|221:126|249:167|249:167|272:99|357:91,1,232.5,4|0,3:0|0:0,0:0:0:0:
448,125,92709,6,0,B|476:200|476:200|468:264|468:264|437:297,1,155,4|2,3:0|0:0,0:0:0:0:
394,337,93478,1,0,1:0:0:0:
304,311,93735,2,0,B|244:300|244:300|203:317|203:317|183:343,2,116.25,4|2|0,3:0|0:2|3:0,0:0:0:0:
367,243,94760,6,0,L|362:149,1,77.5,4|2,3:0|0:0,0:0:0:0:
382,74,95273,2,0,L|284:81,1,77.5,0|0,0:0|1:0,0:0:0:0:
214,55,95786,2,0,B|168:58|168:58|123:39|123:39|98:59,2,116.25,4|2|0,3:0|0:3|0:0,0:0:0:0:
244,142,96811,6,0,L|234:233,1,77.5,4|2,3:0|0:0,0:0:0:0:
317,264,97324,2,0,L|325:186,1,77.5,2|0,0:0|1:0,0:0:0:0:
323,93,97837,2,0,B|350:76|350:76|408:87|408:87|443:164,1,155,4|2,3:0|3:2,0:0:0:0:
473,230,98606,1,0,3:0:0:0:
436,315,98863,5,2,3:2:0:0:
436,315,100914,6,0,L|254:332,1,155,4|2,3:1|0:0,0:0:0:0:
193,360,101684,1,2,1:2:0:0:
120,301,101940,2,0,B|92:263|151:268|123:163,1,116.25,4|2,3:0|0:3,0:0:0:0:
115,171,102453,1,2,3:2:0:0:
89,81,102709,1,2,3:2:0:0:
165,27,102965,6,0,L|254:24,1,77.5,4|0,3:0|0:0,0:0:0:0:
320,74,103478,2,0,L|409:77,1,77.5,2|2,0:0|1:2,0:0:0:0:
468,16,103991,1,4,3:0:0:0:
475,201,104504,2,0,B|493:237|493:237|490:275|490:275|461:307,1,116.25,2|2,3:2|0:2,0:0:0:0:
450,321,105017,6,0,L|353:328,1,77.5,4|2,3:2|0:0,0:0:0:0:
281,344,105530,1,2,0:0:0:0:
210,283,105786,1,2,1:2:0:0:
238,194,106042,2,0,P|305:183|349:113,1,155,4|2,3:0|3:2,0:0:0:0:
306,29,106812,1,2,3:2:0:0:
213,22,107068,6,0,L|119:37,1,77.5,4|2,3:0|0:0,0:0:0:0:
84,111,107581,2,0,L|178:126,1,77.5,2|2,0:0|1:2,0:0:0:0:
200,207,108094,1,4,3:0:0:0:
64,334,108607,2,0,B|155:362|145:315|191:334,1,116.25,2|0,3:2|0:0,0:0:0:0:
197,342,109119,6,0,L|367:352,1,155,4|2,3:1|0:0,0:0:0:0:
435,309,109889,1,2,1:2:0:0:
408,220,110145,2,0,B|399:168|399:168|409:156|409:156|413:71,1,116.25,4|2,3:0|0:3,0:0:0:0:
407,85,110658,1,2,3:2:0:0:
340,20,110914,1,2,3:0:0:0:
262,71,111171,6,0,L|170:76,1,77.5,4|0,3:0|0:0,0:0:0:0:
122,144,111684,2,0,L|129:222,1,77.5,2|2,0:0|0:0,0:0:0:0:
187,293,112196,1,4,3:0:0:0:
308,224,112581,1,2,0:2:0:0:
308,224,112709,2,0,P|286:184|288:132,1,77.5,2|2,3:2|0:0,0:0:0:0:
364,106,113222,6,0,L|469:118,1,77.5,4|2,3:2|0:0,0:0:0:0:
485,196,113735,1,2,0:0:0:0:
443,279,113991,1,2,1:2:0:0:
488,361,114247,2,0,B|438:381|438:381|363:379,1,116.25,4|2,3:0|0:3,0:0:0:0:
353,372,114760,1,2,3:2:0:0:
293,300,115017,1,2,3:2:0:0:
201,313,115273,6,0,L|123:304,1,77.5,4|2,3:0|0:0,0:0:0:0:
102,213,115786,2,0,L|178:204,1,77.5,2|2,0:0|1:2,0:0:0:0:
256,151,116299,1,4,3:0:0:0:
431,211,116811,2,0,P|438:274|387:292,1,116.25,2|0,3:2|0:0,0:0:0:0:
375,287,117324,5,4,3:1:0:0:
5,48,125529,6,0,B|190:88|177:-24|306:42|306:42|285:80|250:93|250:93|281:117|319:123|319:123|297:168|266:179|266:179|317:201|326:255,1,620,4|8,3:1|3:0,0:0:0:0:
319,231,128606,6,0,B|218:250|168:214|168:214|173:245|199:284|199:284|150:275|110:308,1,310,8|8,3:0|3:0,0:0:0:0:
125,297,130658,2,0,B|101:208|115:144|115:144|145:179|179:185|179:185|201:144|191:98,1,310,8|8,3:0|3:0,0:0:0:0:
193,109,132709,6,0,L|285:104,1,77.5,4|2,3:0|0:3,0:0:0:0:
334,37,133222,2,0,P|384:31|429:44,1,77.5,4|2,3:0|0:0,0:0:0:0:
483,93,133735,6,0,P|494:183|466:274,1,155,4|0,3:1|0:0,0:0:0:0:
387,233,134504,2,0,P|308:221|267:284,1,155,2|2,1:2|0:3,0:0:0:0:
241,364,135273,2,0,P|195:334|142:332,1,77.5,0|2,3:0|0:0,0:0:0:0:
87,365,135786,6,0,P|92:295|80:193,1,155,4|0,3:0|0:0,0:0:0:0:
47,125,136555,2,0,P|103:167|176:126,1,155,2|2,1:2|0:3,0:0:0:0:
215,50,137324,2,0,P|252:41|308:47,1,77.5,0|2,3:0|0:0,0:0:0:0:
377,77,137837,6,0,B|371:186|464:155|465:269|384:295,1,232.5,4|2,3:0|1:2,0:0:0:0:
344,350,138863,2,0,B|323:371|268:378|268:378|200:352|218:230,1,232.5,0|2,0:0|0:0,0:0:0:0:
261,168,139888,6,0,B|294:139|290:96|290:96|227:45|137:63,1,232.5,0|2,0:0|1:2,0:0:0:0:
88,133,140914,2,0,B|65:233|133:221|91:321|91:321|154:345,1,232.5,0|2,0:0|0:0,0:0:0:0:
214,302,141940,6,0,B|295:332|303:283|370:313,1,155,4|0,3:1|0:0,0:0:0:0:
441,365,142709,1,2,1:2:0:0:
497,290,142965,2,0,P|502:239|477:110,1,155,8|2,3:0|3:2,0:0:0:0:
426,65,143735,1,0,0:0:0:0:
338,96,143991,6,0,B|287:89|271:58|271:58|236:42|191:53,1,155,0|0,0:0|0:0,0:0:0:0:
112,89,144760,1,2,1:2:0:0:
112,182,145017,2,0,P|137:230|247:224,1,155,8|2,3:0|3:2,0:0:0:0:
290,170,145786,1,0,0:0:0:0:
316,80,146042,6,0,B|394:89|394:89|452:148,1,155,0|2,0:0|0:0,0:0:0:0:
493,224,146811,1,2,1:2:0:0:
467,313,147068,2,0,B|377:332|398:286|313:309,1,155,8|2,3:0|3:2,0:0:0:0:
247,372,147837,1,2,0:0:0:0:
173,314,148094,5,0,0:0:0:0:
105,378,148350,2,0,L|11:372,2,77.5,0|2|0,0:0|0:0|1:0,0:0:0:0:
173,314,149119,2,0,B|204:258|179:201|179:201|178:154,1,155,4|4,3:0|3:0,0:0:0:0:
142,77,149888,1,0,0:0:0:0:
233,60,150145,6,0,B|268:33|278:-1|278:-1|311:22|314:64|314:64|362:5|471:19,1,310,4|4,3:1|3:0,0:0:0:0:
505,96,151427,1,2,0:3:0:0:
463,179,151683,2,0,L|464:280,1,77.5,0|2,3:0|0:0,0:0:0:0:
405,329,152196,6,0,B|362:324|343:289|343:289|305:303|266:282|266:282|174:318|141:236,1,310,4|4,3:0|3:0,0:0:0:0:
126,143,153478,2,0,P|78:128|50:125,2,77.5,2|0|2,0:3|3:0|0:0,0:0:0:0:
216,113,154247,6,0,B|255:125|255:125|289:115|289:115|304:150|293:194|293:194|355:141|438:171,1,310,4|4,3:0|3:0,0:0:0:0:
486,249,155529,1,2,0:3:0:0:
434,326,155786,2,0,L|337:335,1,77.5,0|2,3:0|0:0,0:0:0:0:
270,369,156299,5,4,3:0:0:0:
270,369,158350,6,0,L|259:211,1,155,4|2,3:1|0:0,0:0:0:0:
305,132,159120,1,2,1:2:0:0:
244,61,159376,2,0,B|196:69|196:69|169:54|129:61,1,116.25,4|2,3:0|0:3,0:0:0:0:
117,80,159889,1,2,3:2:0:0:
80,165,160145,1,2,0:0:0:0:
139,236,160402,6,0,L|236:229,1,77.5,4|0,3:0|0:0,0:0:0:0:
261,311,160914,2,0,L|338:316,1,77.5,2|2,0:0|1:2,0:0:0:0:
407,377,161427,1,4,3:0:0:0:
457,197,161940,2,0,B|474:157|451:124|451:124|446:84,1,116.25,2|2,3:2|0:2,0:0:0:0:
432,66,162453,6,0,L|335:73,1,77.5,4|2,3:2|0:0,0:0:0:0:
268,35,162966,1,2,0:0:0:0:
207,105,163222,1,2,1:2:0:0:
123,67,163478,2,0,B|97:123|97:123|105:233,1,155,4|2,3:0|3:2,0:0:0:0:
76,305,164248,1,2,0:2:0:0:
152,357,164504,6,0,L|240:345,1,77.5,4|2,3:0|0:0,0:0:0:0:
320,332,165017,2,0,L|397:321,1,77.5,2|2,0:0|1:2,0:0:0:0:
476,369,165529,1,4,3:0:0:0:
442,185,166043,2,0,B|475:152|411:133|452:56,1,116.25,2|0,3:2|0:0,0:0:0:0:
429,57,166555,6,0,L|260:64,1,155,4|2,3:1|0:0,0:0:0:0:
196,115,167325,1,2,1:2:0:0:
253,188,167581,2,0,B|241:242|241:242|252:266|252:266|248:337,1,116.25,4|2,3:0|0:3,0:0:0:0:
240,322,168094,1,2,3:2:0:0:
162,373,168350,1,2,0:0:0:0:
90,313,168607,6,0,L|72:209,1,77.5,4|0,3:0|0:0,0:0:0:0:
44,149,169119,2,0,L|57:72,1,77.5,2|2,0:0|1:2,0:0:0:0:
122,6,169632,1,4,3:0:0:0:
202,119,170017,1,2,0:0:0:0:
202,119,170145,2,0,P|249:132|288:121,1,77.5,2|2,3:2|0:0,0:0:0:0:
358,83,170658,6,0,L|362:160,1,77.5,4|2,3:2|0:0,0:0:0:0:
411,239,171171,1,2,0:0:0:0:
367,320,171427,1,2,1:2:0:0:
274,321,171683,2,0,B|227:285|227:285|215:208,1,116.25,4|2,3:0|0:3,0:0:0:0:
220,205,172196,1,2,3:2:0:0:
240,113,172453,1,2,3:2:0:0:
158,68,172709,6,0,L|81:78,1,77.5,4|2,3:0|0:0,0:0:0:0:
37,160,173222,2,0,L|113:170,1,77.5,2|2,0:0|1:2,0:0:0:0:
103,262,173735,1,4,3:0:0:0:
254,155,174247,2,0,P|295:177|267:245,1,116.25,2|0,3:2|0:0,0:0:0:0:
271,258,174760,6,0,L|455:276,1,155,4|2,3:1|0:0,0:0:0:0:
479,196,175530,1,2,1:2:0:0:
425,121,175786,2,0,B|427:71|388:39|388:39|343:33,1,116.25,4|2,3:0|0:3,0:0:0:0:
342,41,176299,1,2,3:2:0:0:
266,95,176555,1,2,0:0:0:0:
184,49,176812,6,0,L|87:42,1,77.5,4|2,3:0|0:0,0:0:0:0:
65,126,177324,2,0,L|142:131,1,77.5,2|2,0:0|1:2,0:0:0:0:
228,183,177837,1,4,3:0:0:0:
116,331,178350,2,0,B|160:351|189:330|189:330|208:332|229:320,1,116.25,2|2,3:2|0:2,0:0:0:0:
241,302,178863,6,0,L|338:309,1,77.5,4|2,3:2|0:0,0:0:0:0:
405,339,179376,1,2,0:0:0:0:
476,279,179632,1,2,1:2:0:0:
443,193,179888,2,0,B|426:135|426:135|446:102|446:102|428:44,1,155,4|2,3:0|3:2,0:0:0:0:
341,17,180658,1,2,0:0:0:0:
262,66,180914,6,0,L|174:54,1,77.5,4|2,3:0|0:0,0:0:0:0:
138,136,181427,2,0,L|214:146,1,77.5,2|2,0:0|1:2,0:0:0:0:
281,211,181940,1,4,3:0:0:0:
409,76,182453,2,0,P|450:108|453:191,1,116.25,2|0,3:2|0:0,0:0:0:0:
449,187,182965,5,4,3:1:0:0:
330,330,183478,2,0,B|246:303|184:351|184:351|235:286|259:213|197:153|139:168,1,387.5,2|2,0:0|0:0,0:0:0:0:
84,222,185017,5,4,3:0:0:0:
168,59,185529,2,0,B|252:76|318:38|318:38|296:83|315:127|350:168|446:157|449:66,1,387.5,2|2,0:0|0:0,0:0:0:0:
406,5,187068,5,4,3:2:0:0:
324,172,187581,2,0,B|311:236|344:322|344:322|280:219|233:315|179:213|212:161,1,387.5,2|2,0:0|0:0,0:0:0:0:
155,90,189119,6,0,P|107:94|68:84,2,77.5,4|2|2,3:0|0:0|0:0,0:0:0:0:
236,43,189888,1,2,1:2:0:0:
327,60,190145,2,0,B|358:121|420:120|420:120|384:210|469:265,1,271.25,4|0,3:0|0:0,0:0:0:0:
477,267,191170,5,4,3:1:0:0:
