osu file format v14

[General]
AudioFilename: audio.mp3
AudioLeadIn: 0
PreviewTime: 51170
Countdown: 0
SampleSet: Soft
StackLeniency: 0.4
Mode: 0
LetterboxInBreaks: 1
WidescreenStoryboard: 1

[Editor]
Bookmarks: 1683,2452,10657,35273,43478,51170,68093,72196,76298,84503,100401,117324,125529,133734,141939,150144,157837,182965,191170,199375
DistanceSpacing: 1
BeatDivisor: 4
GridSize: 16
TimelineZoom: 2.150004

[Metadata]
Title:Ding
TitleUnicode:Ding
Artist:Seeed
ArtistUnicode:Seeed
Creator:IceKalt
Version:Insane
Source:
Tags:NEXT! german dancehall hip hop reggae groove peter fox deramok gottagof4st
BeatmapID:1680504
BeatmapSetID:727333

[Difficulty]
HPDrainRate:5
CircleSize:3.8
OverallDifficulty:7.8
ApproachRate:9.1
SliderMultiplier:2.2
SliderTickRate:1

[Events]
//Background and Video events
0,0,"seeed.jpg",0,0
Video,-3000,"ding+2.avi"
//Break Periods
2,117525,124945
//Storyboard Layer 0 (Background)
//Storyboard Layer 1 (Fail)
//Storyboard Layer 2 (Pass)
//Storyboard Layer 3 (Foreground)
//Storyboard Sound Samples

[TimingPoints]
2453,512.820512820513,4,2,2,55,1,0
2453,-83.3333333333333,4,2,2,55,0,0
8093,-83.3333333333333,4,2,3,55,0,0
9887,-83.3333333333333,4,2,2,55,0,0
10657,-83.3333333333333,4,2,2,60,0,0
10658,-62.5,4,2,2,60,0,0
11170,-74.0740740740741,4,2,2,60,0,0
13862,-74.0740740740741,4,2,2,5,0,0
13990,-74.0740740740741,4,2,2,60,0,0
15913,-74.0740740740741,4,2,2,5,0,0
16041,-74.0740740740741,4,2,2,60,0,0
18926,-74.0740740740741,4,2,2,60,0,0
18991,-74.0740740740741,4,2,2,60,0,0
28990,-74.0740740740741,4,2,2,5,0,0
29118,-74.0740740740741,4,2,2,60,0,0
31041,-74.0740740740741,4,2,2,5,0,0
31169,-74.0740740740741,4,2,2,60,0,0
33093,-74.0740740740741,4,2,2,5,0,0
33221,-74.0740740740741,4,2,2,60,0,0
37195,-74.0740740740741,4,2,2,5,0,0
37323,-74.0740740740741,4,2,2,60,0,0
38477,-74.0740740740741,4,2,2,5,0,0
38605,-74.0740740740741,4,2,2,60,0,0
39246,-74.0740740740741,4,2,2,5,0,0
39375,-74.0740740740741,4,2,2,60,0,0
40528,-74.0740740740741,4,2,2,5,0,0
40657,-74.0740740740741,4,2,2,60,0,0
41298,-74.0740740740741,4,2,2,5,0,0
41426,-74.0740740740741,4,2,2,60,0,0
43349,-74.0740740740741,4,2,2,5,0,0
43477,-74.0740740740741,4,2,2,60,0,0
43478,-64.5161290322581,4,2,2,60,0,0
44375,-64.5161290322581,4,2,2,5,0,0
44503,-64.5161290322581,4,2,2,60,0,0
49503,-64.5161290322581,4,2,2,5,0,0
49631,-64.5161290322581,4,2,2,60,0,0
51362,-64.5161290322581,4,2,2,5,0,0
51426,-64.5161290322581,4,2,2,60,0,0
51618,-64.5161290322581,4,2,4,5,0,0
51682,-64.5161290322581,4,2,2,60,0,0
51683,-55.5555555555556,4,2,2,70,0,1
52003,-55.5555555555556,4,2,4,70,0,1
52067,-55.5555555555556,4,2,2,70,0,1
52644,-55.5555555555556,4,2,4,70,0,1
52708,-55.5555555555556,4,2,2,70,0,1
53926,-55.5555555555556,4,2,4,70,0,1
53990,-55.5555555555556,4,2,2,70,0,1
54439,-55.5555555555556,4,2,4,70,0,1
54503,-55.5555555555556,4,2,2,70,0,1
54695,-55.5555555555556,4,2,4,70,0,1
54759,-55.5555555555556,4,2,2,70,0,1
55337,-55.5555555555556,4,2,2,5,0,1
55401,-55.5555555555556,4,2,2,70,0,1
55465,-55.5555555555556,4,2,2,5,0,1
55529,-55.5555555555556,4,2,2,70,0,1
55977,-55.5555555555556,4,2,4,70,0,1
56041,-55.5555555555556,4,2,2,70,0,1
56490,-55.5555555555556,4,2,4,70,0,1
56554,-55.5555555555556,4,2,2,70,0,1
56746,-55.5555555555556,4,2,4,70,0,1
56810,-55.5555555555556,4,2,2,70,0,1
58028,-55.5555555555556,4,2,4,70,0,1
58093,-55.5555555555556,4,2,2,70,0,1
58541,-55.5555555555556,4,2,4,70,0,1
58605,-55.5555555555556,4,2,2,70,0,1
58798,-55.5555555555556,4,2,4,70,0,1
58862,-55.5555555555556,4,2,2,70,0,1
60208,-55.5555555555556,4,2,4,70,0,1
60272,-55.5555555555556,4,2,2,70,0,1
60849,-55.5555555555556,4,2,4,70,0,1
60913,-55.5555555555556,4,2,2,70,0,1
62131,-55.5555555555556,4,2,4,70,0,1
62195,-55.5555555555556,4,2,2,70,0,1
62644,-55.5555555555556,4,2,4,70,0,1
62708,-55.5555555555556,4,2,2,70,0,1
62900,-55.5555555555556,4,2,4,70,0,1
62964,-55.5555555555556,4,2,2,70,0,1
64182,-55.5555555555556,4,2,4,70,0,1
64246,-55.5555555555556,4,2,2,70,0,1
64952,-55.5555555555556,4,2,4,70,0,1
65016,-55.5555555555556,4,2,2,70,0,1
65528,-55.5555555555556,4,2,3,70,0,1
65593,-55.5555555555556,4,2,3,5,0,1
65657,-55.5555555555556,4,2,3,70,0,1
65721,-55.5555555555556,4,2,3,5,0,1
65785,-55.5555555555556,4,2,3,70,0,1
65849,-55.5555555555556,4,2,3,5,0,1
65914,-55.5555555555556,4,2,3,70,0,1
65978,-55.5555555555556,4,2,3,5,0,1
66042,-55.5555555555556,4,2,3,70,0,1
66234,-55.5555555555556,4,2,4,5,0,1
66298,-55.5555555555556,4,2,3,70,0,1
66746,-55.5555555555556,4,2,4,5,0,1
66810,-55.5555555555556,4,2,3,70,0,1
67323,-55.5555555555556,4,2,2,70,0,1
68094,-55.5555555555556,4,2,2,65,0,0
72196,-71.4285714285714,4,2,2,60,0,0
76299,-66.6666666666667,4,2,2,60,0,0
84503,-66.6666666666667,4,2,2,60,0,0
84504,-58.8235294117647,4,2,2,65,0,0
100401,-62.5,4,2,2,60,0,0
100593,-62.5,4,2,4,60,0,0
100657,-62.5,4,2,2,60,0,0
100849,-62.5,4,2,4,60,0,0
100913,-62.5,4,2,2,60,0,0
100914,-55.5555555555556,4,2,2,70,0,1
101234,-55.5555555555556,4,2,4,70,0,1
101298,-55.5555555555556,4,2,2,70,0,1
101875,-55.5555555555556,4,2,4,70,0,1
101939,-55.5555555555556,4,2,2,70,0,1
103157,-55.5555555555556,4,2,4,70,0,1
103221,-55.5555555555556,4,2,2,70,0,1
103669,-55.5555555555556,4,2,4,70,0,1
103734,-55.5555555555556,4,2,2,70,0,1
103926,-55.5555555555556,4,2,4,70,0,1
103990,-55.5555555555556,4,2,2,70,0,1
104567,-55.5555555555556,4,2,2,5,0,1
104632,-55.5555555555556,4,2,2,70,0,1
104696,-55.5555555555556,4,2,2,5,0,1
104760,-55.5555555555556,4,2,2,70,0,1
105208,-55.5555555555556,4,2,4,70,0,1
105272,-55.5555555555556,4,2,2,70,0,1
105721,-55.5555555555556,4,2,4,70,0,1
105785,-55.5555555555556,4,2,2,70,0,1
105977,-55.5555555555556,4,2,4,70,0,1
106041,-55.5555555555556,4,2,2,70,0,1
107259,-55.5555555555556,4,2,4,70,0,1
107323,-55.5555555555556,4,2,2,70,0,1
107772,-55.5555555555556,4,2,4,70,0,1
107836,-55.5555555555556,4,2,2,70,0,1
108028,-55.5555555555556,4,2,4,70,0,1
108093,-55.5555555555556,4,2,2,70,0,1
109439,-55.5555555555556,4,2,4,70,0,1
109503,-55.5555555555556,4,2,2,70,0,1
110080,-55.5555555555556,4,2,4,70,0,1
110144,-55.5555555555556,4,2,2,70,0,1
111362,-55.5555555555556,4,2,4,70,0,1
111426,-55.5555555555556,4,2,2,70,0,1
111875,-55.5555555555556,4,2,4,70,0,1
111939,-55.5555555555556,4,2,2,70,0,1
112131,-55.5555555555556,4,2,4,70,0,1
112195,-55.5555555555556,4,2,2,70,0,1
113413,-55.5555555555556,4,2,4,70,0,1
113477,-55.5555555555556,4,2,2,70,0,1
113926,-55.5555555555556,4,2,4,70,0,1
113990,-55.5555555555556,4,2,2,70,0,1
114182,-55.5555555555556,4,2,4,70,0,1
114246,-55.5555555555556,4,2,2,70,0,1
114759,-55.5555555555556,4,2,3,70,0,1
114824,-55.5555555555556,4,2,3,5,0,1
114888,-55.5555555555556,4,2,3,60,0,1
114952,-55.5555555555556,4,2,3,5,0,1
115016,-55.5555555555556,4,2,3,60,0,1
115080,-55.5555555555556,4,2,3,5,0,1
115144,-55.5555555555556,4,2,3,60,0,1
115208,-55.5555555555556,4,2,3,5,0,1
115273,-55.5555555555556,4,2,3,70,0,1
115464,-55.5555555555556,4,2,4,70,0,1
115528,-55.5555555555556,4,2,3,70,0,1
115977,-55.5555555555556,4,2,4,70,0,1
116041,-55.5555555555556,4,2,3,70,0,1
116554,-55.5555555555556,4,2,2,70,0,1
117324,-55.5555555555556,4,2,2,70,0,0
125529,-100,4,2,2,60,0,0
126555,-66.6666666666667,4,2,2,60,0,0
133734,-66.6666666666667,4,2,2,60,0,0
133735,-71.4285714285714,4,2,2,60,0,0
141940,-62.5,4,2,2,60,0,0
142644,-62.5,4,2,2,5,0,0
142708,-62.5,4,2,2,60,0,0
142900,-62.5,4,2,2,5,0,0
142964,-62.5,4,2,2,60,0,0
144695,-62.5,4,2,2,5,0,0
144759,-62.5,4,2,2,60,0,0
144952,-62.5,4,2,2,5,0,0
145016,-62.5,4,2,2,60,0,0
147003,-62.5,4,2,2,5,0,0
147067,-62.5,4,2,2,60,0,0
150144,-62.5,4,2,2,65,0,0
156299,-100,4,2,2,60,0,0
157580,-100,4,2,2,60,0,0
158028,-100,4,2,4,5,0,0
158093,-100,4,2,2,60,0,0
158285,-100,4,2,4,5,0,0
158349,-100,4,2,2,70,0,0
158350,-55.5555555555556,4,2,2,70,0,1
158669,-55.5555555555556,4,2,4,70,0,1
158734,-55.5555555555556,4,2,2,70,0,1
159310,-55.5555555555556,4,2,4,70,0,1
159375,-55.5555555555556,4,2,2,70,0,1
160593,-55.5555555555556,4,2,4,70,0,1
160657,-55.5555555555556,4,2,2,70,0,1
161105,-55.5555555555556,4,2,4,70,0,1
161169,-55.5555555555556,4,2,2,70,0,1
161362,-55.5555555555556,4,2,4,70,0,1
161426,-55.5555555555556,4,2,2,70,0,1
162003,-55.5555555555556,4,2,2,5,0,1
162067,-55.5555555555556,4,2,2,70,0,1
162132,-55.5555555555556,4,2,2,5,0,1
162196,-55.5555555555556,4,2,2,70,0,1
162644,-55.5555555555556,4,2,4,70,0,1
162708,-55.5555555555556,4,2,2,70,0,1
163157,-55.5555555555556,4,2,4,70,0,1
163221,-55.5555555555556,4,2,2,70,0,1
163413,-55.5555555555556,4,2,4,70,0,1
163477,-55.5555555555556,4,2,2,70,0,1
164695,-55.5555555555556,4,2,4,70,0,1
164759,-55.5555555555556,4,2,2,70,0,1
165208,-55.5555555555556,4,2,4,70,0,1
165272,-55.5555555555556,4,2,2,70,0,1
165464,-55.5555555555556,4,2,4,70,0,1
165528,-55.5555555555556,4,2,2,70,0,1
166875,-55.5555555555556,4,2,4,70,0,1
166939,-55.5555555555556,4,2,2,70,0,1
167259,-55.5555555555556,4,2,4,70,0,1
167323,-55.5555555555556,4,2,2,70,0,1
167516,-55.5555555555556,4,2,4,70,0,1
167580,-55.5555555555556,4,2,2,70,0,1
168798,-55.5555555555556,4,2,4,70,0,1
168862,-55.5555555555556,4,2,2,70,0,1
169310,-55.5555555555556,4,2,4,70,0,1
169375,-55.5555555555556,4,2,2,70,0,1
169567,-55.5555555555556,4,2,4,70,0,1
169631,-55.5555555555556,4,2,2,70,0,1
170849,-55.5555555555556,4,2,4,70,0,1
170913,-55.5555555555556,4,2,2,70,0,1
172195,-55.5555555555556,4,2,3,70,0,1
172260,-55.5555555555556,4,2,3,5,0,1
172324,-55.5555555555556,4,2,3,70,0,1
172388,-55.5555555555556,4,2,3,5,0,1
172452,-55.5555555555556,4,2,3,70,0,1
172516,-55.5555555555556,4,2,3,5,0,1
172580,-55.5555555555556,4,2,3,70,0,1
172644,-55.5555555555556,4,2,3,5,0,1
172708,-55.5555555555556,4,2,3,70,0,1
172900,-55.5555555555556,4,2,4,70,0,1
172964,-55.5555555555556,4,2,3,70,0,1
173413,-55.5555555555556,4,2,4,70,0,1
173477,-55.5555555555556,4,2,3,70,0,1
173990,-55.5555555555556,4,2,2,70,0,1
175080,-55.5555555555556,4,2,4,70,0,1
175144,-55.5555555555556,4,2,2,70,0,1
175721,-55.5555555555556,4,2,4,70,0,1
175785,-55.5555555555556,4,2,2,70,0,1
177003,-55.5555555555556,4,2,4,70,0,1
177067,-55.5555555555556,4,2,2,70,0,1
177516,-55.5555555555556,4,2,4,70,0,1
177580,-55.5555555555556,4,2,2,70,0,1
177772,-55.5555555555556,4,2,4,70,0,1
177836,-55.5555555555556,4,2,2,70,0,1
178414,-55.5555555555556,4,2,2,5,0,1
178478,-55.5555555555556,4,2,2,70,0,1
178542,-55.5555555555556,4,2,2,5,0,1
178606,-55.5555555555556,4,2,2,70,0,1
179054,-55.5555555555556,4,2,4,70,0,1
179118,-55.5555555555556,4,2,2,70,0,1
179567,-55.5555555555556,4,2,4,70,0,1
179631,-55.5555555555556,4,2,2,70,0,1
179823,-55.5555555555556,4,2,4,70,0,1
179887,-55.5555555555556,4,2,2,70,0,1
181105,-55.5555555555556,4,2,4,70,0,1
181169,-55.5555555555556,4,2,2,70,0,1
181618,-55.5555555555556,4,2,4,70,0,1
181682,-55.5555555555556,4,2,2,70,0,1
181875,-55.5555555555556,4,2,4,70,0,1
181939,-55.5555555555556,4,2,2,70,0,1
182965,-66.6666666666667,4,2,2,60,0,0
188605,-66.6666666666667,4,2,3,60,0,0
190400,-66.6666666666667,4,2,2,60,0,0
191235,-66.6666666666667,4,2,2,5,0,0

[Colours]
Combo1 : 244,0,24
Combo2 : 128,255,0
Combo3 : 255,34,145
Combo4 : 0,225,56

[HitObjects]
217,200,1683,5,2,0:3:0:0:
366,180,1811,1,2,0:3:0:0:
358,196,2067,5,2,3:0:0:0:
340,272,2196,1,2,0:1:0:0:
404,347,2324,1,2,0:1:0:0:
461,260,2453,2,0,B|453:208|484:200|469:115,1,131.99999597168,4|0,3:1|0:0,0:0:0:0:
416,38,2837,1,0,0:0:0:0:
416,38,2965,2,0,P|365:55|328:53,1,65.9999979858399,0|0,0:0|0:0,0:0:0:0:
244,38,3222,1,0,1:0:0:0:
234,56,3478,6,0,B|246:152|246:152|284:116,1,131.99999597168,4|2,3:0|0:3,0:0:0:0:
346,195,3863,1,2,0:3:0:0:
348,182,3991,1,0,0:0:0:0:
267,250,4119,1,2,0:3:0:0:
262,237,4247,1,0,0:0:0:0:
243,229,4504,6,0,B|222:244|189:243|189:243|175:251|175:251|138:236|108:240,1,131.99999597168,4|0,3:0|0:0,0:0:0:0:
22,282,4888,1,0,1:0:0:0:
22,282,5017,2,0,P|12:237|14:207,1,65.9999979858399,0|0,0:0|0:0,0:0:0:0:
63,113,5273,1,0,1:0:0:0:
50,97,5529,6,0,P|48:52|119:57,1,131.99999597168,4|2,3:0|0:3,0:0:0:0:
234,36,5914,1,2,0:3:0:0:
221,31,6042,1,0,0:0:0:0:
175,126,6170,1,2,0:3:0:0:
188,121,6298,1,0,1:0:0:0:
208,128,6555,6,0,B|275:158|298:120|352:142,1,131.99999597168,4|0,3:2|0:0,0:0:0:0:
432,186,6940,1,0,1:0:0:0:
432,186,7068,2,0,L|420:258,1,65.9999979858399,0|0,0:0|0:0,0:0:0:0:
475,358,7324,1,0,1:0:0:0:
458,369,7581,6,0,B|402:371|402:371|382:356|382:356|328:358,1,131.99999597168,4|2,3:0|0:3,0:0:0:0:
212,378,7965,1,2,0:3:0:0:
212,378,8094,2,0,P|239:346|249:315,1,65.9999979858399,2|0,0:0|0:0,0:0:0:0:
227,215,8350,1,0,0:0:0:0:
231,236,8478,1,2,0:0:0:0:
312,158,8606,6,0,P|247:164|164:125,1,131.99999597168,4|0,3:0|0:0,0:0:0:0:
116,25,8991,1,2,1:2:0:0:
116,25,9119,2,0,P|112:56|135:105,1,65.9999979858399,2|0,0:0|0:0,0:0:0:0:
117,234,9376,2,0,P|121:203|98:154,1,65.9999979858399,2|0,1:2|0:0,0:0:0:0:
23,278,9632,6,0,L|178:271,1,131.99999597168,4|2,3:0|0:3,0:0:0:0:
210,384,10017,1,2,0:3:0:0:
230,302,10145,1,0,0:0:0:0:
293,207,10273,1,2,0:3:0:0:
313,289,10401,1,0,1:0:0:0:
329,301,10658,6,0,B|489:338|489:338|435:227,1,264,4|0,3:1|1:0,0:0:0:0:
471,159,11170,1,2,0:0:0:0:
393,181,11299,1,0,0:0:0:0:
403,81,11427,1,0,1:0:0:0:
409,102,11556,1,0,0:0:0:0:
300,61,11683,2,0,B|227:73|227:73|149:41,1,148.500000566483,0|2,3:0|0:3,0:0:0:0:
49,151,12068,1,2,0:2:0:0:
49,151,12196,2,0,P|88:145|133:118,1,74.2500002832413,0|2,0:0|0:3,0:0:0:0:
191,213,12453,1,0,3:0:0:0:
191,230,12709,6,0,P|160:267|60:297,1,148.500000566483,2|0,3:2|0:0,0:0:0:0:
211,346,13094,1,0,1:0:0:0:
211,346,13222,2,0,P|247:345|294:370,1,74.2500002832413,2|0,0:2|0:0,0:0:0:0:
409,307,13478,2,0,P|373:308|326:283,1,74.2500002832413,0|0,1:0|0:0,0:0:0:0:
286,173,13735,2,0,L|295:18,1,148.500000566483,0|2,3:0|0:3,0:0:0:0:
410,82,14119,2,0,L|335:95,1,74.2500002832413,2|0,0:2|3:0,0:0:0:0:
415,175,14376,1,2,0:3:0:0:
495,186,14504,2,0,L|491:268,1,74.2500002832413,0|0,0:0|0:0,0:0:0:0:
433,363,14760,6,0,P|400:335|367:325,1,74.2500002832413,2|0,3:2|0:0,0:0:0:0:
212,359,15017,2,0,P|245:331|278:321,1,74.2500002832413,0|0,0:0|1:0,0:0:0:0:
324,99,15273,2,0,L|324:189,1,74.2500002832413,2|0,0:0|0:0,0:0:0:0:
326,256,15529,1,0,1:0:0:0:
309,270,15786,2,0,P|223:248|183:196,1,148.500000566483,0|2,3:0|0:3,0:0:0:0:
209,41,16170,1,2,0:2:0:0:
209,41,16299,2,0,P|200:90|214:135,1,74.2500002832413,0|2,3:0|0:3,0:0:0:0:
279,176,16555,1,0,0:0:0:0:
294,165,16811,6,0,L|368:170,1,74.2500002832413,0|0,3:0|0:0,0:0:0:0:
463,266,17068,1,0,0:0:0:0:
453,189,17196,1,0,1:0:0:0:
397,324,17324,2,0,L|304:346,1,74.2500002832413,2|0,0:0|0:0,0:0:0:0:
243,264,17581,1,0,1:0:0:0:
240,346,17709,1,0,0:0:0:0:
120,258,17837,2,0,P|96:203|135:107,1,148.500000566483,4|2,3:0|0:3,0:0:0:0:
246,90,18222,1,2,0:2:0:0:
246,90,18350,2,0,P|191:114|95:75,1,148.500000566483,4|0,3:0|0:0,0:0:0:0:
396,39,18863,6,0,L|408:4,1,37.1250001416206,6|0,0:2|0:0,0:0:0:0:
396,39,19376,5,2,0:0:0:0:
401,124,19504,1,0,0:0:0:0:
316,106,19632,1,0,1:0:0:0:
311,191,19760,1,0,0:0:0:0:
404,269,19888,6,0,P|328:240|264:264,1,148.500000566483,2|0,3:2|0:0,0:0:0:0:
127,323,20273,1,0,0:0:0:0:
127,323,20401,2,0,P|166:295|181:259,1,74.2500002832413,0|2,3:0|0:2,0:0:0:0:
174,136,20658,2,0,P|181:180|243:162,1,111.375000424862,0|0,0:0|0:0,0:0:0:0:
253,166,20914,6,0,P|329:172|401:130,1,148.500000566483,0|0,3:0|0:0,0:0:0:0:
475,269,21299,1,0,1:0:0:0:
475,269,21427,2,0,P|429:235|414:206,1,74.2500002832413,2|0,0:0|0:0,0:0:0:0:
342,337,21683,2,0,P|338:279|351:249,1,74.2500002832413,0|0,1:0|0:0,0:0:0:0:
237,353,21940,2,0,L|125:336,1,74.2500002832413,0|2,3:0|0:0,0:0:0:0:
50,350,22196,2,0,P|80:322|95:287,1,74.2500002832413,0|0,0:0|0:0,0:0:0:0:
45,176,22453,1,2,3:2:0:0:
13,275,22581,1,2,0:3:0:0:
55,192,22709,1,0,1:0:0:0:
66,208,22965,6,0,P|114:204|150:195,1,74.2500002832413,2|0,3:2|0:0,0:0:0:0:
219,101,23222,2,0,P|171:105|135:114,1,74.2500002832413,0|0,0:0|1:0,0:0:0:0:
282,247,23478,2,0,L|300:158,1,74.2500002832413,2|0,0:0|0:0,0:0:0:0:
337,11,23735,2,0,L|322:83,1,74.2500002832413,0|0,1:0|0:0,0:0:0:0:
423,199,23991,2,0,P|419:158|397:122,1,74.2500002832413,2|0,3:0|0:0,0:0:0:0:
423,348,24247,2,0,P|451:318|465:278,1,74.2500002832413,2|0,0:0|0:0,0:0:0:0:
326,267,24504,1,0,3:2:0:0:
329,366,24632,1,0,0:0:0:0:
423,199,24760,1,2,3:2:0:0:
415,183,25017,6,0,B|389:144|340:133|340:133|291:73|217:98,2,222.750000849724,2|0|2,3:2|0:0|0:0,0:0:0:0:
328,237,26042,1,2,0:0:0:0:
328,237,26427,1,2,3:2:0:0:
216,263,26555,1,0,3:0:0:0:
249,156,26683,1,0,3:0:0:0:
253,175,26811,1,2,0:0:0:0:
270,163,27068,6,0,P|319:129|327:42,1,148.500000566483,4|0,3:1|0:0,0:0:0:0:
378,185,27453,1,0,1:0:0:0:
378,185,27581,2,0,P|400:210|448:229,1,74.2500002832413,2|0,0:0|0:0,0:0:0:0:
512,109,27837,1,0,1:0:0:0:
432,120,27965,1,0,0:0:0:0:
470,25,28094,2,0,L|307:22,1,148.500000566483,4|2,3:0|0:3,0:0:0:0:
174,72,28478,1,2,0:2:0:0:
254,60,28606,1,0,3:0:0:0:
316,155,28735,1,2,0:3:0:0:
236,143,28863,1,0,0:0:0:0:
222,158,29119,5,4,3:0:0:0:
210,315,29247,2,0,P|227:243|210:171,1,148.500000566483,0|0,0:0|1:0,0:0:0:0:
315,384,29632,2,0,P|316:339|305:305,1,74.2500002832413,2|0,0:0|0:0,0:0:0:0:
158,379,29888,1,0,1:0:0:0:
139,379,30145,2,0,P|116:313|151:235,1,148.500000566483,4|2,3:0|0:3,0:0:0:0:
208,119,30529,1,2,0:2:0:0:
208,119,30658,2,0,L|215:192,1,74.2500002832413,0|2,3:0|0:3,0:0:0:0:
67,193,30914,1,0,0:0:0:0:
87,183,31170,5,4,3:0:0:0:
71,32,31299,2,0,P|99:100|102:174,1,148.500000566483,0|0,0:0|1:2,0:0:0:0:
225,31,31683,2,0,P|182:18|156:-4,1,74.2500002832413,2|0,0:0|0:0,0:0:0:0:
202,130,31940,1,0,1:0:0:0:
186,108,32068,1,0,0:0:0:0:
301,101,32196,2,0,P|379:82|424:26,1,148.500000566483,4|2,3:0|0:3,0:0:0:0:
512,114,32581,1,2,0:2:0:0:
439,132,32709,1,0,3:0:0:0:
344,191,32837,1,2,0:3:0:0:
417,209,32965,1,0,0:0:0:0:
430,224,33222,6,0,P|436:262|430:303,1,74.2500002832413,4|0,3:0|0:0,0:0:0:0:
312,384,33478,2,0,P|335:355|350:321,1,74.2500002832413,0|0,0:0|1:0,0:0:0:0:
245,133,33735,2,0,L|234:224,1,74.2500002832413,2|0,0:0|0:0,0:0:0:0:
214,384,33991,2,0,L|222:310,1,74.2500002832413,2|0,1:2|0:0,0:0:0:0:
24,227,34247,2,0,P|88:262|160:250,1,148.500000566483,4|2,3:0|0:3,0:0:0:0:
116,100,34632,1,2,0:3:0:0:
89,176,34760,1,0,0:0:0:0:
193,138,34888,1,2,0:2:0:0:
220,62,35016,1,0,1:0:0:0:
211,44,35273,6,0,P|295:57|376:47,1,148.500000566483,4|0,3:1|1:0,0:0:0:0:
487,136,35658,1,0,1:0:0:0:
487,136,35786,2,0,P|403:149|322:139,1,148.500000566483,2|0,0:0|1:0,0:0:0:0:
319,137,36299,6,0,P|325:212|311:289,1,148.500000566483,8|2,3:0|0:3,0:0:0:0:
207,344,36683,1,2,0:3:0:0:
286,360,36811,1,2,3:2:0:0:
242,242,36940,1,2,0:3:0:0:
166,264,37068,1,2,3:2:0:0:
143,260,37324,6,0,P|152:212|153:155,2,99.0000003776551,4|0|0,3:2|0:0|0:0,0:0:0:0:
20,320,37837,2,0,P|62:329|100:330,1,74.2500002832413,2|0,0:0|0:0,0:0:0:0:
254,346,38094,2,0,P|212:337|174:336,1,74.2500002832413,0|0,1:0|0:0,0:0:0:0:
336,318,38350,2,0,P|350:242|333:163,1,148.500000566483,8|2,3:0|0:2,0:0:0:0:
222,92,38735,1,2,0:3:0:0:
308,96,38863,1,0,3:0:0:0:
428,24,38991,1,2,0:3:0:0:
342,20,39119,1,2,1:2:0:0:
326,9,39376,6,0,L|169:14,1,148.500000566483,8|0,3:0|1:0,0:0:0:0:
17,66,39760,1,0,1:0:0:0:
16,65,39888,2,0,L|90:70,1,74.2500002832413,2|0,0:0|0:0,0:0:0:0:
250,117,40145,2,0,L|162:123,1,74.2500002832413,0|0,1:0|0:0,0:0:0:0:
94,267,40401,2,0,L|42:197,1,74.2500002832413,8|0,3:0|0:0,0:0:0:0:
199,300,40658,2,0,L|243:359,1,74.2500002832413,2|2,0:2|0:3,0:0:0:0:
23,335,40914,1,0,3:0:0:0:
124,361,41042,1,2,0:3:0:0:
90,286,41170,1,2,0:0:0:0:
94,267,41427,6,0,P|100:189|158:122,1,148.500000566483,8|0,3:0|1:0,0:0:0:0:
228,219,41811,2,0,P|189:157|246:111,1,148.500000566483,2|0,1:2|0:0,0:0:0:0:
373,171,42196,2,0,P|339:178|296:169,1,74.2500002832413,0|0,1:0|0:0,0:0:0:0:
424,71,42453,2,0,P|418:150|439:214,1,148.500000566483,4|2,3:0|0:3,0:0:0:0:
397,321,42837,1,2,0:2:0:0:
488,303,42965,1,0,0:0:0:0:
316,248,43094,1,2,0:3:0:0:
393,343,43222,1,0,1:0:0:0:
390,362,43478,6,0,L|301:374,1,85.2500006504059,4|0,3:1|0:0,0:0:0:0:
221,283,43735,1,2,0:2:0:0:
229,367,43863,1,2,1:2:0:0:
126,298,43991,1,2,0:2:0:0:
134,382,44119,1,0,0:0:0:0:
163,218,44247,2,0,P|166:169|147:120,1,85.2500006504059,2|0,1:2|0:0,0:0:0:0:
9,82,44504,2,0,P|73:77|98:67,1,85.2500006504059,8|0,3:0|0:0,0:0:0:0:
263,36,44760,2,0,P|200:51|173:49,1,85.2500006504059,2|2,0:3|0:3,0:0:0:0:
11,98,45017,2,0,P|75:93|100:83,1,85.2500006504059,2|2,3:2|0:3,0:0:0:0:
161,152,45273,2,0,P|241:133|345:184,1,170.500001300812,2|8,3:2|3:0,0:0:0:0:
440,257,45658,1,0,0:0:0:0:
325,183,45786,6,0,P|308:230|312:278,1,85.2500006504059,0|0,0:0|1:0,0:0:0:0:
433,361,46042,2,0,P|450:314|446:266,1,85.2500006504059
236,366,46299,1,0,1:0:0:0:
216,363,46555,2,0,P|201:319|200:188,1,170.500001300812,0|2,0:0|0:3,0:0:0:0:
359,194,46940,1,2,0:3:0:0:
275,227,47068,1,2,3:2:0:0:
261,97,47196,1,2,0:3:0:0:
350,111,47324,2,0,P|399:95|429:61,1,85.2500006504059,2|0,0:0|0:0,0:0:0:0:
261,97,47581,6,0,P|186:90|97:141,1,170.500001300812,8|0,3:0|0:0,0:0:0:0:
86,263,47965,1,0,1:0:0:0:
169,296,48094,2,0,L|160:202,1,85.2500006504059,2|0,0:0|0:0,0:0:0:0:
334,281,48350,2,0,L|325:187,1,85.2500006504059,2|0,1:2|0:0,0:0:0:0:
260,377,48606,2,0,L|251:283,1,85.2500006504059,8|0,3:0|0:0,0:0:0:0:
210,130,48863,1,2,0:2:0:0:
248,210,48991,1,2,0:3:0:0:
251,39,49119,1,0,3:2:0:0:
289,119,49247,1,2,0:3:0:0:
161,208,49376,2,0,P|109:219|56:209,1,85.2500006504059,2|0,0:2|0:0,0:0:0:0:
251,292,49632,5,0,3:0:0:0:
113,228,51170,6,0,P|143:183|184:158,1,85.2500006504059,0|0,0:0|0:0,0:0:0:0:
358,86,51427,2,0,P|304:90|262:113,1,85.2500006504059,0|0,0:0|0:0,0:0:0:0:
275,223,51683,6,0,B|305:267|323:346|323:346|387:259,1,197.99999395752,4|0,3:1|0:0,0:0:0:0:
436,94,52068,1,2,1:2:0:0:
477,222,52196,2,0,L|384:157,1,98.9999969787599,2|2,0:0|0:3,0:0:0:0:
235,51,52453,2,0,L|316:107,1,98.9999969787599,2|0,2:0|0:0,0:0:0:0:
316,107,52709,6,0,P|231:165|148:24,1,296.99999093628,4|2,3:0|0:3,0:0:0:0:
188,182,53222,1,2,3:2:0:0:
139,279,53350,1,2,0:3:0:0:
37,317,53478,1,2,3:2:0:0:
52,306,53735,6,0,P|77:262|87:195,1,98.9999969787599,4|0,3:0|0:0,0:0:0:0:
195,349,53991,2,0,P|197:298|227:237,1,98.9999969787599,2|2,0:0|1:2,0:0:0:0:
44,132,54247,2,0,P|80:92|120:140,1,98.9999969787599,2|0,0:0|0:0,0:0:0:0:
297,209,54504,2,0,P|289:156|228:173,1,98.9999969787599,2|0,1:2|0:0,0:0:0:0:
139,279,54760,1,4,3:0:0:0:
154,286,55017,5,2,0:3:0:0:
204,269,55145,1,2,0:3:0:0:
287,290,55273,1,2,3:2:0:0:
207,355,55401,1,2,0:2:0:0:
373,264,55529,1,2,0:2:0:0:
312,384,55657,1,2,0:0:0:0:
455,296,55786,6,0,P|476:244|477:195,1,98.9999969787599,4|0,3:2|0:0,0:0:0:0:
381,33,56042,2,0,P|422:70|445:114,1,98.9999969787599,0|0,0:0|1:0,0:0:0:0:
336,255,56299,2,0,P|347:200|374:158,1,98.9999969787599,2|0,0:0|0:0,0:0:0:0:
510,53,56555,1,2,1:2:0:0:
493,43,56811,6,0,B|446:68|395:63|395:63|357:33|298:43,1,197.99999395752,4|2,3:0|0:3,0:0:0:0:
178,186,57196,1,2,0:3:0:0:
261,213,57324,2,0,P|292:164|297:110,1,98.9999969787599,2|2,3:2|0:3,0:0:0:0:
122,119,57581,1,2,3:2:0:0:
108,125,57837,6,0,L|90:228,1,98.9999969787599,4|0,3:0|0:0,0:0:0:0:
14,380,58094,2,0,L|31:282,1,98.9999969787599,2|0,0:0|1:0,0:0:0:0:
365,290,58350,2,0,P|326:329|266:344,1,98.9999969787599,2|0,0:0|0:0,0:0:0:0:
110,301,58606,2,0,P|148:341|207:357,1,98.9999969787599,2|0,1:2|0:0,0:0:0:0:
232,185,58863,1,4,3:0:0:0:
248,182,59119,5,2,0:3:0:0:
231,73,59247,1,2,0:3:0:0:
347,84,59376,1,2,3:2:0:0:
364,193,59504,1,2,0:3:0:0:
426,0,59632,1,2,0:2:0:0:
444,2,59888,6,0,B|497:50|480:116|480:116|503:161|471:211,1,197.99999395752,4|0,3:1|0:0,0:0:0:0:
429,357,60273,1,2,1:2:0:0:
507,281,60401,2,0,L|391:275,1,98.9999969787599,2|2,0:2|0:3,0:0:0:0:
206,268,60658,2,0,L|304:273,1,98.9999969787599,2|0,1:2|0:0,0:0:0:0:
304,273,60914,6,0,P|310:228|128:236,1,296.99999093628,4|2,3:0|0:3,0:0:0:0:
258,121,61427,1,2,3:2:0:0:
182,43,61555,1,2,0:3:0:0:
92,104,61683,1,2,3:2:0:0:
96,123,61940,6,0,P|121:167|131:234,1,98.9999969787599,4|0,3:0|0:0,0:0:0:0:
298,198,62196,2,0,P|248:210|193:249,1,98.9999969787599,2|0,0:0|1:0,0:0:0:0:
0,229,62453,2,0,P|47:246|98:291,1,98.9999969787599,2|0,0:0|0:0,0:0:0:0:
317,309,62709,2,0,P|266:304|201:322,1,98.9999969787599,2|0,0:0|0:0,0:0:0:0:
190,136,62965,1,4,3:0:0:0:
203,125,63222,5,2,0:3:0:0:
258,60,63350,1,2,0:2:0:0:
301,137,63478,1,2,3:2:0:0:
243,215,63606,1,2,0:3:0:0:
385,119,63735,1,2,0:2:0:0:
393,139,63991,6,0,P|391:195|372:240,1,98.9999969787599,4|0,3:2|0:0,0:0:0:0:
216,347,64247,2,0,P|268:329|307:299,1,98.9999969787599,2|0,0:0|1:0,0:0:0:0:
512,349,64504,2,0,P|459:331|420:301,1,98.9999969787599,2|2,0:0|0:3,0:0:0:0:
283,122,64760,1,2,1:2:0:0:
271,134,65016,6,0,B|323:117|363:151|363:151|405:123|462:142,1,197.99999395752,4|2,3:0|0:3,0:0:0:0:
354,270,65401,1,2,0:3:0:0:
416,214,65529,1,2,3:2:0:0:
253,289,65658,1,2,3:2:0:0:
302,210,65786,1,2,3:2:0:0:
165,220,65915,1,0,0:0:0:0:
131,54,66042,6,0,L|113:157,1,98.9999969787599,4|0,3:0|0:0,0:0:0:0:
78,351,66299,2,0,L|95:253,1,98.9999969787599,2|0,0:0|1:0,0:0:0:0:
302,210,66555,2,0,P|252:242|187:248,1,98.9999969787599,2|0,0:0|0:0,0:0:0:0:
380,353,66811,2,0,P|323:335|276:289,1,98.9999969787599,2|0,1:2|0:0,0:0:0:0:
202,126,67068,1,4,3:0:0:0:
214,134,67324,5,2,0:3:0:0:
289,185,67452,1,2,0:3:0:0:
353,42,67581,1,0,3:0:0:0:
271,70,67709,1,2,0:3:0:0:
379,197,67837,1,0,0:0:0:0:
9,346,68094,5,4,3:1:0:0:
499,140,69119,5,4,3:0:0:0:
0,11,70145,5,4,3:0:0:0:
498,313,71170,5,4,3:0:0:0:
256,88,72196,5,4,3:2:0:0:
170,187,72453,1,2,0:0:0:0:
170,187,72581,2,0,P|239:210|251:76,1,230.99999295044,2|0,1:2|1:0,0:0:0:0:
256,88,73222,6,0,P|251:39|257:0,2,76.9999976501466,8|2|0,3:0|0:0|0:0,0:0:0:0:
372,178,73606,2,0,L|287:178,1,76.9999976501466,2|2,0:3|3:2,0:0:0:0:
181,248,73863,1,0,0:0:0:0:
204,169,73991,1,2,0:0:0:0:
196,155,74247,5,8,3:0:0:0:
196,155,74376,2,0,P|113:123|40:144,1,153.999995300293,0|0,0:0|1:0,0:0:0:0:
14,281,74760,2,0,P|41:238|82:216,1,76.9999976501466,2|0,0:0|0:0,0:0:0:0:
162,328,75017,2,0,P|167:277|148:234,1,76.9999976501466,0|2,1:0|0:0,0:0:0:0:
256,371,75273,2,0,L|440:363,1,153.999995300293,4|2,3:0|0:2,0:0:0:0:
456,224,75658,1,0,0:0:0:0:
474,307,75786,1,4,3:0:0:0:
368,216,75914,1,2,0:3:0:0:
386,133,76042,1,0,0:0:0:0:
379,111,76299,5,4,3:0:0:0:
379,111,76427,2,0,P|310:100|294:85,1,82.5000031471254,0|0,0:0|0:0,0:0:0:0:
130,159,76683,2,0,P|199:125|227:36,1,165.000006294251,2|0,1:2|0:0,0:0:0:0:
276,242,77068,2,0,P|240:223|200:225,1,82.5000031471254,2|0,1:2|0:0,0:0:0:0:
51,316,77324,1,8,3:0:0:0:
51,316,77453,2,0,P|87:297|127:298,1,82.5000031471254,0|2,0:0|0:3,0:0:0:0:
289,348,77709,2,0,P|187:346|162:290,1,165.000006294251,2|2,0:2|0:3,0:0:0:0:
393,367,78094,2,0,P|363:338|323:329,1,82.5000031471254,2|0,0:0|0:0,0:0:0:0:
426,196,78350,5,8,3:0:0:0:
426,196,78478,2,0,P|421:242|401:278,1,82.5000031471254,0|0,0:0|0:0,0:0:0:0:
313,121,78735,2,0,P|393:145|479:128,1,165.000006294251,2|0,1:2|0:0,0:0:0:0:
350,29,79119,2,0,P|345:75|325:111,1,82.5000031471254,8|0,3:0|0:0,0:0:0:0:
140,172,79376,2,0,L|219:192,1,82.5000031471254,8|0,3:0|0:0,0:0:0:0:
386,235,79632,2,0,L|306:214,1,82.5000031471254,2|2,0:3|0:3,0:0:0:0:
160,273,79888,1,0,0:0:0:0:
330,360,80017,1,2,0:3:0:0:
280,292,80145,1,0,0:0:0:0:
266,303,80400,5,8,3:0:0:0:
266,303,80529,2,0,P|231:334|183:347,1,82.5000031471254,0|0,0:0|0:0,0:0:0:0:
49,203,80786,2,0,P|58:288|146:352,1,165.000006294251,2|0,1:2|0:0,0:0:0:0:
201,205,81170,2,0,P|167:242|159:286,1,82.5000031471254,2|0,1:2|0:0,0:0:0:0:
288,157,81427,1,8,3:0:0:0:
288,157,81556,2,0,P|324:138|366:136,1,82.5000031471254,0|2,0:0|0:3,0:0:0:0:
506,150,81812,2,0,P|404:148|379:92,1,165.000006294251,2|2,0:2|0:3,0:0:0:0:
393,274,82197,2,0,P|422:244|431:204,1,82.5000031471254,2|0,0:0|0:0,0:0:0:0:
243,197,82453,5,8,3:0:0:0:
243,197,82581,2,0,P|289:202|325:222,1,82.5000031471254,0|0,0:0|0:0,0:0:0:0:
146,279,82838,1,2,1:2:0:0:
146,279,82966,2,0,P|140:238|147:197,1,82.5000031471254,2|0,0:0|0:0,0:0:0:0:
191,35,83222,2,0,P|197:88|187:126,1,82.5000031471254
294,146,83479,2,0,L|212:158,1,82.5000031471254,4|0,3:0|0:0,0:0:0:0:
31,184,83735,2,0,L|113:172,1,82.5000031471254,2|2,0:3|0:2,0:0:0:0:
255,235,83991,1,0,0:0:0:0:
102,326,84119,1,2,0:2:0:0:
157,247,84248,1,0,0:0:0:0:
172,253,84503,5,4,3:0:0:0:
317,289,84632,1,2,0:0:0:0:
462,326,84760,2,0,L|460:207,1,93.500001783371,2|0,0:0|0:0,0:0:0:0:
462,326,85273,2,0,L|460:207,1,93.500001783371,0|0,1:0|0:0,0:0:0:0:
417,148,85529,1,8,3:0:0:0:
270,116,85658,1,2,0:0:0:0:
371,78,85786,1,2,0:3:0:0:
224,46,85914,2,0,L|118:23,1,93.500001783371,2|0,0:2|0:0,0:0:0:0:
224,33,86299,2,0,L|118:10,1,93.500001783371,2|0,3:0|0:0,0:0:0:0:
53,105,86555,5,8,3:0:0:0:
63,216,86683,1,0,0:0:0:0:
149,287,86811,2,0,P|161:240|154:182,1,93.500001783371,2|0,0:0|0:0,0:0:0:0:
231,384,87067,2,0,L|230:278,1,93.500001783371,2|0,0:0|0:0,0:0:0:0:
304,196,87324,2,0,P|300:242|312:287,1,93.500001783371,0|0,1:0|0:0,0:0:0:0:
472,362,87581,2,0,P|480:297|403:350,1,187.000003566742,8|2,3:0|0:2,0:0:0:0:
396,323,87965,2,0,P|400:277|388:232,1,93.500001783371,2|0,0:2|0:0,0:0:0:0:
303,157,88222,1,0,0:0:0:0:
216,86,88350,1,0,0:0:0:0:
214,104,88606,6,0,L|108:92,1,93.500001783371,8|0,3:0|0:0,0:0:0:0:
0,211,88863,2,0,L|106:199,1,93.500001783371,0|0,0:0|0:0,0:0:0:0:
214,316,89119,2,0,L|108:304,1,93.500001783371,2|0,0:0|0:0,0:0:0:0:
274,192,89376,1,0,1:0:0:0:
287,205,89632,1,8,3:0:0:0:
309,16,89760,2,0,L|314:109,1,93.500001783371,0|2,0:0|0:2,0:0:0:0:
408,176,90017,1,2,0:3:0:0:
412,94,90145,2,0,L|418:-10,1,93.500001783371,0|2,0:0|0:2,0:0:0:0:
404,258,90401,1,0,0:0:0:0:
392,275,90658,6,0,L|279:286,1,93.500001783371,8|0,3:0|0:0,0:0:0:0:
223,345,90914,1,2,0:0:0:0:
223,345,91042,2,0,B|82:320|82:320|113:284,1,187.000003566742,2|0,1:2|0:0,0:0:0:0:
239,211,91427,1,2,1:2:0:0:
147,201,91555,1,0,0:0:0:0:
182,39,91683,2,0,L|199:133,1,93.500001783371,4|0,3:0|0:0,0:0:0:0:
319,0,91940,2,0,L|302:94,1,93.500001783371,2|0,0:2|0:0,0:0:0:0:
253,203,92196,1,4,3:0:0:0:
358,157,92324,1,0,0:0:0:0:
294,302,92453,1,0,0:0:0:0:
299,319,92709,5,4,3:0:0:0:
192,282,92837,1,0,0:0:0:0:
85,246,92965,1,2,0:0:0:0:
182,189,93094,1,2,1:2:0:0:
75,153,93222,2,0,L|59:57,1,93.500001783371,2|0,0:0|0:0,0:0:0:0:
225,104,93478,1,0,1:0:0:0:
240,90,93735,2,0,L|442:72,1,187.000003566742,4|0,3:0|0:0,0:0:0:0:
200,202,94119,2,0,L|386:218,1,187.000003566742,2|0,0:2|0:0,0:0:0:0:
228,328,94504,1,0,3:0:0:0:
245,319,94760,5,4,3:0:0:0:
308,215,94888,1,0,0:0:0:0:
372,111,95017,2,0,L|384:12,2,93.500001783371,2|2|0,0:0|1:2|0:0,0:0:0:0:
321,232,95401,1,0,0:0:0:0:
209,104,95529,2,0,L|220:196,1,93.500001783371,0|2,1:0|0:0,0:0:0:0:
122,309,95786,2,0,L|325:315,1,187.000003566742,4|0,3:0|0:0,0:0:0:0:
468,357,96170,1,2,0:3:0:0:
378,376,96299,1,0,0:0:0:0:
385,283,96427,1,2,0:2:0:0:
475,264,96556,1,0,0:0:0:0:
485,244,96811,6,0,L|471:142,1,93.500001783371,4|0,3:0|0:0,0:0:0:0:
372,267,97068,2,0,L|386:165,1,93.500001783371,2|0,0:0|0:0,0:0:0:0:
263,245,97324,2,0,L|249:143,1,93.500001783371,2|0,0:0|0:0,0:0:0:0:
150,268,97581,2,0,L|164:166,1,93.500001783371,0|0,1:0|0:0,0:0:0:0:
46,247,97837,1,4,3:0:0:0:
46,247,97965,1,2,0:0:0:0:
34,153,98094,1,2,0:2:0:0:
34,153,98222,1,2,0:2:0:0:
60,60,98350,1,2,3:2:0:0:
174,88,98478,1,2,0:3:0:0:
312,38,98606,1,0,3:0:0:0:
198,10,98734,1,2,0:0:0:0:
269,197,98863,5,2,3:2:0:0:
399,228,100401,6,0,P|369:183|330:156,1,88,0|0,3:0|0:0,0:0:0:0:
154,86,100658,2,0,P|208:90|253:112,1,88,0|0,3:0|0:0,0:0:0:0:
271,316,100914,6,0,B|206:325|206:325|256:278|259:204,1,197.99999395752,4|0,3:1|0:0,0:0:0:0:
41,258,101299,1,2,1:2:0:0:
41,258,101427,2,0,P|78:290|123:308,1,98.9999969787599,2|2,0:0|0:3,0:0:0:0:
2,174,101683,2,0,P|-4:125|6:76,1,98.9999969787599,2|0,1:2|0:0,0:0:0:0:
6,76,101940,6,0,P|90:144|200:20,1,296.99999093628,4|2,3:0|0:3,0:0:0:0:
143,170,102453,1,2,3:2:0:0:
157,189,102709,1,2,3:2:0:0:
173,209,102966,6,0,P|221:193|274:151,1,98.9999969787599,4|0,3:0|0:0,0:0:0:0:
331,318,103222,2,0,P|324:269|332:220,1,98.9999969787599,0|2,0:0|1:2,0:0:0:0:
292,11,103478,2,0,P|252:36|257:83,1,98.9999969787599,2|0,0:0|0:0,0:0:0:0:
457,123,103734,2,0,P|451:169|403:184,1,98.9999969787599,2|0,1:2|0:0,0:0:0:0:
252,259,103991,1,4,3:0:0:0:
233,267,104248,5,2,0:3:0:0:
147,283,104376,1,2,0:3:0:0:
81,209,104504,1,2,3:2:0:0:
177,204,104632,1,2,0:2:0:0:
27,144,104760,1,2,0:2:0:0:
214,130,104888,1,2,0:2:0:0:
152,27,105017,6,0,P|202:3|251:0,1,98.9999969787599,4|0,3:2|0:0,0:0:0:0:
424,75,105273,2,0,P|384:35|339:15,1,98.9999969787599,2|0,0:0|1:0,0:0:0:0:
265,185,105529,2,0,P|265:129|282:83,1,98.9999969787599,2|0,0:0|0:0,0:0:0:0:
393,274,105786,1,2,1:2:0:0:
378,289,106042,6,0,B|320:282|289:318|289:318|246:293|188:308,1,197.99999395752,4|2,3:0|0:3,0:0:0:0:
17,381,106427,1,2,0:3:0:0:
0,292,106555,2,0,P|3:239|32:195,1,98.9999969787599,2|2,3:2|0:3,0:0:0:0:
106,346,106812,1,2,3:2:0:0:
105,324,107068,6,0,L|118:225,1,98.9999969787599,4|0,3:0|0:0,0:0:0:0:
144,35,107324,2,0,L|131:134,1,98.9999969787599,2|0,0:0|1:0,0:0:0:0:
198,314,107581,2,0,P|254:303|297:274,1,98.9999969787599,2|0,0:0|0:0,0:0:0:0:
234,74,107837,2,0,P|282:104|312:146,1,98.9999969787599,2|0,1:2|0:0,0:0:0:0:
111,178,108094,1,4,3:0:0:0:
122,196,108350,5,2,0:3:0:0:
214,209,108478,1,2,0:3:0:0:
233,315,108607,1,2,3:2:0:0:
76,291,108735,1,2,0:3:0:0:
291,384,108863,1,2,0:0:0:0:
309,384,109119,6,0,B|359:329|308:306|356:263|356:263|351:213|395:186,1,197.99999395752,4|0,3:1|0:0,0:0:0:0:
443,41,109504,1,2,1:2:0:0:
490,124,109632,2,0,L|374:118,1,98.9999969787599,2|2,0:0|0:3,0:0:0:0:
196,110,109889,2,0,L|294:115,1,98.9999969787599,2|0,1:2|0:0,0:0:0:0:
294,115,110145,6,0,P|234:199|86:120,1,296.99999093628,4|2,3:0|0:3,0:0:0:0:
195,248,110658,1,2,3:2:0:0:
263,151,110786,1,2,0:3:0:0:
253,32,110914,1,2,3:0:0:0:
273,23,111171,6,0,P|314:45|367:42,1,98.9999969787599,4|0,3:0|0:0,0:0:0:0:
512,102,111427,2,0,P|471:124|418:121,1,98.9999969787599,0|2,0:0|1:2,0:0:0:0:
273,202,111683,2,0,P|311:237|356:217,1,98.9999969787599,2|0,0:0|0:0,0:0:0:0:
512,286,111940,2,0,P|474:321|429:301,1,98.9999969787599,2|0,0:0|0:0,0:0:0:0:
328,128,112196,1,4,3:0:0:0:
309,118,112453,5,2,0:3:0:0:
240,182,112581,1,2,0:2:0:0:
132,174,112709,1,2,3:2:0:0:
225,97,112837,1,2,0:3:0:0:
340,209,112966,1,2,0:0:0:0:
342,230,113222,6,0,P|306:278|238:301,1,98.9999969787599,4|0,3:2|0:0,0:0:0:0:
92,262,113478,2,0,P|141:296|212:297,1,98.9999969787599,2|0,0:0|1:0,0:0:0:0:
371,375,113735,2,0,P|321:340|250:339,1,98.9999969787599,2|0,0:0|0:0,0:0:0:0:
85,384,113991,1,2,1:2:0:0:
69,366,114247,6,0,B|91:261|-7:253|64:146,1,197.99999395752,4|2,3:0|0:3,0:0:0:0:
184,169,114632,1,2,0:3:0:0:
110,119,114760,1,2,3:2:0:0:
203,84,114889,1,2,3:2:0:0:
287,140,115017,1,2,3:2:0:0:
117,215,115146,1,0,0:0:0:0:
316,242,115273,6,0,L|324:144,1,98.9999969787599,4|0,3:0|0:0,0:0:0:0:
438,358,115529,2,0,L|430:260,1,98.9999969787599,2|0,0:0|1:0,0:0:0:0:
248,381,115786,2,0,P|296:376|334:346,1,98.9999969787599,2|0,0:0|0:0,0:0:0:0:
69,286,116042,2,0,P|117:290|155:320,1,98.9999969787599,2|0,1:2|0:0,0:0:0:0:
176,145,116299,1,4,3:0:0:0:
190,158,116555,5,2,0:3:0:0:
307,114,116683,1,2,0:3:0:0:
246,223,116811,1,2,3:2:0:0:
232,83,116940,1,2,0:3:0:0:
401,99,117068,1,2,0:0:0:0:
0,82,117325,5,4,3:1:0:0:
77,183,125529,6,0,B|237:227|206:113|379:109|379:251,1,330,4|0,3:1|0:0,0:0:0:0:
438,129,126555,6,0,L|424:38,1,82.5000031471254,8|0,3:0|0:0,0:0:0:0:
446,59,126811,2,0,L|459:141,1,82.5000031471254,2|0,0:0|0:0,0:0:0:0:
479,239,127068,2,0,L|465:330,1,82.5000031471254,0|0,0:0|0:0,0:0:0:0:
483,334,127324,2,0,L|495:252,1,82.5000031471254,2|0,0:0|0:0,0:0:0:0:
272,369,127581,5,8,3:0:0:0:
272,369,128606,6,0,L|173:361,1,82.5000031471254,8|0,3:0|0:0,0:0:0:0:
174,344,128863,2,0,L|256:350,1,82.5000031471254,2|0,0:0|0:0,0:0:0:0:
333,239,129119,2,0,L|234:247,1,82.5000031471254,0|0,0:0|0:0,0:0:0:0:
235,264,129376,2,0,L|317:257,1,82.5000031471254,2|0,0:0|0:0,0:0:0:0:
139,117,129632,5,8,3:0:0:0:
139,117,130658,6,0,B|219:178|290:154|294:89|256:48|208:69,1,247.500009441376,8|0,3:0|0:0,0:0:0:0:
189,182,131170,2,0,L|197:280,1,82.5000031471254,0|0,0:0|0:0,0:0:0:0:
222,280,131427,2,0,L|215:197,1,82.5000031471254,2|0,0:0|0:0,0:0:0:0:
32,360,131683,5,8,3:0:0:0:
32,360,132709,6,0,P|122:328|190:361,1,165.000006294251,4|2,3:0|0:3,0:0:0:0:
217,361,133094,1,2,0:3:0:0:
270,345,133222,1,4,3:0:0:0:
321,270,133350,1,2,0:3:0:0:
274,173,133478,1,2,0:0:0:0:
256,183,133735,6,0,P|174:176|217:130,2,153.999995300293,4|0|0,3:1|0:0|0:0,0:0:0:0:
274,173,134504,2,0,P|284:126|282:88,1,76.9999976501466,2|0,1:2|0:0,0:0:0:0:
196,37,134760,2,0,L|353:51,1,153.999995300293,0|2,0:0|0:3,0:0:0:0:
475,17,135145,1,0,0:0:0:0:
422,16,135273,1,0,3:0:0:0:
408,111,135401,1,0,0:0:0:0:
457,126,135529,1,2,0:0:0:0:
471,143,135786,6,0,P|494:216|458:308,2,153.999995300293,4|0|0,3:0|0:0|0:0,0:0:0:0:
457,126,136555,2,0,L|353:117,1,76.9999976501466,2|0,1:2|0:0,0:0:0:0:
309,201,136811,2,0,P|328:111|253:89,1,153.999995300293,0|2,0:0|0:3,0:0:0:0:
196,160,137196,1,0,0:0:0:0:
206,116,137324,1,0,3:0:0:0:
115,203,137453,1,0,0:0:0:0:
105,159,137581,1,2,0:0:0:0:
89,143,137837,5,4,3:0:0:0:
72,132,138094,2,0,P|76:94|57:32,1,76.9999976501466,0|0,0:0|0:0,0:0:0:0:
213,49,138350,2,0,P|186:21|126:-3,1,76.9999976501466,0|0,0:0|0:0,0:0:0:0:
216,160,138606,2,0,P|255:70|322:41,1,153.999995300293,2|0,1:2|0:0,0:0:0:0:
452,102,138991,1,0,0:0:0:0:
452,102,139119,2,0,P|414:106|352:87,1,76.9999976501466,2|0,0:3|0:0,0:0:0:0:
369,243,139375,2,0,P|341:216|316:156,1,76.9999976501466,0|0,3:0|0:0,0:0:0:0:
480,246,139631,6,0,P|390:285|361:352,1,153.999995300293,2|0,0:0|0:0,0:0:0:0:
200,338,140017,1,0,0:0:0:0:
200,338,140145,2,0,P|234:320|298:316,1,76.9999976501466,0|0,0:0|0:0,0:0:0:0:
226,176,140401,2,0,P|261:190|306:237,1,76.9999976501466,0|0,0:0|0:0,0:0:0:0:
122,213,140657,2,0,P|192:144|195:71,1,153.999995300293,2|0,1:2|0:0,0:0:0:0:
358,88,141042,1,0,0:0:0:0:
358,88,141170,2,0,P|297:76|269:55,1,76.9999976501466,2|0,0:3|0:0,0:0:0:0:
115,21,141427,1,0,3:0:0:0:
220,10,141555,1,0,0:0:0:0:
90,134,141683,1,2,0:0:0:0:
102,150,141940,5,4,3:1:0:0:
180,157,142068,1,2,0:0:0:0:
239,208,142196,1,0,0:0:0:0:
245,286,142324,1,2,1:2:0:0:
203,354,142453,2,0,P|163:347|127:313,2,88,0|0|2,0:0|0:0|1:2,0:0:0:0:
329,384,142837,1,0,0:0:0:0:
329,384,142965,2,0,P|333:288|392:226,1,176,8|0,3:0|0:0,0:0:0:0:
497,167,143350,1,0,0:0:0:0:
497,167,143478,2,0,P|438:158|403:136,1,88,2|0,3:2|0:0,0:0:0:0:
349,46,143735,1,0,0:0:0:0:
331,50,143991,5,0,0:0:0:0:
286,115,144119,1,2,0:0:0:0:
208,131,144247,1,0,0:0:0:0:
136,96,144376,1,2,1:2:0:0:
107,22,144504,2,0,P|59:6|20:7,2,88,0|0|2,0:0|0:0|1:2,0:0:0:0:
72,147,144888,1,0,0:0:0:0:
72,147,145017,2,0,P|58:222|133:317,1,176,8|0,3:0|0:0,0:0:0:0:
281,332,145401,1,0,0:0:0:0:
281,332,145529,2,0,P|238:343|178:333,1,88,2|0,3:2|0:0,0:0:0:0:
142,199,145786,1,0,0:0:0:0:
159,190,146042,6,0,P|205:173|254:175,1,88,0|0,0:0|0:0,0:0:0:0:
316,204,146299,1,0,0:0:0:0:
393,187,146427,1,0,1:0:0:0:
439,123,146555,2,0,P|458:82|455:30,2,88,2|2|2,0:0|0:0|1:2,0:0:0:0:
442,258,146940,1,0,0:0:0:0:
442,258,147068,2,0,P|454:317|359:326,1,176,8|0,3:0|0:0,0:0:0:0:
212,292,147453,1,2,0:3:0:0:
212,292,147581,1,2,3:2:0:0:
282,332,147709,1,2,0:3:0:0:
219,381,147837,1,2,0:0:0:0:
198,384,148094,6,0,L|108:378,1,88,0|0,0:0|0:0,0:0:0:0:
31,214,148350,2,0,P|35:265|55:302,1,88,0|0,0:0|0:0,0:0:0:0:
156,203,148606,2,0,P|160:255|146:293,1,88,2|0,0:0|0:0,0:0:0:0:
85,135,148863,2,0,P|81:83|94:44,1,88,0|0,1:0|0:0,0:0:0:0:
211,120,149119,2,0,P|287:128|326:42,1,176,4|0,3:0|0:0,0:0:0:0:
304,171,149504,2,0,B|353:176|353:176|389:201,1,88,0|4,0:0|3:0,0:0:0:0:
388,314,149760,1,0,0:0:0:0:
388,314,149888,2,0,B|356:336|356:336|307:341,1,88,0|0,0:0|0:0,0:0:0:0:
169,288,150145,5,4,3:1:0:0:
169,288,150273,1,2,0:0:0:0:
264,256,150401,1,0,0:0:0:0:
264,256,150529,1,2,1:2:0:0:
125,196,150658,2,0,P|100:164|111:89,1,88,2|0,0:0|0:0,0:0:0:0:
128,22,150914,2,0,P|129:97|223:81,1,176,0|4,1:0|3:0,0:0:0:0:
232,82,151427,1,2,0:3:0:0:
341,146,151555,1,0,0:0:0:0:
341,146,151683,2,0,P|349:106|344:46,1,88,0|0,3:0|0:0,0:0:0:0:
454,221,151940,2,0,P|446:181|451:121,1,88,2|0,0:0|0:0,0:0:0:0:
309,273,152196,6,0,P|354:289|403:286,2,88,4|0|0,3:0|0:0|0:0,0:0:0:0:
186,354,152581,1,0,0:0:0:0:
186,354,152709,2,0,P|195:298|181:251,1,88,2|0,0:0|0:0,0:0:0:0:
97,204,152965,2,0,P|199:238|249:197,1,176,2|4,1:2|3:0,0:0:0:0:
265,190,153478,2,0,P|279:135|268:69,1,88,2|0,0:3|0:0,0:0:0:0:
375,270,153735,2,0,P|361:215|372:149,1,88,0|0,3:0|0:0,0:0:0:0:
264,363,153991,2,0,P|278:308|267:242,1,88,2|0,0:0|0:0,0:0:0:0:
152,227,154247,5,4,3:0:0:0:
152,227,154376,1,2,0:0:0:0:
62,291,154504,1,0,0:0:0:0:
62,291,154632,1,2,1:2:0:0:
37,148,154760,2,0,P|63:104|112:81,1,88,2|0,0:0|0:0,0:0:0:0:
211,126,155017,2,0,P|146:121|192:35,1,176,0|4,1:0|3:0,0:0:0:0:
187,21,155529,1,2,0:3:0:0:
303,47,155658,1,0,0:0:0:0:
303,47,155786,2,0,P|367:42|400:26,1,88,0|0,3:0|0:0,0:0:0:0:
211,126,156042,2,0,P|275:131|308:147,1,88,2|0,0:0|0:0,0:0:0:0:
447,243,156299,6,0,B|323:142|297:354|267:142|135:237,1,330,4|0,3:0|0:0,0:0:0:0:
134,237,157581,1,2,0:3:0:0:
217,257,157709,1,0,0:0:0:0:
395,145,157965,1,0,0:0:0:0:
301,168,158094,1,2,0:0:0:0:
301,168,158350,6,0,B|266:133|223:137|223:137|229:66|161:39,1,197.99999395752,4|0,3:1|0:0,0:0:0:0:
94,204,158735,1,2,1:2:0:0:
43,128,158863,2,0,L|141:122,1,98.9999969787599,2|0,0:0|0:0,0:0:0:0:
325,56,159119,2,0,L|194:49,1,98.9999969787599,2|0,1:2|0:0,0:0:0:0:
226,50,159376,6,0,P|229:187|96:224,1,296.99999093628,4|2,3:0|0:3,0:0:0:0:
216,178,159889,1,2,3:2:0:0:
304,222,160017,1,2,0:3:0:0:
307,320,160145,1,2,0:0:0:0:
298,338,160402,6,0,P|354:334|401:354,1,98.9999969787599,4|0,3:0|0:0,0:0:0:0:
203,295,160658,2,0,P|147:291|100:311,1,98.9999969787599,0|2,0:0|1:2,0:0:0:0:
369,181,160914,2,0,P|329:230|295:213,1,98.9999969787599,2|0,0:0|0:0,0:0:0:0:
145,124,161170,2,0,P|185:173|219:156,1,98.9999969787599,2|0,1:2|0:0,0:0:0:0:
255,19,161427,1,4,3:0:0:0:
257,36,161684,5,2,0:3:0:0:
344,52,161812,1,0,0:0:0:0:
384,139,161940,1,2,3:2:0:0:
292,129,162068,1,2,0:2:0:0:
447,68,162196,1,2,0:2:0:0:
421,227,162324,1,2,0:2:0:0:
236,297,162453,6,0,P|242:237|266:193,1,98.9999969787599,4|0,3:2|0:0,0:0:0:0:
361,362,162709,2,0,P|355:302|331:258,1,98.9999969787599,2|0,0:0|1:0,0:0:0:0:
131,213,162965,2,0,P|178:200|227:207,1,98.9999969787599,2|0,0:0|0:0,0:0:0:0:
64,375,163222,1,2,1:2:0:0:
81,365,163478,6,0,B|156:370|196:324|196:324|280:329,1,197.99999395752,4|0,3:0|0:0,0:0:0:0:
428,304,163863,1,0,0:0:0:0:
338,267,163991,2,0,P|307:218|302:164,1,98.9999969787599,2|0,3:2|0:0,0:0:0:0:
422,76,164248,1,2,0:2:0:0:
411,60,164504,6,0,L|309:71,1,98.9999969787599,4|0,3:0|0:0,0:0:0:0:
107,93,164760,2,0,L|205:82,1,98.9999969787599,2|0,0:0|1:0,0:0:0:0:
399,157,165017,2,0,P|362:197|302:216,1,98.9999969787599,2|0,0:0|0:0,0:0:0:0:
144,181,165273,2,0,P|184:218|243:231,1,98.9999969787599,2|0,1:2|0:0,0:0:0:0:
251,18,165530,1,4,3:0:0:0:
237,12,165786,5,2,0:3:0:0:
191,90,165914,1,2,0:3:0:0:
51,182,166042,1,2,3:2:0:0:
104,91,166171,1,2,0:3:0:0:
125,296,166299,1,2,0:2:0:0:
143,310,166555,6,0,B|203:281|249:320|249:320|247:261|306:252,1,197.99999395752,4|0,3:1|0:0,0:0:0:0:
480,220,166940,1,2,1:2:0:0:
427,292,167068,2,0,P|399:251|394:192,1,98.9999969787599,2|0,0:0|0:0,0:0:0:0:
351,30,167324,2,0,P|379:71|384:130,1,98.9999969787599,2|0,1:2|0:0,0:0:0:0:
385,119,167581,6,0,P|294:124|334:284,1,296.99999093628,4|2,3:0|0:3,0:0:0:0:
258,131,168094,1,2,3:2:0:0:
161,110,168222,1,2,0:3:0:0:
170,208,168350,1,2,0:0:0:0:
182,222,168607,6,0,P|232:225|297:204,1,98.9999969787599,4|0,3:0|0:0,0:0:0:0:
345,361,168863,2,0,P|333:310|344:244,1,98.9999969787599,0|2,0:0|1:2,0:0:0:0:
235,87,169120,2,0,P|287:96|333:147,1,98.9999969787599,2|0,0:0|0:0,0:0:0:0:
453,330,169376,2,0,P|449:278|413:220,1,98.9999969787599,2|0,1:2|0:0,0:0:0:0:
253,302,169632,1,4,3:0:0:0:
240,317,169889,5,0,0:0:0:0:
159,336,170017,1,2,0:0:0:0:
8,327,170145,1,2,3:2:0:0:
81,372,170273,1,0,0:0:0:0:
85,213,170402,1,2,0:0:0:0:
90,196,170658,6,0,P|118:147|155:116,1,98.9999969787599,4|0,3:2|0:0,0:0:0:0:
343,95,170914,2,0,P|288:86|240:94,1,98.9999969787599,2|0,0:0|1:0,0:0:0:0:
53,53,171171,2,0,P|93:81|140:96,1,98.9999969787599,2|0,0:0|0:0,0:0:0:0:
285,5,171427,1,2,1:2:0:0:
274,19,171683,6,0,B|276:94|329:115|329:115|345:165|308:212,1,197.99999395752,4|2,3:0|0:3,0:0:0:0:
177,223,172068,1,2,0:3:0:0:
270,253,172196,1,2,3:2:0:0:
143,119,172325,1,2,3:2:0:0:
240,160,172453,1,2,3:2:0:0:
59,184,172582,1,0,0:0:0:0:
77,350,172709,6,0,L|105:252,1,98.9999969787599,4|0,3:0|0:0,0:0:0:0:
163,55,172965,2,0,L|135:150,1,98.9999969787599,2|0,0:0|1:0,0:0:0:0:
202,373,173222,2,0,P|186:305|191:253,1,98.9999969787599,2|0,0:0|0:0,0:0:0:0:
287,90,173478,2,0,P|237:139|214:185,1,98.9999969787599,2|0,1:2|0:0,0:0:0:0:
359,265,173735,1,4,3:0:0:0:
371,278,173991,5,2,0:3:0:0:
456,230,174119,1,2,0:3:0:0:
439,131,174248,1,2,3:2:0:0:
300,200,174376,1,2,0:3:0:0:
276,361,174504,1,2,0:0:0:0:
262,371,174760,6,0,B|211:376|184:340|184:340|176:279|231:227,1,197.99999395752,4|0,3:1|0:0,0:0:0:0:
392,153,175145,1,2,1:2:0:0:
305,105,175273,2,0,L|309:204,1,98.9999969787599,2|0,0:0|0:0,0:0:0:0:
378,384,175529,2,0,L|382:285,1,98.9999969787599,2|0,1:2|0:0,0:0:0:0:
381,285,175786,6,0,P|262:300|219:143,1,296.99999093628,4|2,3:0|0:3,0:0:0:0:
254,329,176299,1,2,3:2:0:0:
165,373,176427,1,2,0:3:0:0:
138,277,176555,1,2,0:0:0:0:
122,272,176811,6,0,P|87:230|73:174,1,98.9999969787599,4|0,3:0|0:0,0:0:0:0:
261,239,177068,2,0,P|272:185|258:129,1,98.9999969787599,2|2,0:0|1:2,0:0:0:0:
59,177,177324,2,0,P|50:128|62:80,1,98.9999969787599,2|0,0:0|0:0,0:0:0:0:
275,124,177581,2,0,P|259:77|227:40,1,98.9999969787599,2|0,1:2|0:0,0:0:0:0:
181,213,177837,1,4,3:0:0:0:
186,230,178094,5,2,0:3:0:0:
246,303,178222,1,2,0:3:0:0:
358,298,178350,1,2,3:2:0:0:
282,210,178478,1,2,0:2:0:0:
406,191,178606,1,2,0:2:0:0:
421,359,178734,1,2,0:2:0:0:
349,123,178863,6,0,P|359:73|384:29,1,98.9999969787599,4|0,3:2|0:0,0:0:0:0:
358,298,179119,2,0,P|334:254|324:206,1,98.9999969787599,2|0,0:0|1:0,0:0:0:0:
230,50,179376,2,0,P|253:93|263:141,1,98.9999969787599,2|0,0:0|0:0,0:0:0:0:
186,311,179632,1,2,1:2:0:0:
174,322,179888,6,0,B|99:327|59:281|59:281|128:222,1,197.99999395752,4|2,3:0|0:3,0:0:0:0:
183,73,180273,1,2,0:3:0:0:
98,56,180401,2,0,P|103:106|135:144,1,98.9999969787599,2|2,3:2|0:3,0:0:0:0:
280,21,180658,1,2,0:0:0:0:
295,29,180914,6,0,L|308:142,1,98.9999969787599,4|0,3:0|0:0,0:0:0:0:
334,339,181170,2,0,L|321:240,1,98.9999969787599,2|0,0:0|1:0,0:0:0:0:
472,148,181427,2,0,P|443:188|403:217,1,98.9999969787599,2|0,0:0|0:0,0:0:0:0:
155,186,181683,2,0,P|192:218|237:237,1,98.9999969787599,2|0,1:2|0:0,0:0:0:0:
393,97,181940,1,4,3:0:0:0:
384,84,182196,5,2,0:3:0:0:
256,75,182324,1,2,0:3:0:0:
343,193,182452,1,2,3:2:0:0:
324,18,182580,1,2,0:3:0:0:
149,0,182709,1,2,0:0:0:0:
257,322,182965,6,0,P|271:240|196:268,1,165.000006294251,4|0,3:1|0:0,0:0:0:0:
100,258,183350,1,0,0:0:0:0:
79,347,183478,2,0,L|244:336,2,165.000006294251,2|2|4,0:0|1:2|3:0,0:0:0:0:
393,211,184247,1,2,0:3:0:0:
312,279,184376,1,2,0:3:0:0:
310,258,184505,1,0,0:0:0:0:
217,231,184632,1,2,0:3:0:0:
215,210,184761,1,2,0:0:0:0:
417,24,185017,6,0,P|356:7|363:95,1,165.000006294251,4|0,3:0|0:0,0:0:0:0:
465,125,185401,1,0,0:0:0:0:
442,201,185529,2,0,L|429:37,2,165.000006294251,2|2|4,0:0|0:0|3:0,0:0:0:0:
287,316,186299,1,2,0:3:0:0:
376,252,186427,1,2,0:3:0:0:
355,250,186555,1,2,3:2:0:0:
276,194,186683,1,2,0:3:0:0:
255,196,186811,1,2,0:0:0:0:
56,350,187068,6,0,P|144:357|134:287,1,165.000006294251,4|0,3:2|0:0,0:0:0:0:
39,245,187453,1,0,0:0:0:0:
76,169,187581,2,0,L|67:334,2,165.000006294251,2|2|4,0:0|1:2|3:0,0:0:0:0:
188,72,188350,1,2,0:3:0:0:
234,88,188478,1,2,0:3:0:0:
306,206,188606,1,2,3:2:0:0:
198,165,188735,1,0,0:0:0:0:
338,112,188863,2,0,L|449:145,1,82.5000031471254,2|2,0:0|0:0,0:0:0:0:
446,260,189119,6,0,P|467:202|498:165,1,82.5000031471254,4|0,3:0|0:0,0:0:0:0:
396,384,189376,2,0,P|378:324|382:276,1,82.5000031471254,2|2,0:0|1:2,0:0:0:0:
182,170,189632,2,0,P|207:203|244:221,1,82.5000031471254,2|0,0:0|0:0,0:0:0:0:
261,370,189888,2,0,P|283:336|296:297,1,82.5000031471254,2|0,1:2|0:0,0:0:0:0:
277,119,190145,1,4,3:0:0:0:
264,128,190401,5,2,0:3:0:0:
163,70,190529,1,2,0:3:0:0:
202,75,190658,1,0,3:0:0:0:
173,185,190786,1,2,0:3:0:0:
83,201,190914,1,0,0:0:0:0:
376,23,191170,5,4,3:1:0:0:
