osu file format v14

[General]
AudioFilename: audio.mp3
AudioLeadIn: 0
PreviewTime: 51170
Countdown: 0
SampleSet: Soft
StackLeniency: 0.4
Mode: 0
LetterboxInBreaks: 1
WidescreenStoryboard: 1

[Editor]
Bookmarks: 1683,2452,10657,35273,43478,51170,68093,72196,76298,84503,100401,117324,125529,133734,141939,150144,157837,182965,191170,199375
DistanceSpacing: 2.6
BeatDivisor: 4
GridSize: 16
TimelineZoom: 2.150004

[Metadata]
Title:Ding
TitleUnicode:Ding
Artist:Seeed
ArtistUnicode:Seeed
Creator:IceKalt
Version:Ich versteck' mein' Ehering
Source:
Tags:NEXT! german dancehall hip hop reggae groove peter fox deramok gottagof4st
BeatmapID:1535588
BeatmapSetID:727333

[Difficulty]
HPDrainRate:5
CircleSize:4.1
OverallDifficulty:8
ApproachRate:9.3
SliderMultiplier:2.4
SliderTickRate:1

[Events]
//Background and Video events
0,0,"seeed.jpg",0,0
Video,-3000,"ding+2.avi"
//Break Periods
2,117524,124503
//Storyboard Layer 0 (Background)
//Storyboard Layer 1 (Fail)
//Storyboard Layer 2 (Pass)
//Storyboard Layer 3 (Foreground)
//Storyboard Sound Samples

[TimingPoints]
2453,512.820512820513,4,2,2,55,1,0
2965,-83.3333333333333,4,2,2,55,0,0
4503,-74.0740740740741,4,2,2,55,0,0
5016,-83.3333333333333,4,2,2,55,0,0
6555,-74.074074074074,4,2,2,55,0,0
7067,-83.3333333333333,4,2,2,55,0,0
8093,-83.3333333333333,4,2,3,55,0,0
9887,-83.3333333333333,4,2,2,55,0,0
10657,-66.6666666666667,4,2,2,60,0,0
10658,-66.6666666666667,4,2,2,60,0,0
11683,-83.3333333333333,4,2,2,60,0,0
13862,-83.3333333333333,4,2,2,5,0,0
13990,-83.3333333333333,4,2,2,60,0,0
15913,-83.3333333333333,4,2,2,5,0,0
16041,-83.3333333333333,4,2,2,60,0,0
18926,-83.3333333333333,4,2,2,60,0,0
18991,-83.3333333333333,4,2,2,60,0,0
28990,-83.3333333333333,4,2,2,5,0,0
29118,-83.3333333333333,4,2,2,60,0,0
31041,-83.3333333333333,4,2,2,5,0,0
31169,-83.3333333333333,4,2,2,60,0,0
33093,-83.3333333333333,4,2,2,5,0,0
33221,-83.3333333333333,4,2,2,60,0,0
37195,-83.3333333333333,4,2,2,5,0,0
37323,-83.3333333333333,4,2,2,60,0,0
38477,-83.3333333333333,4,2,2,5,0,0
38605,-83.3333333333333,4,2,2,60,0,0
39246,-83.3333333333333,4,2,2,5,0,0
39375,-83.3333333333333,4,2,2,60,0,0
40528,-83.3333333333333,4,2,2,5,0,0
40657,-83.3333333333333,4,2,2,60,0,0
41298,-83.3333333333333,4,2,2,5,0,0
41426,-83.3333333333333,4,2,2,60,0,0
43349,-83.3333333333333,4,2,2,5,0,0
43477,-83.3333333333333,4,2,2,60,0,0
43478,-71.4285714285714,4,2,2,60,0,0
44375,-71.4285714285714,4,2,2,5,0,0
44503,-71.4285714285714,4,2,2,60,0,0
49503,-71.4285714285714,4,2,2,5,0,0
49631,-71.4285714285714,4,2,2,60,0,0
51170,-71.4285714285714,4,2,2,60,0,0
51362,-71.4285714285714,4,2,2,5,0,0
51426,-71.4285714285714,4,2,2,60,0,0
51618,-71.4285714285714,4,2,4,5,0,0
51682,-71.4285714285714,4,2,2,60,0,0
51683,-55.5555555555556,4,2,2,70,0,1
52003,-55.5555555555556,4,2,4,70,0,1
52067,-55.5555555555556,4,2,2,70,0,1
52644,-55.5555555555556,4,2,4,70,0,1
52708,-55.5555555555556,4,2,2,70,0,1
53926,-55.5555555555556,4,2,4,70,0,1
53990,-55.5555555555556,4,2,2,70,0,1
54247,-66.6666666666667,4,2,2,70,0,1
54439,-66.6666666666667,4,2,4,70,0,1
54503,-66.6666666666667,4,2,2,70,0,1
54695,-66.6666666666667,4,2,4,70,0,1
54759,-66.6666666666667,4,2,2,70,0,1
54760,-55.5555555555556,4,2,2,70,0,1
55337,-55.5555555555556,4,2,2,5,0,1
55401,-55.5555555555556,4,2,2,70,0,1
55465,-55.5555555555556,4,2,2,5,0,1
55529,-55.5555555555556,4,2,2,70,0,1
55977,-55.5555555555556,4,2,4,70,0,1
56041,-55.5555555555556,4,2,2,70,0,1
56490,-55.5555555555556,4,2,4,70,0,1
56554,-55.5555555555556,4,2,2,70,0,1
56746,-55.5555555555556,4,2,4,70,0,1
56810,-55.5555555555556,4,2,2,70,0,1
58028,-55.5555555555556,4,2,4,70,0,1
58093,-55.5555555555556,4,2,2,70,0,1
58541,-55.5555555555556,4,2,4,70,0,1
58605,-55.5555555555556,4,2,2,70,0,1
58798,-55.5555555555556,4,2,4,70,0,1
58862,-55.5555555555556,4,2,2,70,0,1
60208,-55.5555555555556,4,2,4,70,0,1
60272,-55.5555555555556,4,2,2,70,0,1
60849,-55.5555555555556,4,2,4,70,0,1
60913,-55.5555555555556,4,2,2,70,0,1
62131,-55.5555555555556,4,2,4,70,0,1
62195,-55.5555555555556,4,2,2,70,0,1
62644,-55.5555555555556,4,2,4,70,0,1
62708,-55.5555555555556,4,2,2,70,0,1
62900,-55.5555555555556,4,2,4,70,0,1
62964,-55.5555555555556,4,2,2,70,0,1
64182,-55.5555555555556,4,2,4,70,0,1
64246,-55.5555555555556,4,2,2,70,0,1
64952,-55.5555555555556,4,2,4,70,0,1
65016,-55.5555555555556,4,2,2,70,0,1
65528,-55.5555555555556,4,2,3,70,0,1
65529,-50,4,2,3,70,0,1
65593,-50,4,2,3,5,0,1
65657,-50,4,2,3,70,0,1
65721,-50,4,2,3,5,0,1
65785,-50,4,2,3,70,0,1
65849,-50,4,2,3,5,0,1
65914,-50,4,2,3,70,0,1
65978,-50,4,2,3,5,0,1
66042,-55.5555555555556,4,2,3,70,0,1
66234,-55.5555555555556,4,2,4,5,0,1
66298,-55.5555555555556,4,2,3,70,0,1
66746,-55.5555555555556,4,2,4,5,0,1
66810,-55.5555555555556,4,2,3,70,0,1
67323,-55.5555555555556,4,2,2,70,0,1
68094,-100,4,2,2,65,0,0
72196,-83.3333333333333,4,2,2,60,0,0
76298,-76.9230769230769,4,2,2,60,0,0
84503,-66.6666666666667,4,2,2,60,0,0
84504,-66.6666666666667,4,2,2,65,0,0
100401,-71.4285714285714,4,2,2,60,0,0
100593,-71.4285714285714,4,2,4,60,0,0
100657,-71.4285714285714,4,2,2,60,0,0
100849,-71.4285714285714,4,2,4,60,0,0
100913,-71.4285714285714,4,2,2,60,0,0
100914,-55.5555555555556,4,2,2,70,0,1
101234,-55.5555555555556,4,2,4,70,0,1
101298,-55.5555555555556,4,2,2,70,0,1
101875,-55.5555555555556,4,2,4,70,0,1
101939,-55.5555555555556,4,2,2,70,0,1
103157,-55.5555555555556,4,2,4,70,0,1
103221,-55.5555555555556,4,2,2,70,0,1
103478,-66.6666666666667,4,2,2,70,0,1
103669,-66.6666666666667,4,2,4,70,0,1
103734,-66.6666666666667,4,2,2,70,0,1
103926,-66.6666666666667,4,2,4,70,0,1
103990,-66.6666666666667,4,2,2,70,0,1
103991,-55.5555555555556,4,2,2,70,0,1
104567,-55.5555555555556,4,2,2,5,0,1
104632,-55.5555555555556,4,2,2,70,0,1
104696,-55.5555555555556,4,2,2,5,0,1
104760,-55.5555555555556,4,2,2,70,0,1
105208,-55.5555555555556,4,2,4,70,0,1
105272,-55.5555555555556,4,2,2,70,0,1
105721,-55.5555555555556,4,2,4,70,0,1
105785,-55.5555555555556,4,2,2,70,0,1
105977,-55.5555555555556,4,2,4,70,0,1
106041,-55.5555555555556,4,2,2,70,0,1
107259,-55.5555555555556,4,2,4,70,0,1
107323,-55.5555555555556,4,2,2,70,0,1
107772,-55.5555555555556,4,2,4,70,0,1
107836,-55.5555555555556,4,2,2,70,0,1
108028,-55.5555555555556,4,2,4,70,0,1
108093,-55.5555555555556,4,2,2,70,0,1
109439,-55.5555555555556,4,2,4,70,0,1
109503,-55.5555555555556,4,2,2,70,0,1
110080,-55.5555555555556,4,2,4,70,0,1
110144,-55.5555555555556,4,2,2,70,0,1
111362,-55.5555555555556,4,2,4,70,0,1
111426,-55.5555555555556,4,2,2,70,0,1
111875,-55.5555555555556,4,2,4,70,0,1
111939,-55.5555555555556,4,2,2,70,0,1
112131,-55.5555555555556,4,2,4,70,0,1
112195,-55.5555555555556,4,2,2,70,0,1
113413,-55.5555555555556,4,2,4,70,0,1
113477,-55.5555555555556,4,2,2,70,0,1
113926,-55.5555555555556,4,2,4,70,0,1
113990,-55.5555555555556,4,2,2,70,0,1
114182,-55.5555555555556,4,2,4,70,0,1
114246,-55.5555555555556,4,2,2,70,0,1
114759,-55.5555555555556,4,2,3,70,0,1
114760,-50,4,2,3,70,0,1
114824,-50,4,2,3,5,0,1
114888,-50,4,2,3,60,0,1
114952,-50,4,2,3,5,0,1
115016,-50,4,2,3,60,0,1
115080,-50,4,2,3,5,0,1
115144,-50,4,2,3,60,0,1
115208,-50,4,2,3,5,0,1
115273,-55.5555555555556,4,2,3,70,0,1
115464,-55.5555555555556,4,2,4,70,0,1
115528,-55.5555555555556,4,2,3,70,0,1
115977,-55.5555555555556,4,2,4,70,0,1
116041,-55.5555555555556,4,2,3,70,0,1
116554,-55.5555555555556,4,2,2,70,0,1
117324,-55.5555555555556,4,2,2,70,0,0
125529,-50,4,2,2,60,0,0
126811,-100,4,2,2,60,0,0
127067,-50,4,2,2,60,0,0
127324,-100,4,2,2,60,0,0
127580,-50,4,2,2,60,0,0
128862,-100,4,2,2,60,0,0
129375,-50,4,2,2,60,0,0
131170,-100,4,2,2,60,0,0
132708,-66.6666666666667,4,2,2,60,0,0
133734,-83.3333333333333,4,2,2,60,0,0
133735,-83.3333333333333,4,2,2,60,0,0
141939,-71.4285714285714,4,2,2,60,0,0
142644,-71.4285714285714,4,2,2,5,0,0
142708,-71.4285714285714,4,2,2,60,0,0
142900,-71.4285714285714,4,2,2,5,0,0
142964,-71.4285714285714,4,2,2,60,0,0
144695,-71.4285714285714,4,2,2,5,0,0
144759,-71.4285714285714,4,2,2,60,0,0
144952,-71.4285714285714,4,2,2,5,0,0
145016,-71.4285714285714,4,2,2,60,0,0
147003,-71.4285714285714,4,2,2,5,0,0
147067,-71.4285714285714,4,2,2,60,0,0
150144,-71.4285714285714,4,2,2,65,0,0
156299,-71.4285714285714,4,2,2,60,0,0
157580,-100,4,2,2,60,0,0
158028,-100,4,2,4,5,0,0
158093,-100,4,2,2,60,0,0
158285,-100,4,2,4,5,0,0
158350,-55.5555555555556,4,2,2,70,0,1
158669,-55.5555555555556,4,2,4,70,0,1
158734,-55.5555555555556,4,2,2,70,0,1
159310,-55.5555555555556,4,2,4,70,0,1
159375,-55.5555555555556,4,2,2,70,0,1
160593,-55.5555555555556,4,2,4,70,0,1
160657,-55.5555555555556,4,2,2,70,0,1
160914,-66.6666666666667,4,2,2,70,0,1
161105,-66.6666666666667,4,2,4,70,0,1
161169,-66.6666666666667,4,2,2,70,0,1
161362,-66.6666666666667,4,2,4,70,0,1
161426,-55.5555555555556,4,2,2,70,0,1
162003,-55.5555555555556,4,2,2,5,0,1
162067,-55.5555555555556,4,2,2,70,0,1
162132,-55.5555555555556,4,2,2,5,0,1
162196,-55.5555555555556,4,2,2,70,0,1
162644,-55.5555555555556,4,2,4,70,0,1
162708,-55.5555555555556,4,2,2,70,0,1
163157,-55.5555555555556,4,2,4,70,0,1
163221,-55.5555555555556,4,2,2,70,0,1
163413,-55.5555555555556,4,2,4,70,0,1
163477,-55.5555555555556,4,2,2,70,0,1
164695,-55.5555555555556,4,2,4,70,0,1
164759,-55.5555555555556,4,2,2,70,0,1
165208,-55.5555555555556,4,2,4,70,0,1
165272,-55.5555555555556,4,2,2,70,0,1
165464,-55.5555555555556,4,2,4,70,0,1
165528,-55.5555555555556,4,2,2,70,0,1
166875,-55.5555555555556,4,2,4,70,0,1
166939,-55.5555555555556,4,2,2,70,0,1
167259,-55.5555555555556,4,2,4,70,0,1
167323,-55.5555555555556,4,2,2,70,0,1
167516,-55.5555555555556,4,2,4,70,0,1
167580,-55.5555555555556,4,2,2,70,0,1
168798,-55.5555555555556,4,2,4,70,0,1
168862,-55.5555555555556,4,2,2,70,0,1
169310,-55.5555555555556,4,2,4,70,0,1
169375,-55.5555555555556,4,2,2,70,0,1
169567,-55.5555555555556,4,2,4,70,0,1
169631,-55.5555555555556,4,2,2,70,0,1
170849,-55.5555555555556,4,2,4,70,0,1
170913,-55.5555555555556,4,2,2,70,0,1
172195,-55.5555555555556,4,2,3,70,0,1
172260,-55.5555555555556,4,2,3,5,0,1
172324,-55.5555555555556,4,2,3,70,0,1
172388,-55.5555555555556,4,2,3,5,0,1
172452,-55.5555555555556,4,2,3,70,0,1
172516,-55.5555555555556,4,2,3,5,0,1
172580,-55.5555555555556,4,2,3,70,0,1
172644,-55.5555555555556,4,2,3,5,0,1
172708,-55.5555555555556,4,2,3,70,0,1
172900,-55.5555555555556,4,2,4,70,0,1
172964,-55.5555555555556,4,2,3,70,0,1
173413,-55.5555555555556,4,2,4,70,0,1
173477,-55.5555555555556,4,2,3,70,0,1
173990,-55.5555555555556,4,2,2,70,0,1
175080,-55.5555555555556,4,2,4,70,0,1
175144,-55.5555555555556,4,2,2,70,0,1
175721,-55.5555555555556,4,2,4,70,0,1
175785,-55.5555555555556,4,2,2,70,0,1
177003,-55.5555555555556,4,2,4,70,0,1
177067,-55.5555555555556,4,2,2,70,0,1
177324,-66.6666666666667,4,2,2,70,0,1
177516,-66.6666666666667,4,2,4,70,0,1
177580,-66.6666666666667,4,2,2,70,0,1
177772,-66.6666666666667,4,2,4,70,0,1
177836,-66.6666666666667,4,2,2,70,0,1
177837,-55.5555555555556,4,2,2,70,0,1
178414,-55.5555555555556,4,2,2,5,0,1
178478,-55.5555555555556,4,2,2,70,0,1
178542,-55.5555555555556,4,2,2,5,0,1
178606,-55.5555555555556,4,2,2,70,0,1
179054,-55.5555555555556,4,2,4,70,0,1
179118,-55.5555555555556,4,2,2,70,0,1
179567,-55.5555555555556,4,2,4,70,0,1
179631,-55.5555555555556,4,2,2,70,0,1
179823,-55.5555555555556,4,2,4,70,0,1
179887,-55.5555555555556,4,2,2,70,0,1
181105,-55.5555555555556,4,2,4,70,0,1
181169,-55.5555555555556,4,2,2,70,0,1
181618,-55.5555555555556,4,2,4,70,0,1
181682,-55.5555555555556,4,2,2,70,0,1
181875,-55.5555555555556,4,2,4,70,0,1
181939,-55.5555555555556,4,2,2,70,0,1
182965,-76.9230769230769,4,2,2,60,0,0
188605,-76.9230769230769,4,2,3,60,0,0
190400,-76.9230769230769,4,2,2,60,0,0
191235,-76.9230769230769,4,2,2,5,0,0

[Colours]
Combo1 : 244,0,24
Combo2 : 128,255,0
Combo3 : 255,34,145
Combo4 : 0,225,56

[HitObjects]
86,114,1683,53,2,0:3:0:0:
38,308,1811,1,2,0:3:0:0:
277,200,2067,5,2,3:0:0:0:
178,181,2196,1,2,0:1:0:0:
255,158,2324,1,2,0:1:0:0:
217,272,2452,6,0,B|274:307|324:278|324:278|351:298|389:292,1,180,4|0,3:1|0:1,0:0:0:0:
501,249,2965,1,0,0:0:0:0:
337,69,3221,2,0,P|315:100|307:148,1,71.9999978027344,0|0,1:0|0:0,0:0:0:0:
275,208,3478,2,0,P|266:130|200:89,1,143.999995605469,4|2,3:0|0:3,0:0:0:0:
187,247,3862,1,2,0:3:0:0:
202,174,3990,1,0,0:0:0:0:
122,299,4119,1,2,0:3:0:0:
107,226,4247,1,0,0:0:0:0:
100,220,4503,6,0,B|144:211|179:217|179:217|202:174|202:174|232:228|300:227,1,243.000000926971,4|0,3:0|1:0,0:0:0:0:
312,110,5016,1,0,0:0:0:0:
454,339,5273,2,0,P|420:352|374:344,1,71.9999978027344,0|0,1:0|0:0,0:0:0:0:
386,243,5529,2,0,B|390:257|407:275|407:275|432:229|427:171,1,143.999995605469,4|2,3:0|0:3,0:0:0:0:
348,12,5914,1,2,0:3:0:0:
388,89,6042,1,0,0:0:0:0:
507,13,6170,1,2,0:3:0:0:
467,90,6298,1,0,1:0:0:0:
475,97,6555,6,0,B|453:135|474:181|474:181|441:172|441:172|469:237|426:289,1,243.000000926971,4|0,3:2|1:0,0:0:0:0:
310,321,7067,1,0,0:0:0:0:
309,116,7324,2,0,P|323:152|322:196,1,71.9999978027344,0|0,1:0|0:0,0:0:0:0:
245,249,7580,2,0,P|312:229|328:147,1,143.999995605469,4|2,3:0|0:3,0:0:0:0:
166,136,7965,1,2,0:3:0:0:
252,167,8093,1,2,0:0:0:0:
92,241,8221,1,0,0:0:0:0:
178,210,8349,1,0,0:0:0:0:
86,95,8478,1,2,0:0:0:0:
86,95,8606,6,0,P|68:125|63:170,1,71.9999978027344,4|0,3:0|0:0,0:0:0:0:
221,20,8862,2,0,P|186:25|148:50,1,71.9999978027344,0|2,0:0|1:2,0:0:0:0:
310,149,9119,6,0,P|328:179|333:224,1,71.9999978027344,2|0,0:0|0:0,0:0:0:0:
255,364,9376,2,0,P|289:359|323:340,2,47.9999985351563,2|0|0,1:2|0:0|0:0,0:0:0:0:
223,368,9632,6,0,B|199:303|252:293|225:225,1,143.999995605469,4|2,3:0|0:3,0:0:0:0:
62,161,10016,1,2,0:3:0:0:
154,262,10144,1,0,0:0:0:0:
248,71,10273,1,2,0:3:0:0:
156,169,10401,1,0,1:0:0:0:
157,179,10657,6,0,B|241:122|248:181|334:134|334:134|291:163|291:210,1,270.000010299683,4|0,3:1|1:0,0:0:0:0:
362,289,11170,1,2,0:0:0:0:
372,205,11298,1,0,0:0:0:0:
270,286,11426,1,0,1:0:0:0:
393,188,11555,1,0,0:0:0:0:
314,356,11683,2,0,B|266:325|266:325|163:350,1,143.999995605469,0|2,3:0|0:3,0:0:0:0:
46,280,12067,1,2,0:2:0:0:
96,214,12196,2,0,P|120:246|126:294,1,71.9999978027344,0|2,0:0|0:3,0:0:0:0:
108,69,12452,1,0,3:0:0:0:
112,55,12708,6,0,B|183:36|183:36|255:47,1,143.999995605469,2|0,3:2|0:0,0:0:0:0:
265,177,13093,1,0,1:0:0:0:
210,233,13221,2,0,P|189:198|192:154,1,71.9999978027344,2|0,0:2|0:0,0:0:0:0:
320,123,13478,2,0,P|341:158|338:202,1,71.9999978027344,0|0,1:0|0:0,0:0:0:0:
244,333,13734,2,0,P|377:339|421:348,1,143.999995605469,0|2,3:0|0:3,0:0:0:0:
400,357,14119,2,0,P|439:302|445:247,1,71.9999978027344,2|0,0:2|3:0,0:0:0:0:
428,187,14375,1,2,0:3:0:0:
457,315,14503,1,0,0:0:0:0:
268,207,14632,1,0,0:0:0:0:
327,153,14760,6,0,P|346:189|346:227,1,71.9999978027344,2|0,3:2|0:0,0:0:0:0:
251,128,15016,2,0,P|232:92|232:54,1,71.9999978027344,0|0,0:0|1:0,0:0:0:0:
446,3,15273,1,2,0:0:0:0:
456,9,15529,2,0,L|452:89,1,71.9999978027344,0|0,1:0|0:0,0:0:0:0:
512,228,15785,2,0,B|435:204|446:246|367:227,1,143.999995605469,0|2,3:0|0:3,0:0:0:0:
221,111,16170,1,2,0:2:0:0:
289,75,16298,2,0,P|298:110|287:151,1,71.9999978027344,0|2,3:0|0:3,0:0:0:0:
143,220,16555,1,0,0:0:0:0:
152,209,16811,6,0,P|199:262|203:353,1,143.999995605469,0|0,3:0|0:0,0:0:0:0:
100,384,17196,1,0,1:0:0:0:
371,326,17324,2,0,L|291:343,1,71.9999978027344,2|0,0:0|0:0,0:0:0:0:
301,172,17580,1,0,1:0:0:0:
316,256,17708,1,0,0:0:0:0:
204,131,17837,2,0,P|249:81|336:76,1,143.999995605469,4|2,3:0|0:3,0:0:0:0:
178,236,18221,1,2,0:2:0:0:
106,163,18349,2,0,P|108:95|171:36,1,143.999995605469,4|0,3:0|0:0,0:0:0:0:
503,380,18862,38,0,L|493:324,1,35.9999989013672,6|0,0:2|0:0,0:0:0:0:
300,254,19375,5,2,0:0:0:0:
180,201,19503,1,0,0:0:0:0:
256,192,19632,1,0,1:0:0:0:
224,261,19760,1,0,0:0:0:0:
340,134,19888,2,0,B|292:103|292:103|249:119|189:128,1,143.999995605469,2|0,3:2|0:0,0:0:0:0:
42,97,20272,1,0,0:0:0:0:
45,178,20401,2,0,P|79:169|107:146,1,71.9999978027344,0|2,3:0|0:2,0:0:0:0:
193,7,20657,2,0,B|206:41|206:41|203:126,1,107.999996704102,0|0,0:0|0:0,0:0:0:0:
208,124,20914,6,0,P|251:142|299:138,1,71.9999978027344,0|0,3:0|0:0,0:0:0:0:
390,56,21170,2,0,P|347:38|299:42,1,71.9999978027344,0|0,0:0|1:0,0:0:0:0:
341,189,21426,1,2,0:0:0:0:
351,200,21683,2,0,P|369:169|373:132,1,71.9999978027344,0|0,1:0|0:0,0:0:0:0:
197,204,21939,2,0,L|272:219,1,71.9999978027344,0|2,3:0|0:0,0:0:0:0:
405,292,22196,2,0,B|369:283|369:283|285:298,1,107.999996704102,0|0,0:0|0:0,0:0:0:0:
291,306,22452,1,2,3:2:0:0:
133,307,22580,1,2,0:3:0:0:
216,359,22708,1,0,1:0:0:0:
203,366,22965,6,0,P|164:357|140:334,1,71.9999978027344,2|0,3:2|0:0,0:0:0:0:
95,226,23221,2,0,P|90:186|103:155,1,71.9999978027344,0|0,0:0|1:0,0:0:0:0:
243,138,23478,1,2,0:0:0:0:
254,147,23734,1,0,1:0:0:0:
265,157,23991,2,0,P|263:199|275:238,1,71.9999978027344,2|0,3:0|0:0,0:0:0:0:
392,129,24247,2,0,P|393:171|382:210,1,71.9999978027344,2|0,0:0|0:0,0:0:0:0:
164,91,24503,2,0,P|162:133|174:172,1,71.9999978027344,0|0,3:2|0:0,0:0:0:0:
326,18,24760,1,2,3:2:0:0:
317,30,25016,6,0,B|271:50|234:47|234:47|215:19|185:12,1,143.999995605469,2|0,3:2|0:0,0:0:0:0:
55,113,25401,1,0,0:0:0:0:
98,42,25529,1,0,0:0:0:0:
164,91,25657,1,0,0:0:0:0:
122,162,25785,1,2,0:0:0:0:
129,174,26042,2,0,P|128:246|103:315,1,143.999995605469,2|0,0:0|0:0,0:0:0:0:
16,216,26426,1,2,3:2:0:0:
164,91,26555,1,0,3:0:0:0:
37,106,26683,1,0,3:0:0:0:
240,171,26811,1,2,0:0:0:0:
248,159,27068,5,4,3:1:0:0:
385,211,27196,2,0,P|357:176|308:162,1,71.9999978027344
294,297,27452,1,0,1:0:0:0:
216,328,27580,2,0,P|210:292|219:258,1,71.9999978027344,2|0,0:0|0:0,0:0:0:0:
377,377,27837,1,0,1:0:0:0:
280,380,27965,1,0,0:0:0:0:
387,289,28093,2,0,P|392:195|346:145,1,143.999995605469,4|2,3:0|0:3,0:0:0:0:
218,171,28478,1,2,0:2:0:0:
302,235,28606,1,0,3:0:0:0:
352,62,28734,1,2,0:3:0:0:
291,145,28862,1,0,0:0:0:0:
281,132,29119,5,4,3:0:0:0:
159,63,29247,2,0,P|194:57|227:69,1,71.9999978027344
151,246,29503,1,0,1:0:0:0:
85,206,29632,2,0,P|111:180|149:170,1,71.9999978027344,2|0,0:0|0:0,0:0:0:0:
189,336,29888,1,0,1:0:0:0:
201,343,30144,2,0,B|275:311|271:364|342:344,1,143.999995605469,4|2,3:0|0:3,0:0:0:0:
385,205,30529,1,2,0:2:0:0:
315,272,30657,1,0,3:0:0:0:
221,117,30785,1,2,0:3:0:0:
291,184,30913,1,0,0:0:0:0:
282,195,31170,6,0,P|220:215|134:194,1,143.999995605469,4|0,3:0|0:0,0:0:0:0:
40,98,31555,1,0,1:2:0:0:
21,191,31683,2,0,L|26:278,1,71.9999978027344,2|0,0:0|0:0,0:0:0:0:
171,309,31939,1,0,1:0:0:0:
72,335,32067,1,0,0:0:0:0:
260,357,32196,2,0,P|269:282|210:217,1,143.999995605469,4|2,3:0|0:3,0:0:0:0:
108,240,32580,1,2,0:2:0:0:
242,144,32708,1,0,3:0:0:0:
137,156,32837,1,2,0:3:0:0:
322,226,32965,1,0,0:0:0:0:
334,234,33221,5,4,3:0:0:0:
420,134,33349,1,0,0:0:0:0:
430,289,33478,2,0,L|451:194,1,71.9999978027344,0|0,0:0|1:0,0:0:0:0:
325,340,33734,2,0,P|282:331|239:338,1,71.9999978027344,2|0,0:0|0:0,0:0:0:0:
56,384,33991,1,2,1:2:0:0:
68,377,34247,2,0,P|90:326|94:214,1,143.999995605469,4|2,3:0|0:3,0:0:0:0:
16,99,34632,1,2,0:3:0:0:
0,173,34760,2,0,P|40:174|72:154,1,71.9999978027344,0|2,0:0|0:2,0:0:0:0:
17,0,35016,1,0,1:0:0:0:
22,13,35273,6,0,P|66:43|162:39,1,143.999995605469,4|0,3:1|1:0,0:0:0:0:
229,27,35657,1,0,1:0:0:0:
276,87,35785,2,0,P|332:130|402:134,1,143.999995605469,2|0,0:0|1:0,0:0:0:0:
416,140,36298,2,0,P|412:210|368:266,1,143.999995605469,8|2,3:0|0:3,0:0:0:0:
247,279,36683,1,2,0:3:0:0:
139,171,36811,1,2,3:2:0:0:
296,166,36939,1,2,0:3:0:0:
315,329,37067,1,2,3:2:0:0:
309,342,37324,6,0,P|262:364|199:363,1,107.999996704102,4|0,3:2|0:0,0:0:0:0:
133,338,37645,1,0,0:0:0:0:
34,224,37837,2,0,P|94:187|116:120,1,143.999995605469,2|0,0:0|1:0,0:0:0:0:
133,119,38349,2,0,P|174:148|209:155,1,71.9999978027344,8|0,3:0|0:0,0:0:0:0:
300,165,38606,2,0,P|348:152|376:129,1,71.9999978027344,2|2,0:2|0:3,0:0:0:0:
353,9,38862,1,0,3:0:0:0:
247,88,38991,1,2,0:3:0:0:
239,225,39119,1,2,1:2:0:0:
245,236,39375,6,0,P|248:301|200:367,1,143.999995605469,8|0,3:0|1:3,0:0:0:0:
117,358,39760,1,0,1:0:0:0:
62,291,39888,2,0,P|74:252|97:223,1,71.9999978027344,2|0,0:0|0:0,0:0:0:0:
172,164,40144,2,0,P|192:134|202:100,1,71.9999978027344,0|0,1:0|0:0,0:0:0:0:
38,0,40401,2,0,P|46:52|121:99,1,143.999995605469,8|2,3:0|0:2,0:0:0:0:
283,121,40785,1,2,0:3:0:0:
168,26,40914,1,0,3:0:0:0:
229,195,41042,1,2,0:3:0:0:
267,26,41170,1,2,0:0:0:0:
258,37,41426,6,0,P|292:94|363:117,1,143.999995605469,8|0,3:0|1:0,0:0:0:0:
447,158,41811,2,0,P|460:227|427:289,1,143.999995605469,2|0,1:2|0:0,0:0:0:0:
339,253,42196,1,0,1:0:0:0:
337,264,42452,2,0,P|269:282|189:258,1,143.999995605469,4|2,3:0|0:3,0:0:0:0:
111,229,42837,1,2,0:2:0:0:
157,151,42965,2,0,P|196:143|236:152,2,71.9999978027344,0|2|0,0:0|0:3|1:0,0:0:0:0:
233,162,43478,6,0,P|282:128|305:44,1,83.9999974365235,4|2,3:1|0:0,0:0:0:0:
125,82,43735,2,0,P|136:37|161:5,1,83.9999974365235,2|2,0:2|1:2,1:2:0:0:
335,4,43991,1,2,0:2:0:0:
173,18,44119,1,0,0:0:0:0:
378,93,44247,1,2,1:2:0:0:
387,106,44503,2,0,P|377:148|343:191,1,83.9999974365235,8|0,3:0|0:0,0:0:0:0:
398,356,44760,2,0,P|408:314|442:271,1,83.9999974365235,2|2,0:3|0:3,0:0:0:0:
393,70,45016,2,0,P|397:112|380:164,1,83.9999974365235,2|2,3:2|0:3,0:0:0:0:
374,384,45273,2,0,P|369:341|431:234,1,167.999994873047,2|8,3:2|3:0,0:0:0:0:
442,234,45785,6,0,P|482:235|529:220,1,83.9999974365235,0|0,0:0|1:0,0:0:0:0:
465,20,46042,2,0,B|459:64|417:85|417:85|458:107|465:154,1,167.999994873047,2|0,0:0|1:0,0:0:0:0:
335,239,46426,1,0,0:0:0:0:
243,194,46555,2,0,P|309:141|401:161,1,167.999994873047,0|2,0:0|0:3,0:0:0:0:
396,323,46939,1,2,0:3:0:0:
394,140,47067,1,2,3:2:0:0:
389,335,47196,1,2,0:3:0:0:
244,208,47324,2,0,P|224:171|224:124,1,83.9999974365235,2|0,0:0|0:0,0:0:0:0:
334,24,47580,6,0,P|291:35|243:38,1,83.9999974365235,8|0,3:0|0:0,0:0:0:0:
87,79,47837,1,0,0:0:0:0:
14,0,47965,1,0,1:0:0:0:
86,176,48093,2,0,L|79:93,1,83.9999974365235,2|0,0:0|0:0,0:0:0:0:
85,271,48349,2,0,L|78:188,1,83.9999974365235,2|0,1:2|0:0,0:0:0:0:
81,284,48606,2,0,B|140:292|181:263|181:263|191:299|225:309,1,167.999994873047,8|2,3:0|0:2,0:0:0:0:
261,131,48991,1,2,0:3:0:0:
225,321,49119,1,0,3:2:0:0:
274,126,49247,1,2,0:3:0:0:
287,384,49375,2,0,P|308:337|305:293,1,83.9999974365235,2|0,0:2|0:0,0:0:0:0:
173,82,49632,5,0,3:0:0:0:
283,245,51170,70,0,P|242:246|203:232,1,83.9999974365235,0|0,0:0|0:0,0:0:0:0:
311,159,51426,2,0,P|312:200|298:240,1,83.9999974365235,0|0,0:0|0:0,0:0:0:0:
20,217,51683,6,0,P|71:140|189:132,1,215.999993408203,4|0,3:1|0:0,0:0:0:0:
142,344,52067,1,2,1:2:0:0:
142,344,52196,2,0,P|113:288|117:228,1,107.999996704102,2|2,0:0|0:3,0:0:0:0:
347,353,52452,1,2,2:0:0:0:
334,348,52708,2,0,P|331:299|417:353,1,215.999993408203,4|2,3:0|0:3,0:0:0:0:
371,234,53093,1,2,0:3:0:0:
180,281,53221,1,2,3:2:0:0:
288,139,53349,1,2,0:3:0:0:
269,238,53478,1,2,3:2:0:0:
256,240,53734,6,0,P|215:210|186:160,1,107.999996704102,4|0,3:0|0:0,0:0:0:0:
322,39,53991,2,0,P|363:69|392:119,1,107.999996704102,2|2,0:0|1:2,0:0:0:0:
192,151,54247,2,0,P|192:96|208:59,1,90.0000034332277,2|0,0:0|0:0,0:0:0:0:
387,132,54503,2,0,P|387:187|371:224,1,90.0000034332277,2|0,1:2|0:0,0:0:0:0:
119,294,54760,1,4,3:0:0:0:
126,282,55016,1,2,0:3:0:0:
281,375,55144,1,2,0:3:0:0:
283,176,55273,6,0,P|292:203|289:240,1,53.9999983520508,2|0,3:2|0:0,0:0:0:0:
266,249,55401,2,0,P|257:222|260:185,1,53.9999983520508,2|0,0:2|0:0,0:0:0:0:
434,296,55529,5,2,0:2:0:0:
340,304,55657,1,2,0:0:0:0:
445,286,55785,6,0,P|475:232|477:170,1,107.999996704102,4|0,3:2|0:0,0:0:0:0:
209,303,56042,2,0,P|179:249|177:187,1,107.999996704102,0|0,0:0|1:0,0:0:0:0:
363,97,56298,2,0,B|309:84|309:84|260:102,1,107.999996704102,2|0,0:0|0:0,0:0:0:0:
322,233,56555,1,2,1:2:0:0:
335,237,56811,2,0,B|234:281|225:198|125:240,1,215.999993408203,4|2,3:0|0:3,0:0:0:0:
199,383,57196,1,2,0:3:0:0:
280,156,57324,1,2,3:2:0:0:
387,315,57452,1,2,0:3:0:0:
182,306,57580,1,2,3:2:0:0:
194,301,57837,6,0,P|214:247|206:186,1,107.999996704102,4|0,3:0|0:0,0:0:0:0:
118,67,58093,2,0,P|98:121|106:182,1,107.999996704102,2|0,0:0|1:0,0:0:0:0:
308,124,58349,2,0,L|195:93,1,107.999996704102,2|0,0:0|0:0,0:0:0:0:
0,330,58606,2,0,L|113:299,1,107.999996704102,2|0,1:2|0:0,0:0:0:0:
386,365,58862,1,4,3:0:0:0:
397,357,59119,1,2,0:3:0:0:
262,275,59247,1,2,0:3:0:0:
271,85,59375,1,2,3:2:0:0:
366,202,59503,1,2,0:3:0:0:
170,85,59631,1,2,0:2:0:0:
158,90,59888,6,0,B|110:170|114:234|114:234|152:252|201:227,1,215.999993408203,4|0,3:1|0:0,0:0:0:0:
421,136,60273,1,2,1:2:0:0:
421,136,60401,2,0,P|369:117|314:132,1,107.999996704102,2|2,0:2|0:3,0:0:0:0:
116,307,60657,1,2,1:2:0:0:
106,314,60914,2,0,P|51:334|80:239,1,215.999993408203,4|2,3:0|0:3,0:0:0:0:
224,264,61298,1,2,0:3:0:0:
86,143,61426,1,2,3:2:0:0:
217,132,61555,1,2,0:3:0:0:
79,11,61683,1,2,3:2:0:0:
66,16,61939,6,0,B|23:50|34:120|34:120|70:158|56:227,1,215.999993408203,4|2,3:0|0:0,0:0:0:0:
1,377,62324,1,0,1:0:0:0:
1,377,62452,2,0,P|56:355|122:365,1,107.999996704102,2|0,0:0|0:0,0:0:0:0:
316,273,62708,2,0,P|261:295|195:285,1,107.999996704102,2|0,0:0|0:0,0:0:0:0:
428,148,62965,1,4,3:0:0:0:
432,161,63221,1,2,0:3:0:0:
308,191,63349,1,2,0:2:0:0:
322,5,63478,1,2,3:2:0:0:
358,122,63606,1,2,0:3:0:0:
151,172,63735,1,2,0:2:0:0:
163,165,63991,6,0,P|179:216|162:275,1,107.999996704102,4|0,3:2|0:0,0:0:0:0:
77,217,64247,1,2,0:0:0:0:
173,62,64375,1,0,1:0:0:0:
279,240,64503,2,0,P|253:174|254:132,1,107.999996704102,2|2,0:0|0:3,0:0:0:0:
451,240,64760,2,0,P|477:174|476:132,1,107.999996704102,2|0,1:2|0:0,0:0:0:0:
366,348,65016,1,4,3:0:0:0:
365,336,65273,1,2,0:3:0:0:
145,280,65401,1,2,0:3:0:0:
296,140,65529,6,0,P|271:159|232:163,1,60,2|0,3:2|0:0,0:0:0:0:
165,163,65657,2,0,P|190:144|229:140,1,60,2|0,3:2|0:0,0:0:0:0:
384,232,65785,2,0,P|359:251|320:255,1,60,2|0,3:2|0:0,0:0:0:0:
253,255,65913,2,0,P|278:236|317:232,1,60,2|0,3:2|0:0,0:0:0:0:
466,344,66042,6,0,P|475:306|479:119,1,215.999993408203,4|2,3:0|0:0,0:0:0:0:
456,269,66426,1,0,1:0:0:0:
384,67,66555,2,0,P|332:44|274:50,1,107.999996704102,2|0,0:0|0:0,0:0:0:0:
115,119,66811,2,0,P|167:142|225:136,1,107.999996704102,2|0,1:2|0:0,0:0:0:0:
186,30,67067,1,4,3:0:0:0:
176,38,67324,1,2,0:3:0:0:
55,62,67452,1,2,0:3:0:0:
175,221,67580,1,0,3:0:0:0:
54,197,67708,1,2,0:3:0:0:
289,130,67837,1,0,0:0:0:0:
13,371,68094,5,4,3:1:0:0:
26,358,68478,2,0,P|89:355|155:382,1,120,2|0,0:0|0:0,0:0:0:0:
82,274,68862,1,0,0:0:0:0:
498,279,69119,5,4,3:0:0:0:
480,274,69504,2,0,L|431:164,1,120,2|0,0:0|0:0,0:0:0:0:
396,314,69888,1,0,0:0:0:0:
0,172,70144,5,4,3:0:0:0:
17,154,70401,1,2,0:0:0:0:
17,154,70529,2,0,P|53:143|47:54,1,120,2|2,0:0|0:0,0:0:0:0:
67,232,70913,1,0,0:0:0:0:
499,103,71170,5,4,3:0:0:0:
483,91,71427,1,2,0:0:0:0:
483,91,71555,2,0,L|360:101,1,120,2|2,0:2|0:0,0:0:0:0:
486,10,71939,1,2,0:3:0:0:
256,192,72196,5,4,3:2:0:0:
261,178,72452,1,2,0:0:0:0:
244,331,72580,2,0,P|271:301|248:204,1,143.999995605469,2|0,1:2|0:0,0:0:0:0:
126,251,72965,1,0,1:0:0:0:
114,259,73221,5,8,3:0:0:0:
68,187,73349,2,0,P|80:120|96:101,1,71.9999978027344,2|0,0:0|0:0,0:0:0:0:
210,50,73606,1,2,0:3:0:0:
280,112,73734,2,0,P|332:114|359:100,1,71.9999978027344,2|0,3:2|0:0,0:0:0:0:
405,30,73991,1,2,0:0:0:0:
417,37,74247,5,8,3:0:0:0:
474,151,74375,2,0,P|459:212|375:244,1,143.999995605469,0|0,0:0|1:0,0:0:0:0:
222,219,74760,2,0,P|208:258|212:294,1,71.9999978027344,2|0,0:0|0:0,0:0:0:0:
322,378,75016,2,0,P|336:339|332:303,1,71.9999978027344,0|2,1:0|0:0,0:0:0:0:
275,147,75273,2,0,P|217:183|140:173,1,143.999995605469,4|2,3:0|0:2,0:0:0:0:
129,29,75657,1,0,0:0:0:0:
79,127,75785,1,4,3:0:0:0:
192,81,75914,1,2,0:3:0:0:
49,52,76042,1,0,0:0:0:0:
36,61,76298,5,4,3:0:0:0:
0,209,76426,2,0,P|34:228|73:229,1,77.9999964294435,0|0,0:0|0:0,0:0:0:0:
164,157,76683,2,0,P|123:215|139:306,1,155.999992858887,2|0,1:2|0:0,0:0:0:0:
289,234,77068,2,0,P|250:228|214:240,1,77.9999964294435,2|0,1:2|0:0,0:0:0:0:
335,361,77325,1,8,3:0:0:0:
412,328,77454,2,0,P|425:293|414:241,1,77.9999964294435,0|2,0:0|0:3,0:0:0:0:
287,132,77710,2,0,P|274:167|285:219,1,77.9999964294435,2|0,0:2|0:0,0:0:0:0:
435,155,77966,1,2,0:3:0:0:
420,63,78095,2,0,P|382:59|335:83,1,77.9999964294435,2|0,0:0|0:0,0:0:0:0:
512,168,78350,6,0,P|473:178|423:171,1,77.9999964294435,8|0,3:0|0:0,0:0:0:0:
258,56,78607,1,0,0:0:0:0:
326,0,78735,2,0,P|346:65|292:138,1,155.999992858887,2|0,1:2|0:0,0:0:0:0:
118,76,79119,2,0,P|108:36|118:-18,1,77.9999964294435,2|0,1:2|0:0,0:0:0:0:
195,114,79375,2,0,P|205:154|195:208,1,77.9999964294435,8|0,3:0|0:0,0:0:0:0:
0,187,79632,2,0,P|29:158|81:140,1,77.9999964294435,2|2,0:3|0:3,0:0:0:0:
184,231,79888,1,0,0:0:0:0:
52,312,80016,1,2,0:3:0:0:
80,230,80144,1,0,0:0:0:0:
92,239,80401,5,8,3:0:0:0:
263,254,80529,2,0,P|263:207|245:176,1,77.9999964294435
194,342,80785,2,0,P|234:365|270:365,1,77.9999964294435,2|0,1:2|0:0,0:0:0:0:
384,336,81042,1,0,0:0:0:0:
359,182,81170,2,0,P|342:217|344:255,1,77.9999964294435,2|0,1:2|0:0,0:0:0:0:
482,148,81426,1,8,3:0:0:0:
417,85,81555,2,0,P|381:68|342:69,1,77.9999964294435,0|2,0:0|0:3,0:0:0:0:
148,132,81811,2,0,P|237:157|313:111,1,155.999992858887,2|2,0:2|0:3,0:0:0:0:
165,38,82196,2,0,P|126:37|91:54,1,77.9999964294435,2|0,0:0|0:0,0:0:0:0:
45,198,82452,5,8,3:0:0:0:
44,118,82580,1,0,0:0:0:0:
123,207,82708,1,0,0:0:0:0:
208,121,82837,2,0,P|200:155|214:202,1,77.9999964294435,2|0,1:2|0:0,0:0:0:0:
388,197,83093,2,0,P|362:173|314:161,1,77.9999964294435,2|0,0:0|0:0,0:0:0:0:
332,306,83349,1,0,0:0:0:0:
418,319,83478,2,0,P|478:298|508:197,1,155.999992858887,4|2,3:0|0:3,0:0:0:0:
422,86,83862,1,2,0:2:0:0:
444,174,83991,1,0,0:0:0:0:
506,54,84119,1,2,0:2:0:0:
343,46,84248,1,0,0:0:0:0:
332,57,84503,5,4,3:0:0:0:
198,99,84632,1,2,0:0:0:0:
371,145,84760,2,0,L|263:182,1,90.0000034332277,2|0,0:0|0:0,0:0:0:0:
369,155,85273,2,0,L|261:192,1,90.0000034332277,0|0,1:0|0:0,0:0:0:0:
147,229,85529,1,8,3:0:0:0:
342,247,85657,1,2,0:0:0:0:
142,312,85785,1,2,0:3:0:0:
174,86,85914,2,0,L|204:172,1,90.0000034332277,2|0,0:2|0:0,0:0:0:0:
181,75,86298,2,0,L|211:161,1,90.0000034332277,2|0,3:0|0:0,0:0:0:0:
337,257,86555,5,8,3:0:0:0:
276,95,86683,1,0,0:0:0:0:
155,274,86811,2,0,L|241:244,1,90.0000034332277,2|0,0:0|0:0,0:0:0:0:
485,152,87067,2,0,L|400:181,1,90.0000034332277,2|0,0:0|0:0,0:0:0:0:
276,338,87324,1,0,1:0:0:0:
437,276,87452,1,0,0:0:0:0:
276,95,87580,2,0,L|305:179,1,90.0000034332277,8|2,3:0|0:0,0:0:0:0:
357,309,87837,1,2,0:2:0:0:
367,106,87965,2,0,L|337:21,1,90.0000034332277,2|0,0:2|0:0,0:0:0:0:
99,74,88221,1,0,0:0:0:0:
244,20,88349,1,0,0:0:0:0:
237,37,88606,6,0,L|266:122,1,90.0000034332277,8|0,3:0|0:0,0:0:0:0:
333,263,88862,2,0,L|362:177,1,90.0000034332277,0|0,0:0|0:0,0:0:0:0:
156,241,89119,2,0,L|185:326,1,90.0000034332277,2|0,0:0|0:0,0:0:0:0:
230,192,89375,1,0,1:0:0:0:
137,155,89503,1,0,0:0:0:0:
87,28,89632,2,0,L|172:57,1,90.0000034332277,8|0,3:0|0:0,0:0:0:0:
358,70,89888,1,2,0:2:0:0:
299,239,90016,2,0,L|335:136,1,90.0000034332277,2|0,0:3|0:0,0:0:0:0:
437,43,90273,1,2,0:2:0:0:
312,0,90401,1,0,0:0:0:0:
312,18,90657,6,0,L|341:103,1,90.0000034332277,8|0,3:0|0:0,0:0:0:0:
351,278,90914,1,2,0:0:0:0:
262,187,91042,2,0,L|232:101,1,90.0000034332277,2|0,1:2|0:0,0:0:0:0:
341,103,91298,1,0,0:0:0:0:
379,192,91426,2,0,L|350:278,1,90.0000034332277,2|0,1:2|0:0,0:0:0:0:
463,331,91683,2,0,L|377:301,1,90.0000034332277,4|0,3:0|0:0,0:0:0:0:
165,226,91939,2,0,L|250:255,1,90.0000034332277,2|0,0:2|0:0,0:0:0:0:
282,345,92196,1,4,3:0:0:0:
86,275,92324,1,0,0:0:0:0:
168,355,92452,1,0,0:0:0:0:
174,338,92708,5,4,3:0:0:0:
202,252,92836,1,0,0:0:0:0:
233,154,92965,1,2,0:0:0:0:
261,68,93093,1,2,1:2:0:0:
164,0,93221,2,0,L|135:86,1,90.0000034332277,2|0,0:0|0:0,0:0:0:0:
28,163,93478,1,0,1:0:0:0:
38,178,93734,2,0,L|208:235,1,180.000006866455,4|0,3:0|0:0,0:0:0:0:
249,373,94119,2,0,L|163:343,1,90.0000034332277,2|0,0:2|0:0,0:0:0:0:
20,253,94375,1,0,0:0:0:0:
104,282,94503,1,0,3:0:0:0:
111,265,94760,6,0,L|142:169,1,90.0000034332277,4|0,3:0|0:0,0:0:0:0:
250,49,95017,1,2,0:0:0:0:
222,135,95145,1,2,1:2:0:0:
215,152,95401,1,0,0:0:0:0:
256,33,95529,1,0,1:0:0:0:
288,207,95657,1,2,0:0:0:0:
352,18,95785,2,0,L|293:193,1,180.000006866455,4|0,3:0|0:0,0:0:0:0:
179,355,96170,2,0,L|210:259,1,90.0000034332277,2|0,0:3|0:0,0:0:0:0:
408,246,96426,1,2,0:2:0:0:
288,207,96554,1,0,0:0:0:0:
282,224,96811,6,0,L|366:253,1,90.0000034332277,4|0,3:0|0:0,0:0:0:0:
190,100,97067,2,0,L|105:70,1,90.0000034332277,2|0,0:0|0:0,0:0:0:0:
139,232,97324,2,0,L|109:316,1,90.0000034332277,2|0,0:0|0:0,0:0:0:0:
334,92,97580,2,0,L|363:7,1,90.0000034332277,0|0,1:0|0:0,0:0:0:0:
219,177,97837,5,4,3:0:0:0:
260,58,97965,1,2,0:0:0:0:
373,223,98093,1,2,0:2:0:0:
414,104,98221,1,2,0:2:0:0:
278,257,98349,1,2,3:2:0:0:
306,173,98478,1,2,0:3:0:0:
251,340,98606,1,0,3:0:0:0:
185,274,98734,1,2,0:0:0:0:
412,346,98862,1,2,3:2:0:0:
274,100,100401,6,0,P|316:98|357:108,1,83.9999974365235,0|0,3:0|0:0,0:0:0:0:
189,122,100657,2,0,P|224:99|264:87,1,83.9999974365235,0|0,3:0|0:0,0:0:0:0:
392,274,100914,6,0,P|311:323|302:220,1,215.999993408203,4|0,3:1|0:0,0:0:0:0:
479,232,101298,1,2,1:2:0:0:
479,232,101427,2,0,P|486:294|460:349,1,107.999996704102,2|2,0:0|0:3,0:0:0:0:
373,163,101683,1,2,1:2:0:0:
368,151,101939,2,0,B|315:138|277:158|277:158|252:97|186:84,1,215.999993408203,4|2,3:0|0:3,0:0:0:0:
115,264,102324,1,2,0:3:0:0:
173,88,102452,1,2,3:2:0:0:
165,99,102709,1,2,3:2:0:0:
165,111,102965,6,0,P|204:145|268:154,1,107.999996704102,4|0,3:0|0:0,0:0:0:0:
474,166,103221,2,0,P|435:132|371:123,1,107.999996704102,0|2,0:0|1:2,0:0:0:0:
202,109,103478,2,0,P|234:136|294:145,1,90.0000034332277,2|0,0:0|0:0,0:0:0:0:
437,168,103734,2,0,P|405:141|345:132,1,90.0000034332277,2|0,1:2|0:0,0:0:0:0:
329,343,103991,1,4,3:0:0:0:
322,331,104247,1,2,0:3:0:0:
95,271,104375,1,2,0:3:0:0:
230,201,104503,6,0,P|239:228|236:265,1,53.9999983520508,2|0,3:2|0:0,0:0:0:0:
222,279,104632,2,0,P|213:252|216:215,1,53.9999983520508,2|0,0:2|0:0,0:0:0:0:
350,171,104760,5,2,0:2:0:0:
317,247,104888,1,2,0:2:0:0:
435,144,105016,6,0,P|406:101|353:84,1,107.999996704102,4|0,3:2|0:0,0:0:0:0:
125,82,105273,2,0,P|154:39|207:22,1,107.999996704102,2|0,0:0|1:0,0:0:0:0:
51,255,105529,2,0,L|54:143,1,107.999996704102,2|0,0:0|0:0,0:0:0:0:
198,320,105785,1,2,1:2:0:0:
209,313,106042,2,0,B|266:304|288:255|288:255|334:232|345:276|402:254,1,215.999993408203,4|2,3:0|0:3,0:0:0:0:
420,70,106427,1,2,0:3:0:0:
243,158,106555,1,2,3:2:0:0:
374,181,106683,1,2,0:3:0:0:
317,0,106811,1,2,3:2:0:0:
308,8,107067,6,0,P|259:34|199:38,1,107.999996704102,4|0,3:0|0:0,0:0:0:0:
8,93,107324,1,2,0:0:0:0:
135,2,107453,1,0,0:1:0:0:
64,263,107580,2,0,L|73:149,1,107.999996704102,2|0,0:0|0:0,0:0:0:0:
316,229,107837,2,0,L|274:104,1,107.999996704102,2|0,1:2|0:0,0:0:0:0:
208,366,108093,1,4,3:0:0:0:
205,354,108350,1,2,0:3:0:0:
147,165,108478,1,2,0:3:0:0:
244,260,108606,1,2,3:2:0:0:
243,33,108734,1,2,0:3:0:0:
350,165,108862,1,2,0:0:0:0:
340,157,109119,6,0,B|439:145|492:171|492:171|470:202|433:195,1,215.999993408203,4|0,3:1|0:0,0:0:0:0:
312,341,109504,1,2,1:2:0:0:
312,341,109632,2,0,P|311:288|336:232,1,107.999996704102,2|2,0:0|0:3,0:0:0:0:
460,38,109888,1,2,1:2:0:0:
450,47,110144,2,0,B|344:90|348:1|231:49,1,215.999993408203,4|2,3:0|0:3,0:0:0:0:
210,280,110529,1,2,0:3:0:0:
292,121,110657,1,2,3:2:0:0:
136,154,110785,1,2,0:3:0:0:
54,313,110913,1,2,3:0:0:0:
59,326,111170,6,0,B|123:328|162:288|162:288|185:336|252:347,1,215.999993408203,4|0,3:0|0:0,0:0:0:0:
335,165,111555,1,2,1:2:0:0:
335,165,111683,2,0,P|286:198|257:258,1,107.999996704102,2|0,0:0|0:0,0:0:0:0:
419,384,111939,2,0,P|414:324|376:269,1,107.999996704102,2|0,0:0|0:0,0:0:0:0:
184,202,112196,1,4,3:0:0:0:
192,191,112452,1,2,0:3:0:0:
97,42,112580,1,2,0:2:0:0:
350,20,112709,1,2,3:2:0:0:
275,181,112837,1,2,0:3:0:0:
221,0,112966,1,2,0:0:0:0:
228,11,113221,6,0,P|257:58|322:100,1,107.999996704102,4|0,3:2|0:0,0:0:0:0:
486,97,113478,1,2,0:0:0:0:
350,20,113606,1,0,1:0:0:0:
400,257,113734,2,0,P|426:208|430:131,1,107.999996704102,2|0,0:0|0:0,0:0:0:0:
512,351,113991,2,0,P|458:352|408:372,1,107.999996704102,2|0,1:2|0:0,0:0:0:0:
172,327,114247,1,4,3:0:0:0:
180,336,114503,1,2,0:3:0:0:
56,202,114632,1,2,0:3:0:0:
287,190,114760,6,0,P|305:213|312:242,1,60,2|0,3:2|0:0,0:0:0:0:
245,258,114888,2,0,P|273:265|303:261,1,60,2|0,3:2|0:0,0:0:0:0:
253,118,115016,2,0,P|225:107|195:107,1,60,2|0,3:2|0:0,0:0:0:0:
167,244,115144,2,0,P|148:220|141:191,1,60,2|0,3:2|0:0,0:0:0:0:
35,13,115273,6,0,P|145:2|266:19,1,215.999993408203,4|2,3:0|0:0,0:0:0:0:
102,52,115657,1,0,1:0:0:0:
317,47,115785,2,0,P|337:96|325:148,1,107.999996704102,2|0,0:0|0:0,0:0:0:0:
197,319,116042,2,0,P|177:270|189:218,1,107.999996704102,2|0,1:2|0:0,0:0:0:0:
423,187,116298,1,4,3:0:0:0:
423,199,116555,1,2,0:3:0:0:
280,384,116683,1,2,0:3:0:0:
342,221,116811,1,2,3:2:0:0:
412,384,116939,1,2,0:3:0:0:
265,193,117068,1,2,0:0:0:0:
0,384,117324,5,4,3:1:0:0:
324,86,125529,5,4,3:1:0:0:
414,53,125786,1,0,0:0:0:0:
406,148,126042,1,0,0:0:0:0:
324,86,126298,1,0,0:0:0:0:
68,244,126555,6,0,L|187:213,1,120,8|0,3:0|0:0,0:0:0:0:
208,132,126811,6,0,P|190:111|172:131,1,60,2|0,0:0|0:0,0:0:0:0:
362,289,127067,6,0,L|245:258,1,120,0|0,0:0|0:0,0:0:0:0:
221,343,127324,6,0,P|238:363|256:343,1,60,2|0,0:0|0:0,0:0:0:0:
95,156,127580,5,8,3:0:0:0:
324,86,127837,5,0,0:0:0:0:
414,53,128093,1,0,0:0:0:0:
406,148,128349,1,0,0:0:0:0:
406,148,128478,1,0,0:0:0:0:
319,177,128606,6,0,L|194:186,1,120,8|0,3:0|0:0,0:0:0:0:
206,272,128862,6,0,P|207:241|202:210,1,60,2|0,0:0|0:0,0:0:0:0:
300,263,129119,2,0,P|299:294|303:322,1,60,0|0,0:0|0:0,0:0:0:0:
187,358,129375,6,0,L|306:349,1,120,2|0,0:0|0:0,0:0:0:0:
95,156,129632,5,8,3:0:0:0:
324,86,129888,5,0,0:0:0:0:
414,53,130144,1,0,0:0:0:0:
406,148,130400,1,0,0:0:0:0:
252,297,130657,6,0,L|237:177,1,120,8|0,3:0|0:0,0:0:0:0:
224,82,130914,1,0,0:0:0:0:
157,326,131170,6,0,P|171:353|189:374,1,60,0|0,0:0|0:0,0:0:0:0:
349,268,131426,2,0,P|334:240|316:219,1,60,2|0,0:0|0:0,0:0:0:0:
95,156,131683,5,8,3:0:0:0:
324,86,131939,5,0,0:0:0:0:
324,86,132067,1,0,0:0:0:0:
414,53,132195,1,0,0:0:0:0:
414,53,132324,1,0,0:0:0:0:
406,148,132453,1,0,0:0:0:0:
129,180,132708,6,0,P|174:169|216:177,1,90.0000034332277,4|0,3:0|0:0,0:0:0:0:
258,305,132965,1,2,0:3:0:0:
158,343,133094,1,2,0:3:0:0:
342,273,133221,1,4,3:0:0:0:
175,261,133349,1,2,0:3:0:0:
355,352,133478,1,2,0:0:0:0:
372,139,133734,5,4,3:1:0:0:
367,152,133991,2,0,P|322:161|273:154,1,71.9999978027344,0|0,0:0|0:0,0:0:0:0:
181,56,134247,2,0,P|226:47|275:54,1,71.9999978027344,0|0,0:0|0:0,0:0:0:0:
464,89,134503,2,0,P|438:128|425:64,1,143.999995605469,2|0,1:2|0:0,0:0:0:0:
443,71,135016,1,2,0:3:0:0:
454,233,135145,1,0,0:0:0:0:
411,154,135273,1,0,3:0:0:0:
462,322,135401,1,0,0:0:0:0:
382,279,135529,1,2,0:0:0:0:
256,47,135785,5,4,3:0:0:0:
199,193,136042,6,0,P|201:247|184:282,1,71.9999978027344,0|0,0:0|0:0,0:0:0:0:
53,302,136298,2,0,P|51:248|68:213,1,71.9999978027344,0|0,0:0|0:0,0:0:0:0:
48,89,136555,2,0,P|74:128|87:64,1,143.999995605469,2|0,1:2|0:0,0:0:0:0:
69,71,137067,1,2,0:3:0:0:
0,173,137196,1,0,0:0:0:0:
150,255,137324,1,0,3:0:0:0:
81,153,137453,1,0,0:0:0:0:
5,286,137580,1,2,0:0:0:0:
256,47,137837,5,4,3:0:0:0:
284,295,138093,2,0,P|266:251|265:222,1,71.9999978027344,0|0,0:0|0:0,0:0:0:0:
444,297,138349,2,0,P|462:253|463:224,1,71.9999978027344,0|0,0:0|0:0,0:0:0:0:
464,89,138606,2,0,P|438:128|425:64,1,143.999995605469,2|0,1:2|0:0,0:0:0:0:
219,167,138991,1,0,0:0:0:0:
284,295,139119,2,0,P|302:251|303:222,1,71.9999978027344,2|0,0:3|0:0,0:0:0:0:
124,297,139375,2,0,P|106:253|105:224,1,71.9999978027344,0|0,3:0|0:0,0:0:0:0:
48,89,139632,6,0,P|74:128|87:64,1,143.999995605469,2|0,0:0|0:0,0:0:0:0:
240,293,140144,2,0,P|235:257|220:224,1,71.9999978027344,0|0,0:0|0:0,0:0:0:0:
286,96,140401,2,0,P|290:131|305:164,1,71.9999978027344,0|0,0:0|0:0,0:0:0:0:
464,89,140657,2,0,P|438:128|425:64,1,143.999995605469,2|0,1:2|0:0,0:0:0:0:
443,71,141170,1,2,0:3:0:0:
484,199,141298,1,0,0:0:0:0:
355,315,141426,1,0,3:0:0:0:
396,187,141554,1,0,0:0:0:0:
490,378,141683,1,2,0:0:0:0:
256,47,141939,5,4,3:1:0:0:
175,77,142067,1,2,0:0:0:0:
133,153,142196,1,0,0:0:0:0:
129,239,142324,1,2,1:2:0:0:
262,249,142452,2,0,P|240:221|189:198,1,83.9999974365235,0|0,0:0|0:0,0:0:0:0:
0,240,142708,2,0,P|22:212|73:189,1,83.9999974365235,2|0,1:2|0:0,0:0:0:0:
123,370,142965,1,8,3:0:0:0:
112,363,143221,1,0,0:0:0:0:
129,239,143349,1,0,0:0:0:0:
220,356,143478,2,0,P|234:317|229:253,1,83.9999974365235,2|0,3:2|0:0,0:0:0:0:
218,126,143734,1,0,0:0:0:0:
231,123,143991,5,0,0:0:0:0:
306,21,144119,1,2,0:0:0:0:
314,104,144247,1,0,0:0:0:0:
350,179,144375,1,2,1:2:0:0:
504,213,144503,2,0,P|464:224|423:219,1,83.9999974365235,0|0,0:0|0:0,0:0:0:0:
295,288,144760,2,0,P|335:299|376:293,1,83.9999974365235,2|0,1:2|0:0,0:0:0:0:
454,143,145016,1,8,3:0:0:0:
447,131,145273,1,0,0:0:0:0:
295,129,145401,1,0,0:0:0:0:
420,53,145529,2,0,P|374:47|337:60,1,83.9999974365235,2|0,3:2|0:0,0:0:0:0:
283,209,145785,1,0,0:0:0:0:
278,222,146042,6,0,P|236:238|187:239,1,83.9999974365235,0|0,0:0|0:0,0:0:0:0:
76,131,146298,1,0,0:0:0:0:
127,197,146426,1,0,1:0:0:0:
123,282,146555,1,2,0:0:0:0:
60,337,146683,1,2,0:0:0:0:
22,190,146811,2,0,P|16:230|19:283,1,83.9999974365235,2|0,1:2|0:0,0:0:0:0:
162,117,147067,1,8,3:0:0:0:
154,107,147324,1,0,0:0:0:0:
38,11,147452,1,2,0:3:0:0:
119,30,147580,1,2,3:2:0:0:
200,11,147708,1,2,0:3:0:0:
281,30,147836,1,2,0:0:0:0:
292,22,148093,6,0,P|334:21|387:35,1,83.9999974365235,0|0,0:0|0:0,0:0:0:0:
385,211,148349,2,0,P|399:166|400:115,1,83.9999974365235,0|0,0:0|0:0,0:0:0:0:
248,197,148606,2,0,P|242:150|253:100,1,83.9999974365235,2|0,0:0|0:0,0:0:0:0:
309,277,148862,2,0,L|298:403,1,83.9999974365235,0|0,1:0|0:0,0:0:0:0:
481,288,149119,1,4,3:0:0:0:
469,281,149375,1,0,0:0:0:0:
399,375,149503,1,0,0:0:0:0:
401,129,149632,2,0,L|390:255,1,83.9999974365235,4|0,3:0|0:0,0:0:0:0:
301,93,149888,1,0,0:0:0:0:
416,44,150016,1,0,0:0:0:0:
238,231,150144,5,4,3:1:0:0:
210,66,150273,1,2,0:0:0:0:
168,254,150401,1,0,0:0:0:0:
140,89,150530,1,2,1:2:0:0:
122,312,150657,2,0,P|163:328|208:314,1,83.9999974365235,2|0,0:0|0:0,0:0:0:0:
238,231,150914,2,0,P|187:183|100:224,1,167.999994873047,0|4,1:0|3:0,0:0:0:0:
98,228,151426,2,0,P|92:163|73:126,1,83.9999974365235,2|0,0:3|0:0,0:0:0:0:
41,0,151683,2,0,P|82:22|128:29,1,83.9999974365235,0|0,3:0|0:0,0:0:0:0:
195,124,151939,2,0,P|224:87|264:63,1,83.9999974365235,2|0,0:0|0:0,0:0:0:0:
439,96,152196,6,0,P|390:101|355:120,1,83.9999974365235,4|0,3:0|0:0,0:0:0:0:
224,244,152452,2,0,P|241:206|271:177,1,83.9999974365235,0|0,0:0|0:0,0:0:0:0:
469,293,152708,2,0,P|442:324|402:336,1,83.9999974365235,2|0,0:0|0:0,0:0:0:0:
327,271,152965,2,0,P|360:198|440:198,1,167.999994873047,2|4,1:2|3:0,0:0:0:0:
452,191,153478,2,0,P|468:149|466:111,1,83.9999974365235,2|0,0:3|0:0,0:0:0:0:
322,83,153734,2,0,P|357:60|399:55,1,83.9999974365235,0|0,3:0|0:0,0:0:0:0:
371,222,153991,2,0,P|334:202|309:170,1,83.9999974365235,2|0,0:0|0:0,0:0:0:0:
106,240,154247,5,4,3:0:0:0:
241,114,154375,1,2,0:0:0:0:
36,213,154503,1,0,0:0:0:0:
171,87,154631,1,2,1:2:0:0:
166,285,154760,2,0,P|195:260|208:213,1,83.9999974365235,2|0,0:0|0:0,0:0:0:0:
106,240,155016,2,0,P|103:326|187:357,1,167.999994873047,0|4,1:0|3:0,0:0:0:0:
180,354,155529,2,0,B|213:352|213:352|226:358|226:358|262:355,1,83.9999974365235,2|0,0:3|0:0,0:0:0:0:
291,202,155785,2,0,P|304:241|302:290,1,83.9999974365235,0|0,3:0|0:0,0:0:0:0:
244,60,156042,2,0,P|231:99|233:148,1,83.9999974365235,2|0,0:0|0:0,0:0:0:0:
467,90,156298,6,0,L|373:88,1,83.9999974365235,4|0,3:0|0:0,0:0:0:0:
306,128,156555,1,0,0:0:0:0:
438,166,156683,1,2,0:0:0:0:
346,285,156811,2,0,P|333:245|348:194,1,83.9999974365235,2|0,0:0|0:0,0:0:0:0:
406,240,157067,2,0,P|409:326|325:357,1,167.999994873047,0|0,0:0|0:0,0:0:0:0:
334,354,157580,2,0,P|371:344|390:325,1,60,2|0,0:3|0:0,0:0:0:0:
331,282,157837,2,0,P|279:306|262:361,1,120,2|2,0:0|0:0,0:0:0:0:
338,294,158350,6,0,P|320:189|215:131,1,215.999993408203,4|0,3:1|0:0,0:0:0:0:
39,254,158734,1,2,1:2:0:0:
39,254,158863,2,0,P|71:198|129:178,1,107.999996704102,2|0,0:0|0:0,0:0:0:0:
262,361,159119,1,2,1:2:0:0:
275,358,159375,2,0,B|340:351|403:385|403:385|442:359|435:312,1,215.999993408203,4|2,3:0|0:3,0:0:0:0:
352,105,159760,1,2,0:3:0:0:
330,267,159888,1,2,3:2:0:0:
459,201,160016,1,2,0:3:0:0:
342,186,160145,1,2,0:0:0:0:
330,181,160401,6,0,P|276:192|220:186,1,107.999996704102,4|0,3:0|0:0,0:0:0:0:
26,86,160657,2,0,P|64:124|112:150,1,107.999996704102,0|2,0:0|1:2,0:0:0:0:
199,27,160914,2,0,P|197:80|187:119,1,90.0000034332277,2|0,0:0|0:0,0:0:0:0:
82,285,161170,2,0,P|118:258|148:225,1,90.0000034332277,2|0,1:2|0:0,0:0:0:0:
119,60,161427,1,4,3:0:0:0:
118,48,161683,1,2,0:3:0:0:
55,214,161811,1,0,0:0:0:0:
251,143,161940,6,0,P|224:152|187:149,1,53.9999983520508,2|0,3:2|0:0,0:0:0:0:
129,154,162068,2,0,P|156:145|193:148,1,53.9999983520508,2|0,0:2|0:0,0:0:0:0:
308,73,162196,5,2,0:2:0:0:
318,202,162324,1,2,0:2:0:0:
469,3,162452,6,0,P|414:3|354:32,1,107.999996704102,4|0,3:2|0:0,0:0:0:0:
491,226,162708,2,0,P|439:245|373:240,1,107.999996704102,2|0,0:0|1:0,0:0:0:0:
233,99,162965,2,0,B|220:149|220:149|240:201,1,107.999996704102,2|0,0:0|0:0,0:0:0:0:
392,344,163222,1,2,1:2:0:0:
379,343,163478,2,0,B|319:327|297:279|297:279|272:327|214:343,1,215.999993408203,4|0,3:0|0:0,0:0:0:0:
123,173,163863,1,0,0:0:0:0:
77,298,163991,1,2,3:2:0:0:
205,246,164119,1,0,0:0:0:0:
135,80,164247,1,2,0:2:0:0:
143,69,164503,6,0,P|91:82|38:72,1,107.999996704102,4|0,3:0|0:0,0:0:0:0:
302,132,164760,2,0,P|353:145|406:135,1,107.999996704102,2|0,0:0|1:0,0:0:0:0:
21,97,165016,2,0,P|73:107|125:93,1,107.999996704102,2|0,0:0|0:0,0:0:0:0:
424,160,165273,2,0,P|371:170|319:156,1,107.999996704102,2|0,1:2|0:0,0:0:0:0:
185,0,165529,1,4,3:0:0:0:
195,7,165785,1,2,0:3:0:0:
214,198,165914,1,2,0:3:0:0:
330,51,166042,1,2,3:2:0:0:
349,242,166171,1,2,0:3:0:0:
262,98,166298,1,2,0:2:0:0:
250,105,166555,6,0,B|139:59|100:84|100:84|109:115|102:149,1,215.999993408203,4|0,3:1|0:0,0:0:0:0:
42,347,166940,1,2,1:2:0:0:
42,347,167067,2,0,P|75:292|88:244,1,107.999996704102,2|0,0:0|0:0,0:0:0:0:
30,44,167324,1,2,1:2:0:0:
45,39,167580,2,0,B|102:11|140:160|176:14|243:39,1,215.999993408203,4|2,3:0|0:3,0:0:0:0:
374,100,167965,1,2,0:3:0:0:
300,264,168093,1,2,3:2:0:0:
169,203,168222,1,2,0:3:0:0:
272,152,168350,1,2,0:0:0:0:
280,162,168606,6,0,B|356:238|445:184|445:184|444:225,1,215.999993408203,4|0,3:0|0:0,0:0:0:0:
346,332,168991,1,2,1:2:0:0:
347,333,169119,2,0,P|295:318|241:317,1,107.999996704102,2|0,0:0|0:0,0:0:0:0:
0,270,169375,2,0,P|51:255|105:254,1,107.999996704102,2|0,1:2|0:0,0:0:0:0:
207,60,169632,1,4,3:0:0:0:
214,70,169888,1,0,0:0:0:0:
310,195,170016,1,2,0:0:0:0:
139,109,170145,1,2,3:2:0:0:
383,148,170273,1,0,0:0:0:0:
259,131,170402,1,2,0:0:0:0:
248,138,170658,6,0,P|228:186|242:246,1,107.999996704102,4|0,3:2|0:0,0:0:0:0:
388,350,170914,1,2,0:0:0:0:
310,195,171042,1,0,1:0:0:0:
180,353,171170,2,0,P|114:379|72:377,1,107.999996704102,2|0,0:0|0:0,0:0:0:0:
180,182,171427,2,0,P|114:156|72:157,1,107.999996704102,2|0,1:2|0:0,0:0:0:0:
263,267,171683,1,4,3:0:0:0:
261,279,171940,1,2,0:3:0:0:
429,241,172068,1,2,0:3:0:0:
270,102,172196,6,0,P|269:130|277:155,1,53.9999983520508,2|0,3:2|0:0,0:0:0:0:
344,87,172324,2,0,P|359:110|365:136,1,53.9999983520508,2|0,3:2|0:0,0:0:0:0:
259,160,172452,2,0,P|243:138|234:112,1,53.9999983520508,2|0,3:2|0:0,0:0:0:0:
382,134,172580,2,0,P|385:107|379:81,1,53.9999983520508,2|0,3:2|0:0,0:0:0:0:
165,6,172709,6,0,P|273:-6|392:5,1,215.999993408203,4|2,3:0|0:0,0:0:0:0:
234,37,173093,1,0,1:0:0:0:
468,27,173221,2,0,P|481:76|474:135,1,107.999996704102,2|0,0:0|0:0,0:0:0:0:
394,355,173478,2,0,P|407:306|400:247,1,107.999996704102,2|0,1:2|0:0,0:0:0:0:
165,166,173734,1,4,3:0:0:0:
177,161,173991,1,2,0:3:0:0:
112,344,174119,1,2,0:3:0:0:
233,230,174247,1,2,3:2:0:0:
298,47,174375,1,2,0:3:0:0:
126,88,174503,1,2,0:0:0:0:
118,99,174760,6,0,B|188:60|243:112|243:112|280:145|343:126,1,215.999993408203,4|0,3:1|0:0,0:0:0:0:
493,45,175144,1,2,1:2:0:0:
493,45,175273,2,0,P|437:27|390:33,1,107.999996704102,2|0,0:0|0:0,0:0:0:0:
304,236,175529,1,2,1:2:0:0:
312,246,175785,2,0,B|358:294|425:290|425:290|397:330|333:345,1,215.999993408203,4|2,3:0|0:3,0:0:0:0:
171,377,176170,1,2,0:3:0:0:
154,179,176298,1,2,3:2:0:0:
224,317,176426,1,2,0:3:0:0:
117,249,176555,1,2,0:0:0:0:
104,246,176811,6,0,P|74:203|78:144,1,107.999996704102,4|0,3:0|0:0,0:0:0:0:
287,20,177067,2,0,P|317:63|313:122,1,107.999996704102,2|2,0:0|1:2,0:0:0:0:
133,91,177324,2,0,P|180:73|217:37,1,90.0000034332277,2|0,0:0|0:0,0:0:0:0:
271,187,177580,2,0,P|224:205|187:241,1,90.0000034332277,2|0,1:2|0:0,0:0:0:0:
47,384,177837,1,4,3:0:0:0:
59,383,178093,1,2,0:3:0:0:
84,247,178221,1,2,0:3:0:0:
229,354,178349,6,0,P|207:365|175:369,1,53.9999983520508,2|0,3:2|0:0,0:0:0:0:
160,295,178478,2,0,P|182:284|214:280,1,53.9999983520508,2|0,0:2|0:0,0:0:0:0:
312,383,178606,5,2,0:2:0:0:
256,208,178734,1,2,0:2:0:0:
450,360,178862,6,0,P|480:306|482:244,1,107.999996704102,4|0,3:2|0:0,0:0:0:0:
333,114,179119,2,0,P|339:167|367:213,1,107.999996704102,2|0,0:0|1:0,0:0:0:0:
501,61,179375,2,0,B|447:74|447:74|398:56,1,107.999996704102,2|0,0:0|0:0,0:0:0:0:
200,0,179632,1,2,1:2:0:0:
191,10,179888,2,0,B|169:61|89:68|89:68|115:104|106:166,1,215.999993408203,4|2,3:0|0:3,0:0:0:0:
35,361,180273,1,2,0:3:0:0:
38,203,180401,1,2,3:2:0:0:
113,384,180529,1,2,0:3:0:0:
225,272,180657,1,2,0:0:0:0:
218,261,180914,6,0,P|272:272|327:259,1,107.999996704102,4|0,3:0|0:0,0:0:0:0:
483,161,181170,2,0,P|429:172|374:159,1,107.999996704102,2|0,0:0|1:0,0:0:0:0:
258,0,181426,2,0,L|267:119,1,107.999996704102,2|0,0:0|0:0,0:0:0:0:
421,376,181683,2,0,L|430:257,1,107.999996704102,2|0,1:2|0:0,0:0:0:0:
432,44,181939,1,4,3:0:0:0:
419,39,182196,1,2,0:3:0:0:
306,176,182324,1,2,0:3:0:0:
115,307,182452,1,2,3:2:0:0:
228,170,182580,1,2,0:3:0:0:
386,289,182708,1,2,0:0:0:0:
103,316,182965,6,0,P|92:271|94:235,1,77.9999964294435,4|0,3:1|0:0,0:0:0:0:
152,141,183221,1,0,0:0:0:0:
152,141,183349,2,0,P|163:96|161:60,1,77.9999964294435,0|2,1:0|0:0,0:0:0:0:
161,52,183734,2,0,P|193:72|230:84,1,77.9999964294435,2|0,1:2|0:0,0:0:0:0:
319,45,183991,2,0,L|319:211,1,155.999992858887,4|2,3:0|0:3,0:0:0:0:
338,303,184375,1,2,0:3:0:0:
333,206,184503,1,2,3:2:0:0:
263,361,184632,1,2,0:3:0:0:
268,264,184760,1,2,0:0:0:0:
260,273,185016,6,0,P|188:281|99:269,1,155.999992858887,4|0,3:0|0:0,0:0:0:0:
151,119,185401,2,0,P|122:142|101:186,1,77.9999964294435,0|2,0:0|0:0,0:0:0:0:
95,188,185785,2,0,P|77:153|46:129,1,77.9999964294435,2|0,0:0|0:0,0:0:0:0:
7,34,186042,2,0,L|172:20,1,155.999992858887,4|2,3:0|0:3,0:0:0:0:
216,107,186426,1,2,0:3:0:0:
172,12,186555,1,2,3:2:0:0:
278,22,186683,1,2,0:3:0:0:
322,117,186812,1,2,0:0:0:0:
332,124,187067,6,0,P|335:164|324:205,1,77.9999964294435,4|0,3:2|0:0,0:0:0:0:
224,286,187324,1,0,0:0:0:0:
224,286,187452,2,0,P|264:283|305:294,1,77.9999964294435,0|2,1:0|0:0,0:0:0:0:
308,303,187837,2,0,P|288:336|260:363,1,77.9999964294435,2|0,1:2|0:0,0:0:0:0:
147,342,188093,2,0,L|84:195,1,155.999992858887,4|2,3:0|0:3,0:0:0:0:
178,157,188478,1,2,0:3:0:0:
79,185,188606,1,2,3:2:0:0:
12,85,188734,1,0,0:0:0:0:
111,113,188862,1,2,0:0:0:0:
212,30,188991,1,2,0:0:0:0:
212,30,189119,6,0,P|260:27|300:37,1,77.9999964294435,4|0,3:0|0:0,0:0:0:0:
479,122,189375,2,0,P|453:92|421:70,1,77.9999964294435,2|2,0:0|1:2,0:0:0:0:
250,111,189632,6,0,P|288:139|312:172,1,77.9999964294435,2|0,0:0|0:0,0:0:0:0:
363,318,189888,2,0,P|363:279|355:248,2,51.999997619629,2|0|0,1:2|0:0|0:0,0:0:0:0:
284,296,190144,6,0,B|226:326|206:284|163:315|163:315|178:320|190:328,1,155.999992858887,4|2,3:0|0:3,0:0:0:0:
381,190,190529,1,2,0:3:0:0:
236,229,190657,1,0,3:0:0:0:
110,195,190785,1,2,0:3:0:0:
187,165,190913,1,0,0:0:0:0:
505,381,191170,6,0,L|497:343,1,38.9999982147218,4|0,3:1|0:0,0:0:0:0:
