osu file format v14

[General]
AudioFilename: audio.mp3
AudioLeadIn: 0
PreviewTime: 51170
Countdown: 0
SampleSet: Soft
StackLeniency: 0.2
Mode: 0
LetterboxInBreaks: 1
WidescreenStoryboard: 1

[Editor]
Bookmarks: 2452,10657,35273,43478,51170,68093,72196,76298,84503,100401,117324,125529,133734,141939,150144,157837,182965,191170,199375
DistanceSpacing: 0.5
BeatDivisor: 4
GridSize: 16
TimelineZoom: 1.650004

[Metadata]
Title:Ding
TitleUnicode:Ding
Artist:Seeed
ArtistUnicode:Seeed
Creator:IceKalt
Version:F4st's Hard
Source:
Tags:NEXT! german dancehall hip hop reggae groove peter fox deramok gottagof4st
BeatmapID:1736230
BeatmapSetID:727333

[Difficulty]
HPDrainRate:4
CircleSize:3.8
OverallDifficulty:7
ApproachRate:7.5
SliderMultiplier:1.7
SliderTickRate:1

[Events]
//Background and Video events
0,0,"seeed.jpg",0,0
Video,-3000,"ding+2.avi"
//Break Periods
2,72396,75473
2,117524,124704
//Storyboard Layer 0 (Background)
//Storyboard Layer 1 (Fail)
//Storyboard Layer 2 (Pass)
//Storyboard Layer 3 (Foreground)
//Storyboard Sound Samples

[TimingPoints]
2453,512.820512820513,4,2,2,55,1,0
8093,-100,4,2,3,55,0,0
9887,-100,4,2,2,55,0,0
10657,-100,4,2,2,60,0,0
10658,-100,4,2,2,60,0,0
13862,-100,4,2,2,5,0,0
13990,-100,4,2,2,60,0,0
15913,-100,4,2,2,5,0,0
16041,-100,4,2,2,60,0,0
18926,-100,4,2,2,60,0,0
18991,-100,4,2,2,60,0,0
28990,-100,4,2,2,5,0,0
29118,-100,4,2,2,60,0,0
31041,-100,4,2,2,5,0,0
31169,-100,4,2,2,60,0,0
33093,-100,4,2,2,5,0,0
33221,-100,4,2,2,60,0,0
37195,-100,4,2,2,5,0,0
37323,-100,4,2,2,60,0,0
38477,-100,4,2,2,5,0,0
38605,-100,4,2,2,60,0,0
39246,-100,4,2,2,5,0,0
39375,-100,4,2,2,60,0,0
40528,-100,4,2,2,5,0,0
40657,-100,4,2,2,60,0,0
41298,-100,4,2,2,5,0,0
41426,-100,4,2,2,60,0,0
43349,-100,4,2,2,5,0,0
43477,-100,4,2,2,60,0,0
43478,-100,4,2,2,60,0,0
44375,-100,4,2,2,5,0,0
44503,-100,4,2,2,60,0,0
49503,-100,4,2,2,5,0,0
49631,-100,4,2,2,60,0,0
51170,-76.9230769230769,4,2,2,60,0,0
51362,-76.9230769230769,4,2,2,5,0,0
51426,-76.9230769230769,4,2,2,60,0,0
51618,-76.9230769230769,4,2,4,5,0,0
51682,-76.9230769230769,4,2,2,60,0,0
51683,-76.9230769230769,4,2,2,70,0,1
52003,-76.9230769230769,4,2,4,70,0,1
52067,-76.9230769230769,4,2,2,70,0,1
52644,-76.9230769230769,4,2,4,70,0,1
52708,-76.9230769230769,4,2,2,70,0,1
53926,-76.9230769230769,4,2,4,70,0,1
53990,-76.9230769230769,4,2,2,70,0,1
54439,-76.9230769230769,4,2,4,70,0,1
54503,-76.9230769230769,4,2,2,70,0,1
54695,-76.9230769230769,4,2,4,70,0,1
54759,-76.9230769230769,4,2,2,70,0,1
55337,-76.9230769230769,4,2,2,5,0,1
55401,-76.9230769230769,4,2,2,70,0,1
55465,-76.9230769230769,4,2,2,5,0,1
55529,-76.9230769230769,4,2,2,70,0,1
55977,-76.9230769230769,4,2,4,70,0,1
56041,-76.9230769230769,4,2,2,70,0,1
56490,-76.9230769230769,4,2,4,70,0,1
56554,-76.9230769230769,4,2,2,70,0,1
56746,-76.9230769230769,4,2,4,70,0,1
56810,-76.9230769230769,4,2,2,70,0,1
58028,-76.9230769230769,4,2,4,70,0,1
58093,-76.9230769230769,4,2,2,70,0,1
58541,-76.9230769230769,4,2,4,70,0,1
58605,-76.9230769230769,4,2,2,70,0,1
58798,-76.9230769230769,4,2,4,70,0,1
58862,-76.9230769230769,4,2,2,70,0,1
60208,-76.9230769230769,4,2,4,70,0,1
60272,-76.9230769230769,4,2,2,70,0,1
60849,-76.9230769230769,4,2,4,70,0,1
60913,-76.9230769230769,4,2,2,70,0,1
62131,-76.9230769230769,4,2,4,70,0,1
62195,-76.9230769230769,4,2,2,70,0,1
62644,-76.9230769230769,4,2,4,70,0,1
62708,-76.9230769230769,4,2,2,70,0,1
62900,-76.9230769230769,4,2,4,70,0,1
62964,-76.9230769230769,4,2,2,70,0,1
64182,-76.9230769230769,4,2,4,70,0,1
64246,-76.9230769230769,4,2,2,70,0,1
64952,-76.9230769230769,4,2,4,70,0,1
65016,-76.9230769230769,4,2,2,70,0,1
65528,-76.9230769230769,4,2,3,70,0,1
65593,-76.9230769230769,4,2,3,5,0,1
65657,-76.9230769230769,4,2,3,70,0,1
65721,-76.9230769230769,4,2,3,5,0,1
65785,-76.9230769230769,4,2,3,70,0,1
65849,-76.9230769230769,4,2,3,5,0,1
65914,-76.9230769230769,4,2,3,70,0,1
65978,-76.9230769230769,4,2,3,5,0,1
66042,-76.9230769230769,4,2,3,70,0,1
66234,-76.9230769230769,4,2,4,5,0,1
66298,-76.9230769230769,4,2,3,70,0,1
66746,-76.9230769230769,4,2,4,5,0,1
66810,-76.9230769230769,4,2,3,70,0,1
67323,-76.9230769230769,4,2,2,70,0,1
68093,-76.9230769230769,4,2,2,65,0,1
68094,-76.9230769230769,4,2,2,65,0,0
71170,-100,4,2,2,65,0,0
72196,-100,4,2,2,60,0,0
84504,-100,4,2,2,65,0,0
100401,-76.9230769230769,4,2,2,60,0,0
100593,-76.9230769230769,4,2,4,60,0,0
100657,-76.9230769230769,4,2,2,60,0,0
100849,-76.9230769230769,4,2,4,60,0,0
100913,-76.9230769230769,4,2,2,60,0,0
100914,-76.9230769230769,4,2,2,70,0,1
101234,-76.9230769230769,4,2,4,70,0,1
101298,-76.9230769230769,4,2,2,70,0,1
101875,-76.9230769230769,4,2,4,70,0,1
101939,-76.9230769230769,4,2,2,70,0,1
103157,-76.9230769230769,4,2,4,70,0,1
103221,-76.9230769230769,4,2,2,70,0,1
103669,-76.9230769230769,4,2,4,70,0,1
103734,-76.9230769230769,4,2,2,70,0,1
103926,-76.9230769230769,4,2,4,70,0,1
103990,-76.9230769230769,4,2,2,70,0,1
104567,-76.9230769230769,4,2,2,5,0,1
104632,-76.9230769230769,4,2,2,70,0,1
104696,-76.9230769230769,4,2,2,5,0,1
104760,-76.9230769230769,4,2,2,70,0,1
105208,-76.9230769230769,4,2,4,70,0,1
105272,-76.9230769230769,4,2,2,70,0,1
105721,-76.9230769230769,4,2,4,70,0,1
105785,-76.9230769230769,4,2,2,70,0,1
105977,-76.9230769230769,4,2,4,70,0,1
106041,-76.9230769230769,4,2,2,70,0,1
107259,-76.9230769230769,4,2,4,70,0,1
107323,-76.9230769230769,4,2,2,70,0,1
107772,-76.9230769230769,4,2,4,70,0,1
107836,-76.9230769230769,4,2,2,70,0,1
108028,-76.9230769230769,4,2,4,70,0,1
108093,-76.9230769230769,4,2,2,70,0,1
109439,-76.9230769230769,4,2,4,70,0,1
109503,-76.9230769230769,4,2,2,70,0,1
110080,-76.9230769230769,4,2,4,70,0,1
110144,-76.9230769230769,4,2,2,70,0,1
111362,-76.9230769230769,4,2,4,70,0,1
111426,-76.9230769230769,4,2,2,70,0,1
111875,-76.9230769230769,4,2,4,70,0,1
111939,-76.9230769230769,4,2,2,70,0,1
112131,-76.9230769230769,4,2,4,70,0,1
112195,-76.9230769230769,4,2,2,70,0,1
113413,-76.9230769230769,4,2,4,70,0,1
113477,-76.9230769230769,4,2,2,70,0,1
113926,-76.9230769230769,4,2,4,70,0,1
113990,-76.9230769230769,4,2,2,70,0,1
114182,-76.9230769230769,4,2,4,70,0,1
114246,-76.9230769230769,4,2,2,70,0,1
114759,-76.9230769230769,4,2,3,70,0,1
114824,-76.9230769230769,4,2,3,5,0,1
114888,-76.9230769230769,4,2,3,60,0,1
114952,-76.9230769230769,4,2,3,5,0,1
115016,-76.9230769230769,4,2,3,60,0,1
115080,-76.9230769230769,4,2,3,5,0,1
115144,-76.9230769230769,4,2,3,60,0,1
115208,-76.9230769230769,4,2,3,5,0,1
115273,-76.9230769230769,4,2,3,70,0,1
115464,-76.9230769230769,4,2,4,70,0,1
115528,-76.9230769230769,4,2,3,70,0,1
115977,-76.9230769230769,4,2,4,70,0,1
116041,-76.9230769230769,4,2,3,70,0,1
116554,-76.9230769230769,4,2,2,70,0,1
117324,-76.9230769230769,4,2,2,70,0,0
125529,-142.857142857143,4,2,2,60,0,0
133734,-100,4,2,2,60,0,0
133735,-100,4,2,2,60,0,0
142644,-100,4,2,2,5,0,0
142708,-100,4,2,2,60,0,0
142900,-100,4,2,2,5,0,0
142964,-100,4,2,2,60,0,0
144695,-100,4,2,2,5,0,0
144759,-100,4,2,2,60,0,0
144952,-100,4,2,2,5,0,0
145016,-100,4,2,2,60,0,0
147003,-100,4,2,2,5,0,0
147067,-100,4,2,2,60,0,0
150144,-100,4,2,2,65,0,0
156299,-100,4,2,2,60,0,0
157580,-100,4,2,2,60,0,0
157837,-76.9230769230769,4,2,2,60,0,0
158028,-76.9230769230769,4,2,4,5,0,0
158093,-76.9230769230769,4,2,2,60,0,0
158285,-76.9230769230769,4,2,4,5,0,0
158349,-76.9230769230769,4,2,2,70,0,0
158350,-76.9230769230769,4,2,2,70,0,1
158669,-76.9230769230769,4,2,4,70,0,1
158734,-76.9230769230769,4,2,2,70,0,1
159310,-76.9230769230769,4,2,4,70,0,1
159375,-76.9230769230769,4,2,2,70,0,1
160593,-76.9230769230769,4,2,4,70,0,1
160657,-76.9230769230769,4,2,2,70,0,1
161105,-76.9230769230769,4,2,4,70,0,1
161169,-76.9230769230769,4,2,2,70,0,1
161362,-76.9230769230769,4,2,4,70,0,1
161426,-76.9230769230769,4,2,2,70,0,1
162003,-76.9230769230769,4,2,2,5,0,1
162067,-76.9230769230769,4,2,2,70,0,1
162132,-76.9230769230769,4,2,2,5,0,1
162196,-76.9230769230769,4,2,2,70,0,1
162644,-76.9230769230769,4,2,4,70,0,1
162708,-76.9230769230769,4,2,2,70,0,1
163157,-76.9230769230769,4,2,4,70,0,1
163221,-76.9230769230769,4,2,2,70,0,1
163413,-76.9230769230769,4,2,4,70,0,1
163477,-76.9230769230769,4,2,2,70,0,1
164695,-76.9230769230769,4,2,4,70,0,1
164759,-76.9230769230769,4,2,2,70,0,1
165208,-76.9230769230769,4,2,4,70,0,1
165272,-76.9230769230769,4,2,2,70,0,1
165464,-76.9230769230769,4,2,4,70,0,1
165528,-76.9230769230769,4,2,2,70,0,1
166875,-76.9230769230769,4,2,4,70,0,1
166939,-76.9230769230769,4,2,2,70,0,1
167259,-76.9230769230769,4,2,4,70,0,1
167323,-76.9230769230769,4,2,2,70,0,1
167516,-76.9230769230769,4,2,4,70,0,1
167580,-76.9230769230769,4,2,2,70,0,1
168798,-76.9230769230769,4,2,4,70,0,1
168862,-76.9230769230769,4,2,2,70,0,1
169310,-76.9230769230769,4,2,4,70,0,1
169375,-76.9230769230769,4,2,2,70,0,1
169567,-76.9230769230769,4,2,4,70,0,1
169631,-76.9230769230769,4,2,2,70,0,1
170849,-76.9230769230769,4,2,4,70,0,1
170913,-76.9230769230769,4,2,2,70,0,1
172195,-76.9230769230769,4,2,3,70,0,1
172260,-76.9230769230769,4,2,3,5,0,1
172324,-76.9230769230769,4,2,3,70,0,1
172388,-76.9230769230769,4,2,3,5,0,1
172452,-76.9230769230769,4,2,3,70,0,1
172516,-76.9230769230769,4,2,3,5,0,1
172580,-76.9230769230769,4,2,3,70,0,1
172644,-76.9230769230769,4,2,3,5,0,1
172708,-76.9230769230769,4,2,3,70,0,1
172900,-76.9230769230769,4,2,4,70,0,1
172964,-76.9230769230769,4,2,3,70,0,1
173413,-76.9230769230769,4,2,4,70,0,1
173477,-76.9230769230769,4,2,3,70,0,1
173990,-76.9230769230769,4,2,2,70,0,1
174760,-71.4285714285714,4,2,2,70,0,1
175080,-71.4285714285714,4,2,4,70,0,1
175144,-71.4285714285714,4,2,2,70,0,1
175721,-71.4285714285714,4,2,4,70,0,1
175785,-71.4285714285714,4,2,2,70,0,1
177003,-71.4285714285714,4,2,4,70,0,1
177067,-71.4285714285714,4,2,2,70,0,1
177516,-71.4285714285714,4,2,4,70,0,1
177580,-71.4285714285714,4,2,2,70,0,1
177772,-71.4285714285714,4,2,4,70,0,1
177836,-71.4285714285714,4,2,2,70,0,1
178414,-71.4285714285714,4,2,2,5,0,1
178478,-71.4285714285714,4,2,2,70,0,1
178542,-71.4285714285714,4,2,2,5,0,1
178606,-71.4285714285714,4,2,2,70,0,1
179054,-71.4285714285714,4,2,4,70,0,1
179118,-71.4285714285714,4,2,2,70,0,1
179567,-71.4285714285714,4,2,4,70,0,1
179631,-71.4285714285714,4,2,2,70,0,1
179823,-71.4285714285714,4,2,4,70,0,1
179887,-71.4285714285714,4,2,2,70,0,1
181105,-71.4285714285714,4,2,4,70,0,1
181169,-71.4285714285714,4,2,2,70,0,1
181618,-71.4285714285714,4,2,4,70,0,1
181682,-71.4285714285714,4,2,2,70,0,1
181875,-71.4285714285714,4,2,4,70,0,1
181939,-71.4285714285714,4,2,2,70,0,1
182965,-83.3333333333333,4,2,2,60,0,0
188605,-83.3333333333333,4,2,3,60,0,0
190400,-83.3333333333333,4,2,2,60,0,0
191235,-83.3333333333333,4,2,2,5,0,0

[Colours]
Combo1 : 244,0,24
Combo2 : 128,255,0
Combo3 : 255,34,145
Combo4 : 0,225,56

[HitObjects]
511,57,10657,5,4,3:1:0:0:
511,57,11170,2,0,P|449:40|384:60,1,127.5,2|0,0:0|0:0,0:0:0:0:
329,106,11683,2,0,L|327:172,2,42.5,0|0|2,3:0|0:0|0:3,0:0:0:0:
269,55,12068,2,0,L|151:44,1,85,2|2,0:2|0:3,0:0:0:0:
109,61,12453,1,0,3:0:0:0:
104,197,12708,6,0,P|95:245|104:287,1,85,2|0,3:2|0:0,0:0:0:0:
275,286,13221,2,0,P|237:254|197:241,1,85,2|0,0:2|1:0,0:0:0:0:
114,372,13734,2,0,P|160:355|191:327,1,85,0|2,3:0|0:3,0:0:0:0:
258,303,14119,1,2,0:2:0:0:
258,303,14247,2,0,P|284:300|310:305,2,42.5,0|2|0,3:0|0:3|0:0,0:0:0:0:
444,380,14760,6,0,L|435:276,1,85,2|0,3:2|0:0,0:0:0:0:
337,193,15273,2,0,L|328:297,1,85,2|0,0:0|1:0,0:0:0:0:
483,229,15785,2,0,L|474:125,1,85,0|2,3:0|0:3,0:0:0:0:
457,68,16171,1,2,0:2:0:0:
457,68,16299,2,0,L|403:64,2,42.5,0|2|0,3:0|0:3|0:0,0:0:0:0:
324,195,16811,6,0,B|307:128|307:128|326:54,1,127.5,0|0,3:0|1:0,0:0:0:0:
342,0,17324,1,2,0:0:0:0:
204,47,17580,1,0,1:0:0:0:
204,47,17708,1,0,0:0:0:0:
204,47,17837,2,0,L|216:227,2,170,4|4|6,3:0|3:0|0:2,0:0:0:0:
21,54,19888,6,0,P|6:114|10:151,1,85,2|0,3:2|0:0,0:0:0:0:
73,190,20273,1,0,0:0:0:0:
73,190,20401,2,0,P|80:212|76:241,2,42.5,0|2|0,3:0|0:2|0:0,0:0:0:0:
24,335,20914,6,0,L|109:332,1,85,0|0,3:0|0:0,0:0:0:0:
216,302,21426,2,0,P|261:295|306:306,1,85,2|0,0:0|1:0,0:0:0:0:
356,357,21811,2,0,P|401:364|446:353,1,85,0|2,0:0|0:0,0:0:0:0:
502,312,22196,1,0,0:0:0:0:
378,184,22452,2,0,L|374:277,1,85,2|0,3:2|1:0,0:0:0:0:
479,150,22965,5,2,3:2:0:0:
348,201,23221,1,0,0:0:0:0:
385,45,23478,1,2,0:0:0:0:
254,96,23734,1,0,1:0:0:0:
119,0,23991,6,0,B|123:61|123:61|135:97|135:97|139:168,2,170,2|0|2,3:0|3:2|3:2,0:0:0:0:
119,0,27068,6,0,L|248:8,1,127.5,4|0,3:1|1:0,0:0:0:0:
309,51,27581,2,0,P|318:93|310:134,1,85,2|0,0:0|1:0,0:0:0:0:
170,224,28094,2,0,L|67:213,1,85,4|2,3:0|0:3,0:0:0:0:
17,247,28478,2,0,P|8:289|16:330,1,85,2|2,0:2|0:3,0:0:0:0:
67,384,28863,1,0,0:0:0:0:
188,335,29119,5,4,3:0:0:0:
188,335,29247,2,0,L|197:250,1,85,0|0,0:0|1:0,0:0:0:0:
238,185,29632,1,2,0:0:0:0:
159,45,29888,1,0,1:0:0:0:
324,9,30144,2,0,B|336:53|336:53|326:103,1,85,4|2,3:0|0:3,0:0:0:0:
353,166,30529,2,0,B|341:210|341:210|351:260,1,85,2|2,0:2|0:3,0:0:0:0:
329,323,30914,1,0,0:0:0:0:
196,250,31170,6,0,P|142:228|68:232,1,127.5,4|0,3:0|1:2,0:0:0:0:
6,268,31683,2,0,B|0:229|0:229|6:183,1,85,2|0,0:0|1:0,0:0:0:0:
118,54,32196,2,0,P|165:44|215:59,1,85,4|2,3:0|0:3,0:0:0:0:
251,109,32581,2,0,P|306:120|341:103,1,85,2|2,0:2|0:3,0:0:0:0:
387,58,32965,1,0,0:0:0:0:
477,143,33222,5,4,3:0:0:0:
477,143,33350,1,0,0:0:0:0:
477,143,33478,2,0,L|467:249,1,85,0|2,0:0|0:0,0:0:0:0:
454,359,33991,1,2,1:2:0:0:
338,301,34247,2,0,L|248:303,1,85,4|2,3:0|0:3,0:0:0:0:
179,271,34632,2,0,L|89:269,1,85,2|2,0:3|0:2,0:0:0:0:
28,315,35016,1,0,1:0:0:0:
0,173,35273,6,0,B|-2:116|-2:116|19:77|4:-3,2,170,4|2|8,3:1|0:0|3:0,0:0:0:0:
111,227,36555,1,2,0:3:0:0:
111,227,36683,1,2,0:3:0:0:
111,227,36811,2,0,L|203:229,1,85,2|2,3:2|3:2,0:0:0:0:
292,131,37324,6,0,L|298:192,2,56.6666666666667,4|0|0,3:2|0:0|0:0,0:0:0:0:
282,52,37837,1,2,0:0:0:0:
413,0,38093,1,0,1:0:0:0:
488,117,38349,2,0,B|499:159|499:159|492:211,1,85,8|2,3:0|0:2,0:0:0:0:
451,268,38734,1,2,0:3:0:0:
451,268,38862,2,0,L|450:310,2,42.5,0|2|2,3:0|0:3|1:2,0:0:0:0:
308,242,39375,6,0,B|312:205|312:205|301:142,1,85,8|0,3:0|1:0,0:0:0:0:
150,163,39888,2,0,B|180:184|180:184|240:206,1,85,2|0,0:0|1:0,0:0:0:0:
297,65,40401,2,0,B|262:80|262:80|213:121,1,85,8|2,3:0|0:2,0:0:0:0:
159,148,40785,1,2,0:3:0:0:
159,148,40914,2,0,B|134:153|134:153|103:151,2,42.5,0|2|2,3:0|0:3|0:0,0:0:0:0:
22,3,41426,6,0,L|128:-3,1,85,8|0,3:0|1:0,0:0:0:0:
186,12,41811,2,0,B|201:74|201:74|188:144,1,127.5,2|0,1:2|1:0,0:0:0:0:
83,224,42452,2,0,L|89:320,1,85,4|2,3:0|0:3,0:0:0:0:
136,375,42836,1,2,0:2:0:0:
136,375,42965,2,0,P|160:382|198:384,2,42.5,0|2|0,0:0|0:3|1:0,0:0:0:0:
302,384,43478,6,0,L|306:290,1,85,4|2,3:1|0:2,0:0:0:0:
410,272,43991,2,0,L|406:178,1,85,2|2,0:2|1:2,0:0:0:0:
323,97,44503,1,8,3:0:0:0:
297,209,44760,2,0,P|278:213|251:214,1,42.5,2|2,0:3|0:3,0:0:0:0:
187,178,45016,2,0,P|168:174|141:173,2,42.5,2|2|2,3:2|0:3|3:2,0:0:0:0:
76,85,45529,6,0,L|191:80,1,85,8|0,3:0|0:0,0:0:0:0:
279,41,46042,1,2,0:0:0:0:
187,178,46298,1,0,1:0:0:0:
343,94,46555,2,0,P|389:89|444:99,1,85,0|2,0:0|0:3,0:0:0:0:
478,158,46939,1,2,0:3:0:0:
478,158,47067,2,0,L|478:214,2,42.5,2|2|2,3:2|0:3|0:0,0:0:0:0:
410,255,47581,6,0,L|296:249,1,85,8|0,3:0|0:0,0:0:0:0:
251,264,47965,1,0,1:0:0:0:
251,264,48094,2,0,L|180:275,1,42.5,2|0,0:0|0:0,0:0:0:0:
158,210,48350,1,2,1:2:0:0:
215,112,48606,2,0,L|326:116,1,85,8|2,3:0|0:2,0:0:0:0:
378,124,48991,1,2,0:3:0:0:
378,124,49119,2,0,L|380:170,2,42.5,0|2|2,3:2|0:3|0:2,0:0:0:0:
285,0,49632,5,0,3:0:0:0:
285,0,51170,6,0,L|281:63,1,55.2499974708558,0|0,0:0|0:0,0:0:0:0:
323,119,51426,2,0,L|327:182,1,55.2499974708558,0|0,0:0|0:0,0:0:0:0:
297,243,51683,6,0,B|247:232|247:232|183:230,1,110.499994941712,4|0,3:1|0:0,0:0:0:0:
105,339,52196,1,2,0:0:0:0:
4,255,52452,1,2,2:0:0:0:
68,111,52708,2,0,B|118:100|118:100|182:98,1,110.499994941712,4|2,3:0|0:3,0:0:0:0:
242,147,53093,1,2,0:3:0:0:
242,147,53221,2,0,L|297:144,1,55.2499974708558,2|2,3:2|0:3,0:0:0:0:
365,109,53478,1,2,3:2:0:0:
498,1,53734,6,0,B|504:114,1,110.499994941712,4|2,3:0|0:0,0:0:0:0:
494,190,54119,1,2,0:0:0:0:
494,190,54247,1,0,0:0:0:0:
365,109,54503,1,2,1:2:0:0:
284,247,54760,2,0,B|397:241,1,110.499994941712,4|2,3:0|0:0,0:0:0:0:
471,274,55145,1,2,0:3:0:0:
471,274,55273,1,2,3:2:0:0:
335,363,55529,1,2,0:2:0:0:
335,363,55657,1,2,0:0:0:0:
335,363,55785,6,0,L|223:359,1,110.499994941712,4|0,3:2|0:0,0:0:0:0:
146,254,56298,1,2,0:0:0:0:
60,362,56555,1,2,1:2:0:0:
0,211,56811,2,0,B|-10:153|-10:153|4:103,1,110.499994941712,4|2,3:0|0:3,0:0:0:0:
69,54,57196,1,2,0:3:0:0:
69,54,57324,2,0,B|98:47|98:47|137:48,1,55.2499974708558,2|2,3:2|0:3,0:0:0:0:
197,71,57580,1,2,3:2:0:0:
323,3,57837,6,0,B|327:49|327:49|324:72|324:72|329:116,2,110.499994941712,4|2|2,3:0|0:0|0:0,0:0:0:0:
197,71,58606,1,2,1:2:0:0:
328,112,58862,2,0,L|440:114,1,110.499994941712,4|2,3:0|0:3,0:0:0:0:
505,264,59375,6,0,P|474:270|426:269,1,55.2499974708558,2|2,3:2|0:3,0:0:0:0:
382,239,59632,2,0,P|351:233|303:234,1,55.2499974708558,2|0,0:2|0:0,0:0:0:0:
258,271,59888,6,0,L|123:268,1,110.499994941712,4|0,3:1|0:0,0:0:0:0:
61,161,60401,1,2,0:2:0:0:
201,141,60657,1,2,1:2:0:0:
122,276,60913,2,0,P|106:328|117:383,1,110.499994941712,4|2,3:0|0:3,0:0:0:0:
201,384,61298,1,2,0:3:0:0:
201,384,61426,2,0,L|267:380,1,55.2499974708558,2|2,3:2|0:3,0:0:0:0:
321,340,61683,1,2,3:2:0:0:
460,382,61939,6,0,L|457:266,1,110.499994941712,4|2,3:0|0:0,0:0:0:0:
483,144,62452,1,2,0:0:0:0:
365,263,62708,1,2,0:0:0:0:
386,106,62965,2,0,P|398:51|384:-1,1,110.499994941712,4|2,3:0|0:3,0:0:0:0:
307,1,63349,1,2,0:2:0:0:
307,1,63478,2,0,L|248:9,1,55.2499974708558,2|2,3:2|0:3,0:0:0:0:
175,2,63734,1,2,0:2:0:0:
238,154,63991,6,0,B|239:202|239:202|245:217|245:217|245:274,2,110.499994941712,4|2|2,3:2|0:0|0:0,0:0:0:0:
169,1,64760,1,2,1:2:0:0:
133,140,65016,2,0,P|187:161|251:147,1,110.499994941712,4|2,3:0|0:3,0:0:0:0:
380,116,65529,1,2,3:2:0:0:
387,142,65657,1,2,3:2:0:0:
391,169,65785,1,2,3:2:0:0:
390,196,65914,1,2,3:2:0:0:
384,223,66042,6,0,P|336:241|270:243,1,110.499994941712,4|2,3:0|0:0,0:0:0:0:
154,153,66555,1,2,0:0:0:0:
176,305,66811,1,2,1:2:0:0:
38,199,67067,2,0,P|26:147|42:87,1,110.499994941712,4|2,3:0|0:3,0:0:0:0:
106,55,67452,1,2,0:3:0:0:
106,55,67580,2,0,B|133:50|133:50|164:57,1,55.2499974708558,0|2,3:0|0:3,0:0:0:0:
221,103,67837,1,0,0:0:0:0:
360,18,68093,5,4,3:1:0:0:
360,18,69119,5,4,3:0:0:0:
360,18,70144,5,4,3:0:0:0:
360,18,71170,6,0,L|357:102,1,85,4|2,3:0|0:0,0:0:0:0:
393,170,71555,2,0,P|334:142|267:146,1,127.5,2|2,0:2|0:3,0:0:0:0:
174,248,72196,5,4,3:2:0:0:
178,251,76298,5,4,3:0:0:0:
178,251,76426,2,0,L|242:256,1,42.5,0|0,0:0|0:0,0:0:0:0:
277,305,76683,2,0,L|405:294,1,127.5,2|2,1:2|1:2,0:0:0:0:
438,164,77324,1,8,3:0:0:0:
438,164,77452,2,0,L|374:159,1,42.5,0|2,0:0|0:3,0:0:0:0:
340,106,77709,2,0,L|211:116,1,127.5,2|2,0:2|0:0,0:0:0:0:
32,61,78349,5,8,3:0:0:0:
32,61,78477,2,0,P|28:85|31:112,1,42.5,0|0,0:0|0:0,0:0:0:0:
94,143,78734,2,0,P|107:204|97:269,1,127.5,2|8,1:2|3:0,0:0:0:0:
34,384,79375,1,8,3:0:0:0:
161,317,79632,1,2,0:3:0:0:
161,317,79760,2,0,L|274:313,1,85,2|2,0:3|0:3,0:0:0:0:
318,334,80144,1,0,0:0:0:0:
444,384,80401,5,8,3:0:0:0:
444,384,80529,2,0,L|449:320,1,42.5,0|0,0:0|0:0,0:0:0:0:
495,277,80786,2,0,L|487:136,1,127.5,2|2,1:2|1:2,0:0:0:0:
433,10,81427,1,8,3:0:0:0:
433,10,81555,2,0,L|369:15,1,42.5,0|2,0:0|0:3,0:0:0:0:
328,59,81811,2,0,L|320:200,1,127.5,2|2,0:2|0:0,0:0:0:0:
277,318,82452,5,8,3:0:0:0:
277,318,82580,2,0,P|252:324|213:323,1,42.5,0|0,0:0|0:0,0:0:0:0:
169,287,82837,2,0,P|110:253|32:244,1,127.5,2|0,1:2|0:0,0:0:0:0:
0,334,83478,1,4,3:0:0:0:
120,222,83735,1,2,0:3:0:0:
120,222,83863,2,0,L|124:109,1,85,2|2,0:2|0:2,0:0:0:0:
103,65,84247,1,0,0:0:0:0:
254,20,84503,5,4,3:0:0:0:
274,26,84632,1,2,0:0:0:0:
294,32,84760,2,0,L|416:39,1,85,2|0,0:0|0:0,0:0:0:0:
512,0,85273,1,0,1:0:0:0:
423,115,85529,1,8,3:0:0:0:
426,131,85657,1,2,0:0:0:0:
429,147,85785,1,2,0:3:0:0:
432,163,85914,1,2,0:2:0:0:
435,179,86042,2,0,L|438:292,1,85,0|2,0:0|3:0,0:0:0:0:
363,352,86555,5,8,3:0:0:0:
343,358,86684,1,0,0:0:0:0:
323,364,86812,2,0,L|201:371,2,85,2|2|0,0:0|0:0|1:0,0:0:0:0:
314,256,87580,2,0,P|321:197|310:159,1,85,8|2,3:0|0:2,0:0:0:0:
268,115,87965,2,0,P|209:108|171:119,1,85,2|0,0:2|0:0,0:0:0:0:
117,150,88350,1,0,0:0:0:0:
86,280,88606,5,8,3:0:0:0:
215,207,88862,1,0,0:0:0:0:
103,120,89119,1,2,0:0:0:0:
167,280,89375,2,0,P|209:293|254:287,1,85,0|8,1:0|3:0,0:0:0:0:
310,246,89760,1,0,0:0:0:0:
326,249,89888,1,2,0:2:0:0:
342,252,90017,2,0,L|352:357,1,85,2|2,0:3|0:2,0:0:0:0:
410,384,90401,1,0,0:0:0:0:
476,249,90657,5,8,3:0:0:0:
472,228,90785,1,0,0:0:0:0:
468,206,90914,1,2,0:0:0:0:
464,185,91042,2,0,P|413:177|372:183,1,85,2|0,1:2|0:0,0:0:0:0:
360,257,91426,1,2,1:2:0:0:
301,152,91683,1,4,3:0:0:0:
231,276,91939,1,2,0:2:0:0:
185,124,92196,2,0,P|134:113|86:112,1,85,4|0,3:0|0:0,0:0:0:0:
59,3,92708,6,0,L|158:-1,1,85,4|2,3:0|0:0,0:0:0:0:
218,33,93094,1,2,1:2:0:0:
218,33,93221,2,0,L|216:86,1,42.5,2|0,0:0|0:0,0:0:0:0:
177,146,93478,1,0,1:0:0:0:
51,165,93734,2,0,B|41:209|41:209|50:248,1,85,4|0,3:0|0:0,0:0:0:0:
95,314,94119,2,0,P|136:278|176:273,1,85,2|0,0:2|0:0,0:0:0:0:
241,269,94504,1,0,3:0:0:0:
331,370,94760,6,0,P|373:383|423:383,1,85,4|2,3:0|0:0,0:0:0:0:
482,344,95145,2,0,L|489:234,1,85,2|0,1:2|0:0,0:0:0:0:
493,182,95529,1,0,1:0:0:0:
341,164,95785,2,0,L|242:169,1,85,4|0,3:0|0:0,0:0:0:0:
183,197,96170,2,0,P|170:243|181:292,1,85,2|2,0:3|0:2,0:0:0:0:
222,342,96555,1,0,0:0:0:0:
99,377,96811,5,4,3:0:0:0:
4,285,97067,1,2,0:0:0:0:
130,246,97324,1,2,0:0:0:0:
35,154,97580,1,0,1:0:0:0:
98,40,97837,2,0,B|137:29|137:29|191:30,1,85,4|2,3:0|0:2,0:0:0:0:
239,86,98221,1,2,0:2:0:0:
239,86,98349,2,0,B|278:97|278:97|332:96,1,85,2|0,3:2|3:0,0:0:0:0:
456,22,98862,5,2,3:2:0:0:
456,22,100401,6,0,L|461:93,1,55.2499974708558,0|0,3:0|0:0,0:0:0:0:
417,138,100657,2,0,L|422:209,1,55.2499974708558,0|0,3:0|0:0,0:0:0:0:
471,256,100914,6,0,L|335:250,1,110.499994941712,4|0,3:1|0:0,0:0:0:0:
224,216,101427,1,2,0:0:0:0:
308,332,101683,1,2,1:2:0:0:
136,301,101939,2,0,B|115:247|115:247|115:188,1,110.499994941712,4|2,3:0|0:3,0:0:0:0:
171,137,102324,1,2,0:3:0:0:
171,137,102452,2,0,L|168:82,1,55.2499974708558,2|0,3:2|0:0,0:0:0:0:
132,11,102709,1,2,3:2:0:0:
0,42,102965,6,0,P|-13:97|0:156,1,110.499994941712,4|0,3:0|0:0,0:0:0:0:
115,194,103478,1,2,0:0:0:0:
66,96,103734,1,2,1:2:0:0:
36,232,103991,2,0,B|51:293|23:284|37:344,1,110.499994941712,4|2,3:0|0:3,0:0:0:0:
157,384,104504,1,2,3:2:0:0:
252,267,104760,1,2,0:2:0:0:
252,267,104888,1,2,0:2:0:0:
252,267,105016,6,0,L|364:263,1,110.499994941712,4|2,3:2|0:0,0:0:0:0:
450,369,105529,1,2,0:0:0:0:
316,308,105786,1,2,1:2:0:0:
472,255,106042,2,0,B|482:197|482:197|468:147,1,110.499994941712,4|2,3:0|0:3,0:0:0:0:
419,94,106427,1,2,0:3:0:0:
419,94,106555,2,0,B|351:88,1,55.2499974708558,2|2,3:2|0:3,0:0:0:0:
286,100,106811,1,2,3:2:0:0:
174,24,107068,6,0,B|113:9|122:37|62:23,2,110.499994941712,4|2|2,3:0|0:0|0:0,0:0:0:0:
286,100,107837,1,2,1:2:0:0:
176,157,108093,2,0,P|159:206|172:262,1,110.499994941712,4|2,3:0|0:3,0:0:0:0:
327,327,108606,6,0,B|299:322|299:322|270:328,1,55.2499974708558,2|2,3:2|0:3,0:0:0:0:
214,378,108862,2,0,B|186:383|186:383|157:377,1,55.2499974708558,2|0,0:0|0:0,0:0:0:0:
87,348,109119,6,0,L|79:226,1,110.499994941712,4|0,3:1|0:0,0:0:0:0:
76,95,109632,1,2,0:0:0:0:
176,157,109888,1,2,1:2:0:0:
5,152,110144,2,0,P|-11:100|0:45,1,110.499994941712,4|2,3:0|0:3,0:0:0:0:
67,8,110529,1,2,0:3:0:0:
67,8,110657,2,0,B|97:3|97:3|132:3,1,55.2499974708558,2|2,3:2|0:3,0:0:0:0:
192,36,110914,1,2,3:0:0:0:
353,0,111170,6,0,L|350:116,1,110.499994941712,4|0,3:0|0:0,0:0:0:0:
282,205,111683,1,2,0:0:0:0:
411,269,111939,1,2,0:0:0:0:
302,362,112196,2,0,B|335:385|335:385|408:384,1,110.499994941712,4|2,3:0|0:3,0:0:0:0:
478,355,112580,1,2,0:2:0:0:
478,355,112709,2,0,L|486:296,1,55.2499974708558,2|2,3:2|0:3,0:0:0:0:
512,227,112965,1,2,0:0:0:0:
421,127,113222,6,0,B|373:126|373:126|358:120|358:120|301:120,2,110.499994941712,4|2|2,3:2|0:0|0:0,0:0:0:0:
505,33,113991,1,2,1:2:0:0:
366,11,114247,2,0,L|250:10,1,110.499994941712,4|2,3:0|0:3,0:0:0:0:
145,66,114760,1,2,3:2:0:0:
147,93,114888,1,2,3:2:0:0:
149,120,115016,1,2,3:2:0:0:
151,147,115144,1,2,3:2:0:0:
153,174,115273,6,0,L|161:300,1,110.499994941712,4|2,3:0|0:0,0:0:0:0:
93,384,115785,1,2,0:0:0:0:
42,269,116042,1,2,1:2:0:0:
187,301,116298,2,0,P|239:313|299:297,1,110.499994941712,4|2,3:0|0:3,0:0:0:0:
354,249,116683,1,2,0:3:0:0:
354,249,116811,2,0,B|359:222|359:222|352:191,1,55.2499974708558,2|2,3:2|0:3,0:0:0:0:
321,124,117068,1,2,0:0:0:0:
188,52,117324,5,4,3:1:0:0:
113,76,125529,6,0,B|264:114|191:36|356:67,3,237.999992736817,4|8|8|8,3:1|3:0|3:0|3:0,0:0:0:0:
356,193,129632,2,0,P|312:148|270:260,3,237.999992736817,8|8|8|4,3:0|3:0|3:0|3:0,0:0:0:0:
356,278,132965,1,2,0:3:0:0:
356,278,133093,1,2,0:3:0:0:
356,278,133221,2,0,L|400:283,1,29.7499990921021,4|2,3:0|0:3,0:0:0:0:
451,327,133478,1,2,0:0:0:0:
289,384,133734,5,4,3:1:0:0:
168,267,133991,2,0,L|162:356,2,85,0|0|2,0:0|0:0|1:2,0:0:0:0:
268,191,134760,1,0,0:0:0:0:
199,93,135016,1,2,0:3:0:0:
165,96,135144,1,0,0:0:0:0:
131,101,135273,2,0,L|70:106,1,42.5,0|0,3:0|0:0,0:0:0:0:
12,114,135529,1,2,0:0:0:0:
81,246,135785,5,4,3:0:0:0:
165,96,136042,2,0,L|159:7,2,85,0|0|2,0:0|0:0|1:2,0:0:0:0:
268,191,136811,1,0,0:0:0:0:
328,91,137067,1,2,0:3:0:0:
362,94,137195,1,0,0:0:0:0:
396,99,137324,2,0,L|457:104,1,42.5,0|0,3:0|0:0,0:0:0:0:
504,141,137580,1,2,0:0:0:0:
404,9,137837,5,4,3:0:0:0:
350,174,138093,2,0,L|357:274,1,85,0|0,0:0|0:0,0:0:0:0:
450,338,138606,2,0,P|405:300|334:302,1,127.5,2|0,1:2|0:0,0:0:0:0:
275,348,139119,2,0,L|181:340,1,85,2|0,0:3|3:0,0:0:0:0:
67,362,139632,6,0,P|112:308|105:243,1,127.5,2|0,0:0|0:0,0:0:0:0:
56,198,140144,2,0,L|47:107,1,85,0|0,0:0|0:0,0:0:0:0:
155,5,140657,2,0,B|209:8|195:18|249:18,1,85,2|0,1:2|0:0,0:0:0:0:
375,72,141170,1,2,0:3:0:0:
384,104,141298,1,0,0:0:0:0:
380,137,141426,2,0,P|374:161|353:186,1,42.5,0|0,3:0|0:0,0:0:0:0:
295,212,141683,1,2,0:0:0:0:
184,319,141940,5,4,3:1:0:0:
162,316,142069,1,0,0:0:0:0:
140,313,142197,1,0,0:0:0:0:
118,310,142325,1,2,1:2:0:0:
96,309,142453,2,0,P|80:265|80:212,1,85,0|2,0:0|1:2,0:0:0:0:
137,71,142965,2,0,P|183:88|246:88,1,85,8|0,3:0|0:0,0:0:0:0:
287,141,143349,1,0,0:0:0:0:
287,141,143478,2,0,P|317:137|343:141,1,42.5,2|0,3:2|0:0,0:0:0:0:
400,106,143734,1,0,0:0:0:0:
492,4,143991,5,0,0:0:0:0:
429,125,144247,1,0,0:0:0:0:
429,125,144375,1,2,1:2:0:0:
429,125,144503,1,0,0:0:0:0:
464,255,144760,2,0,P|469:278|465:308,1,42.5,2|0,1:2|0:0,0:0:0:0:
404,343,145016,2,0,P|367:318|313:315,1,85,8|0,3:0|0:0,0:0:0:0:
258,348,145401,1,0,0:0:0:0:
258,348,145529,2,0,L|186:345,1,42.5,2|0,3:2|0:0,0:0:0:0:
149,308,145785,1,0,0:0:0:0:
18,378,146042,5,0,0:0:0:0:
74,246,146298,1,0,0:0:0:0:
82,222,146426,1,0,1:0:0:0:
84,196,146555,1,2,0:0:0:0:
78,171,146683,1,2,0:0:0:0:
67,147,146811,2,0,P|44:122|26:112,1,42.5,2|0,1:2|0:0,0:0:0:0:
0,43,147067,2,0,B|26:23|26:23|88:20,1,85,8|0,3:0|0:0,0:0:0:0:
157,37,147452,1,2,0:3:0:0:
157,37,147580,2,0,B|183:57|183:57|226:60,1,42.5,2|2,3:2|0:3,0:0:0:0:
261,23,147837,1,2,0:0:0:0:
376,16,148093,5,0,0:0:0:0:
470,121,148350,2,0,L|474:218,2,85,0|2|0,0:0|0:0|1:0,0:0:0:0:
324,144,149119,2,0,L|320:241,1,85,4|0,3:0|0:0,0:0:0:0:
351,304,149503,1,0,0:0:0:0:
351,304,149632,2,0,L|347:355,1,42.5,4|0,3:0|0:0,0:0:0:0:
275,377,149888,1,0,0:0:0:0:
169,315,150144,5,4,3:1:0:0:
139,310,150273,1,2,0:0:0:0:
109,307,150401,1,0,0:0:0:0:
79,304,150529,1,2,1:2:0:0:
49,302,150657,2,0,P|35:272|30:248,1,42.5,2|0,0:0|0:0,0:0:0:0:
67,190,150914,2,0,L|161:181,1,85,0|4,1:0|3:0,0:0:0:0:
266,99,151427,2,0,P|249:152|253:205,2,85,2|0|2,0:3|3:0|0:0,0:0:0:0:
329,272,152196,5,4,3:0:0:0:
395,158,152452,1,0,0:0:0:0:
448,302,152708,1,2,0:0:0:0:
497,140,152965,2,0,L|493:48,1,85,2|4,1:2|3:0,0:0:0:0:
321,14,153478,2,0,L|322:112,2,85,2|0|2,0:3|3:0|0:0,0:0:0:0:
119,42,154247,5,4,3:0:0:0:
113,71,154375,1,2,0:0:0:0:
116,100,154503,1,0,0:0:0:0:
108,128,154632,1,2,1:2:0:0:
115,156,154760,2,0,L|114:204,1,42.5,2|0,0:0|0:0,0:0:0:0:
151,272,155016,2,0,P|197:246|246:244,1,85,0|4,1:0|3:0,0:0:0:0:
341,326,155529,2,0,L|318:231,2,85,2|0|2,0:3|3:0|0:0,0:0:0:0:
376,134,156298,5,4,3:0:0:0:
376,134,157837,6,0,L|306:127,1,55.2499974708558,2|0,0:0|0:0,0:0:0:0:
250,161,158093,2,0,L|180:168,1,55.2499974708558,2|0,0:0|0:0,0:0:0:0:
128,220,158349,6,0,B|97:180|97:180|94:109,1,110.499994941712,4|0,3:1|0:0,0:0:0:0:
118,0,158862,1,2,0:0:0:0:
12,133,159119,1,2,1:2:0:0:
192,84,159375,2,0,B|254:74|254:74|309:78,1,110.499994941712,4|2,3:0|0:3,0:0:0:0:
365,122,159760,1,2,0:3:0:0:
365,122,159888,2,0,B|396:133|396:133|437:135,1,55.2499974708558,2|2,3:2|0:3,0:0:0:0:
495,133,160144,1,2,0:0:0:0:
430,16,160401,5,4,3:0:0:0:
281,99,160657,1,0,0:0:0:0:
431,135,160914,1,2,0:0:0:0:
322,0,161170,1,2,1:2:0:0:
348,182,161426,2,0,B|361:240|361:240|349:299,1,110.499994941712,4|2,3:0|0:3,0:0:0:0:
304,352,161811,1,0,0:0:0:0:
304,352,161939,1,2,3:2:0:0:
119,233,162196,1,2,0:2:0:0:
119,233,162324,1,2,0:2:0:0:
119,233,162452,6,0,L|111:355,1,110.499994941712,4|2,3:2|0:0,0:0:0:0:
20,264,162965,1,2,0:0:0:0:
205,193,163221,1,2,1:2:0:0:
52,84,163478,2,0,P|108:62|161:61,1,110.499994941712,4|0,3:0|0:0,0:0:0:0:
224,100,163862,1,0,0:0:0:0:
224,100,163991,2,0,P|260:119|304:123,1,55.2499974708558,2|0,3:2|0:0,0:0:0:0:
351,121,164247,1,2,0:2:0:0:
477,29,164503,5,4,3:0:0:0:
512,193,164760,1,2,0:0:0:0:
351,121,165016,1,2,0:0:0:0:
386,285,165273,1,2,1:2:0:0:
251,201,165529,2,0,P|201:194|134:204,1,110.499994941712,4|2,3:0|0:3,0:0:0:0:
55,327,166042,6,0,L|48:266,1,55.2499974708558,2|2,3:2|0:3,0:0:0:0:
0,208,166298,2,0,L|7:147,1,55.2499974708558,2|0,0:2|0:0,0:0:0:0:
45,78,166555,6,0,B|102:62|102:62|173:62,1,110.499994941712,4|0,3:1|0:0,0:0:0:0:
253,167,167067,1,2,0:0:0:0:
229,31,167324,1,2,1:2:0:0:
141,201,167580,2,0,P|127:258|140:312,1,110.499994941712,4|2,3:0|0:3,0:0:0:0:
212,345,167965,1,2,0:3:0:0:
212,345,168093,2,0,P|243:333|270:333,1,55.2499974708558,2|2,3:2|0:3,0:0:0:0:
341,335,168349,1,2,0:0:0:0:
469,384,168606,5,4,3:0:0:0:
333,207,168862,1,0,0:0:0:0:
330,360,169119,1,2,0:0:0:0:
466,183,169375,1,2,1:2:0:0:
266,281,169632,2,0,L|136:278,1,110.499994941712,4|0,3:0|0:0,0:0:0:0:
89,243,170016,1,2,0:0:0:0:
89,243,170144,2,0,P|78:216|73:182,1,55.2499974708558,2|0,3:2|0:0,0:0:0:0:
73,110,170401,1,2,0:0:0:0:
202,16,170657,5,4,3:2:0:0:
145,167,170914,1,2,0:0:0:0:
104,12,171170,1,2,0:0:0:0:
228,112,171426,1,2,1:2:0:0:
44,105,171683,2,0,P|35:169|46:222,1,110.499994941712,4|2,3:0|0:3,0:0:0:0:
137,319,172196,1,2,3:2:0:0:
165,301,172324,1,2,3:2:0:0:
197,295,172452,1,2,3:2:0:0:
229,297,172580,1,2,3:2:0:0:
261,304,172708,5,4,3:0:0:0:
402,372,172965,1,2,0:0:0:0:
494,220,173221,1,2,0:0:0:0:
353,288,173478,1,2,1:2:0:0:
245,148,173734,2,0,L|369:167,1,110.499994941712,4|2,3:0|0:3,0:0:0:0:
480,42,174247,6,0,P|426:54|407:53,1,55.2499974708558,2|2,3:2|0:3,0:0:0:0:
346,26,174503,2,0,P|292:14|273:15,1,55.2499974708558,2|0,0:0|0:0,0:0:0:0:
222,51,174760,6,0,L|102:52,1,118.999996368408,4|0,3:1|0:0,0:0:0:0:
13,157,175273,1,2,0:0:0:0:
101,31,175529,1,2,1:2:0:0:
158,187,175785,2,0,B|177:248|177:248|162:309,1,118.999996368408,4|2,3:0|0:3,0:0:0:0:
87,359,176170,1,2,0:3:0:0:
87,359,176298,2,0,B|74:299,1,59.4999981842042,2|2,3:2|0:3,0:0:0:0:
61,223,176555,1,2,0:0:0:0:
188,172,176811,5,4,3:0:0:0:
243,330,177067,1,2,0:0:0:0:
297,148,177324,1,2,0:0:0:0:
352,306,177580,1,2,1:2:0:0:
429,117,177837,6,0,L|307:120,1,118.999996368408,4|2,3:0|0:3,0:0:0:0:
229,97,178221,1,2,0:3:0:0:
229,97,178349,1,2,3:2:0:0:
100,8,178606,1,2,0:2:0:0:
100,8,178734,1,2,0:2:0:0:
100,8,178862,6,0,B|70:38|70:38|69:139,1,118.999996368408,4|2,3:2|0:0,0:0:0:0:
166,232,179375,1,2,0:0:0:0:
0,188,179632,1,2,1:2:0:0:
87,342,179888,2,0,P|152:322|212:321,1,118.999996368408,4|2,3:0|0:3,0:0:0:0:
279,363,180273,1,2,0:3:0:0:
279,363,180401,2,0,P|344:383|404:384,1,118.999996368408,2|2,3:2|0:0,0:0:0:0:
512,260,180914,5,4,3:0:0:0:
309,277,181170,1,2,0:0:0:0:
467,173,181426,1,2,0:0:0:0:
340,183,181682,1,2,1:2:0:0:
419,358,181939,2,0,L|407:234,1,118.999996368408,4|2,3:0|0:3,0:0:0:0:
467,173,182324,1,2,0:3:0:0:
467,173,182452,1,2,3:2:0:0:
365,48,182708,1,2,0:0:0:0:
249,183,182965,6,0,B|133:134|151:212|50:173,1,203.999993774414,4|2,3:1|0:0,0:0:0:0:
2,39,183734,1,2,1:2:0:0:
161,4,183991,2,0,P|225:-1|268:5,1,101.999996887207,4|2,3:0|0:3,0:0:0:0:
328,51,184375,1,2,0:3:0:0:
328,51,184503,2,0,L|317:132,1,50.9999984436036,2|2,3:2|0:3,0:0:0:0:
266,162,184760,1,2,0:0:0:0:
376,279,185016,6,0,P|323:252|177:250,1,203.999993774414,4|2,3:0|0:0,0:0:0:0:
122,378,185785,1,2,0:0:0:0:
14,254,186042,2,0,P|2:199|10:152,1,101.999996887207,4|2,3:0|0:3,0:0:0:0:
49,83,186426,1,2,0:3:0:0:
49,83,186555,2,0,L|127:84,1,50.9999984436036,2|2,3:2|0:3,0:0:0:0:
165,131,186811,1,2,0:0:0:0:
175,0,187068,6,0,B|252:5|252:5|297:25|297:25|376:32,1,203.999993774414,4|2,3:2|0:0,0:0:0:0:
512,0,187837,1,2,1:2:0:0:
428,115,188093,2,0,P|417:165|424:216,1,101.999996887207,4|2,3:0|0:3,0:0:0:0:
471,284,188478,1,2,0:3:0:0:
471,284,188606,2,0,L|405:291,1,50.9999984436036,2|0,3:2|0:0,0:0:0:0:
360,345,188862,1,2,0:0:0:0:
186,267,189119,5,4,3:0:0:0:
322,173,189375,1,2,0:0:0:0:
265,328,189632,1,2,0:0:0:0:
220,169,189888,1,2,1:2:0:0:
349,271,190144,2,0,L|485:290,1,101.999996887207,4|2,3:0|0:3,0:0:0:0:
512,342,190529,1,2,0:3:0:0:
512,342,190657,1,0,3:0:0:0:
461,203,190914,1,0,0:0:0:0:
359,347,191170,5,4,3:1:0:0:
