osu file format v14

[General]
AudioFilename: audio.mp3
AudioLeadIn: 0
PreviewTime: 17534
Countdown: 0
SampleSet: Normal
StackLeniency: 0.7
Mode: 3
LetterboxInBreaks: 0
SpecialStyle: 0
WidescreenStoryboard: 1

[Editor]
DistanceSpacing: 0.8
BeatDivisor: 2
GridSize: 32
TimelineZoom: 1.3

[Metadata]
Title:marple_arm
TitleUnicode:marple_arm
Artist:Secon
ArtistUnicode:세컨
Creator:GDBlack
Version:insane
Source:
Tags:Frums frums.xyz frumsxyz frumsdotxyz multi_arm mapple_arm Minecraft YouTuber 팀 샐러드 팀샐러드 Team Salad 팬무비 Fan Movie 마인애플 마플 MinedApple 파크모 박준모 Park_Mo ParkMo Park JunMo 音MAD Otomad Oto-MAD Novelty Electronic Instrumental
BeatmapID:4151962
BeatmapSetID:1997605

[Difficulty]
HPDrainRate:8
CircleSize:4
OverallDifficulty:7.5
ApproachRate:5
SliderMultiplier:1.4
SliderTickRate:1

[Events]
//Background and Video events
0,0,"marple_arm.jpg",0,0
//Break Periods
//Storyboard Layer 0 (Background)
//Storyboard Layer 1 (Fail)
//Storyboard Layer 2 (Pass)
//Storyboard Layer 3 (Foreground)
//Storyboard Layer 4 (Overlay)
//Storyboard Sound Samples

[TimingPoints]
81,272.727272727273,4,1,1,40,1,0
4171,272.727272727273,4,1,1,40,1,0
7307,272.727272727273,4,1,1,40,1,0
13171,272.727272727273,4,1,1,40,1,0
17534,272.727272727273,3,1,1,40,1,0
20126,272.727272727273,4,1,1,40,1,0
35398,-100,4,1,1,40,0,1
37580,-100,4,1,1,40,0,0
44126,-100,4,1,1,40,0,1
46307,-100,4,1,1,40,0,0

[HitObjects]
448,192,81,5,0,0:0:0:0:
64,192,81,1,0,0:0:0:0:
448,192,490,1,0,0:0:0:0:
64,192,490,1,0,0:0:0:0:
64,192,899,1,0,0:0:0:0:
64,192,1308,1,0,0:0:0:0:
64,192,1717,1,0,0:0:0:0:
64,192,2126,1,0,0:0:0:0:
64,192,2535,1,0,0:0:0:0:
64,192,2944,1,0,0:0:0:0:
64,192,3217,1,0,0:0:0:0:
64,192,3626,1,0,0:0:0:0:
64,192,4035,1,0,0:0:0:0:
448,192,4171,1,0,0:0:0:0:
64,192,4171,1,0,0:0:0:0:
448,192,4443,1,0,0:0:0:0:
64,192,4443,1,0,0:0:0:0:
448,192,4852,1,0,0:0:0:0:
64,192,4852,1,0,0:0:0:0:
64,192,5261,1,0,0:0:0:0:
64,192,5671,1,0,0:0:0:0:
64,192,6080,1,0,0:0:0:0:
64,192,6489,1,0,0:0:0:0:
64,192,6898,1,0,0:0:0:0:
64,192,7307,1,0,0:0:0:0:
64,192,7579,1,0,0:0:0:0:
64,192,7988,1,0,0:0:0:0:
64,192,8397,1,0,0:0:0:0:
448,192,8807,1,0,0:0:0:0:
64,192,8807,1,0,0:0:0:0:
320,192,9216,128,0,10988:0:0:0:0:
64,192,9216,1,0,0:0:0:0:
64,192,9625,1,0,0:0:0:0:
64,192,10034,1,0,0:0:0:0:
64,192,10443,1,0,0:0:0:0:
64,192,10852,1,0,0:0:0:0:
64,192,11261,1,0,0:0:0:0:
64,192,11670,1,0,0:0:0:0:
64,192,11943,1,0,0:0:0:0:
64,192,12352,1,0,0:0:0:0:
64,192,12761,1,0,0:0:0:0:
448,192,12897,1,0,0:0:0:0:
64,192,12897,1,0,0:0:0:0:
448,192,13171,1,0,0:0:0:0:
64,192,13171,1,0,0:0:0:0:
448,192,13580,1,0,0:0:0:0:
64,192,13580,1,0,0:0:0:0:
64,192,13989,1,0,0:0:0:0:
64,192,14398,1,0,0:0:0:0:
64,192,14807,1,0,0:0:0:0:
64,192,15216,1,0,0:0:0:0:
64,192,15625,128,0,16443:0:0:0:0:
192,192,16034,128,0,16580:0:0:0:0:
320,192,16307,128,0,16716:0:0:0:0:
448,192,16443,128,0,16852:0:0:0:0:
64,192,16580,128,0,16989:0:0:0:0:
192,192,16716,128,0,17057:0:0:0:0:
320,192,16852,128,0,17125:0:0:0:0:
448,192,16989,128,0,17193:0:0:0:0:
64,192,17125,128,0,17261:0:0:0:0:
192,192,17193,128,0,17330:0:0:0:0:
320,192,17261,128,0,17466:0:0:0:0:
448,192,17330,128,0,17466:0:0:0:0:
64,192,17398,128,0,17534:0:0:0:0:
192,192,17466,128,0,17534:0:0:0:0:
448,192,17534,1,0,0:0:0:0:
320,192,17534,1,0,0:0:0:0:
448,192,17670,1,0,0:0:0:0:
64,192,17806,1,0,0:0:0:0:
192,192,17943,1,0,0:0:0:0:
320,192,17943,1,0,0:0:0:0:
448,192,18079,1,0,0:0:0:0:
64,192,18215,1,0,0:0:0:0:
320,192,18215,1,0,0:0:0:0:
192,192,18352,1,0,0:0:0:0:
448,192,18352,1,0,0:0:0:0:
64,192,18488,1,0,0:0:0:0:
192,192,18624,1,0,0:0:0:0:
448,192,18761,1,0,0:0:0:0:
320,192,18761,1,0,0:0:0:0:
64,192,18897,1,0,0:0:0:0:
192,192,19034,1,0,0:0:0:0:
320,192,19034,1,0,0:0:0:0:
64,192,19170,1,0,0:0:0:0:
448,192,19170,1,0,0:0:0:0:
192,192,19306,1,0,0:0:0:0:
320,192,19443,1,0,0:0:0:0:
448,192,19579,1,0,0:0:0:0:
64,192,19579,1,0,0:0:0:0:
192,192,19715,1,0,0:0:0:0:
320,192,19852,1,0,0:0:0:0:
64,192,19852,1,0,0:0:0:0:
192,192,19988,1,0,0:0:0:0:
448,192,20126,1,0,0:0:0:0:
64,192,20126,1,0,0:0:0:0:
320,192,20262,1,0,0:0:0:0:
192,192,20398,1,0,0:0:0:0:
448,192,20535,1,0,0:0:0:0:
320,192,20535,1,0,0:0:0:0:
64,192,20671,1,0,0:0:0:0:
448,192,20807,1,0,0:0:0:0:
192,192,20807,1,0,0:0:0:0:
320,192,20944,1,0,0:0:0:0:
448,192,21080,1,0,0:0:0:0:
192,192,21216,1,0,0:0:0:0:
320,192,21216,1,0,0:0:0:0:
64,192,21353,1,0,0:0:0:0:
320,192,21489,1,0,0:0:0:0:
448,192,21489,1,0,0:0:0:0:
64,192,21626,1,0,0:0:0:0:
192,192,21626,1,0,0:0:0:0:
448,192,21762,1,0,0:0:0:0:
192,192,21898,1,0,0:0:0:0:
64,192,21898,1,0,0:0:0:0:
64,192,22035,1,0,0:0:0:0:
448,192,22171,1,0,0:0:0:0:
192,192,22307,1,0,0:0:0:0:
320,192,22307,1,0,0:0:0:0:
64,192,22444,1,0,0:0:0:0:
448,192,22580,1,0,0:0:0:0:
192,192,22580,1,0,0:0:0:0:
64,192,22716,1,0,0:0:0:0:
320,192,22716,1,0,0:0:0:0:
448,192,22853,1,0,0:0:0:0:
320,192,22989,1,0,0:0:0:0:
64,192,23126,1,0,0:0:0:0:
192,192,23126,1,0,0:0:0:0:
448,192,23262,1,0,0:0:0:0:
320,192,23398,1,0,0:0:0:0:
192,192,23398,1,0,0:0:0:0:
448,192,23535,1,0,0:0:0:0:
64,192,23535,1,0,0:0:0:0:
320,192,23671,1,0,0:0:0:0:
192,192,23807,1,0,0:0:0:0:
448,192,23944,1,0,0:0:0:0:
64,192,23944,1,0,0:0:0:0:
320,192,24080,1,0,0:0:0:0:
192,192,24216,1,0,0:0:0:0:
64,192,24216,1,0,0:0:0:0:
448,192,24285,1,0,0:0:0:0:
320,192,24353,1,0,0:0:0:0:
192,192,24421,1,0,0:0:0:0:
448,192,24489,1,0,0:0:0:0:
320,192,24489,1,0,0:0:0:0:
64,192,24557,1,0,0:0:0:0:
192,192,24626,1,0,0:0:0:0:
448,192,24762,1,0,0:0:0:0:
320,192,24830,1,0,0:0:0:0:
64,192,24898,1,0,0:0:0:0:
192,192,24898,1,0,0:0:0:0:
320,192,25035,1,0,0:0:0:0:
448,192,25171,1,0,0:0:0:0:
64,192,25171,1,0,0:0:0:0:
320,192,25307,1,0,0:0:0:0:
64,192,25444,1,0,0:0:0:0:
192,192,25580,1,0,0:0:0:0:
320,192,25580,1,0,0:0:0:0:
448,192,25716,1,0,0:0:0:0:
192,192,25853,1,0,0:0:0:0:
64,192,25853,1,0,0:0:0:0:
320,192,25989,1,0,0:0:0:0:
448,192,25989,1,0,0:0:0:0:
64,192,26035,1,0,0:0:0:0:
192,192,26080,1,0,0:0:0:0:
320,192,26126,1,0,0:0:0:0:
448,192,26171,1,0,0:0:0:0:
64,192,26216,1,0,0:0:0:0:
192,192,26262,1,0,0:0:0:0:
320,192,26262,1,0,0:0:0:0:
448,192,26330,1,0,0:0:0:0:
192,192,26398,1,0,0:0:0:0:
64,192,26398,1,0,0:0:0:0:
320,192,26466,1,0,0:0:0:0:
448,192,26535,1,0,0:0:0:0:
192,192,26603,1,0,0:0:0:0:
64,192,26671,1,0,0:0:0:0:
320,192,26671,1,0,0:0:0:0:
448,192,26739,1,0,0:0:0:0:
192,192,26807,1,0,0:0:0:0:
320,192,26876,1,0,0:0:0:0:
64,192,26944,1,0,0:0:0:0:
192,192,26944,1,0,0:0:0:0:
448,192,27012,1,0,0:0:0:0:
64,192,27080,1,0,0:0:0:0:
320,192,27080,1,0,0:0:0:0:
192,192,27148,1,0,0:0:0:0:
448,192,27216,1,0,0:0:0:0:
320,192,27216,1,0,0:0:0:0:
64,192,27285,1,0,0:0:0:0:
192,192,27353,1,0,0:0:0:0:
448,192,27421,1,0,0:0:0:0:
320,192,27489,1,0,0:0:0:0:
64,192,27489,1,0,0:0:0:0:
192,192,27557,1,0,0:0:0:0:
448,192,27626,1,0,0:0:0:0:
320,192,27694,1,0,0:0:0:0:
64,192,27762,1,0,0:0:0:0:
192,192,27762,1,0,0:0:0:0:
320,192,27830,1,0,0:0:0:0:
64,192,27898,1,0,0:0:0:0:
448,192,27898,1,0,0:0:0:0:
192,192,27966,1,0,0:0:0:0:
320,192,28035,1,0,0:0:0:0:
448,192,28103,1,0,0:0:0:0:
192,192,28171,1,0,0:0:0:0:
64,192,28239,1,0,0:0:0:0:
320,192,28307,1,0,0:0:0:0:
448,192,28307,1,0,0:0:0:0:
64,192,28376,1,0,0:0:0:0:
192,192,28444,1,0,0:0:0:0:
320,192,28512,1,0,0:0:0:0:
192,192,28580,1,0,0:0:0:0:
64,192,28580,1,0,0:0:0:0:
448,192,28648,1,0,0:0:0:0:
320,192,28716,1,0,0:0:0:0:
192,192,28785,1,0,0:0:0:0:
448,192,28853,1,0,0:0:0:0:
320,192,28853,1,0,0:0:0:0:
64,192,28921,1,0,0:0:0:0:
192,192,28989,1,0,0:0:0:0:
448,192,29057,1,0,0:0:0:0:
320,192,29126,1,0,0:0:0:0:
192,192,29194,1,0,0:0:0:0:
448,192,29262,1,0,0:0:0:0:
64,192,29262,1,0,0:0:0:0:
320,192,29330,1,0,0:0:0:0:
192,192,29398,1,0,0:0:0:0:
64,192,29398,1,0,0:0:0:0:
320,192,29466,1,0,0:0:0:0:
448,192,29535,1,0,0:0:0:0:
64,192,29535,1,0,0:0:0:0:
192,192,29603,1,0,0:0:0:0:
448,192,29671,1,0,0:0:0:0:
320,192,29739,1,0,0:0:0:0:
192,192,29807,1,0,0:0:0:0:
64,192,29876,1,0,0:0:0:0:
448,192,29944,1,0,0:0:0:0:
320,192,29944,1,0,0:0:0:0:
192,192,30012,1,0,0:0:0:0:
448,192,30080,1,0,0:0:0:0:
320,192,30148,1,0,0:0:0:0:
64,192,30216,1,0,0:0:0:0:
192,192,30216,1,0,0:0:0:0:
448,192,30285,1,0,0:0:0:0:
320,192,30353,1,0,0:0:0:0:
64,192,30353,1,0,0:0:0:0:
192,192,30421,1,0,0:0:0:0:
320,192,30489,1,0,0:0:0:0:
448,192,30489,1,0,0:0:0:0:
64,192,30557,1,0,0:0:0:0:
192,192,30626,1,0,0:0:0:0:
448,192,30626,1,0,0:0:0:0:
320,192,30694,1,0,0:0:0:0:
64,192,30762,1,0,0:0:0:0:
192,192,30762,1,0,0:0:0:0:
448,192,30830,1,0,0:0:0:0:
320,192,30898,1,0,0:0:0:0:
64,192,30966,1,0,0:0:0:0:
192,192,31035,1,0,0:0:0:0:
320,192,31035,1,0,0:0:0:0:
448,192,31103,1,0,0:0:0:0:
64,192,31171,1,0,0:0:0:0:
192,192,31239,1,0,0:0:0:0:
320,192,31307,1,0,0:0:0:0:
448,192,31307,1,0,0:0:0:0:
64,192,31376,1,0,0:0:0:0:
320,192,31444,1,0,0:0:0:0:
192,192,31444,1,0,0:0:0:0:
448,192,31512,1,0,0:0:0:0:
192,192,31580,1,0,0:0:0:0:
64,192,31580,1,0,0:0:0:0:
320,192,31648,1,0,0:0:0:0:
448,192,31716,1,0,0:0:0:0:
192,192,31785,1,0,0:0:0:0:
64,192,31853,1,0,0:0:0:0:
320,192,31853,1,0,0:0:0:0:
448,192,31921,1,0,0:0:0:0:
192,192,31989,1,0,0:0:0:0:
64,192,32057,1,0,0:0:0:0:
320,192,32126,1,0,0:0:0:0:
448,192,32126,1,0,0:0:0:0:
64,192,32194,1,0,0:0:0:0:
320,192,32262,1,0,0:0:0:0:
192,192,32262,1,0,0:0:0:0:
448,192,32330,1,0,0:0:0:0:
192,192,32398,1,0,0:0:0:0:
64,192,32466,1,0,0:0:0:0:
448,192,32535,1,0,0:0:0:0:
320,192,32603,1,0,0:0:0:0:
448,192,32671,1,0,0:0:0:0:
192,192,32671,1,0,0:0:0:0:
320,192,32739,1,0,0:0:0:0:
64,192,32807,1,0,0:0:0:0:
192,192,32876,1,0,0:0:0:0:
64,192,32944,1,0,0:0:0:0:
320,192,32944,1,0,0:0:0:0:
192,192,33012,1,0,0:0:0:0:
448,192,33080,1,0,0:0:0:0:
320,192,33148,1,0,0:0:0:0:
192,192,33216,1,0,0:0:0:0:
64,192,33216,1,0,0:0:0:0:
320,192,33285,1,0,0:0:0:0:
64,192,33353,1,0,0:0:0:0:
192,192,33421,1,0,0:0:0:0:
448,192,33489,1,0,0:0:0:0:
320,192,33557,1,0,0:0:0:0:
64,192,33626,1,0,0:0:0:0:
192,192,33626,1,0,0:0:0:0:
448,192,33694,1,0,0:0:0:0:
192,192,33762,1,0,0:0:0:0:
320,192,33762,1,0,0:0:0:0:
64,192,33830,1,0,0:0:0:0:
320,192,33898,1,0,0:0:0:0:
448,192,33898,1,0,0:0:0:0:
64,192,33966,1,0,0:0:0:0:
192,192,34035,1,0,0:0:0:0:
448,192,34035,1,0,0:0:0:0:
64,192,34103,1,0,0:0:0:0:
320,192,34171,1,0,0:0:0:0:
448,192,34239,1,0,0:0:0:0:
192,192,34307,1,0,0:0:0:0:
64,192,34307,1,0,0:0:0:0:
320,192,34376,1,0,0:0:0:0:
448,192,34444,1,0,0:0:0:0:
192,192,34512,1,0,0:0:0:0:
64,192,34580,1,0,0:0:0:0:
448,192,34580,1,0,0:0:0:0:
320,192,34648,1,0,0:0:0:0:
192,192,34716,1,0,0:0:0:0:
64,192,34716,1,0,0:0:0:0:
448,192,34785,1,0,0:0:0:0:
192,192,34853,1,0,0:0:0:0:
320,192,34853,1,0,0:0:0:0:
64,192,34921,1,0,0:0:0:0:
320,192,34989,1,0,0:0:0:0:
448,192,34989,1,0,0:0:0:0:
64,192,35057,1,0,0:0:0:0:
192,192,35126,1,0,0:0:0:0:
320,192,35126,1,0,0:0:0:0:
448,192,35194,1,0,0:0:0:0:
192,192,35262,1,0,0:0:0:0:
320,192,35330,1,0,0:0:0:0:
64,192,35398,1,0,0:0:0:0:
448,192,35398,1,0,0:0:0:0:
192,192,35466,1,0,0:0:0:0:
320,192,35535,1,0,0:0:0:0:
192,192,35603,1,0,0:0:0:0:
64,192,35671,1,0,0:0:0:0:
448,192,35671,1,0,0:0:0:0:
320,192,35739,1,0,0:0:0:0:
64,192,35807,1,0,0:0:0:0:
192,192,35807,1,0,0:0:0:0:
448,192,35876,1,0,0:0:0:0:
192,192,35944,1,0,0:0:0:0:
320,192,35944,1,0,0:0:0:0:
64,192,36012,1,0,0:0:0:0:
320,192,36080,1,0,0:0:0:0:
192,192,36148,1,0,0:0:0:0:
64,192,36216,1,0,0:0:0:0:
448,192,36216,1,0,0:0:0:0:
320,192,36285,1,0,0:0:0:0:
192,192,36353,1,0,0:0:0:0:
320,192,36421,1,0,0:0:0:0:
448,192,36489,1,0,0:0:0:0:
64,192,36489,1,0,0:0:0:0:
192,192,36557,1,0,0:0:0:0:
320,192,36626,1,0,0:0:0:0:
64,192,36626,1,0,0:0:0:0:
448,192,36694,1,0,0:0:0:0:
192,192,36762,1,0,0:0:0:0:
320,192,36830,1,0,0:0:0:0:
64,192,36898,1,0,0:0:0:0:
192,192,36966,1,0,0:0:0:0:
320,192,37035,1,0,0:0:0:0:
448,192,37035,1,0,0:0:0:0:
64,192,37103,1,0,0:0:0:0:
192,192,37171,1,0,0:0:0:0:
320,192,37239,1,0,0:0:0:0:
192,192,37307,1,0,0:0:0:0:
64,192,37307,1,0,0:0:0:0:
448,192,37376,1,0,0:0:0:0:
320,192,37444,1,0,0:0:0:0:
192,192,37512,1,0,0:0:0:0:
448,192,37580,1,0,0:0:0:0:
320,192,37580,1,0,0:0:0:0:
64,192,37648,1,0,0:0:0:0:
192,192,37716,1,0,0:0:0:0:
448,192,37785,1,0,0:0:0:0:
192,192,37853,1,0,0:0:0:0:
320,192,37921,1,0,0:0:0:0:
448,192,37989,1,0,0:0:0:0:
64,192,37989,1,0,0:0:0:0:
192,192,38057,1,0,0:0:0:0:
320,192,38126,1,0,0:0:0:0:
448,192,38126,1,0,0:0:0:0:
64,192,38194,1,0,0:0:0:0:
192,192,38262,1,0,0:0:0:0:
448,192,38330,1,0,0:0:0:0:
320,192,38398,1,0,0:0:0:0:
192,192,38466,1,0,0:0:0:0:
64,192,38535,1,0,0:0:0:0:
320,192,38603,1,0,0:0:0:0:
64,192,38671,1,0,0:0:0:0:
448,192,38671,1,0,0:0:0:0:
192,192,38739,1,0,0:0:0:0:
320,192,38807,1,0,0:0:0:0:
448,192,38876,1,0,0:0:0:0:
192,192,38944,1,0,0:0:0:0:
64,192,38944,1,0,0:0:0:0:
320,192,39012,1,0,0:0:0:0:
64,192,39080,1,0,0:0:0:0:
448,192,39080,1,0,0:0:0:0:
192,192,39148,1,0,0:0:0:0:
320,192,39216,1,0,0:0:0:0:
448,192,39216,1,0,0:0:0:0:
192,192,39285,1,0,0:0:0:0:
448,192,39353,128,0,39489:0:0:0:0:
320,192,39421,128,0,39489:0:0:0:0:
192,192,39489,1,0,0:0:0:0:
64,192,39489,1,0,0:0:0:0:
448,192,39557,1,0,0:0:0:0:
192,192,39626,1,0,0:0:0:0:
448,192,39694,1,0,0:0:0:0:
320,192,39762,1,0,0:0:0:0:
64,192,39762,1,0,0:0:0:0:
192,192,39830,1,0,0:0:0:0:
448,192,39898,1,0,0:0:0:0:
320,192,39966,1,0,0:0:0:0:
448,192,40035,1,0,0:0:0:0:
64,192,40035,1,0,0:0:0:0:
192,192,40103,1,0,0:0:0:0:
64,192,40171,1,0,0:0:0:0:
320,192,40171,1,0,0:0:0:0:
448,192,40239,1,0,0:0:0:0:
192,192,40307,1,0,0:0:0:0:
320,192,40307,1,0,0:0:0:0:
64,192,40376,1,0,0:0:0:0:
448,192,40444,1,0,0:0:0:0:
320,192,40444,1,0,0:0:0:0:
192,192,40512,1,0,0:0:0:0:
64,192,40580,1,0,0:0:0:0:
320,192,40648,1,0,0:0:0:0:
192,192,40716,1,0,0:0:0:0:
448,192,40716,1,0,0:0:0:0:
64,192,40785,1,0,0:0:0:0:
320,192,40853,1,0,0:0:0:0:
448,192,40853,1,0,0:0:0:0:
64,192,40921,1,0,0:0:0:0:
192,192,40989,1,0,0:0:0:0:
448,192,41057,1,0,0:0:0:0:
320,192,41126,1,0,0:0:0:0:
64,192,41194,1,0,0:0:0:0:
192,192,41262,1,0,0:0:0:0:
320,192,41330,1,0,0:0:0:0:
192,192,41398,1,0,0:0:0:0:
448,192,41398,1,0,0:0:0:0:
64,192,41466,1,0,0:0:0:0:
320,192,41535,1,0,0:0:0:0:
192,192,41603,1,0,0:0:0:0:
320,192,41671,1,0,0:0:0:0:
64,192,41671,1,0,0:0:0:0:
448,192,41739,1,0,0:0:0:0:
64,192,41807,1,0,0:0:0:0:
320,192,41876,1,0,0:0:0:0:
448,192,41944,1,0,0:0:0:0:
192,192,41944,1,0,0:0:0:0:
64,192,42012,1,0,0:0:0:0:
320,192,42080,1,0,0:0:0:0:
448,192,42148,1,0,0:0:0:0:
192,192,42216,1,0,0:0:0:0:
320,192,42285,1,0,0:0:0:0:
192,192,42353,1,0,0:0:0:0:
64,192,42353,1,0,0:0:0:0:
448,192,42421,1,0,0:0:0:0:
320,192,42489,1,0,0:0:0:0:
64,192,42489,1,0,0:0:0:0:
192,192,42557,1,0,0:0:0:0:
320,192,42626,1,0,0:0:0:0:
448,192,42626,1,0,0:0:0:0:
64,192,42694,1,0,0:0:0:0:
192,192,42762,1,0,0:0:0:0:
448,192,42830,1,0,0:0:0:0:
320,192,42898,1,0,0:0:0:0:
192,192,42966,1,0,0:0:0:0:
448,192,43035,1,0,0:0:0:0:
64,192,43035,1,0,0:0:0:0:
320,192,43103,1,0,0:0:0:0:
192,192,43171,1,0,0:0:0:0:
320,192,43239,1,0,0:0:0:0:
64,192,43307,1,0,0:0:0:0:
448,192,43307,1,0,0:0:0:0:
192,192,43376,1,0,0:0:0:0:
64,192,43444,1,0,0:0:0:0:
320,192,43444,1,0,0:0:0:0:
448,192,43512,1,0,0:0:0:0:
64,192,43580,128,0,43716:0:0:0:0:
192,192,43648,128,0,43716:0:0:0:0:
320,192,43716,1,0,0:0:0:0:
448,192,43716,1,0,0:0:0:0:
192,192,43785,1,0,0:0:0:0:
448,192,43853,1,0,0:0:0:0:
64,192,43853,1,0,0:0:0:0:
320,192,43921,1,0,0:0:0:0:
192,192,43989,1,0,0:0:0:0:
448,192,44057,1,0,0:0:0:0:
64,192,44126,1,0,0:0:0:0:
320,192,44126,1,0,0:0:0:0:
192,192,44194,1,0,0:0:0:0:
448,192,44262,1,0,0:0:0:0:
64,192,44330,1,0,0:0:0:0:
320,192,44398,1,0,0:0:0:0:
192,192,44398,1,0,0:0:0:0:
448,192,44466,1,0,0:0:0:0:
64,192,44535,1,0,0:0:0:0:
192,192,44535,1,0,0:0:0:0:
320,192,44603,1,0,0:0:0:0:
64,192,44671,1,0,0:0:0:0:
448,192,44671,1,0,0:0:0:0:
192,192,44739,1,0,0:0:0:0:
320,192,44807,1,0,0:0:0:0:
64,192,44876,1,0,0:0:0:0:
448,192,44944,1,0,0:0:0:0:
320,192,44944,1,0,0:0:0:0:
192,192,45012,1,0,0:0:0:0:
448,192,45080,1,0,0:0:0:0:
320,192,45148,1,0,0:0:0:0:
192,192,45216,1,0,0:0:0:0:
64,192,45216,1,0,0:0:0:0:
320,192,45285,1,0,0:0:0:0:
448,192,45353,1,0,0:0:0:0:
64,192,45353,1,0,0:0:0:0:
192,192,45421,1,0,0:0:0:0:
64,192,45489,1,0,0:0:0:0:
448,192,45557,1,0,0:0:0:0:
320,192,45626,1,0,0:0:0:0:
192,192,45694,1,0,0:0:0:0:
448,192,45762,1,0,0:0:0:0:
320,192,45762,1,0,0:0:0:0:
64,192,45830,1,0,0:0:0:0:
192,192,45898,1,0,0:0:0:0:
320,192,45966,1,0,0:0:0:0:
64,192,46035,1,0,0:0:0:0:
192,192,46035,1,0,0:0:0:0:
448,192,46103,1,0,0:0:0:0:
320,192,46171,1,0,0:0:0:0:
64,192,46239,1,0,0:0:0:0:
320,192,46307,1,0,0:0:0:0:
192,192,46307,1,0,0:0:0:0:
448,192,46376,1,0,0:0:0:0:
64,192,46444,1,0,0:0:0:0:
320,192,46512,1,0,0:0:0:0:
192,192,46580,1,0,0:0:0:0:
448,192,46648,1,0,0:0:0:0:
320,192,46716,1,0,0:0:0:0:
64,192,46716,1,0,0:0:0:0:
192,192,46785,1,0,0:0:0:0:
448,192,46853,1,0,0:0:0:0:
320,192,46853,1,0,0:0:0:0:
64,192,46921,1,0,0:0:0:0:
320,192,46989,1,0,0:0:0:0:
192,192,46989,1,0,0:0:0:0:
448,192,47057,1,0,0:0:0:0:
192,192,47126,1,0,0:0:0:0:
64,192,47194,1,0,0:0:0:0:
320,192,47262,1,0,0:0:0:0:
192,192,47330,1,0,0:0:0:0:
64,192,47398,1,0,0:0:0:0:
320,192,47398,1,0,0:0:0:0:
448,192,47466,1,0,0:0:0:0:
192,192,47535,1,0,0:0:0:0:
64,192,47603,1,0,0:0:0:0:
320,192,47671,1,0,0:0:0:0:
448,192,47671,1,0,0:0:0:0:
64,192,47739,1,0,0:0:0:0:
192,192,47807,1,0,0:0:0:0:
320,192,47807,1,0,0:0:0:0:
448,192,47876,1,0,0:0:0:0:
192,192,47944,1,0,0:0:0:0:
64,192,47944,1,0,0:0:0:0:
448,192,48012,1,0,0:0:0:0:
192,192,48080,1,0,0:0:0:0:
320,192,48080,1,0,0:0:0:0:
64,192,48148,1,0,0:0:0:0:
448,192,48216,1,0,0:0:0:0:
320,192,48285,1,0,0:0:0:0:
192,192,48353,1,0,0:0:0:0:
448,192,48421,1,0,0:0:0:0:
64,192,48489,1,0,0:0:0:0:
192,192,48489,1,0,0:0:0:0:
320,192,48557,1,0,0:0:0:0:
64,192,48626,1,0,0:0:0:0:
448,192,48694,1,0,0:0:0:0:
192,192,48762,1,0,0:0:0:0:
320,192,48762,1,0,0:0:0:0:
64,192,48830,1,0,0:0:0:0:
320,192,48898,1,0,0:0:0:0:
448,192,48898,1,0,0:0:0:0:
192,192,48966,1,0,0:0:0:0:
448,192,49035,1,0,0:0:0:0:
64,192,49035,1,0,0:0:0:0:
320,192,49103,1,0,0:0:0:0:
192,192,49171,1,0,0:0:0:0:
64,192,49239,1,0,0:0:0:0:
320,192,49307,1,0,0:0:0:0:
448,192,49307,1,0,0:0:0:0:
192,192,49376,1,0,0:0:0:0:
320,192,49444,1,0,0:0:0:0:
448,192,49512,1,0,0:0:0:0:
192,192,49580,1,0,0:0:0:0:
64,192,49580,1,0,0:0:0:0:
320,192,49648,1,0,0:0:0:0:
448,192,49716,1,0,0:0:0:0:
192,192,49716,1,0,0:0:0:0:
64,192,49785,1,0,0:0:0:0:
320,192,49853,1,0,0:0:0:0:
448,192,49921,1,0,0:0:0:0:
192,192,49989,1,0,0:0:0:0:
320,192,50057,1,0,0:0:0:0:
448,192,50126,1,0,0:0:0:0:
192,192,50126,1,0,0:0:0:0:
320,192,50194,1,0,0:0:0:0:
64,192,50262,1,0,0:0:0:0:
192,192,50330,1,0,0:0:0:0:
320,192,50398,1,0,0:0:0:0:
64,192,50398,1,0,0:0:0:0:
192,192,50466,1,0,0:0:0:0:
448,192,50535,1,0,0:0:0:0:
64,192,50603,1,0,0:0:0:0:
192,192,50671,1,0,0:0:0:0:
448,192,50671,1,0,0:0:0:0:
320,192,50739,1,0,0:0:0:0:
64,192,50807,1,0,0:0:0:0:
320,192,50876,1,0,0:0:0:0:
192,192,50944,1,0,0:0:0:0:
448,192,51012,1,0,0:0:0:0:
64,192,51080,1,0,0:0:0:0:
192,192,51080,1,0,0:0:0:0:
320,192,51148,1,0,0:0:0:0:
448,192,51216,1,0,0:0:0:0:
64,192,51216,1,0,0:0:0:0:
192,192,51285,1,0,0:0:0:0:
448,192,51353,1,0,0:0:0:0:
64,192,51353,1,0,0:0:0:0:
320,192,51421,1,0,0:0:0:0:
192,192,51489,1,0,0:0:0:0:
448,192,51557,1,0,0:0:0:0:
64,192,51626,1,0,0:0:0:0:
320,192,51694,1,0,0:0:0:0:
192,192,51762,1,0,0:0:0:0:
448,192,51830,1,0,0:0:0:0:
192,192,51898,1,0,0:0:0:0:
320,192,51966,1,0,0:0:0:0:
64,192,52035,128,0,52103:0:0:0:0:
448,192,52103,128,0,52171:0:0:0:0:
64,192,52171,128,0,52376:0:0:0:0:
448,192,52239,128,0,52376:0:0:0:0:
