osu file format v14

[General]
AudioFilename: audio.mp3
AudioLeadIn: 0
PreviewTime: 13632
Countdown: 0
SampleSet: Soft
StackLeniency: 0.7
Mode: 0
LetterboxInBreaks: 0
WidescreenStoryboard: 1

[Editor]
DistanceSpacing: 1.1
BeatDivisor: 4
GridSize: 16
TimelineZoom: 1

[Metadata]
Title:Sur tes pas
TitleUnicode:Sur tes pas
Artist:Sebastien Pintiaux
ArtistUnicode:Sebastien Pintiaux
Creator:pacsu
Version:paclium normal
Source:wakfu
Tags:yugo Caroline Szatapski nasobol90 helium
BeatmapID:1378816
BeatmapSetID:648401

[Difficulty]
HPDrainRate:3
CircleSize:3.4
OverallDifficulty:3
ApproachRate:4
SliderMultiplier:2
SliderTickRate:1

[Events]
//Background and Video events
0,0,"wakfu__yugo_by_lanmana-d74uv5m.jpg",0,0
//Break Periods
//Storyboard Layer 0 (Background)
//Storyboard Layer 1 (Fail)
//Storyboard Layer 2 (Pass)
//Storyboard Layer 3 (Foreground)
//Storyboard Sound Samples

[TimingPoints]
582,600,4,2,0,30,1,0
1782,-200,4,2,0,15,0,0
4182,-166.666666666667,4,2,0,15,0,0
6582,-142.857142857143,4,2,0,15,0,0
8982,-133.333333333333,4,2,0,30,0,0
11382,-133.333333333333,4,1,0,30,0,0
47382,-133.333333333333,4,1,0,30,0,1
54432,-172.413793103448,4,1,0,30,0,0

[Colours]
Combo1 : 250,146,5
Combo2 : 21,181,234
Combo3 : 120,196,17

[HitObjects]
157,135,1782,6,0,B|200:107|169:43|169:43|239:57|256:9|256:9,1,200
335,238,4182,2,0,B|312:278|352:351|352:351|286:297|226:324,1,239.999992675781
102,75,6582,2,0,B|141:113|232:62|232:62|305:118|370:100,1,279.999991455078
248,379,8982,2,0,B|178:361|98:354|98:354|177:331|233:299|233:299|207:226|203:141,1,450.000017166138
61,67,11382,6,0,P|27:95|11:138,1,75.0000028610231
92,142,11982,2,0,P|129:169|142:213,1,75.0000028610231
62,221,12582,2,0,P|129:276|206:247,1,150.000005722046
274,124,13782,6,0,P|307:161|357:165,1,75.0000028610231
411,151,14382,1,0,0:0:0:0:
340,299,14982,2,0,P|362:328|367:364,1,75.0000028610231
284,358,15582,2,0,P|256:310|266:265,1,75.0000028610231
298,221,16182,2,0,L|302:129,1,75.0000028610231
306,63,16782,1,0,0:0:0:0:
141,80,17382,6,0,P|183:96|211:143,1,75.0000028610231
133,163,17982,2,0,P|100:192|37:196,1,75.0000028610231
1,154,18582,2,0,P|34:125|97:121,1,75.0000028610231
68,34,19182,1,0,0:0:0:0:
263,32,19782,6,0,P|323:87|308:181,1,150.000005722046
263,207,20682,2,0,P|183:226|110:177,1,150.000005722046
97,118,21582,2,0,P|113:50|191:12,1,150.000005722046
263,32,22482,5,0,0:0:0:0:
319,91,22782,1,0,0:0:0:0:
400,75,23082,1,0,0:0:0:0:
457,15,23382,2,0,P|482:64|431:151,1,150.000005722046
317,136,24582,6,0,P|265:154|242:196,1,75.0000028610231
319,217,25182,2,0,P|312:258|346:309,1,75.0000028610231
395,246,25782,2,0,P|428:288|481:292,1,75.0000028610231
469,214,26382,1,0,0:0:0:0:
479,49,26982,6,0,P|421:32|391:49,1,75.0000028610231
387,115,27582,2,0,P|353:130|292:106,1,75.0000028610231
247,79,28182,2,0,L|221:170,1,75.0000028610231
197,228,28782,1,0,0:0:0:0:
45,251,29382,6,0,P|10:214|8:159,1,75.0000028610231
85,179,29982,2,0,P|133:186|176:163,1,75.0000028610231
119,104,30582,5,0,0:0:0:0:
280,98,31182,1,0,0:0:0:0:
203,239,31782,2,0,P|247:267|362:230,1,150.000005722046
280,98,32982,2,0,P|236:70|121:107,1,150.000005722046
52,222,34182,6,0,P|45:259|71:308,1,75.0000028610231
140,292,34782,2,0,P|171:324|222:326,1,75.0000028610231
271,288,35382,2,0,L|353:288,1,75.0000028610231
418,248,35982,1,0,0:0:0:0:
366,62,36582,6,0,P|313:87|279:72,1,75.0000028610231
238,28,37182,2,0,P|189:25|165:45,1,75.0000028610231
168,121,37782,2,0,L|262:154,1,75.0000028610231
299,84,38382,1,0,0:0:0:0:
262,254,38982,6,0,L|155:254,1,75.0000028610231
181,336,39582,2,0,L|280:336,1,75.0000028610231
338,333,40182,1,0,0:0:0:0:
460,222,40782,1,0,0:0:0:0:
447,57,41382,2,0,B|355:68|355:189|235:171,1,225.000008583069
183,171,42582,1,0,0:0:0:0:
206,7,43182,1,0,0:0:0:0:
108,140,43782,6,0,P|106:194|128:231,1,75.0000028610231
189,246,44382,2,0,P|224:236|253:212,1,75.0000028610231
256,129,44982,2,0,L|348:94,1,75.0000028610231
402,70,45582,1,0,0:0:0:0:
272,231,46182,6,0,P|262:284|281:326,1,75.0000028610231
344,272,46782,2,0,P|355:218|335:177,1,75.0000028610231
280,151,47382,2,0,P|225:164|193:221,2,112.500004291535
275,236,48582,5,0,0:0:0:0:
357,233,48882,1,0,0:0:0:0:
411,170,49182,1,0,0:0:0:0:
438,92,49482,1,0,0:0:0:0:
391,23,49782,6,0,P|446:9|494:31,2,112.500004291535
377,104,50982,1,0,0:0:0:0:
342,179,51282,1,0,0:0:0:0:
260,189,51582,1,0,0:0:0:0:
221,115,51882,1,0,0:0:0:0:
177,45,52182,6,0,P|126:22|73:36,2,112.500004291535
221,115,53382,1,0,0:0:0:0:
254,234,53832,1,0,0:0:0:0:
254,234,54132,1,0,0:0:0:0:
363,209,54432,6,0,B|396:187|396:187|348:347|348:347|108:187|396:187|156:347|156:347|108:187|108:187|136:206,1,725.000022125245
