osu file format v14

[General]
AudioFilename: audio.mp3
AudioLeadIn: 0
PreviewTime: 13632
Countdown: 0
SampleSet: Normal
StackLeniency: 0.7
Mode: 0
LetterboxInBreaks: 0
WidescreenStoryboard: 1

[Editor]
DistanceSpacing: 1.8
BeatDivisor: 4
GridSize: 16
TimelineZoom: 1

[Metadata]
Title:Sur tes pas
TitleUnicode:Sur tes pas
Artist:Sebastien Pintiaux
ArtistUnicode:Sebastien Pintiaux
Creator:pacsu
Version:Insane
Source:wakfu
Tags:yugo Caroline Szatapski nasobol90 helium
BeatmapID:1390430
BeatmapSetID:648401

[Difficulty]
HPDrainRate:6
CircleSize:4
OverallDifficulty:6
ApproachRate:9.2
SliderMultiplier:2.2
SliderTickRate:1

[Events]
//Background and Video events
0,0,"wakfu__yugo_by_lanmana-d74uv5m.jpg",0,0
//Break Periods
//Storyboard Layer 0 (Background)
//Storyboard Layer 1 (Fail)
//Storyboard Layer 2 (Pass)
//Storyboard Layer 3 (Foreground)
//Storyboard Sound Samples

[TimingPoints]
582,600,4,2,0,30,1,0
1782,-200,4,2,0,15,0,0
4032,-200,4,2,0,5,0,0
4182,-133.333333333333,4,2,0,20,0,0
6432,-133.333333333333,4,2,0,5,0,0
6582,-100,4,2,0,25,0,0
8832,-100,4,2,0,5,0,0
8982,-100,4,1,0,30,0,0
9582,-90.9090909090909,4,1,0,30,0,0
10182,-83.3333333333333,4,1,0,30,0,0
10782,-76.9230769230769,4,1,0,30,0,0
11382,-71.4285714285714,4,1,0,30,0,0
12582,-80,4,1,0,30,0,0
17532,-66.6666666666667,4,1,0,30,0,0
19782,-66.6666666666667,4,1,0,30,0,0
30732,-71.4285714285714,4,1,0,30,0,0
31332,-62.5,4,1,0,30,0,0
32982,-66.6666666666667,4,1,0,30,0,0
33732,-80,4,1,0,30,0,0
36432,-50,4,1,0,30,0,0
37482,-80,4,1,0,30,0,0
40782,-66.6666666666667,4,1,0,30,0,0
42582,-80,4,1,0,30,0,0
47382,-66.6666666666667,4,1,0,30,0,1
54582,-172.413793103448,4,1,0,30,0,0

[Colours]
Combo1 : 250,146,5
Combo2 : 21,181,234
Combo3 : 120,196,17

[HitObjects]
182,184,1782,5,0,0:0:0:0:
363,252,2382,1,0,0:0:0:0:
363,252,2982,2,0,L|165:178,1,192.5
97,152,4182,5,0,0:0:0:0:
331,87,4782,1,0,0:0:0:0:
331,87,5382,2,0,P|190:57|96:152,1,288.750011014939
235,201,6582,5,0,0:0:0:0:
405,234,7182,1,0,0:0:0:0:
405,234,7782,2,0,B|384:320|384:320|281:359|281:359|215:289|215:289|239:179,1,385
355,22,8982,6,0,L|334:118,1,55
402,175,9282,2,0,L|414:120,1,55
314,182,9582,6,0,L|294:278,1,60.5000018463135
380,363,9882,2,0,L|393:303,1,60.5000018463135
336,107,10182,6,0,L|238:85,1,65.9999979858399
152,197,10482,2,0,L|216:213,1,65.9999979858399
166,65,10782,6,0,L|67:44,1,71.4999967269899
57,213,11082,2,0,L|124:230,1,71.4999967269899
166,65,11382,5,0,0:0:0:0:
127,231,11532,1,0,0:0:0:0:
256,181,11682,2,0,P|282:166|310:103,1,76.9999976501466
230,107,11982,1,0,0:0:0:0:
392,138,12132,1,0,0:0:0:0:
266,264,12282,2,0,P|223:255|186:221,1,76.9999976501466
182,49,12582,6,0,B|135:176|135:176|77:230,1,206.25
47,121,13182,1,0,0:0:0:0:
195,253,13332,1,0,0:0:0:0:
365,250,13782,6,0,B|270:197|270:197|252:90,1,206.25
281,291,14382,1,0,0:0:0:0:
345,142,14532,2,0,P|407:114|480:138,1,137.5
416,208,14982,1,0,0:0:0:0:
96,208,15282,1,0,0:0:0:0:
416,208,15582,1,0,0:0:0:0:
188,209,15732,2,0,L|334:209,1,137.5
423,242,16182,6,0,B|423:307|423:307|485:360,1,137.5
503,267,16632,1,0,0:0:0:0:
390,381,16782,1,0,0:0:0:0:
334,253,16932,2,0,P|339:215|364:171,1,68.75
414,120,17232,1,0,0:0:0:0:
242,111,17382,1,0,0:0:0:0:
423,242,17532,2,0,L|493:194,1,82.5000031471254
242,111,17832,1,0,0:0:0:0:
246,309,17982,2,0,L|359:317,1,82.5000031471254
163,108,18432,5,0,0:0:0:0:
196,176,18582,2,0,B|237:195|237:195|353:154,1,165.000006294251
423,122,19032,1,0,0:0:0:0:
242,111,19182,1,0,0:0:0:0:
395,215,19332,2,0,P|435:232|475:278,1,82.5000031471254
372,315,19632,1,0,0:0:0:0:
292,244,19782,6,0,L|115:244,1,165.000006294251
45,168,20232,2,0,L|224:168,1,165.000006294251
372,168,20682,2,0,P|424:137|358:74,1,165.000006294251
289,170,21132,2,0,P|319:231|414:239,1,165.000006294251
372,166,21582,2,0,L|312:329,1,165.000006294251
299,368,22032,5,0,0:0:0:0:
449,264,22182,1,0,0:0:0:0:
209,274,22332,1,0,0:0:0:0:
181,282,22407,1,0,0:0:0:0:
153,289,22482,1,0,0:0:0:0:
133,148,22632,5,0,0:0:0:0:
304,226,22782,1,0,0:0:0:0:
192,88,22932,1,0,0:0:0:0:
356,287,23082,2,0,P|317:304|260:292,1,82.5000031471254
349,107,23382,6,0,P|424:148|414:230,1,165.000006294251
356,287,23832,1,0,0:0:0:0:
357,182,23982,1,0,0:0:0:0:
236,328,24132,2,0,P|188:320|154:270,1,82.5000031471254
258,73,24582,5,0,0:0:0:0:
227,252,24882,1,0,0:0:0:0:
86,103,25182,2,0,P|137:72|172:71,1,82.5000031471254
75,188,25482,2,0,P|38:175|8:137,1,82.5000031471254
227,252,25782,6,0,L|228:70,1,165.000006294251
155,89,26232,1,0,0:0:0:0:
298,154,26382,1,0,0:0:0:0:
155,247,26532,1,0,0:0:0:0:
295,313,26682,2,0,P|355:336|413:318,1,82.5000031471254
363,221,26982,5,0,0:0:0:0:
363,221,27132,2,0,P|336:181|287:147,2,82.5000031471254
272,243,27582,2,0,B|220:214|219:148|219:148|178:119,1,165.000006294251
119,80,28032,1,0,0:0:0:0:
311,160,28182,6,0,P|390:169|468:102,1,165.000006294251
364,74,28632,1,0,0:0:0:0:
407,249,28782,2,0,P|390:297|272:368,1,165.000006294251
51,226,29382,2,0,P|86:152|156:111,1,165.000006294251
333,226,29982,5,0,0:0:0:0:
282,69,30132,2,0,B|271:156|259:191|259:191|246:175|236:119,1,165.000006294251
194,67,30582,1,0,0:0:0:0:
282,69,30732,2,0,B|368:79|368:79|444:176,1,153.999995300293
453,195,31182,1,0,0:0:0:0:
409,132,31332,2,0,B|360:194|360:194|261:204,1,176
182,218,31782,5,0,0:0:0:0:
248,275,31932,1,0,0:0:0:0:
137,330,32082,1,0,0:0:0:0:
20,222,32232,1,0,0:0:0:0:
99,43,32382,1,0,0:0:0:0:
274,115,32532,1,0,0:0:0:0:
81,138,32682,1,0,0:0:0:0:
261,207,32832,1,0,0:0:0:0:
81,236,32982,6,0,P|-12:147|45:47,1,247.500009441376
189,115,33582,1,0,0:0:0:0:
131,45,33732,2,0,B|102:18|102:18|103:168,1,137.5
103,200,34182,1,0,0:0:0:0:
189,115,34482,5,0,0:0:0:0:
249,260,34782,2,0,P|282:281|338:291,1,68.75
260,89,35082,2,0,P|234:55|181:37,1,68.75
318,197,35382,2,0,B|382:149|382:149|399:79,1,137.5
401,17,35832,1,0,0:0:0:0:
459,141,35982,2,0,L|476:275,1,68.75
220,147,36432,5,0,0:0:0:0:
146,210,36582,1,0,0:0:0:0:
296,81,36732,2,0,B|336:81|336:81|375:75|375:75|417:76,1,110
401,274,37032,1,0,0:0:0:0:
146,210,37182,2,0,B|106:210|106:210|67:204|67:204|25:205,1,110
220,147,37482,1,0,0:0:0:0:
200,338,37632,1,0,0:0:0:0:
146,210,37782,6,0,P|207:242|310:198,1,137.5
409,142,38382,1,0,0:0:0:0:
220,147,38532,1,0,0:0:0:0:
289,74,38982,6,0,P|319:146|283:224,1,137.5
234,273,39432,1,0,0:0:0:0:
234,273,39582,2,0,P|203:200|240:123,1,137.5
286,75,40032,1,0,0:0:0:0:
286,75,40182,2,0,L|86:68,1,137.5
29,227,40782,6,0,L|102:185,1,82.5000031471254
148,70,41082,1,0,0:0:0:0:
240,143,41232,2,0,L|293:63,1,82.5000031471254
308,286,41532,5,0,0:0:0:0:
314,249,41607,1,0,0:0:0:0:
319,212,41682,1,0,0:0:0:0:
172,300,41832,1,0,0:0:0:0:
240,143,41982,1,0,0:0:0:0:
87,224,42132,1,0,0:0:0:0:
82,50,42282,1,0,0:0:0:0:
21,137,42432,1,0,0:0:0:0:
189,57,42582,6,0,P|255:48|335:93,1,137.5
382,138,43032,1,0,0:0:0:0:
240,143,43182,1,0,0:0:0:0:
332,234,43332,2,0,P|379:250|470:206,1,137.5
382,138,43782,5,0,0:0:0:0:
332,234,43932,2,0,L|298:341,1,68.75
264,146,44232,1,0,0:0:0:0:
213,245,44382,2,0,L|179:352,1,68.75
163,384,44682,5,0,0:0:0:0:
275,310,44832,1,0,0:0:0:0:
129,253,44982,2,0,P|84:188|101:126,1,137.5
163,77,45432,1,0,0:0:0:0:
249,53,45582,1,0,0:0:0:0:
333,80,45732,2,0,P|364:109|327:228,1,137.5
295,153,46182,1,0,0:0:0:0:
110,57,46482,5,0,0:0:0:0:
207,57,46632,1,0,0:0:0:0:
81,184,46782,2,0,L|-11:184,2,68.75
99,326,47382,6,0,L|285:269,1,165.000006294251
220,322,47832,6,0,L|406:265,1,165.000006294251
321,258,48282,6,0,L|507:201,1,165.000006294251
469,299,48732,1,0,0:0:0:0:
344,164,48882,1,0,0:0:0:0:
479,209,49032,1,0,0:0:0:0:
321,258,49182,2,0,L|228:226,1,82.5000031471254
151,93,49482,2,0,L|244:125,1,82.5000031471254
451,73,49782,6,0,L|451:297,1,165.000006294251
375,161,50232,6,0,L|216:319,1,165.000006294251
258,169,50682,6,0,L|40:169,1,165.000006294251
263,82,51132,2,0,P|310:100|339:140,1,82.5000031471254
206,240,51432,1,0,0:0:0:0:
443,264,51582,5,0,0:0:0:0:
337,249,51732,1,0,0:0:0:0:
442,222,51882,1,0,0:0:0:0:
337,207,52032,1,0,0:0:0:0:
440,133,52182,6,0,L|258:95,1,165.000006294251
278,99,52632,6,0,L|198:272,1,165.000006294251
208,248,53082,6,0,L|109:227,1,82.5000031471254
51,209,53382,1,0,0:0:0:0:
204,248,53532,5,0,0:0:0:0:
174,208,53832,1,0,0:0:0:0:
147,166,54132,1,0,0:0:0:0:
122,123,54432,1,0,0:0:0:0:
361,244,54582,1,0,0:0:0:0:
256,192,54732,12,0,58182,0:0:0:0:
