osu file format v14

[General]
AudioFilename: audio.mp3
AudioLeadIn: 0
PreviewTime: 13693
Countdown: 0
SampleSet: Soft
StackLeniency: 0.7
Mode: 0
LetterboxInBreaks: 0
WidescreenStoryboard: 0

[Editor]
Bookmarks: 18118
DistanceSpacing: 1.8
BeatDivisor: 8
GridSize: 32
TimelineZoom: 1.5

[Metadata]
Title:Sur tes pas
TitleUnicode:Sur tes pas
Artist:Sebastien Pintiaux & Caroline Szatapski
ArtistUnicode:Sébastien Pintiaux & Caroline Szatapski
Creator:Sotarks
Version:Insane
Source:Wakfu
Tags:ankama studio games op opening generique générique theme
BeatmapID:1454625
BeatmapSetID:687432

[Difficulty]
HPDrainRate:5.7
CircleSize:3.8
OverallDifficulty:8
ApproachRate:9
SliderMultiplier:2.72
SliderTickRate:1

[Events]
//Background and Video events
0,0,"BG.jpg",0,0
Video,0,"sur-tes-pas.avi"
//Break Periods
//Storyboard Layer 0 (Background)
//Storyboard Layer 1 (Fail)
//Storyboard Layer 2 (Pass)
//Storyboard Layer 3 (Foreground)
//Storyboard Sound Samples

[TimingPoints]
13768,600,4,2,22,52,1,0
13768,-98.0392156862745,4,2,22,52,0,0
30568,-98.0392156862745,4,2,22,62,0,0
30718,-81.9672131147541,4,2,22,72,0,0
31318,-70.4225352112676,4,2,22,72,0,0
32968,-54.9450549450549,4,2,22,82,0,0
33043,-54.9450549450549,4,2,22,62,0,0
33568,-81.9672131147541,4,2,22,62,0,0
40168,-70.4225352112676,4,2,22,62,0,0
47368,-65.7894736842105,4,2,22,62,0,0
47743,-65.7894736842105,4,2,22,5,0,0
47818,-61.7283950617284,4,2,22,52,0,0
48193,-61.7283950617284,4,2,22,5,0,0
48268,-58.1395348837209,4,2,22,52,0,0
48643,-58.1395348837209,4,2,22,5,0,0
48718,-58.1395348837209,4,2,22,52,0,0
49768,-65.7894736842105,4,2,22,52,0,0
50143,-65.7894736842105,4,2,22,5,0,0
50218,-65.7894736842105,4,2,22,52,0,0
50368,-61.7283950617284,4,2,22,52,0,0
50593,-61.7283950617284,4,2,22,5,0,0
50668,-61.7283950617284,4,2,22,52,0,0
50818,-58.1395348837209,4,2,22,52,0,0
51043,-58.1395348837209,4,2,22,5,0,0
51118,-58.1395348837209,4,2,22,52,0,0
54568,-192.307692307692,4,2,22,52,0,0
58168,-192.307692307692,4,2,22,12,0,0

[Colours]
Combo1 : 242,203,85
Combo2 : 169,135,54
Combo3 : 236,254,18
Combo4 : 107,172,60

[HitObjects]
199,118,13768,6,0,L|414:152,1,208.08000127002,4|0,1:0|1:0,0:0:0:0:
182,199,14368,1,8,0:0:0:0:
328,68,14518,2,0,L|338:227,1,138.72000084668,0|0,1:0|0:0,0:0:0:0:
253,352,14968,6,0,L|248:269,1,69.3600004233398,2|0,1:0|0:0,0:0:0:0:
257,135,15268,2,0,L|262:218,1,69.3600004233398,2|0,1:0|0:0,0:0:0:0:
340,353,15568,1,10,0:0:0:0:
126,269,15718,2,0,B|166:243|166:243|259:288,1,138.72000084668,2|2,1:0|1:0,0:0:0:0:
6,343,16168,6,0,P|-13:283|2:134,1,208.08000127002,6|0,1:0|0:0,0:0:0:0:
201,55,16768,1,8,0:0:0:0:
99,223,16918,2,0,P|133:182|234:163,1,138.72000084668,0|0,1:0|1:0,0:0:0:0:
375,309,17368,6,0,P|321:297|291:271,1,69.3600004233398,2|8,1:0|0:0,0:0:0:0:
309,148,17668,1,2,1:0:0:0:
224,320,17818,2,0,P|193:335|158:339,1,69.3600004233398,2|8,1:0|0:0,0:0:0:0:
369,221,18118,2,0,P|399:205|434:201,1,69.3600004233398,2|0,1:0|0:0,0:0:0:0:
234,189,18418,1,2,1:0:0:0:
360,13,18568,6,0,L|369:233,1,208.08000127002,6|0,1:0|1:0,0:0:0:0:
265,101,19168,1,8,0:0:0:0:
83,318,19318,2,0,P|36:283|53:186,1,138.72000084668,0|0,1:0|1:0,0:0:0:0:
211,303,19768,6,0,P|270:288|296:266,1,69.3600004233398,2|0,1:0|0:0,0:0:0:0:
109,240,20068,1,0,1:0:0:0:
269,190,20218,2,0,P|328:205|354:227,1,69.3600004233398,2|8,1:0|0:0,0:0:0:0:
192,210,20518,1,0,1:0:0:0:
354,293,20668,2,0,P|413:278|439:256,1,69.3600004233398,2|0,0:0|1:0,0:0:0:0:
413,85,20968,5,4,1:0:0:0:
334,209,21118,2,0,P|335:150|413:86,1,138.72000084668,2|0,0:0|1:0,0:0:0:0:
247,233,21568,2,0,P|194:234|167:217,1,69.3600004233398,10|0,0:0|1:0,0:0:0:0:
112,72,21868,1,0,1:0:0:0:
112,286,22018,2,0,P|91:242|94:202,1,69.3600004233398,8|0,0:0|1:0,0:0:0:0:
228,115,22318,6,0,P|224:161|219:178,2,34.6800002116699,8|8|0,0:0|0:0|1:0,0:0:0:0:
100,147,22618,1,8,0:0:0:0:
214,32,22768,1,0,1:0:0:0:
322,89,22918,1,8,3:0:0:0:
228,115,23068,1,4,3:0:0:0:
333,177,23218,1,4,3:0:0:0:
424,12,23368,6,0,P|368:26|318:114,1,138.72000084668,6|0,1:0|0:0,0:0:0:0:
348,258,23818,1,0,0:0:0:0:
418,110,23968,1,8,0:0:0:0:
385,323,24118,2,0,P|331:331|275:257,1,138.72000084668,0|0,1:0|1:0,0:0:0:0:
162,99,24568,6,0,P|216:135|227:166,1,69.3600004233398,2|0,1:0|0:0,0:0:0:0:
181,290,24868,1,2,1:0:0:0:
278,75,25018,2,0,P|301:135|292:167,1,69.3600004233398,2|8,0:0|0:0,0:0:0:0:
276,274,25318,2,0,P|305:229|404:230,1,138.72000084668,2|2,1:0|1:0,0:0:0:0:
172,383,25768,6,0,L|18:352,1,138.72000084668,6|0,1:0|1:0,0:0:0:0:
142,221,26218,1,0,1:0:0:0:
272,363,26368,1,8,0:0:0:0:
228,127,26518,2,0,L|233:289,1,138.72000084668,0|0,1:0|1:0,0:0:0:0:
313,100,26968,6,0,P|371:90|396:90,1,69.3600004233398,2|8,1:0|0:0,0:0:0:0:
163,66,27268,2,0,P|105:56|80:56,1,69.3600004233398,2|0,1:0|1:0,0:0:0:0:
299,16,27568,1,10,0:0:0:0:
331,186,27718,2,0,L|327:336,1,138.72000084668,2|2,1:0|1:0,0:0:0:0:
115,136,28168,6,0,P|45:152|52:291,1,208.08000127002,6|0,1:0|1:0,0:0:0:0:
196,313,28768,1,8,0:0:0:0:
282,117,28918,2,0,P|346:102|405:152,1,138.72000084668,0|0,1:0|1:0,0:0:0:0:
384,354,29368,6,0,P|352:310|353:274,1,69.3600004233398,2|0,1:0|1:0,0:0:0:0:
332,182,29668,1,2,1:0:0:0:
435,286,29818,1,10,3:0:0:0:
271,287,29968,1,8,0:0:0:0:
451,246,30118,1,0,1:0:0:0:
316,153,30268,2,0,L|223:146,1,69.3600004233398,6|4,3:0|3:0,0:0:0:0:
59,312,30568,5,10,0:0:0:0:
105,85,30718,2,0,P|63:130|50:244,1,165.919993164307,4|0,1:0|0:0,0:0:0:0:
218,58,31168,5,10,0:0:0:0:
486,124,31318,2,0,L|295:82,1,193.119990275635,4|0,1:0|0:0,0:0:0:0:
395,298,31768,5,10,0:0:0:0:
316,170,31918,2,0,L|247:152,2,48.2799975689088,8|8|8,0:0|0:0|0:0,0:0:0:0:
443,211,32218,1,8,0:0:0:0:
294,256,32368,1,10,0:0:0:0:
460,204,32518,1,8,3:0:0:0:
396,328,32668,2,0,L|369:230,1,96.5599951378176,4|4,3:0|3:0,0:0:0:0:
99,308,32968,6,0,B|69:164|184:207|139:43|139:43|151:102|91:152,1,371.280012463623,6|0,1:0|0:0,0:0:0:0:
190,266,33568,1,8,0:0:0:0:
388,84,33718,2,0,L|187:63,1,165.919993164307,0|0,1:0|1:0,0:0:0:0:
278,281,34168,6,0,P|265:218|231:188,1,82.9599965821535,2|0,1:0|0:0,0:0:0:0:
115,128,34468,1,2,1:0:0:0:
117,299,34618,2,0,P|180:276|200:251,1,82.9599965821535,2|8,0:0|0:0,0:0:0:0:
261,123,34918,2,0,P|198:146|178:171,1,82.9599965821535,2|0,1:0|0:0,0:0:0:0:
278,281,35218,1,2,1:0:0:0:
341,43,35368,6,0,B|345:167|345:167|315:230,1,165.919993164307,6|0,1:0|0:0,0:0:0:0:
427,92,35818,1,0,1:0:0:0:
261,123,35968,1,8,0:0:0:0:
445,211,36118,2,0,P|482:266|430:346,1,165.919993164307,0|0,1:0|1:0,0:0:0:0:
244,273,36568,6,0,P|303:283|335:309,1,82.9599965821535,2|8,1:0|0:0,0:0:0:0:
166,236,36868,1,2,1:0:0:0:
367,172,37018,2,0,P|325:174|289:194,1,82.9599965821535,2|8,1:0|0:0,0:0:0:0:
444,92,37318,2,0,P|407:72|366:69,1,82.9599965821535,2|0,1:0|0:0,0:0:0:0:
457,179,37618,1,2,1:0:0:0:
246,41,37768,6,0,P|278:85|288:117,1,82.9599965821535,6|0,1:0|0:0,0:0:0:0:
304,331,38068,2,0,P|319:292|344:260,1,82.9599965821535,0|0,1:0|0:0,0:0:0:0:
212,155,38368,1,8,0:0:0:0:
128,342,38518,2,0,P|128:288|66:175,1,165.919993164307,0|0,1:0|1:0,0:0:0:0:
297,244,38968,6,0,P|353:229|392:202,1,82.9599965821535,2|0,1:0|1:0,0:0:0:0:
267,91,39268,1,2,0:0:0:0:
115,164,39418,2,0,P|59:149|20:122,1,82.9599965821535,0|10,1:0|0:0,0:0:0:0:
192,35,39718,1,0,1:0:0:0:
366,125,39868,2,0,P|422:110|461:83,1,82.9599965821535,2|0,0:0|1:0,0:0:0:0:
206,158,40168,6,0,L|198:354,1,193.119990275635,6|0,1:0|0:0,0:0:0:0:
299,208,40618,1,0,0:0:0:0:
395,351,40768,1,14,0:0:0:0:
377,182,40918,2,0,P|339:132|297:127,1,96.5599951378176,0|0,1:0|1:0,0:0:0:0:
387,266,41218,1,8,0:0:0:0:
232,102,41368,6,0,P|270:52|312:47,1,96.5599951378176,6|8,1:0|0:0,0:0:0:0:
300,45,41593,1,8,0:0:0:0:
300,45,41668,1,0,1:0:0:0:
298,213,41818,1,8,0:0:0:0:
150,142,41968,2,0,P|148:83|162:22,1,96.5599951378176,0|0,1:0|3:0,0:0:0:0:
213,234,42268,2,0,P|220:281|217:329,1,96.5599951378176,4|4,3:0|3:0,0:0:0:0:
14,199,42568,6,0,L|315:168,1,289.679985413453,6|0,1:0|0:0,0:0:0:0:
478,260,43168,1,8,0:0:0:0:
316,93,43318,2,0,P|373:138|319:249,1,193.119990275635,0|0,1:0|1:0,0:0:0:0:
106,101,43768,6,0,L|230:81,1,96.5599951378176,2|8,1:0|0:0,0:0:0:0:
302,169,44068,1,2,0:0:0:0:
47,179,44218,2,0,L|142:194,1,96.5599951378176,2|8,1:0|0:0,0:0:0:0:
316,93,44518,1,2,1:0:0:0:
316,93,44818,1,2,1:0:0:0:
319,353,44968,6,0,B|349:250|264:273|302:167,1,193.119990275635,6|0,1:0|0:0,0:0:0:0:
242,315,45418,1,0,1:0:0:0:
386,209,45568,2,0,P|471:212|405:278,1,193.119990275635,8|0,0:0|1:0,0:0:0:0:
301,168,46018,1,0,1:0:0:0:
242,315,46168,6,0,L|126:300,1,96.5599951378176,2|0,1:0|0:0,0:0:0:0:
220,163,46468,1,2,1:0:0:0:
313,370,46618,2,0,L|429:355,1,96.5599951378176,2|8,1:0|0:0,0:0:0:0:
360,184,46918,2,0,B|339:139|339:139|346:283,1,193.119990275635,0|0,1:0|1:0,0:0:0:0:
259,158,47368,6,0,P|301:66|419:150,1,258.399996845703,6|0,1:0|0:0,0:0:0:0:
339,141,47818,2,0,L|59:123,1,275.400006723633,6|0,1:0|0:0,0:0:0:0:
128,56,48268,2,0,B|221:173|46:195|131:348,1,292.40000446167,6|0,1:0|0:0,0:0:0:0:
188,266,48718,6,0,P|249:247|310:275,1,116.960001784668,8|0,3:0|1:0,0:0:0:0:
431,357,49018,1,0,1:0:0:0:
245,342,49168,5,8,3:0:0:0:
403,85,49468,5,4,3:0:0:0:
96,207,49768,5,14,1:2:0:0:
35,130,49918,2,0,L|209:116,1,155.039998107422,0|0,1:0|0:0,0:0:0:0:
242,192,50218,5,14,0:2:0:0:
319,103,50368,2,0,P|291:173|313:276,1,165.24000403418,0|0,1:0|0:0,0:0:0:0:
345,339,50668,5,14,0:2:0:0:
479,271,50818,2,0,L|286:258,1,175.440002677002,0|0,1:0|0:0,0:0:0:0:
229,309,51118,6,0,P|157:320|105:279,1,116.960001784668,8|8,0:0|0:0,0:0:0:0:
39,183,51418,1,0,1:0:0:0:
182,231,51568,1,8,0:0:0:0:
35,272,51718,1,0,1:0:0:0:
126,151,51868,1,8,0:0:0:0:
121,299,52018,1,0,1:0:0:0:
77,86,52168,6,0,P|147:69|191:100,1,116.960001784668,10|0,3:0|1:0,0:0:0:0:
126,151,52468,1,0,1:0:0:0:
219,17,52618,6,0,P|265:71|258:124,1,116.960001784668,10|0,3:0|1:0,0:0:0:0:
182,89,52918,1,0,1:0:0:0:
344,107,53068,6,0,P|322:175|273:197,1,116.960001784668,10|0,3:0|1:0,0:0:0:0:
263,113,53368,1,2,1:0:0:0:
428,96,53518,5,8,0:0:0:0:
208,246,53818,1,10,3:0:0:0:
60,37,54118,1,6,3:0:0:0:
142,306,54418,1,2,1:0:0:0:
267,190,54568,5,4,1:0:0:0:
256,192,54643,12,0,58168,0:0:0:0:
