osu file format v14

[General]
AudioFilename: audio.mp3
AudioLeadIn: 0
PreviewTime: 13693
Countdown: 0
SampleSet: Soft
StackLeniency: 0.7
Mode: 0
LetterboxInBreaks: 0
WidescreenStoryboard: 0

[Editor]
DistanceSpacing: 1.8
BeatDivisor: 4
GridSize: 32
TimelineZoom: 1.5

[Metadata]
Title:Sur tes pas
TitleUnicode:Sur tes pas
Artist:Sebastien Pintiaux & Caroline Szatapski
ArtistUnicode:Sébastien Pintiaux & Caroline Szatapski
Creator:Sotarks
Version:Hard
Source:Wakfu
Tags:ankama studio games op opening generique générique theme
BeatmapID:1454624
BeatmapSetID:687432

[Difficulty]
HPDrainRate:5
CircleSize:3.7
OverallDifficulty:7
ApproachRate:7.5
SliderMultiplier:2.02
SliderTickRate:1

[Events]
//Background and Video events
0,0,"BG.jpg",0,0
Video,0,"sur-tes-pas.avi"
//Break Periods
//Storyboard Layer 0 (Background)
//Storyboard Layer 1 (Fail)
//Storyboard Layer 2 (Pass)
//Storyboard Layer 3 (Foreground)
//Storyboard Sound Samples

[TimingPoints]
13768,600,4,2,22,52,1,0
13768,-98.0392156862745,4,2,22,52,0,0
30568,-98.0392156862745,4,2,22,62,0,0
30718,-81.9672131147541,4,2,22,72,0,0
31318,-70.4225352112676,4,2,22,72,0,0
32968,-81.9672131147541,4,2,22,82,0,0
33043,-81.9672131147541,4,2,22,62,0,0
33568,-81.9672131147541,4,2,22,62,0,0
40168,-70.4225352112676,4,2,22,62,0,0
47368,-65.7894736842105,4,2,22,62,0,0
47743,-65.7894736842105,4,2,22,5,0,0
47818,-61.7283950617284,4,2,22,52,0,0
48193,-61.7283950617284,4,2,22,5,0,0
48268,-58.1395348837209,4,2,22,52,0,0
48643,-58.1395348837209,4,2,22,5,0,0
48718,-58.1395348837209,4,2,22,52,0,0
49768,-65.7894736842105,4,2,22,52,0,0
50143,-65.7894736842105,4,2,22,5,0,0
50218,-65.7894736842105,4,2,22,52,0,0
50368,-61.7283950617284,4,2,22,52,0,0
50593,-61.7283950617284,4,2,22,5,0,0
50668,-61.7283950617284,4,2,22,52,0,0
50818,-58.1395348837209,4,2,22,52,0,0
51043,-58.1395348837209,4,2,22,5,0,0
51118,-58.1395348837209,4,2,22,52,0,0
54568,-192.307692307692,4,2,22,52,0,0
58168,-192.307692307692,4,2,22,12,0,0

[Colours]
Combo1 : 242,203,85
Combo2 : 169,135,54
Combo3 : 236,254,18
Combo4 : 107,172,60

[HitObjects]
134,132,13768,6,0,B|224:122|187:180|312:158,1,154.530000943176,4|0,1:0|1:0,0:0:0:0:
404,118,14368,1,8,0:0:0:0:
404,118,14518,2,0,P|392:180|395:257,1,103.020000628784,0|0,1:0|0:0,0:0:0:0:
235,250,14968,6,0,P|176:238|145:236,1,51.5100003143921,2|0,1:0|0:0,0:0:0:0:
156,152,15268,2,0,P|97:164|66:166,1,51.5100003143921,2|0,1:0|0:0,0:0:0:0:
0,110,15568,1,10,0:0:0:0:
31,203,15718,2,0,L|49:334,1,103.020000628784,2|2,1:0|1:0,0:0:0:0:
187,350,16168,6,0,P|255:367|344:367,1,154.530000943176,6|0,1:0|0:0,0:0:0:0:
375,261,16768,1,8,0:0:0:0:
375,261,16918,2,0,L|391:111,1,103.020000628784,0|0,1:0|1:0,0:0:0:0:
274,92,17368,5,2,1:0:0:0:
347,36,17518,2,0,P|372:32|398:30,2,51.5100003143921,8|2|2,0:0|1:0|1:0,0:0:0:0:
225,52,17968,1,8,0:0:0:0:
304,120,18118,2,0,P|275:182|268:256,1,103.020000628784,2|2,1:0|1:0,0:0:0:0:
396,281,18568,6,0,B|310:262|338:325|244:309,1,154.530000943176,6|0,1:0|1:0,0:0:0:0:
121,292,19168,1,8,0:0:0:0:
121,292,19318,2,0,P|101:230|124:183,1,103.020000628784,0|0,1:0|1:0,0:0:0:0:
164,89,19768,6,0,B|233:115|233:115|300:91,1,103.020000628784,2|0,1:0|1:0,0:0:0:0:
342,70,20218,1,2,1:0:0:0:
443,143,20368,2,0,P|384:150|353:160,1,51.5100003143921,8|0,0:0|1:0,0:0:0:0:
331,220,20668,2,0,P|390:227|421:237,1,51.5100003143921,2|0,0:0|1:0,0:0:0:0:
366,315,20968,5,4,1:0:0:0:
366,315,21118,2,0,L|235:332,1,103.020000628784,2|0,0:0|1:0,0:0:0:0:
142,281,21568,2,0,P|166:340|169:357,2,51.5100003143921,10|0|0,0:0|1:0|1:0,0:0:0:0:
191,206,22018,2,0,P|199:181|211:159,2,51.5100003143921,8|0|8,0:0|1:0|0:0,0:0:0:0:
137,105,22468,2,0,P|80:97|62:100,1,51.5100003143921,0|8,1:0|0:0,0:0:0:0:
220,75,22768,2,0,P|277:67|295:70,1,51.5100003143921,0|8,1:0|3:0,0:0:0:0:
154,20,23068,2,0,P|97:12|79:15,1,51.5100003143921,4|4,3:0|3:0,0:0:0:0:
324,5,23368,6,0,L|317:183,1,154.530000943176,6|0,1:0|0:0,0:0:0:0:
292,268,23968,1,8,0:0:0:0:
292,268,24118,2,0,P|223:286|186:354,1,103.020000628784,0|0,1:0|1:0,0:0:0:0:
95,288,24568,6,0,L|108:359,1,51.5100003143921,2|0,1:0|0:0,0:0:0:0:
9,285,24868,2,0,L|-4:356,1,51.5100003143921,2|2,1:0|0:0,0:0:0:0:
53,206,25168,1,8,0:0:0:0:
1,133,25318,2,0,P|57:112|108:139,1,103.020000628784,2|2,1:0|1:0,0:0:0:0:
207,217,25768,6,0,B|298:234|266:165|379:197,1,154.530000943176,6|0,1:0|1:0,0:0:0:0:
450,216,26368,1,8,0:0:0:0:
450,216,26518,2,0,P|448:147|456:70,1,103.020000628784,0|0,1:0|1:0,0:0:0:0:
344,103,26968,5,2,1:0:0:0:
334,18,27118,2,0,P|389:6|406:-1,2,51.5100003143921,8|2|0,0:0|1:0|1:0,0:0:0:0:
206,64,27568,1,10,0:0:0:0:
266,135,27718,2,0,P|277:197|254:251,1,103.020000628784,2|2,1:0|1:0,0:0:0:0:
134,300,28168,6,0,B|194:303|194:303|223:330|223:330|290:332,1,154.530000943176,6|0,1:0|1:0,0:0:0:0:
373,267,28768,1,8,0:0:0:0:
373,267,28918,2,0,P|313:257|294:178,1,103.020000628784,0|0,1:0|1:0,0:0:0:0:
355,137,29368,6,0,L|362:213,1,51.5100003143921,2|0,1:0|1:0,0:0:0:0:
269,143,29668,2,0,L|273:91,1,51.5100003143921,2|10,1:0|3:0,0:0:0:0:
362,42,29968,1,8,0:0:0:0:
270,12,30118,2,0,P|191:21|137:34,1,103.020000628784,0|4,1:0|3:0,0:0:0:0:
149,143,30568,6,0,P|106:99|28:137,1,154.530000943176,10|0,0:0|0:0,0:0:0:0:
120,237,31168,2,0,L|313:212,1,184.829992385239,10|0,0:0|0:0,0:0:0:0:
417,146,31768,6,0,L|409:234,1,71.7099963891146,10|8,0:0|0:0,0:0:0:0:
309,284,32068,2,0,L|302:212,1,71.7099963891146,8|8,0:0|0:0,0:0:0:0:
349,95,32368,2,0,P|418:64|425:66,1,71.7099963891146,10|8,0:0|3:0,0:0:0:0:
476,178,32668,2,0,P|407:147|400:149,1,71.7099963891146,4|4,3:0|3:0,0:0:0:0:
302,212,32968,6,0,B|160:201|160:201|196:266,1,184.829992385239,6|0,1:0|0:0,0:0:0:0:
242,318,33568,1,8,0:0:0:0:
142,335,33718,2,0,P|81:319|44:252,1,123.219994923493,0|0,1:0|1:0,0:0:0:0:
101,126,34168,6,0,P|111:156|118:186,1,61.6099974617463,2|0,1:0|0:0,0:0:0:0:
244,182,34468,2,0,P|250:151|260:122,1,61.6099974617463,2|2,1:0|0:0,0:0:0:0:
385,76,34768,1,8,0:0:0:0:
408,163,34918,2,0,L|395:303,1,123.219994923493,2|2,1:0|1:0,0:0:0:0:
258,359,35368,6,0,B|291:257|208:302|250:156,1,184.829992385239,6|0,1:0|1:0,0:0:0:0:
147,84,35968,1,8,0:0:0:0:
99,166,36118,2,0,P|127:237|128:300,1,123.219994923493,0|0,1:0|1:0,0:0:0:0:
258,359,36568,5,2,1:0:0:0:
163,360,36718,2,0,L|81:372,2,61.6099974617463,8|2|2,0:0|1:0|1:0,0:0:0:0:
269,270,37168,1,8,0:0:0:0:
351,325,37318,2,0,L|365:164,1,123.219994923493,2|2,1:0|1:0,0:0:0:0:
249,126,37768,6,0,P|287:193|292:206,1,61.6099974617463,6|0,1:0|0:0,0:0:0:0:
230,277,38068,2,0,P|215:249|198:224,1,61.6099974617463,0|0,1:0|0:0,0:0:0:0:
77,177,38368,1,8,0:0:0:0:
14,237,38518,2,0,P|-11:168|19:112,1,123.219994923493,0|0,1:0|1:0,0:0:0:0:
123,63,38968,6,0,P|187:60|211:48,1,61.6099974617463,2|0,1:0|1:0,0:0:0:0:
261,117,39268,2,0,P|291:122|321:118,1,61.6099974617463,2|0,0:0|1:0,0:0:0:0:
405,15,39568,1,10,0:0:0:0:
473,76,39718,2,0,L|456:210,1,123.219994923493,0|0,1:0|1:0,0:0:0:0:
512,295,40168,6,0,B|377:288|463:394|278:362,1,215.129989167344,6|0,1:0|0:0,0:0:0:0:
229,281,40768,1,14,0:0:0:0:
229,281,40918,2,0,P|145:271|136:268,1,71.7099963891146,0|0,1:0|1:0,0:0:0:0:
105,184,41218,2,0,P|189:174|198:171,1,71.7099963891146,8|6,0:0|1:0,0:0:0:0:
227,53,41518,1,8,0:0:0:0:
276,125,41668,2,0,L|265:206,1,71.7099963891146,0|8,1:0|0:0,0:0:0:0:
362,248,41968,2,0,L|352:176,1,71.7099963891146,0|0,1:0|3:0,0:0:0:0:
450,125,42268,2,0,L|440:196,1,71.7099963891146,4|4,3:0|3:0,0:0:0:0:
505,321,42568,6,0,B|426:315|426:315|380:339|380:339|293:333,1,215.129989167344,6|0,1:0|0:0,0:0:0:0:
203,246,43168,1,8,0:0:0:0:
289,189,43318,2,0,L|297:355,1,143.419992778229,0|0,1:0|1:0,0:0:0:0:
176,355,43768,5,2,1:0:0:0:
96,304,43918,2,0,P|17:326|10:330,2,71.7099963891146,8|2|2,0:0|0:0|1:0,0:0:0:0:
203,246,44368,1,8,0:0:0:0:
119,191,44518,2,0,P|101:107|111:34,1,143.419992778229,2|2,1:0|1:0,0:0:0:0:
235,90,44968,6,0,P|324:91|441:36,1,215.129989167344,6|0,1:0|1:0,0:0:0:0:
488,149,45568,1,8,0:0:0:0:
488,149,45718,2,0,P|444:229|462:299,1,143.419992778229,0|0,0:0|1:0,0:0:0:0:
380,347,46168,6,0,L|283:330,1,71.7099963891146,2|0,1:0|0:0,0:0:0:0:
250,267,46468,2,0,L|179:279,1,71.7099963891146,2|2,1:0|1:0,0:0:0:0:
77,356,46768,1,8,0:0:0:0:
94,265,46918,2,0,L|67:100,1,143.419992778229,0|0,1:0|1:0,0:0:0:0:
145,49,47368,6,0,P|205:112|344:73,2,230.279997188965,6|6|6,1:0|1:0|1:0,0:0:0:0:
252,225,48718,1,8,3:0:0:0:
252,225,48868,2,0,L|344:234,1,86.8600013253784,0|0,1:0|1:0,0:0:0:0:
417,183,49168,2,0,P|407:96|317:96,1,173.720002650757,8|4,3:0|3:0,0:0:0:0:
127,169,49768,6,0,B|269:149|217:252|369:231,2,230.279997188965,14|14|14,1:2|0:2|0:2,0:0:0:0:
235,331,51118,1,8,0:0:0:0:
235,331,51268,2,0,P|324:321|331:319,1,86.8600013253784,8|0,0:0|1:0,0:0:0:0:
339,233,51568,2,0,P|250:223|243:221,1,86.8600013253784,8|0,0:0|1:0,0:0:0:0:
222,137,51868,2,0,P|311:127|318:125,1,86.8600013253784,8|0,0:0|1:0,0:0:0:0:
374,46,52168,6,0,P|350:141|369:230,1,173.720002650757,10|0,3:0|1:0,0:0:0:0:
448,134,52618,2,0,P|471:216|459:302,1,173.720002650757,10|0,3:0|1:0,0:0:0:0:
376,361,53068,2,0,P|281:344|268:336,1,86.8600013253784,10|0,3:0|1:0,0:0:0:0:
222,231,53368,5,2,1:0:0:0:
180,320,53518,2,0,L|-13:351,2,173.720002650757,8|10|6,0:0|3:0|3:0,0:0:0:0:
260,148,54418,1,2,1:0:0:0:
309,232,54568,5,4,1:0:0:0:
256,192,54718,12,0,58168,0:0:0:0:
