osu file format v14

[General]
AudioFilename: audio.mp3
AudioLeadIn: 0
PreviewTime: 13693
Countdown: 0
SampleSet: Soft
StackLeniency: 0.7
Mode: 0
LetterboxInBreaks: 0
WidescreenStoryboard: 0

[Editor]
DistanceSpacing: 1.8
BeatDivisor: 8
GridSize: 32
TimelineZoom: 1.5

[Metadata]
Title:Sur tes pas
TitleUnicode:Sur tes pas
Artist:Sebastien Pintiaux & Caroline Szatapski
ArtistUnicode:Sébastien Pintiaux & Caroline Szatapski
Creator:Sotarks
Version:Expert
Source:Wakfu
Tags:ankama studio games op opening generique générique theme
BeatmapID:1454623
BeatmapSetID:687432

[Difficulty]
HPDrainRate:6
CircleSize:3.1
OverallDifficulty:8.5
ApproachRate:9
SliderMultiplier:2.72
SliderTickRate:1

[Events]
//Background and Video events
0,0,"BG.jpg",0,0
Video,0,"sur-tes-pas.avi"
//Break Periods
//Storyboard Layer 0 (Background)
//Storyboard Layer 1 (Fail)
//Storyboard Layer 2 (Pass)
//Storyboard Layer 3 (Foreground)
//Storyboard Sound Samples

[TimingPoints]
13768,600,4,2,22,52,1,0
13768,-98.0392156862745,4,2,22,52,0,0
30568,-98.0392156862745,4,2,22,62,0,0
30718,-81.9672131147541,4,2,22,72,0,0
31318,-70.4225352112676,4,2,22,72,0,0
32968,-54.9450549450549,4,2,22,82,0,0
33043,-54.9450549450549,4,2,22,62,0,0
33568,-81.9672131147541,4,2,22,62,0,0
40168,-70.4225352112676,4,2,22,62,0,0
47368,-65.7894736842105,4,2,22,62,0,0
47743,-65.7894736842105,4,2,22,5,0,0
47818,-61.7283950617284,4,2,22,52,0,0
48193,-61.7283950617284,4,2,22,5,0,0
48268,-58.1395348837209,4,2,22,52,0,0
48643,-58.1395348837209,4,2,22,5,0,0
48718,-58.1395348837209,4,2,22,52,0,0
49768,-65.7894736842105,4,2,22,52,0,0
50143,-65.7894736842105,4,2,22,5,0,0
50218,-65.7894736842105,4,2,22,52,0,0
50368,-61.7283950617284,4,2,22,52,0,0
50593,-61.7283950617284,4,2,22,5,0,0
50668,-61.7283950617284,4,2,22,52,0,0
50818,-58.1395348837209,4,2,22,52,0,0
51043,-58.1395348837209,4,2,22,5,0,0
51118,-58.1395348837209,4,2,22,52,0,0
54568,-192.307692307692,4,2,22,52,0,0
58168,-192.307692307692,4,2,22,12,0,0

[Colours]
Combo1 : 242,203,85
Combo2 : 169,135,54
Combo3 : 236,254,18
Combo4 : 107,172,60

[HitObjects]
300,142,13768,6,0,B|423:159|345:234|492:247,1,208.08000127002,4|0,1:0|1:0,0:0:0:0:
299,239,14368,1,8,0:0:0:0:
413,48,14518,2,0,P|471:93|463:163,1,138.72000084668,0|0,1:0|0:0,0:0:0:0:
274,41,14968,6,0,L|180:32,1,69.3600004233398,2|0,1:0|0:0,0:0:0:0:
118,185,15268,2,0,L|212:176,1,69.3600004233398,2|0,1:0|0:0,0:0:0:0:
21,80,15568,1,10,0:0:0:0:
40,319,15718,2,0,L|27:153,1,138.72000084668,2|2,1:0|1:0,0:0:0:0:
277,249,16168,6,0,P|225:203|302:85,1,208.08000127002,6|0,1:0|0:0,0:0:0:0:
366,325,16768,1,8,0:0:0:0:
439,177,16918,2,0,L|273:166,1,138.72000084668,0|0,1:0|1:0,0:0:0:0:
257,332,17368,5,2,1:0:0:0:
123,178,17518,1,8,0:0:0:0:
325,85,17668,1,2,1:0:0:0:
237,227,17818,1,2,1:0:0:0:
128,41,17968,1,8,0:0:0:0:
422,101,18118,2,0,B|442:149|442:149|419:261,1,138.72000084668,2|2,1:0|1:0,0:0:0:0:
214,79,18568,6,0,P|86:112|69:192,1,208.08000127002,6|0,1:0|1:0,0:0:0:0:
190,349,19168,1,8,0:0:0:0:
299,165,19318,2,0,L|136:159,1,138.72000084668,0|0,1:0|1:0,0:0:0:0:
92,350,19768,5,2,1:0:0:0:
278,346,19918,1,0,0:0:0:0:
174,252,20068,1,0,1:0:0:0:
190,349,20218,1,2,1:0:0:0:
144,73,20368,1,8,0:0:0:0:
74,177,20518,1,0,1:0:0:0:
247,146,20668,1,2,0:0:0:0:
160,159,20818,1,0,1:0:0:0:
322,52,20968,5,4,1:0:0:0:
399,200,21118,2,0,L|392:296,1,69.3600004233398,2|0,0:0|0:0,0:0:0:0:
411,105,21418,1,0,1:0:0:0:
322,328,21568,1,10,0:0:0:0:
252,215,21718,2,0,L|246:145,1,69.3600004233398,0|0,1:0|1:0,0:0:0:0:
478,284,22018,2,0,L|472:353,1,69.3600004233398,8|0,0:0|1:0,0:0:0:0:
234,309,22318,6,0,L|180:298,1,34.6800002116699,8|8,0:0|0:0,0:0:0:0:
162,187,22468,1,0,1:0:0:0:
342,241,22618,1,8,0:0:0:0:
118,284,22768,1,0,1:0:0:0:
199,102,22918,1,8,3:0:0:0:
255,217,23068,1,4,3:0:0:0:
74,156,23218,1,4,3:0:0:0:
330,33,23368,6,0,L|343:264,1,208.08000127002,6|0,1:0|0:0,0:0:0:0:
435,66,23968,1,8,0:0:0:0:
456,256,24118,2,0,L|463:343,1,69.3600004233398,0|0,1:0|0:0,0:0:0:0:
446,166,24418,1,0,1:0:0:0:
357,328,24568,6,0,L|276:317,1,69.3600004233398,2|0,1:0|0:0,0:0:0:0:
185,132,24868,1,2,1:0:0:0:
276,97,25018,2,0,L|272:178,1,69.3600004233398,2|8,0:0|0:0,0:0:0:0:
198,359,25318,2,0,L|189:195,1,138.72000084668,2|2,1:0|1:0,0:0:0:0:
419,251,25768,6,0,P|314:249|272:166,1,208.08000127002,6|0,1:0|1:0,0:0:0:0:
354,20,26368,1,8,0:0:0:0:
378,105,26518,2,0,L|363:187,2,69.3600004233398,0|0|0,1:0|0:0|1:0,0:0:0:0:
145,69,26968,5,2,1:0:0:0:
228,268,27118,1,8,0:0:0:0:
235,86,27268,1,2,1:0:0:0:
200,176,27418,1,0,1:0:0:0:
51,40,27568,1,10,0:0:0:0:
73,274,27718,2,0,L|58:110,1,138.72000084668,2|2,1:0|1:0,0:0:0:0:
302,211,28168,6,0,B|432:251|432:251|379:191,1,208.08000127002,6|0,1:0|1:0,0:0:0:0:
248,55,28768,1,8,0:0:0:0:
443,127,28918,2,0,L|521:120,2,69.3600004233398,0|0|0,1:0|0:0|1:0,0:0:0:0:
179,125,29368,6,0,L|101:118,1,69.3600004233398,2|0,1:0|1:0,0:0:0:0:
352,54,29668,1,2,1:0:0:0:
380,277,29818,1,10,3:0:0:0:
302,134,29968,1,8,0:0:0:0:
462,243,30118,1,0,1:0:0:0:
296,313,30268,1,6,3:0:0:0:
384,186,30418,1,4,3:0:0:0:
212,356,30568,5,10,0:0:0:0:
101,144,30718,2,0,P|189:206|197:271,1,165.919993164307,4|0,1:0|0:0,0:0:0:0:
241,46,31168,5,10,0:0:0:0:
484,126,31318,2,0,B|427:152|427:152|301:91,1,193.119990275635,4|0,1:0|0:0,0:0:0:0:
371,370,31768,1,10,0:0:0:0:
325,192,31918,6,0,L|264:164,1,48.2799975689088,8|8,0:0|0:0,0:0:0:0:
198,257,32068,1,8,0:0:0:0:
349,279,32218,1,8,0:0:0:0:
117,329,32368,1,10,0:0:0:0:
162,173,32518,1,8,3:0:0:0:
237,348,32668,1,4,3:0:0:0:
198,257,32818,1,4,3:0:0:0:
470,301,32968,6,0,B|394:198|476:49|476:49|514:182,1,371.280012463623,6|0,1:0|0:0,0:0:0:0:
374,357,33568,1,8,0:0:0:0:
205,136,33718,2,0,B|307:112|307:112|378:166,1,165.919993164307,0|0,1:0|1:0,0:0:0:0:
155,329,34168,6,0,L|52:308,1,82.9599965821535,2|0,1:0|0:0,0:0:0:0:
116,165,34468,1,2,1:0:0:0:
253,333,34618,2,0,L|356:312,1,82.9599965821535,2|8,0:0|0:0,0:0:0:0:
381,149,34918,1,2,1:0:0:0:
381,149,35218,1,2,1:0:0:0:
486,338,35368,6,0,P|470:253|493:144,1,165.919993164307,6|0,1:0|0:0,0:0:0:0:
375,53,35818,1,0,1:0:0:0:
329,231,35968,1,8,0:0:0:0:
141,145,36118,2,0,P|274:130|306:107,1,165.919993164307,0|0,1:0|1:0,0:0:0:0:
94,49,36568,5,2,1:0:0:0:
36,256,36718,2,0,L|58:357,1,82.9599965821535,8|2,0:0|1:0,0:0:0:0:
62,150,37018,1,2,1:0:0:0:
149,359,37168,1,8,0:0:0:0:
234,182,37318,1,2,1:0:0:0:
234,182,37618,1,2,1:0:0:0:
373,341,37768,6,0,L|259:324,1,82.9599965821535,6|0,1:0|0:0,0:0:0:0:
292,103,38068,2,0,L|406:120,1,82.9599965821535,0|0,1:0|0:0,0:0:0:0:
454,292,38368,1,8,0:0:0:0:
234,182,38518,2,0,L|56:154,1,165.919993164307,0|0,1:0|1:0,0:0:0:0:
272,23,38968,6,0,P|291:83|291:118,1,82.9599965821535,2|0,1:0|1:0,0:0:0:0:
214,261,39268,2,0,P|218:219|233:181,1,82.9599965821535,2|0,0:0|1:0,0:0:0:0:
407,194,39568,2,0,L|287:178,1,82.9599965821535,10|0,0:0|1:0,0:0:0:0:
119,112,39868,2,0,L|239:96,1,82.9599965821535,2|0,0:0|1:0,0:0:0:0:
452,288,40168,6,0,L|242:262,1,193.119990275635,6|0,1:0|0:0,0:0:0:0:
195,72,40618,1,0,0:0:0:0:
502,206,40768,2,0,L|380:190,1,96.5599951378176,14|0,0:0|1:0,0:0:0:0:
230,166,41068,1,0,1:0:0:0:
466,113,41218,1,8,0:0:0:0:
452,288,41368,1,6,1:0:0:0:
320,180,41518,6,0,L|319:119,1,48.2799975689088,8|8,0:0|0:0,0:0:0:0:
380,53,41668,1,0,1:0:0:0:
407,193,41818,1,8,0:0:0:0:
230,166,41968,1,0,1:0:0:0:
285,46,42118,1,0,3:0:0:0:
320,180,42268,1,4,3:0:0:0:
230,166,42418,1,4,3:0:0:0:
399,287,42568,6,0,L|109:238,1,289.679985413453,6|0,1:0|0:0,0:0:0:0:
333,182,43168,1,8,0:0:0:0:
269,348,43318,2,0,L|154:327,1,96.5599951378176,0|0,1:0|0:0,0:0:0:0:
239,166,43618,1,0,1:0:0:0:
355,372,43768,5,2,1:0:0:0:
333,182,43918,1,8,0:0:0:0:
174,330,44068,1,2,0:0:0:0:
153,147,44218,1,2,1:0:0:0:
340,275,44368,1,8,0:0:0:0:
322,16,44518,1,2,1:0:0:0:
322,16,44818,1,2,1:0:0:0:
75,237,44968,6,0,P|39:178|169:34,1,289.679985413453,6|0,1:0|1:0,0:0:0:0:
341,189,45568,2,0,L|137:143,1,193.119990275635,8|0,0:0|1:0,0:0:0:0:
334,98,46018,1,0,1:0:0:0:
352,280,46168,2,0,L|360:380,1,96.5599951378176,2|0,1:0|0:0,0:0:0:0:
434,143,46468,1,2,1:0:0:0:
445,246,46618,2,0,L|453:346,1,96.5599951378176,2|8,1:0|0:0,0:0:0:0:
227,189,46918,2,0,P|312:190|350:286,1,193.119990275635,0|0,1:0|1:0,0:0:0:0:
121,317,47368,6,0,B|88:104|88:104|145:61,1,258.399996845703,6|0,1:0|0:0,0:0:0:0:
216,38,47818,2,0,P|275:34|429:189,1,275.400006723633,6|0,1:0|0:0,0:0:0:0:
512,227,48268,2,0,L|198:185,1,292.40000446167,6|0,1:0|0:0,0:0:0:0:
139,175,48718,5,8,3:0:0:0:
280,104,48868,1,0,1:0:0:0:
225,279,49018,1,0,1:0:0:0:
82,105,49168,5,8,3:0:0:0:
492,92,49468,5,4,3:0:0:0:
82,105,49768,5,14,1:2:0:0:
320,272,49918,2,0,L|297:95,1,155.039998107422,0|0,1:0|0:0,0:0:0:0:
232,57,50218,5,14,0:2:0:0:
138,251,50368,2,0,P|213:202|319:209,1,165.24000403418,0|0,1:0|0:0,0:0:0:0:
507,129,50668,5,14,0:2:0:0:
327,284,50818,2,0,L|303:59,1,175.440002677002,0|0,1:0|0:0,0:0:0:0:
324,23,51118,5,8,0:0:0:0:
232,232,51268,2,0,L|248:364,1,116.960001784668,8|0,0:0|1:0,0:0:0:0:
130,167,51568,5,8,0:0:0:0:
308,109,51718,1,0,1:0:0:0:
149,271,51868,1,8,0:0:0:0:
218,137,52018,1,0,1:0:0:0:
384,200,52168,6,0,L|502:176,1,116.960001784668,10|0,3:0|1:0,0:0:0:0:
423,106,52468,1,0,1:0:0:0:
335,339,52618,6,0,L|217:315,1,116.960001784668,10|0,3:0|1:0,0:0:0:0:
296,245,52918,1,0,1:0:0:0:
510,374,53068,6,0,L|506:238,1,116.960001784668,10|0,3:0|1:0,0:0:0:0:
371,34,53368,1,2,1:0:0:0:
420,357,53518,5,8,0:0:0:0:
293,86,53818,1,10,3:0:0:0:
188,353,54118,1,6,3:0:0:0:
369,207,54418,1,2,1:0:0:0:
256,191,54568,5,4,1:0:0:0:
256,192,54643,12,0,58168,0:0:0:0:
