osu file format v14

[General]
AudioFilename: audio.mp3
AudioLeadIn: 0
PreviewTime: 13693
Countdown: 0
SampleSet: Soft
StackLeniency: 0.7
Mode: 0
LetterboxInBreaks: 0
WidescreenStoryboard: 0

[Editor]
DistanceSpacing: 1.8
BeatDivisor: 8
GridSize: 16
TimelineZoom: 1.5

[Metadata]
Title:Sur tes pas
TitleUnicode:Sur tes pas
Artist:Sebastien Pintiaux & Caroline Szatapski
ArtistUnicode:Sébastien Pintiaux & Caroline Szatapski
Creator:Sotarks
Version:Dans la Legende!
Source:Wakfu
Tags:ankama studio games op opening generique générique theme
BeatmapID:1454622
BeatmapSetID:687432

[Difficulty]
HPDrainRate:6.2
CircleSize:4
OverallDifficulty:9
ApproachRate:9.2
SliderMultiplier:3.02
SliderTickRate:1

[Events]
//Background and Video events
0,0,"BG.jpg",0,0
Video,0,"sur-tes-pas.avi"
//Break Periods
//Storyboard Layer 0 (Background)
//Storyboard Layer 1 (Fail)
//Storyboard Layer 2 (Pass)
//Storyboard Layer 3 (Foreground)
//Storyboard Sound Samples

[TimingPoints]
13768,600,4,2,22,52,1,0
13768,-98.0392156862745,4,2,22,52,0,0
30568,-98.0392156862745,4,2,22,62,0,0
30718,-81.9672131147541,4,2,22,72,0,0
31318,-70.4225352112676,4,2,22,72,0,0
32968,-54.9450549450549,4,2,22,82,0,0
33043,-54.9450549450549,4,2,22,62,0,0
33568,-81.9672131147541,4,2,22,62,0,0
40168,-70.4225352112676,4,2,22,62,0,0
47368,-65.7894736842105,4,2,22,62,0,0
47743,-65.7894736842105,4,2,22,5,0,0
47818,-61.7283950617284,4,2,22,52,0,0
48193,-61.7283950617284,4,2,22,5,0,0
48268,-58.1395348837209,4,2,22,52,0,0
48643,-58.1395348837209,4,2,22,5,0,0
48718,-58.1395348837209,4,2,22,52,0,0
49768,-65.7894736842105,4,2,22,52,0,0
50143,-65.7894736842105,4,2,22,5,0,0
50218,-65.7894736842105,4,2,22,52,0,0
50368,-61.7283950617284,4,2,22,52,0,0
50593,-61.7283950617284,4,2,22,5,0,0
50668,-61.7283950617284,4,2,22,52,0,0
50818,-58.1395348837209,4,2,22,52,0,0
51043,-58.1395348837209,4,2,22,5,0,0
51118,-58.1395348837209,4,2,22,52,0,0
54568,-192.307692307692,4,2,22,52,0,0
58168,-192.307692307692,4,2,22,12,0,0

[Colours]
Combo1 : 242,203,85
Combo2 : 169,135,54
Combo3 : 236,254,18
Combo4 : 107,172,60

[HitObjects]
109,101,13768,6,0,B|243:53|208:154|361:102,1,231.030001410095,4|0,1:0|1:0,0:0:0:0:
171,182,14368,1,8,0:0:0:0:
354,37,14518,2,0,P|406:94|369:175,1,154.020000940063,0|0,1:0|0:0,0:0:0:0:
192,273,14968,6,0,P|268:234|291:236,1,77.0100004700317,2|0,1:0|0:0,0:0:0:0:
427,338,15268,2,0,P|351:299|328:301,1,77.0100004700317,2|0,1:0|0:0,0:0:0:0:
124,328,15568,1,10,0:0:0:0:
93,91,15718,2,0,B|133:122|133:122|130:247,1,154.020000940063,2|2,1:0|1:0,0:0:0:0:
283,45,16168,6,0,B|360:17|447:34|447:34|429:109,1,231.030001410095,6|0,1:0|0:0,0:0:0:0:
376,313,16768,1,8,0:0:0:0:
198,182,16918,2,0,P|322:177|340:241,1,154.020000940063,0|0,1:0|1:0,0:0:0:0:
138,319,17368,5,2,1:0:0:0:
116,114,17518,1,8,0:0:0:0:
262,228,17668,1,2,1:0:0:0:
129,241,17818,1,2,1:0:0:0:
258,71,17968,1,8,0:0:0:0:
463,197,18118,2,0,B|414:200|414:200|366:160|395:74,1,154.020000940063,2|2,1:0|1:0,0:0:0:0:
477,302,18568,6,0,L|213:309,1,231.030001410095,6|0,1:0|1:0,0:0:0:0:
146,79,19168,1,8,0:0:0:0:
178,330,19318,2,0,P|202:247|282:247,1,154.020000940063,0|0,1:0|1:0,0:0:0:0:
477,302,19768,6,0,P|407:268|398:244,1,77.0100004700317,2|0,1:0|0:0,0:0:0:0:
430,117,20068,1,0,1:0:0:0:
471,225,20218,1,2,1:0:0:0:
275,165,20368,1,8,0:0:0:0:
402,43,20518,1,0,1:0:0:0:
355,141,20668,1,2,0:0:0:0:
305,44,20818,1,0,1:0:0:0:
251,239,20968,6,0,L|264:341,1,77.0100004700317,4|2,1:0|0:0,0:0:0:0:
165,125,21268,1,0,0:0:0:0:
143,284,21418,1,0,1:0:0:0:
84,107,21568,1,10,0:0:0:0:
242,138,21718,1,0,1:0:0:0:
155,200,21868,1,0,1:0:0:0:
182,4,22018,1,8,0:0:0:0:
278,205,22168,1,0,1:0:0:0:
291,70,22318,5,8,0:0:0:0:
252,69,22393,1,8,0:0:0:0:
214,68,22468,1,0,1:0:0:0:
380,111,22618,1,8,0:0:0:0:
165,125,22768,1,0,1:0:0:0:
242,138,22918,1,8,3:0:0:0:
121,182,23068,1,4,3:0:0:0:
214,68,23218,1,4,3:0:0:0:
308,278,23368,6,0,B|240:276|240:276|169:303|169:303|83:297,1,231.030001410095,6|0,1:0|0:0,0:0:0:0:
278,205,23968,1,8,0:0:0:0:
410,356,24118,2,0,P|331:340|315:252,1,154.020000940063,0|0,1:0|1:0,0:0:0:0:
398,83,24568,6,0,P|409:163|404:174,1,77.0100004700317,2|0,1:0|0:0,0:0:0:0:
385,282,24868,1,2,1:0:0:0:
329,133,25018,1,2,0:0:0:0:
461,236,25168,1,8,0:0:0:0:
256,164,25318,2,0,P|166:149|45:191,1,154.020000940063,2|2,1:0|1:0,0:0:0:0:
304,54,25768,6,0,P|396:35|416:26,1,77.0100004700317,6|0,1:0|0:0,0:0:0:0:
143,29,26068,1,0,1:0:0:0:
217,68,26218,1,0,1:0:0:0:
19,60,26368,1,8,0:0:0:0:
119,181,26518,2,0,P|142:254|68:361,1,154.020000940063,0|0,1:0|1:0,0:0:0:0:
298,129,26968,5,2,1:0:0:0:
327,320,27118,2,0,P|309:231|313:203,1,77.0100004700317,8|2,0:0|1:0,0:0:0:0:
425,348,27418,1,0,1:0:0:0:
230,328,27568,1,10,0:0:0:0:
475,211,27718,2,0,P|389:203|379:205,1,77.0100004700317,2|0,1:0|0:0,0:0:0:0:
222,246,28018,1,2,1:0:0:0:
395,123,28168,6,0,P|293:117|218:61,1,154.020000940063,6|0,1:0|0:0,0:0:0:0:
185,34,28618,1,0,1:0:0:0:
91,261,28768,1,8,0:0:0:0:
182,180,28918,2,0,P|269:186|290:291,1,154.020000940063,0|0,1:0|1:0,0:0:0:0:
457,358,29368,6,0,P|417:290|417:275,1,77.0100004700317,2|0,1:0|1:0,0:0:0:0:
437,145,29668,1,2,1:0:0:0:
510,281,29818,1,10,3:0:0:0:
383,220,29968,1,8,0:0:0:0:
512,192,30118,1,0,1:0:0:0:
418,296,30268,1,6,3:0:0:0:
437,145,30418,1,4,3:0:0:0:
257,331,30568,5,10,0:0:0:0:
158,100,30718,2,0,B|174:168|174:168|163:212|163:212|186:311,1,184.21999241037,4|0,1:0|0:0,0:0:0:0:
339,50,31168,5,10,0:0:0:0:
345,341,31318,2,0,B|329:273|329:273|337:207|337:207|314:120,1,214.419989203095,4|0,1:0|0:0,0:0:0:0:
178,353,31768,5,10,0:0:0:0:
132,201,31918,1,8,0:0:0:0:
169,202,31993,1,8,0:0:0:0:
206,204,32068,1,8,0:0:0:0:
31,280,32218,1,8,0:0:0:0:
333,206,32368,1,10,0:0:0:0:
141,125,32518,1,8,3:0:0:0:
193,280,32668,1,4,3:0:0:0:
213,185,32818,1,4,3:0:0:0:
416,353,32968,6,0,B|381:286|417:226|417:226|464:156|433:95|433:95|357:51|291:112,1,412.230013838288,6|0,1:0|0:0,0:0:0:0:
114,259,33568,1,8,0:0:0:0:
362,158,33718,2,0,B|292:137|292:137|257:150|257:150|152:122,1,184.21999241037,0|0,1:0|1:0,0:0:0:0:
82,331,34168,6,0,P|175:303|182:290,1,92.1099962051851,2|0,1:0|0:0,0:0:0:0:
213,55,34468,2,0,P|120:83|113:96,1,92.1099962051851,2|2,1:0|0:0,0:0:0:0:
114,259,34768,1,8,0:0:0:0:
277,134,34918,2,0,L|155:130,1,92.1099962051851,2|0,1:0|0:0,0:0:0:0:
354,254,35218,1,2,1:0:0:0:
322,49,35368,6,0,L|314:338,1,276.329988615555,6|0,1:0|1:0,0:0:0:0:
396,168,35968,1,8,0:0:0:0:
205,243,36118,2,0,B|72:207|72:207|55:141,1,184.21999241037,0|0,1:0|1:0,0:0:0:0:
232,53,36568,5,2,1:0:0:0:
302,206,36718,1,8,0:0:0:0:
142,109,36868,1,2,1:0:0:0:
396,168,37018,1,2,1:0:0:0:
213,40,37168,1,8,0:0:0:0:
248,265,37318,2,0,P|237:166|324:132,1,184.21999241037,2|2,1:0|1:0,0:0:0:0:
310,354,37768,6,0,L|186:341,1,92.1099962051851,6|0,1:0|0:0,0:0:0:0:
84,127,38068,2,0,L|208:114,1,92.1099962051851,0|0,1:0|0:0,0:0:0:0:
325,271,38368,1,8,0:0:0:0:
304,21,38518,2,0,P|250:118|254:208,1,184.21999241037,0|0,1:0|1:0,0:0:0:0:
404,331,38968,6,0,P|408:231|403:224,1,92.1099962051851,2|0,1:0|1:0,0:0:0:0:
229,260,39268,1,2,0:0:0:0:
325,271,39418,1,0,1:0:0:0:
224,118,39568,1,10,0:0:0:0:
152,300,39718,1,0,1:0:0:0:
335,189,39868,1,2,0:0:0:0:
135,113,40018,1,0,1:0:0:0:
230,367,40168,6,0,L|228:238,1,107.209994601548,6|0,1:0|0:0,0:0:0:0:
74,345,40468,1,0,1:0:0:0:
135,113,40618,1,0,1:0:0:0:
55,368,40768,2,0,L|65:261,1,107.209994601548,10|0,0:0|1:0,0:0:0:0:
206,64,41068,1,0,1:0:0:0:
153,359,41218,1,8,0:0:0:0:
273,22,41368,5,6,1:0:0:0:
320,333,41518,1,8,0:0:0:0:
362,336,41593,1,8,0:0:0:0:
405,339,41668,1,0,1:0:0:0:
197,270,41818,1,8,0:0:0:0:
440,222,41968,1,0,1:0:0:0:
274,201,42118,1,0,3:0:0:0:
352,261,42268,1,4,3:0:0:0:
360,172,42418,1,4,3:0:0:0:
165,346,42568,6,0,B|156:255|156:255|186:172|186:172|180:89|180:89|143:193,1,321.629983804643,6|0,1:0|0:0,0:0:0:0:
92,374,43168,1,8,0:0:0:0:
320,185,43318,2,0,B|190:154|240:266|76:205,1,214.419989203095,0|0,1:0|1:0,0:0:0:0:
375,108,43768,5,2,1:0:0:0:
297,360,43918,2,0,P|271:281|295:222,1,107.209994601548,8|2,0:0|0:0,0:0:0:0:
453,130,44218,1,2,1:0:0:0:
362,293,44368,1,8,0:0:0:0:
301,77,44518,1,2,1:0:0:0:
301,77,44818,1,2,1:0:0:0:
135,235,44968,6,0,L|355:208,1,214.419989203095,6|0,1:0|0:0,0:0:0:0:
436,196,45418,1,0,1:0:0:0:
213,97,45568,2,0,P|311:110|337:237,1,214.419989203095,8|0,0:0|1:0,0:0:0:0:
318,295,46018,1,0,1:0:0:0:
424,121,46168,6,0,P|492:138|510:180,1,107.209994601548,2|0,1:0|0:0,0:0:0:0:
256,178,46468,1,2,1:0:0:0:
363,58,46618,1,2,1:0:0:0:
436,196,46768,1,8,0:0:0:0:
169,164,46918,1,0,1:0:0:0:
169,164,47218,1,0,1:0:0:0:
477,241,47368,6,0,B|328:191|354:342|182:270,1,286.899996497803,6|0,1:0|0:0,0:0:0:0:
12,234,47818,6,0,P|95:279|271:172,1,305.77500746521,6|0,1:0|0:0,0:0:0:0:
449,130,48268,6,0,B|354:108|354:108|263:148|263:148|121:126,1,324.650004953766,6|0,1:0|0:0,0:0:0:0:
63,111,48718,5,8,3:0:0:0:
247,71,48868,1,0,1:0:0:0:
279,261,49018,1,0,1:0:0:0:
142,37,49168,5,8,3:0:0:0:
346,366,49468,5,4,3:0:0:0:
400,44,49768,5,14,1:2:0:0:
478,159,49918,2,0,B|385:163|436:229|309:227,1,172.139997898682,0|0,1:0|0:0,0:0:0:0:
248,219,50218,5,14,0:2:0:0:
294,18,50368,2,0,P|364:71|335:156,1,183.465004479126,0|0,1:0|0:0,0:0:0:0:
268,144,50668,5,14,0:2:0:0:
494,50,50818,2,0,L|485:287,1,194.79000297226,0|0,1:0|0:0,0:0:0:0:
479,320,51118,5,8,0:0:0:0:
340,152,51268,1,8,0:0:0:0:
322,361,51418,1,0,1:0:0:0:
256,103,51568,5,8,0:0:0:0:
487,245,51718,1,0,1:0:0:0:
214,316,51868,2,0,L|71:288,1,129.860001981506,8|0,0:0|1:0,0:0:0:0:
305,41,52168,5,10,3:0:0:0:
372,187,52318,1,0,1:0:0:0:
323,272,52468,1,0,1:0:0:0:
216,38,52618,5,10,3:0:0:0:
385,39,52768,1,0,1:0:0:0:
439,127,52918,1,0,1:0:0:0:
173,250,53068,5,10,3:0:0:0:
259,111,53218,1,0,1:0:0:0:
489,215,53368,1,2,1:0:0:0:
211,356,53518,5,8,0:0:0:0:
85,68,53818,1,10,3:0:0:0:
439,127,54118,1,6,3:0:0:0:
97,303,54418,1,2,1:0:0:0:
256,192,54568,5,4,1:0:0:0:
256,192,54643,12,0,58168,0:0:0:0:
