osu file format v14

[General]
AudioFilename: audio.mp3
AudioLeadIn: 0
PreviewTime: 71131
Countdown: 0
SampleSet: Soft
StackLeniency: 0.7
Mode: 0
LetterboxInBreaks: 0
WidescreenStoryboard: 0

[Editor]
Bookmarks: 44794,72701,73747,111770,142468,175956,215026
DistanceSpacing: 1.1
BeatDivisor: 4
GridSize: 16
TimelineZoom: 1

[Metadata]
Title:Where Do I Go From Here
TitleUnicode:Where Do I Go From Here
Artist:Sebastian Mego
ArtistUnicode:Sebastian Mego
Creator:AJT
Version:Nothing Is Clear
Source:Jump In!
Tags:english r&b rnb black disney channel
BeatmapID:3481617
BeatmapSetID:1703920

[Difficulty]
HPDrainRate:4
CircleSize:5
OverallDifficulty:6
ApproachRate:7
SliderMultiplier:2.3
SliderTickRate:1

[Events]
//Background and Video events
0,0,"bg.jpg",0,0
Video,72701,"video.mp4"
//Break Periods
2,164994,172266
//Storyboard Layer 0 (Background)
//Storyboard Layer 1 (Fail)
//Storyboard Layer 2 (Pass)
//Storyboard Layer 3 (Foreground)
//Storyboard Layer 4 (Overlay)
//Storyboard Sound Samples

[TimingPoints]
143,697.674418604651,4,2,1,30,1,0
11305,-90.9090909090909,4,2,1,50,0,0
24736,-90.9090909090909,4,2,1,50,0,0
44794,-66.6666666666667,4,2,1,65,0,1
71829,-100,4,2,1,65,0,1
72701,-66.6666666666667,4,2,1,50,0,0
78282,-90.9090909090909,4,2,1,50,0,0
111770,-66.6666666666667,4,2,1,65,0,1
138108,-66.6666666666667,4,2,1,65,0,1
138805,-100,4,2,1,65,0,1
139677,-100,4,2,1,65,0,0
142468,-80,4,2,1,65,0,0
175956,-66.6666666666667,4,2,1,75,0,1
213456,-66.6666666666667,4,2,1,50,0,1
214154,-100,4,2,1,50,0,1
215026,-100,4,2,1,50,0,0

[Colours]
Combo1 : 192,192,192
Combo2 : 128,128,255

[HitObjects]
39,38,143,6,0,P|43:80|109:71,1,115,0|0,3:0|0:0,0:0:0:0:
104,79,666,2,0,P|105:125|94:195,2,115,0|2|0,3:0|0:0|0:0,0:0:0:0:
140,20,1538,1,2,0:0:0:0:
140,20,1712,1,0,0:0:0:0:
201,5,1887,2,0,P|227:2|256:21,1,57.5
263,111,2236,2,0,P|249:156|230:286,1,172.5,2|0,0:0|0:0,0:0:0:0:
195,300,2933,5,0,3:0:0:0:
70,313,3282,1,0,0:0:0:0:
10,325,3456,2,0,L|14:365,1,28.75,2|2,3:2|0:0,0:0:0:0:
130,93,4329,5,0,0:0:0:0:
255,80,4678,1,0,0:0:0:0:
317,68,4852,2,0,L|313:28,1,28.75,2|2,0:0|0:0,0:0:0:0:
393,92,5201,2,0,B|442:111|459:59|509:85,1,115,2|0,0:0|0:0,0:0:0:0:
507,174,5724,6,0,P|503:216|437:207,1,115,0|0,3:0|0:0,0:0:0:0:
380,200,6247,1,2,0:0:0:0:
311,247,6422,2,0,P|312:293|301:363,1,115,8|0,0:2|0:0,0:0:0:0:
222,351,6945,2,0,P|231:294|231:236,1,115,2|0,0:0|0:0,0:0:0:0:
270,177,7468,2,0,P|242:167|215:169,1,57.5,0|0,3:0|0:0,0:0:0:0:
150,224,7817,6,0,P|108:220|117:154,1,115,10|0,0:2|0:0,0:0:0:0:
63,114,8340,1,0,0:0:0:0:
110,45,8515,2,0,P|156:46|226:35,1,115,0|0,3:0|0:0,0:0:0:0:
283,13,9038,1,0,0:0:0:0:
334,48,9212,1,10,0:2:0:0:
469,181,9736,1,2,0:3:0:0:
449,319,10084,2,0,P|450:290|441:263,1,57.5,2|0,0:3|3:0,0:0:0:0:
378,207,10433,5,2,3:2:0:0:
316,190,10608,1,8,0:2:0:0:
275,238,10782,1,0,0:0:0:0:
290,299,10956,1,2,0:3:0:0:
346,327,11131,1,0,0:0:0:0:
256,368,11305,6,0,B|202:347|184:403|130:375,1,126.500003860474,4|0,3:2|0:0,0:0:0:0:
74,340,11829,2,0,B|44:356|-2:348,2,63.2500019302369,0|8|2,3:0|0:2|0:0,0:0:0:0:
118,286,12352,1,0,0:0:0:0:
218,189,12701,6,0,P|238:135|93:38,1,253.000007720947,2|8,0:0|0:2,0:0:0:0:
44,56,13573,2,0,B|23:109|79:127|51:181,1,126.500003860474,2|0,0:0|0:0,0:0:0:0:
70,245,14096,2,0,P|119:273|186:255,1,126.500003860474,0|0,3:3|0:0,0:0:0:0:
244,291,14619,6,0,L|248:329,2,31.6250009651184,2|0|8,0:0|0:0|0:0,0:0:0:0:
496,32,15840,1,0,3:0:0:0:
443,67,16015,2,0,L|460:101,2,31.6250009651184,2|0|8,3:2|0:0|0:0,0:0:0:0:
371,40,16363,2,0,B|314:41|319:100|259:95,1,126.500003860474,2|0,0:0|0:0,0:0:0:0:
213,168,16887,6,0,P|233:114|88:17,1,253.000007720947,0|8,3:0|0:0,0:0:0:0:
38,32,17759,2,0,P|18:65|18:89,1,63.2500019302369,2|0,0:0|0:0,0:0:0:0:
15,158,18108,2,0,P|38:188|61:197,1,63.2500019302369,2|0,0:0|0:0,0:0:0:0:
120,233,18456,2,0,P|128:270|120:293,1,63.2500019302369,2|0,0:0|3:0,0:0:0:0:
53,311,18805,1,0,0:0:0:0:
128,368,18980,6,0,B|181:347|199:403|253:375,1,126.500003860474,8|0,0:0|0:0,0:0:0:0:
295,325,19503,1,0,0:0:0:0:
345,277,19677,2,0,P|344:247|358:149,1,126.500003860474,0|0,3:0|0:0,0:0:0:0:
345,86,20201,1,2,0:0:0:0:
345,86,20375,2,0,P|359:85|387:91,1,31.6250009651184,8|0,0:0|0:0,0:0:0:0:
33,26,21596,1,2,3:2:0:0:
101,11,21771,1,8,0:0:0:0:
156,53,21945,1,0,0:0:0:0:
117,111,22119,1,2,0:3:0:0:
165,161,22294,1,0,0:0:0:0:
119,229,22468,6,0,B|98:282|154:300|126:354,1,126.500003860474,0|0,3:0|0:0,0:0:0:0:
194,373,22991,1,0,3:0:0:0:
256,341,23166,1,8,0:0:0:0:
256,341,23340,2,0,B|309:320|327:376|381:348,1,126.500003860474
446,342,23863,6,0,P|466:288|355:240,1,189.750005790711,2|0,0:0|0:0,0:0:0:0:
313,271,24561,1,8,0:2:0:0:
269,161,24736,2,0,P|249:107|394:10,1,253.000007720947,2|0,0:0|0:0,0:0:0:0:
437,42,25608,2,0,P|457:96|312:193,1,253.000007720947,2|0,0:0|0:0,0:0:0:0:
327,198,26480,1,2,0:3:0:0:
233,384,27003,1,0,3:0:0:0:
180,349,27178,2,0,L|197:315,2,31.6250009651184,2|0|8,3:2|0:0|0:0,0:0:0:0:
108,376,27526,2,0,B|51:375|56:316|-4:321,1,126.500003860474,2|0,0:0|0:0,0:0:0:0:
31,382,28049,6,0,P|39:365|66:184,1,189.750005790711,0|2,3:0|0:0,0:0:0:0:
88,131,28747,2,0,P|121:122|150:124,1,63.2500019302369,8|0,0:0|0:0,0:0:0:0:
182,63,29096,1,0,0:0:0:0:
273,112,29270,6,0,P|327:132|412:38,1,189.750005790711,2|0,0:0|3:0,0:0:0:0:
487,65,29968,1,2,0:0:0:0:
489,147,30142,2,0,P|481:164|454:345,1,189.750005790711,8|0,0:0|0:0,0:0:0:0:
392,365,30840,2,0,P|343:337|276:355,1,126.500003860474,0|0,3:0|0:0,0:0:0:0:
214,382,31363,6,0,P|193:381|176:378,2,31.6250009651184,2|0|8,0:0|0:0|0:0,0:0:0:0:
512,0,32759,1,2,3:2:0:0:
444,17,32934,1,8,0:0:0:0:
422,83,33108,1,0,0:0:0:0:
465,136,33282,1,2,0:3:0:0:
428,195,33457,1,0,0:0:0:0:
432,304,33631,6,0,P|384:340|311:343,1,126.500003860474,4|0,3:2|0:0,0:0:0:0:
254,369,34154,2,0,P|198:345|160:284,1,126.500003860474,2|0,3:2|0:0,0:0:0:0:
158,222,34677,2,0,P|127:209|92:216,1,63.2500019302369,2|0,0:0|0:0,0:0:0:0:
85,144,35026,2,0,B|33:197|90:280|42:327,2,189.750005790711,2|2|0,0:0|0:0|0:0,0:0:0:0:
85,144,36247,1,2,0:0:0:0:
102,57,36422,2,0,B|158:-3|226:101|300:22,1,189.750005790711,0|0,3:0|0:0,0:0:0:0:
375,18,37119,6,0,P|438:25|396:179,1,253.000007720947,8|0,0:0|3:0,0:0:0:0:
371,218,37991,2,0,P|372:249|385:277,1,63.2500019302369,2|0,0:3|3:0,0:0:0:0:
253,369,38515,1,8,0:0:0:0:
99,227,39038,1,0,0:0:0:0:
61,168,39212,6,0,P|62:137|123:55,1,126.500003860474,0|0,3:0|0:0,0:0:0:0:
183,64,39736,1,0,0:0:0:0:
242,26,39910,2,0,P|273:27|301:40,1,63.2500019302369,8|0,0:0|0:0,0:0:0:0:
340,174,40433,1,0,0:0:0:0:
409,173,40607,1,2,0:0:0:0:
470,206,40782,2,0,P|486:274|453:325,1,126.500003860474,0|0,3:0|0:0,0:0:0:0:
407,366,41305,2,0,P|337:368|293:326,1,126.500003860474,8|0,0:0|0:0,0:0:0:0:
228,349,41829,1,2,0:0:0:0:
228,349,42003,1,0,3:0:0:0:
256,192,42177,12,8,44096,0:0:0:0:
256,48,44445,5,8,3:2:0:0:
256,48,44619,1,8,3:2:0:0:
160,96,44794,2,0,P|64:136|160:176,2,258.75000987053,4|0|2,3:2|3:0|0:0,0:0:0:0:
352,96,46189,2,0,P|448:136|352:176,2,258.75000987053,2|2|2,0:0|0:0|0:0,0:0:0:0:
370,284,47584,6,0,P|319:273|195:251,1,172.500006580353,0|0,3:0|0:0,0:0:0:0:
145,329,48108,2,0,P|156:278|178:154,1,172.500006580353,0|0,3:0|0:0,0:0:0:0:
114,87,48631,1,2,0:0:0:0:
298,42,48980,2,0,P|378:6|458:38,1,172.500006580353,2|0,0:0|3:0,0:0:0:0:
497,118,49503,2,0,P|524:197|489:273,1,172.500006580353,2|0,0:0|0:0,0:0:0:0:
408,325,50026,1,0,0:0:0:0:
408,325,50201,2,0,P|328:289|248:321,1,172.500006580353,2|0,0:0|0:0,0:0:0:0:
174,371,50724,1,0,0:0:0:0:
60,218,51073,1,8,0:0:0:0:
273,29,51596,5,2,0:0:0:0:
273,29,51770,2,0,P|309:20|369:29,2,86.2500032901765,2|2|0,0:0|0:0|3:0,0:0:0:0:
180,54,52294,2,0,B|100:110|198:231|112:292,1,258.75000987053,2|2,0:0|0:0,0:0:0:0:
67,216,52991,1,0,0:0:0:0:
114,290,53166,2,0,P|224:225|352:222,1,258.75000987053,0|0,3:0|0:0,0:0:0:0:
411,295,53863,1,8,0:0:0:0:
476,135,54212,1,2,0:0:0:0:
411,295,54561,1,2,0:0:0:0:
256,192,54736,12,2,55608,0:0:0:0:
352,288,55956,6,0,P|448:248|352:208,2,258.75000987053,4|0|2,3:2|3:0|0:0,0:0:0:0:
160,288,57351,2,0,P|64:248|160:208,2,258.75000987053,2|2|2,0:0|0:0|0:0,0:0:0:0:
147,98,58747,6,0,P|198:109|322:136,1,172.500006580353,0|0,3:0|0:0,0:0:0:0:
265,49,59271,2,0,P|316:60|440:82,1,172.500006580353,0|0,3:0|0:0,0:0:0:0:
487,2,59794,1,2,0:0:0:0:
432,160,60143,2,0,P|396:240|428:320,1,172.500006580353,2|0,0:0|3:0,0:0:0:0:
339,359,60666,2,0,P|260:332|177:368,1,172.500006580353,2|0,0:0|0:0,0:0:0:0:
180,364,61189,1,2,0:0:0:0:
86,287,61538,1,0,3:0:0:0:
130,178,61887,1,0,0:0:0:0:
130,178,62060,1,0,3:0:0:0:
130,178,62235,1,8,0:0:0:0:
307,266,62759,5,2,0:0:0:0:
307,266,62933,2,0,P|343:257|403:266,1,86.2500032901765,2|0,0:0|0:0,0:0:0:0:
487,287,63282,1,0,3:0:0:0:
487,287,63457,2,0,B|528:198|382:142|426:46,1,258.75000987053,2|2,0:0|0:0,0:0:0:0:
494,75,64154,6,0,P|384:10|256:7,1,258.75000987053,2|0,0:0|0:0,0:0:0:0:
256,96,64852,1,0,3:0:0:0:
256,96,65025,1,8,0:0:0:0:
256,96,65201,2,0,L|256:208,1,86.2500032901765,2|2,0:0|0:0,0:0:0:0:
256,304,65723,1,2,0:0:0:0:
160,240,66073,1,0,3:0:0:0:
160,240,66247,1,0,3:0:0:0:
160,240,66422,1,8,0:0:0:0:
352,240,66770,1,0,3:0:0:0:
299,113,67119,6,0,P|255:18|219:115,2,258.75000987053,2|0|2,3:2|3:0|0:0,0:0:0:0:
299,271,68515,2,0,P|255:365|219:268,2,258.75000987053,2|2|2,0:0|0:0|0:0,0:0:0:0:
208,166,71131,6,0,P|144:192|208:219,1,172.500006580353,2|2,0:3|0:3,0:0:0:0:
306,221,71654,1,0,3:0:0:0:
306,221,71829,2,0,P|367:191|304:166,1,172.500006580353,0|2,3:0|0:3,0:0:0:0:
256,336,72701,5,4,3:2:0:0:
256,192,72875,12,2,76189,0:0:0:0:
134,207,77410,5,2,0:0:0:0:
196,190,77585,1,8,0:0:0:0:
237,238,77759,1,0,0:0:0:0:
222,299,77933,1,2,0:3:0:0:
166,327,78108,1,0,0:0:0:0:
256,368,78282,6,0,B|310:347|328:403|382:375,1,126.500003860474,2|0,3:2|0:0,0:0:0:0:
377,377,78805,1,0,3:0:0:0:
434,337,78980,2,0,P|469:348|490:370,2,63.2500019302369,8|0|2,0:0|0:0|0:0,0:0:0:0:
374,211,79677,2,0,P|431:168|301:61,1,253.000007720947,2|8,0:0|0:0,0:0:0:0:
316,66,80549,2,0,P|279:79|256:81,1,63.2500019302369,2|0,0:0|0:0,0:0:0:0:
134,10,81073,2,0,P|127:62|92:200,1,189.750005790711,0|0,3:0|3:0,0:0:0:0:
512,384,82817,1,0,3:0:0:0:
459,349,82992,2,0,L|476:315,2,31.6250009651184,2|0|8,3:2|0:0|0:0,0:0:0:0:
387,376,83340,2,0,B|330:375|335:316|275:321,1,126.500003860474,2|0,0:0|0:0,0:0:0:0:
218,356,83863,6,0,P|166:349|28:314,1,189.750005790711,0|0,3:0|3:0,0:0:0:0:
45,246,84561,2,0,P|92:222|67:163,1,126.500003860474,8|0,0:0|0:0,0:0:0:0:
108,106,85084,1,2,0:0:0:0:
5,12,85433,1,2,0:0:0:0:
108,106,85782,2,0,P|139:148|171:27,1,253.000007720947,2|0,0:0|0:0,0:0:0:0:
292,9,86654,6,0,P|355:5|415:33,1,126.500003860474,0|0,3:0|0:0,0:0:0:0:
438,94,87177,1,0,3:0:0:0:
438,94,87351,2,0,P|442:157|414:217,1,126.500003860474,8|0,0:0|0:0,0:0:0:0:
369,265,87875,2,0,P|306:269|246:241,2,126.500003860474,2|2|0,0:3|0:3|3:0,0:0:0:0:
436,282,88747,2,0,P|461:313|474:347,2,63.2500019302369,8|0|2,0:0|0:0|0:3,0:0:0:0:
416,213,89270,1,0,0:0:0:0:
335,298,89445,6,0,P|272:302|212:274,1,126.500003860474,0|0,3:0|0:0,0:0:0:0:
149,298,89968,1,0,3:0:0:0:
123,362,90142,2,0,P|89:357|83:332,2,63.2500019302369,8|0|2,0:0|0:0|0:0,0:0:0:0:
33,255,90840,2,0,P|29:192|57:132,1,126.500003860474,2|0,0:0|3:0,0:0:0:0:
193,130,91538,2,0,B|210:96|151:62|167:4,1,126.500003860474,8|0,0:0|0:0,0:0:0:0:
234,2,92061,2,0,B|217:36|276:70|260:128,1,126.500003860474,2|2,0:0|0:0,0:0:0:0:
319,159,92584,1,2,0:0:0:0:
380,125,92759,6,0,L|384:87,2,31.6250009651184,2|0|8,3:2|0:0|0:0,0:0:0:0:
233,384,93980,1,0,3:0:0:0:
180,349,94155,2,0,L|197:315,2,31.6250009651184,2|0|8,3:2|0:0|0:0,0:0:0:0:
108,376,94503,1,2,0:0:0:0:
108,376,94677,2,0,B|64:375|67:329|21:333,1,94.8750028953553,2|0,3:2|0:0,0:0:0:0:
27,332,95026,6,0,P|35:315|62:134,1,189.750005790711,0|0,3:0|3:0,0:0:0:0:
129,126,95724,2,0,P|167:151|261:160,1,126.500003860474,8|0,0:0|0:0,0:0:0:0:
284,221,96247,2,0,P|266:275|318:325,2,126.500003860474,2|2|2,0:0|0:0|0:0,0:0:0:0:
333,172,97119,2,0,P|314:175|152:260,1,189.750005790711,8|0,0:0|0:0,0:0:0:0:
98,277,97817,1,0,3:0:0:0:
95,138,98165,1,0,0:0:0:0:
57,78,98340,6,0,P|36:79|19:82,2,31.6250009651184,2|0|8,3:2|0:0|0:0,0:0:0:0:
512,384,99736,1,2,3:2:0:0:
446,361,99911,1,8,0:0:0:0:
471,296,100085,1,0,3:3:0:0:
421,246,100259,1,0,3:3:0:0:
456,186,100434,1,0,0:0:0:0:
432,80,100608,6,0,P|384:44|311:41,1,126.500003860474,2|0,3:2|0:0,0:0:0:0:
254,15,101131,2,0,P|198:39|160:100,1,126.500003860474,0|0,1:0|0:0,0:0:0:0:
158,162,101654,2,0,P|127:175|92:168,1,63.2500019302369,2|0,0:0|0:0,0:0:0:0:
85,240,102003,2,0,B|33:187|90:104|42:57,2,189.750005790711,2|2|0,0:0|0:0|0:0,0:0:0:0:
85,240,103224,1,2,0:0:0:0:
102,327,103399,2,0,P|136:329|164:314,1,63.2500019302369,0|2,3:0|0:0,0:0:0:0:
216,273,103747,2,0,P|250:271|278:286,1,63.2500019302369,2|2,0:0|3:0,0:0:0:0:
356,342,104096,6,0,P|363:279|517:321,2,253.000007720947,8|0|8,0:0|3:0|0:0,0:0:0:0:
312,214,105840,1,2,0:3:0:0:
312,214,106015,1,2,0:0:0:0:
359,128,106189,1,0,3:0:0:0:
359,128,106363,6,0,P|350:82|297:15,1,126.500003860474,2|0,0:0|3:0,0:0:0:0:
233,12,106887,2,0,P|202:13|174:26,1,63.2500019302369,8|0,0:0|0:0,0:0:0:0:
99,144,107410,1,2,0:0:0:0:
84,211,107584,1,2,0:0:0:0:
14,200,107759,2,0,B|54:206|79:157|154:185,1,126.500003860474,0|0,3:0|0:0,0:0:0:0:
193,219,108282,2,0,P|195:289|153:333,1,126.500003860474,8|0,0:0|0:0,0:0:0:0:
90,339,108806,1,2,0:0:0:0:
42,288,108980,1,4,3:2:0:0:
256,192,109154,12,0,111072,0:0:0:0:
256,336,111422,5,8,3:2:0:0:
256,240,111596,1,8,3:2:0:0:
368,288,111771,2,0,P|464:248|368:208,2,258.75000987053,4|0|2,3:2|3:0|0:0,0:0:0:0:
144,288,113166,2,0,P|48:248|144:208,2,258.75000987053,2|2|2,0:0|0:0|0:0,0:0:0:0:
292,169,114561,6,0,P|303:118|325:-6,1,172.500006580353,0|0,3:0|0:0,0:0:0:0:
418,17,115085,2,0,P|407:68|385:192,1,172.500006580353,0|0,3:0|0:0,0:0:0:0:
426,272,115608,1,2,0:0:0:0:
240,229,115957,2,0,P|160:193|80:225,1,172.500006580353,2|0,0:0|3:0,0:0:0:0:
12,282,116479,1,0,3:0:0:0:
12,282,116654,2,0,P|48:202|16:122,1,172.500006580353,8|0,0:0|0:0,0:0:0:0:
59,39,117177,2,0,P|139:3|219:35,1,172.500006580353,2|0,0:0|0:0,0:0:0:0:
192,128,117701,1,0,0:0:0:0:
192,128,117875,1,0,3:0:0:0:
192,128,118049,2,0,P|176:170|182:215,1,86.2500032901765,8|2,0:0|0:0,0:0:0:0:
85,376,118573,5,2,0:0:0:0:
85,376,118747,2,0,P|49:385|-11:376,2,86.2500032901765,2|2|0,0:0|0:0|3:0,0:0:0:0:
166,326,119271,2,0,P|252:316|332:349,1,172.500006580353,2|0,0:0|0:0,0:0:0:0:
418,313,119794,1,2,0:0:0:0:
333,143,120143,2,0,P|223:208|95:211,1,258.75000987053,0|0,3:0|3:0,0:0:0:0:
26,145,120840,1,8,0:0:0:0:
188,242,121189,1,2,0:0:0:0:
26,145,121538,1,2,0:0:0:0:
256,192,121713,12,2,122585,0:3:0:0:
144,96,122933,6,0,P|48:136|144:176,2,258.75000987053,4|0|2,3:2|3:0|0:0,0:0:0:0:
368,96,124328,2,0,P|464:136|368:176,2,258.75000987053,2|2|2,0:0|0:0|0:0,0:0:0:0:
350,285,125724,6,0,P|299:274|175:247,1,172.500006580353,0|0,3:0|0:0,0:0:0:0:
157,340,126247,2,0,P|241:358|325:376,1,172.500006580353,0|0,3:0|0:0,0:0:0:0:
417,350,126771,1,2,0:0:0:0:
474,169,127120,2,0,P|438:89|470:9,1,172.500006580353,2|0,0:0|3:0,0:0:0:0:
371,16,127642,1,2,3:2:0:0:
371,16,127817,2,0,P|343:95|379:171,2,172.500006580353,8|2|0,0:0|0:0|3:0,0:0:0:0:
211,116,128864,1,0,0:0:0:0:
211,116,129037,1,0,3:0:0:0:
211,116,129212,1,8,0:0:0:0:
470,242,129736,5,2,0:0:0:0:
470,242,129910,2,0,P|464:278|432:330,1,86.2500032901765,2|2,0:0|0:0,0:0:0:0:
349,315,130259,1,0,3:0:0:0:
349,315,130434,2,0,B|260:274|204:420|108:376,1,258.75000987053,2|2,0:0|0:0,0:0:0:0:
75,290,131131,6,0,P|185:225|313:222,1,258.75000987053,2|0,0:0|0:0,0:0:0:0:
410,198,131829,1,0,3:0:0:0:
410,198,132002,1,8,0:0:0:0:
410,198,132178,2,0,P|425:160|421:108,1,86.2500032901765,2|2,0:0|0:0,0:0:0:0:
256,80,132700,1,2,0:0:0:0:
352,144,133050,1,0,3:0:0:0:
352,144,133224,1,0,3:0:0:0:
352,144,133399,1,8,0:0:0:0:
160,144,133747,1,2,0:3:0:0:
213,281,134096,6,0,P|257:376|293:279,2,258.75000987053,2|0|2,3:2|3:0|0:0,0:0:0:0:
213,103,135491,2,0,P|257:8|293:105,2,258.75000987053,2|2|2,0:0|0:0|0:0,0:0:0:0:
314,218,138108,6,0,P|378:192|314:165,1,172.500006580353,2|0,0:0|0:0,0:0:0:0:
195,162,138631,1,0,3:0:0:0:
195,162,138805,2,0,P|133:193|197:217,1,172.500006580353,0|2,3:0|0:0,0:0:0:0:
256,384,139678,5,4,0:0:0:0:
256,192,139852,12,8,141770,0:0:0:0:
40,46,142468,5,2,3:2:0:0:
40,46,142642,1,2,0:2:0:0:
40,46,142817,1,2,0:2:0:0:
40,46,142991,1,2,3:2:0:0:
103,94,143166,2,0,P|90:173|59:270,1,143.75,8|0,0:0|0:0,0:0:0:0:
149,252,143689,2,0,P|162:173|193:76,1,143.75,2|2,0:0|0:0,0:0:0:0:
214,291,144387,1,2,0:0:0:0:
324,383,144736,1,2,0:0:0:0:
372,320,144911,2,0,P|420:334|436:369,1,71.875,2|0,0:0|0:0,0:0:0:0:
509,360,145259,5,0,3:0:0:0:
509,360,145433,2,0,P|496:281|465:184,1,143.75,2|2,0:0|3:2,0:0:0:0:
406,185,145956,1,8,0:0:0:0:
208,20,146829,2,0,P|129:33|32:64,1,143.75,2|0,0:0|0:0,0:0:0:0:
36,123,147352,2,0,P|49:202|80:299,1,143.75,8|2,0:0|0:0,0:0:0:0:
138,306,147875,1,2,0:0:0:0:
81,360,148049,5,0,3:0:0:0:
138,306,148224,2,0,P|191:307|217:325,1,71.875,2|2,0:0|0:0,0:0:0:0:
280,286,148573,2,0,P|293:207|324:110,1,143.75,2|2,3:2|0:0,0:0:0:0:
378,105,149096,1,0,0:0:0:0:
321,49,149270,2,0,P|242:62|145:93,2,143.75,2|2|2,0:0|0:0|0:0,0:0:0:0:
378,105,150142,1,8,0:0:0:0:
450,137,150317,2,0,P|445:181|432:209,2,71.875,2|2|2,0:0|0:0|0:0,0:0:0:0:
378,105,150840,5,2,3:2:0:0:
378,105,151014,1,2,0:2:0:0:
442,57,151189,1,2,0:2:0:0:
442,57,151363,1,2,3:2:0:0:
383,3,151538,1,8,0:0:0:0:
80,359,152410,1,2,0:0:0:0:
80,359,152585,2,0,B|94:322|23:293|49:218,1,143.75,2|8,3:2|0:0,0:0:0:0:
189,154,153282,1,2,0:3:0:0:
226,84,153456,1,2,0:0:0:0:
182,17,153631,6,0,P|135:2|105:-1,1,71.875,0|2,3:0|0:0,0:0:0:0:
37,24,153980,2,0,P|22:71|19:101,1,71.875,2|2,0:0|3:2,0:0:0:0:
72,151,154329,1,8,0:0:0:0:
201,248,154677,1,0,0:0:0:0:
201,248,154852,1,2,0:0:0:0:
55,310,155201,1,2,0:0:0:0:
72,151,155549,1,2,0:0:0:0:
201,248,155898,1,2,0:0:0:0:
239,94,156247,1,0,0:0:0:0:
300,43,156422,6,0,B|337:29|366:100|441:74,1,143.75,2|0,3:2|0:0,0:0:0:0:
480,140,156945,2,0,B|494:177|423:206|449:281,1,143.75,2|2,3:2|0:0,0:0:0:0:
379,316,157468,1,2,0:0:0:0:
318,367,157643,2,0,B|281:381|252:310|177:336,1,143.75,2|2,0:0|0:0,0:0:0:0:
109,362,158166,1,2,3:2:0:0:
71,292,158340,1,0,0:0:0:0:
138,250,158515,2,0,B|152:213|81:184|107:109,1,143.75,10|0,0:0|0:0,0:0:0:0:
155,54,159038,1,0,0:0:0:0:
230,77,159212,5,2,3:2:0:0:
369,2,159561,2,0,L|530:18,1,143.75,2|8,0:0|0:0,0:0:0:0:
230,77,160608,2,0,B|290:37|351:84|358:154|324:205|187:195|287:315,1,287.5,2|8,0:0|0:0,0:0:0:0:
256,335,161480,1,2,0:0:0:0:
414,353,161829,1,2,0:0:0:0:
475,303,162003,2,0,P|418:33|53:302,1,862.5,0|8,1:0|0:0,0:1:0:0:
256,192,164794,5,4,0:0:0:0:
256,192,173166,5,0,3:0:0:0:
256,192,173340,12,0,175608,0:0:0:0:
213,281,175956,6,0,P|257:376|293:279,2,258.75000987053,4|0|2,3:2|3:0|0:0,0:0:0:0:
213,103,177351,2,0,P|257:8|293:105,2,258.75000987053,2|2|2,0:0|0:0|0:0,0:0:0:0:
213,292,178746,6,0,P|162:303|38:325,1,172.500006580353,2|0,3:2|0:0,0:0:0:0:
31,229,179270,2,0,P|82:218|206:196,1,172.500006580353,2|0,3:2|0:0,0:0:0:0:
285,238,179793,1,2,0:0:0:0:
461,306,180142,2,0,P|497:226|465:146,1,172.500006580353,2|0,0:0|3:0,0:0:0:0:
374,142,180666,1,2,0:0:0:0:
414,56,180840,2,0,P|334:40|254:8,1,172.500006580353,8|0,0:0|0:0,0:0:0:0:
154,2,181363,2,0,P|118:77|150:157,1,172.500006580353,2|0,0:0|0:0,0:0:0:0:
164,348,182061,1,0,3:0:0:0:
164,348,182236,2,0,P|122:332|77:338,1,86.2500032901765,8|2,0:0|0:0,0:0:0:0:
272,304,182758,5,2,0:0:0:0:
272,304,182932,2,0,P|308:295|368:304,2,86.2500032901765,2|2|2,0:0|0:0|3:2,0:0:0:0:
225,220,183456,2,0,P|215:134|248:54,1,172.500006580353,2|0,0:0|0:0,0:0:0:0:
338,32,183979,1,2,0:0:0:0:
449,186,184329,1,2,3:2:0:0:
256,192,184503,12,8,186422,0:0:0:0:
256,192,186770,5,2,0:0:0:0:
213,103,187120,2,0,P|257:8|293:105,2,258.75000987053,4|0|2,3:2|3:0|0:0,0:0:0:0:
213,281,188515,2,0,P|257:376|293:279,2,258.75000987053,2|2|2,0:0|0:0|0:0,0:0:0:0:
402,276,189909,6,0,P|391:225|364:101,1,172.500006580353,2|0,3:2|0:0,0:0:0:0:
459,95,190432,2,0,P|477:179|495:263,1,172.500006580353,2|0,3:2|0:0,0:0:0:0:
464,354,190956,1,2,0:0:0:0:
280,305,191305,2,0,P|200:269|120:301,1,172.500006580353,2|0,0:0|3:0,0:0:0:0:
64,229,191829,1,2,0:0:0:0:
64,229,192003,2,0,P|92:150|56:74,2,172.500006580353,8|2|0,0:0|0:0|3:0,0:0:0:0:
254,17,193224,1,0,3:0:0:0:
254,17,193398,1,8,0:0:0:0:
441,237,193921,5,2,0:0:0:0:
441,237,194095,2,0,P|447:201|479:149,1,86.2500032901765,2|2,0:0|0:0,0:0:0:0:
442,71,194444,1,0,3:0:0:0:
442,71,194619,2,0,B|483:160|337:216|381:312,1,258.75000987053,2|2,0:0|0:0,0:0:0:0:
303,365,195317,1,0,0:0:0:0:
227,307,195491,2,0,P|232:230|184:261,1,172.500006580353,2|0,3:2|0:0,0:0:0:0:
132,185,196015,5,2,3:2:0:0:
132,185,196189,2,0,P|170:200|293:158,1,172.500006580353,8|2,0:0|0:0,0:0:0:0:
190,0,196887,1,2,0:0:0:0:
256,192,197061,12,0,197933,0:0:0:0:
213,291,198282,6,0,P|257:386|293:289,2,258.75000987053,4|0|2,3:2|3:0|0:0,0:0:0:0:
213,93,199677,2,0,P|257:-2|293:95,2,258.75000987053,2|2|2,0:0|0:0|0:0,0:0:0:0:
400,192,201073,5,2,3:2:0:0:
112,192,201597,1,2,3:2:0:0:
400,192,202119,2,0,L|417:276,1,86.2500032901765,2|0,0:0|0:0,0:0:0:0:
402,276,202468,6,0,P|391:225|364:101,1,172.500006580353,2|0,0:0|3:0,0:0:0:0:
459,95,202991,1,0,0:0:0:0:
459,95,203166,2,0,P|477:179|495:263,1,172.500006580353,10|0,0:0|0:0,0:0:0:0:
477,379,203689,2,0,P|441:208|405:39,1,345.000013160706,2|0,0:0|3:0,0:0:0:0:
406,41,204561,1,8,0:0:0:0:
169,199,205085,5,0,0:0:0:0:
169,199,205259,2,0,B|141:157|199:125|149:59,2,129.375004935265,2|2|2,0:0|0:0|0:0,0:0:0:0:
254,313,206044,1,2,0:0:0:0:
30,384,206480,1,2,0:0:0:0:
30,384,206654,1,0,3:0:0:0:
256,192,206829,12,8,208748,0:0:0:0:
117,149,209445,6,0,P|22:193|119:229,2,258.75000987053,4|0|2,3:2|3:0|0:0,0:2:0:0:
395,149,210840,2,0,P|490:193|393:229,2,258.75000987053,2|2|2,0:0|0:0|0:0,0:0:0:0:
198,218,213456,6,0,P|134:192|198:165,1,172.500006580353,2|0,0:0|0:0,0:0:0:0:
317,162,213980,1,0,3:0:0:0:
317,162,214154,2,0,P|379:193|315:217,1,172.500006580353,2|2,0:0|0:0,0:0:0:0:
256,384,215026,5,4,0:0:0:0:
256,192,215201,12,0,220608,3:0:0:0:
