osu file format v14

[General]
AudioFilename: audio.mp3
AudioLeadIn: 0
PreviewTime: 93784
Countdown: 0
SampleSet: Soft
StackLeniency: 0.4
Mode: 0
LetterboxInBreaks: 0
WidescreenStoryboard: 1

[Editor]
DistanceSpacing: 1.3
BeatDivisor: 4
GridSize: 32
TimelineZoom: 1.1

[Metadata]
Title:THE REAL FOLK BLUES
TitleUnicode:THE REAL FOLK BLUES
Artist:Seatbelts feat. Yamane Mai
ArtistUnicode:シートベルツ feat. 山根麻衣
Creator:moph
Version:Hard
Source:カウボーイビバップ
Tags:Cowboy Bebop Yoko Kanno 菅野よう子 vitaminless ビタミンレス
BeatmapID:1908352
BeatmapSetID:840047

[Difficulty]
HPDrainRate:4
CircleSize:3.7
OverallDifficulty:6
ApproachRate:7
SliderMultiplier:1.2
SliderTickRate:1

[Events]
//Background and Video events
0,0,"bg.jpg",0,0
//Break Periods
//Storyboard Layer 0 (Background)
//Storyboard Layer 1 (Fail)
//Storyboard Layer 2 (Pass)
//Storyboard Layer 3 (Foreground)
//Storyboard Sound Samples

[TimingPoints]
334,377.358490566038,4,2,1,100,1,0
1183,-100,4,2,1,20,0,0
1277,-100,4,2,1,15,0,0
1371,-100,4,2,1,10,0,0
1466,-100,4,2,1,5,0,0
3352,-100,4,2,1,10,0,0
4107,-100,4,2,1,15,0,0
4862,-100,4,2,1,20,0,0
5617,-100,4,2,1,25,0,0
6371,-100,4,2,1,30,0,0
7126,-100,4,2,1,35,0,0
7882,377.358490566038,4,2,1,70,1,0
8636,365.853658536585,4,2,1,70,1,0
9367,365.853658536585,4,2,1,70,1,0
9733,384.615384615385,4,2,1,70,1,0
10886,384.615384615385,4,2,1,70,1,0
11271,382.165605095541,4,2,1,70,1,0
12417,382.165605095541,4,2,1,70,1,0
12799,374.008436724566,4,2,1,70,1,0
13921,374.008436724566,4,2,1,70,1,0
17662,377.358490566038,4,2,1,70,1,0
18416,377.358490566038,4,2,1,70,1,0
19171,364.520048602673,4,2,1,70,1,0
19900,382.165605095541,4,2,1,70,1,0
21428,370.37037037037,4,2,1,70,1,0
22168,372.670807453416,4,2,1,70,1,0
22913,372.670807453416,4,2,1,70,1,0
27758,375,4,2,1,70,1,0
28883,375,4,2,1,70,1,0
31883,389.61038961039,4,2,1,60,1,0
31883,-125,4,2,1,60,0,0
33051,387.096774193548,4,2,1,60,1,0
33051,-125,4,2,1,60,0,0
33438,368.098159509202,4,2,1,60,1,0
33438,-125,4,2,1,60,0,0
34910,379.746835443038,4,2,1,60,1,0
34910,-125,4,2,1,60,0,0
36428,368.098159509202,4,2,1,60,1,0
36428,-125,4,2,1,60,0,0
37900,379.746835443038,4,2,1,60,1,0
37900,-125,4,2,1,60,0,0
39418,368.098159509202,4,2,1,60,1,0
39418,-125,4,2,1,60,0,0
40890,382.165605095541,4,2,1,60,1,0
40890,-125,4,2,1,60,0,0
42418,357.142857142857,4,2,1,60,1,0
42418,-125,4,2,1,60,0,0
43489,437.956204379562,4,2,1,60,1,0
43489,-125,4,2,1,60,0,0
43868,379.746835443038,4,2,1,60,1,0
43868,-125,4,2,1,60,0,0
46146,375,4,2,1,60,1,0
46146,-125,4,2,1,60,0,0
46896,377.358490566038,4,2,1,60,1,0
46896,-125,4,2,1,60,0,0
49537,368.098159509202,4,2,1,60,1,0
49537,-125,4,2,1,60,0,0
49905,370.37037037037,4,2,1,60,1,0
49905,-125,4,2,1,60,0,0
51386,382.165605095541,4,2,1,60,1,0
51386,-125,4,2,1,60,0,0
52914,369.230769230769,4,2,1,60,1,0
52914,-125,4,2,1,60,0,0
54390,384.615384615385,4,2,1,60,1,0
54390,-125,4,2,1,60,0,0
55543,379.746835443038,4,2,1,60,1,0
55543,-125,4,2,1,60,0,0
55922,363.636363636364,4,2,1,60,1,0
55922,-125,4,2,1,60,0,0
57012,400,4,2,1,60,1,0
57012,-125,4,2,1,60,0,0
57412,376.884422110553,4,2,1,60,1,0
57412,-125,4,2,1,60,0,0
58919,374.9,4,2,1,60,1,0
58919,-125,4,2,1,60,0,0
76539,370.37037037037,4,2,1,60,1,0
76539,-125,4,2,1,60,0,0
76909,370.37037037037,4,2,1,60,1,0
76909,-125,4,2,1,60,0,0
80242,394.736842105263,4,2,1,60,1,0
80242,-125,4,2,1,60,0,0
81031,370.37037037037,4,2,1,60,1,0
81031,-125,4,2,1,60,0,0
81401,370.37037037037,4,2,1,60,1,0
81401,-125,4,2,1,60,0,0
82882,384.615384615385,4,2,1,60,1,0
82882,-125,4,2,1,60,0,0
84420,370.37037037037,4,2,1,60,1,0
84420,-125,4,2,1,60,0,0
88864,384.615384615385,4,2,1,70,1,0
90017,363.636363636364,4,2,1,70,1,0
90380,363.636363636364,4,2,1,70,1,0
91471,377.358490566038,4,2,1,70,1,0
91848,377.358490566038,4,2,1,70,1,0
92980,379.746835443038,4,2,1,70,1,0
93359,379.746835443038,4,2,1,70,1,0
94878,387.096774193548,4,2,1,80,1,1
94878,-76.9230769230769,4,2,1,80,0,1
96039,-90.9090909090909,4,2,1,80,0,1
96426,363.636363636364,4,2,1,80,1,1
96426,-90.9090909090909,4,2,1,80,0,1
97880,383.386581469649,4,2,1,80,1,1
97880,-90.9090909090909,4,2,1,80,0,1
99030,365.853658536585,4,2,1,80,1,1
99030,-90.9090909090909,4,2,1,80,0,1
99395,365.853658536585,4,2,1,80,1,1
99395,-90.9090909090909,4,2,1,80,0,1
100859,375,4,2,1,80,1,1
100859,-90.9090909090909,4,2,1,80,0,1
106859,379.746835443038,4,2,1,80,1,1
106859,-76.9230769230769,4,2,1,80,0,1
107998,-90.9090909090909,4,2,1,80,0,1
109517,370.37037037037,4,2,1,80,1,1
109517,-90.9090909090909,4,2,1,80,0,1
109887,370.37037037037,4,2,1,80,1,1
109887,-90.9090909090909,4,2,1,80,0,1
110628,384.615384615385,4,2,1,80,1,1
110628,-90.9090909090909,4,2,1,80,0,1
111397,384.615384615385,4,2,1,80,1,1
111397,-90.9090909090909,4,2,1,80,0,1
111781,368.098159509202,4,2,1,80,1,1
111781,-90.9090909090909,4,2,1,80,0,1
112885,368.098159509202,4,2,1,80,1,1
112885,-90.9090909090909,4,2,1,80,0,1
113253,389.61038961039,4,2,1,80,1,1
113253,-90.9090909090909,4,2,1,80,0,1
114032,361.44578313253,4,2,1,80,1,1
114032,-90.9090909090909,4,2,1,80,0,1
114393,361.44578313253,4,2,1,80,1,1
114393,-90.9090909090909,4,2,1,80,0,1
115116,379.746835443038,4,2,1,80,1,1
115116,-90.9090909090909,4,2,1,80,0,1
115875,379.746835443038,4,2,1,80,1,1
115875,-90.9090909090909,4,2,1,80,0,1
117394,365.853658536585,4,2,1,80,1,1
117394,-90.9090909090909,4,2,1,80,0,1
118857,382.165605095541,4,2,1,80,1,1
118857,-90.9090909090909,4,2,1,80,0,1
120385,368.098159509202,4,2,1,80,1,1
120385,-90.9090909090909,4,2,1,80,0,1
121489,377.358490566038,4,2,1,80,1,1
121489,-90.9090909090909,4,2,1,80,0,1
121866,377.358490566038,4,2,1,80,1,1
121866,-90.9090909090909,4,2,1,80,0,1
122998,361.44578313253,4,2,1,80,1,1
122998,-90.9090909090909,4,2,1,80,0,1
123359,377.358490566038,4,2,1,80,1,1
123359,-90.9090909090909,4,2,1,80,0,1
124868,387.096774193548,4,2,1,70,1,0
126416,377.358490566038,4,2,1,70,1,0
127925,363.636363636364,4,2,1,70,1,0
128652,384.615384615385,4,2,1,70,1,0
129421,384.615384615385,4,2,1,70,1,0
129805,372.670807453416,4,2,1,70,1,0
130550,361.44578313253,4,2,1,70,1,0
130911,361.44578313253,4,2,1,70,1,0
131272,394.736842105263,4,2,1,70,1,0
132061,366.97247706422,4,2,1,70,1,0
132427,366.97247706422,4,2,1,70,1,0
134262,387.096774193548,4,2,1,70,1,0
135036,365.853658536585,4,2,1,70,1,0
135401,365.853658536585,4,2,1,70,1,0
137231,392.156862745098,4,2,1,70,1,0
138015,382.156862745098,4,2,1,70,1,0
138397,382.156862745098,4,2,1,70,1,0
138779,357.142857142857,4,2,1,70,1,0
139493,384.615384615385,4,2,1,70,1,0
139877,384.615384615385,4,2,1,70,1,0
141416,365.853658536585,4,2,1,70,1,0
142879,387.096774193548,4,2,1,70,1,0
144040,369.230769230769,4,2,1,70,1,0
144409,369.230769230769,4,2,1,70,1,0
146255,389.61038961039,4,2,1,70,1,0
146839,370.37037037037,4,2,1,70,1,0
147394,363.636363636364,4,2,1,70,1,0
148128,363.636363636364,4,2,1,70,1,0
148855,384.615384615385,4,2,1,60,1,0
148855,-125,4,2,1,60,0,0
150393,372.670807453416,4,2,1,60,1,0
150393,-125,4,2,1,60,0,0
151883,377.121307353866,4,2,1,60,1,0
151883,-125,4,2,1,60,0,0
156408,370.37037037037,4,2,1,60,1,0
156408,-125,4,2,1,60,0,0
157889,379.746835443038,4,2,1,60,1,0
157889,-125,4,2,1,60,0,0
160167,364.741641337386,4,2,1,60,1,0
160167,-125,4,2,1,60,0,0
160896,364.741641337386,4,2,1,60,1,0
160896,-125,4,2,1,60,0,0
161990,382.165605095541,4,2,1,60,1,0
161990,-125,4,2,1,60,0,0
162372,382.165605095541,4,2,1,60,1,0
162372,-125,4,2,1,60,0,0
163136,375,4,2,1,60,1,0
163136,-125,4,2,1,60,0,0
163886,374.765771392879,4,2,1,60,1,0
163886,-125,4,2,1,60,0,0
170631,379.746835443038,4,2,1,60,1,0
170631,-125,4,2,1,60,0,0
171390,379.746835443038,4,2,1,60,1,0
171390,-125,4,2,1,60,0,0
172149,375,4,2,1,60,1,0
172149,-125,4,2,1,60,0,0
172899,384.615384615385,4,2,1,60,1,0
172899,-125,4,2,1,60,0,0
173668,374.064837905237,4,2,1,60,1,0
173668,-125,4,2,1,60,0,0
174416,374.064837905237,4,2,1,60,1,0
174416,-125,4,2,1,60,0,0
178904,-100,4,2,1,70,0,0
181897,370.37037037037,4,2,1,70,1,0
184859,382.165605095541,4,2,1,80,1,1
184859,-76.9230769230769,4,2,1,80,0,1
185623,-90.9090909090909,4,2,1,80,0,1
186387,375,4,2,1,80,1,1
186387,-90.9090909090909,4,2,1,80,0,1
187887,368.098159509202,4,2,1,80,1,1
187887,-90.9090909090909,4,2,1,80,0,1
189359,379.746835443038,4,2,1,80,1,1
189359,-90.9090909090909,4,2,1,80,0,1
190498,361.44578313253,4,2,1,80,1,1
190498,-90.9090909090909,4,2,1,80,0,1
190859,361.44578313253,4,2,1,80,1,1
190859,-90.9090909090909,4,2,1,80,0,1
191220,382.165605095541,4,2,1,80,1,1
191220,-90.9090909090909,4,2,1,80,0,1
192366,382.165605095541,4,2,1,80,1,1
192366,-90.9090909090909,4,2,1,80,0,1
192748,361.44578313253,4,2,1,80,1,1
192748,-90.9090909090909,4,2,1,80,0,1
193109,372.670807453416,4,2,1,80,1,1
193109,-90.9090909090909,4,2,1,80,0,1
193854,372.670807453416,4,2,1,80,1,1
193854,-90.9090909090909,4,2,1,80,0,1
196090,394.736842105263,4,2,1,80,1,1
196090,-90.9090909090909,4,2,1,80,0,1
196879,372.670807453416,4,2,1,80,1,1
196879,-76.9230769230769,4,2,1,80,0,1
197997,387.096774193548,4,2,1,80,1,1
197997,-90.9090909090909,4,2,1,80,0,1
198384,387.096774193548,4,2,1,80,1,1
198384,-90.9090909090909,4,2,1,80,0,1
199158,372.670807453416,4,2,1,80,1,1
199158,-90.9090909090909,4,2,1,80,0,1
199903,372.670807453416,4,2,1,80,1,1
199903,-90.9090909090909,4,2,1,80,0,1
200648,382.165605095541,4,2,1,80,1,1
200648,-90.9090909090909,4,2,1,80,0,1
201412,382.165605095541,4,2,1,80,1,1
201412,-90.9090909090909,4,2,1,80,0,1
201794,365.853658536585,4,2,1,80,1,1
201794,-90.9090909090909,4,2,1,80,0,1
202891,365.853658536585,4,2,1,80,1,1
202891,-90.9090909090909,4,2,1,80,0,1
204354,375.351892399124,4,2,1,80,1,1
204354,-90.9090909090909,4,2,1,80,0,1
208858,-76.9230769230769,4,2,1,80,0,1
209608,-90.9090909090909,4,2,1,80,0,1
214863,372.670807453416,4,2,1,80,1,1
214863,-90.9090909090909,4,2,1,80,0,1
217844,382.165605095541,4,2,1,80,1,1
217844,-90.9090909090909,4,2,1,80,0,1
219372,365.853658536585,4,2,1,80,1,1
219372,-90.9090909090909,4,2,1,80,0,1
220835,392.156862745098,4,2,1,80,1,1
220835,-76.9230769230769,4,2,1,80,0,1
221619,-90.9090909090909,4,2,1,80,0,1
222403,372.670807453416,4,2,1,80,1,1
222403,-90.9090909090909,4,2,1,80,0,1
223893,372.670807453416,4,2,1,80,1,1
223893,-90.9090909090909,4,2,1,80,0,1
226874,387.096774193548,4,2,1,80,1,1
226874,-90.9090909090909,4,2,1,80,0,1
227648,372.670807453416,4,2,1,80,1,1
227648,-90.9090909090909,4,2,1,80,0,1
228393,382.165605095541,4,2,1,80,1,1
228393,-90.9090909090909,4,2,1,80,0,1
229157,368.098159509202,4,2,1,80,1,1
229157,-90.9090909090909,4,2,1,80,0,1
229893,377.358490566038,4,2,1,80,1,1
229893,-90.9090909090909,4,2,1,80,0,1
232157,368.098159509202,4,2,1,80,1,1
232157,-90.9090909090909,4,2,1,80,0,1
232893,379.746835443038,4,2,1,80,1,1
232893,-90.9090909090909,4,2,1,80,0,1
233652,365.853658536585,4,2,1,80,1,1
233652,-90.9090909090909,4,2,1,80,0,1
234383,365.853658536585,4,2,1,80,1,1
234383,-90.9090909090909,4,2,1,80,0,1
235847,372.670807453416,4,2,1,80,1,1
235847,-90.9090909090909,4,2,1,80,0,1
237337,365.853658536585,4,2,1,80,1,1
237337,-90.9090909090909,4,2,1,80,0,1
238800,400,4,2,1,80,1,0
238900,-100,4,2,1,50,0,0
239600,392.156862745098,4,2,1,50,1,0
240384,376.546835443038,4,2,1,50,1,0
241808,-100,4,2,1,20,0,0
243396,368.098159509202,4,2,1,20,1,0
244132,370.37037037037,4,2,1,20,1,0
244872,370.37037037037,4,2,1,20,1,0

[Colours]
Combo1 : 188,138,138
Combo2 : 138,138,188
Combo3 : 188,188,138
Combo4 : 138,138,138
Combo5 : 138,188,138
Combo6 : 189,141,189

[HitObjects]
256,192,1183,12,4,7882,1:2:0:0:
391,83,8259,6,0,L|371:202,1,120,0|8,1:0|0:2,0:0:0:0:
371,202,9001,1,2,0:0:0:0:
400,280,9184,1,8,0:0:0:0:
317,265,9367,2,0,P|253:285|208:339,1,120,2|0,0:0|1:0,0:0:0:0:
140,358,9925,2,0,P|106:356|70:333,1,60,2|8,0:0|0:0,0:0:0:0:
25,283,10309,1,2,0:0:0:0:
96,238,10502,2,0,P|129:239|165:262,1,60,2|0,0:0|1:0,0:0:0:0:
236,354,10886,6,0,P|229:294|264:244,1,120,4|2,1:2|1:2,0:0:0:0:
427,339,11653,1,8,0:0:0:0:
260,246,12035,1,0,0:0:0:0:
310,314,12226,2,0,L|430:340,1,120,8|0,0:0|0:0,0:0:0:0:
497,290,12799,2,0,P|505:257|493:211,1,60,2|0,1:2|0:0,0:0:0:0:
450,164,13173,1,8,0:0:0:0:
370,192,13360,2,0,P|360:132|388:73,1,120,0|0,0:0|0:0,0:0:0:0:
243,26,13921,6,0,P|253:86|225:145,2,120,4|2|8,1:2|1:2|0:0,0:0:0:0:
243,26,15043,2,0,P|215:41|180:41,1,60,2|8,0:0|0:0,0:0:0:0:
104,56,15417,2,0,P|76:41|41:41,2,60,2|0|0,0:0|0:0|1:0,0:0:0:0:
122,137,15978,2,0,L|109:213,1,60,2|8,0:0|0:0,0:0:0:0:
29,210,16352,2,0,L|42:286,1,60,2|0,0:0|0:0,0:0:0:0:
55,351,16726,1,0,0:0:0:0:
181,261,16913,6,0,L|169:380,1,120,4|2,1:2|1:2,0:0:0:0:
338,380,17662,2,0,L|327:261,1,120,8|0,0:0|0:0,0:0:0:0:
265,201,18228,2,0,P|292:181|322:175,1,60,8|0,0:0|0:0,0:0:0:0:
393,212,18604,2,0,P|420:231|450:237,2,60,0|2|0,0:0|1:2|0:0,0:0:0:0:
385,124,19171,2,0,L|378:56,1,60,10|2,0:2|1:2,0:0:0:0:
303,27,19535,2,0,L|297:99,1,60,0|2,0:0|1:2,0:0:0:0:
174,144,19900,6,0,L|166:22,2,120,4|0|8,1:2|1:0|0:0,0:0:0:0:
174,144,21046,1,2,0:0:0:0:
96,177,21237,1,8,0:0:0:0:
163,230,21428,2,0,L|166:351,1,120,2|2,1:2|1:2,0:0:0:0:
243,316,21983,2,0,P|283:320|312:342,1,60,2|8,0:0|0:0,0:0:0:0:
364,383,22354,1,2,0:0:0:0:
382,301,22540,2,0,P|398:276|423:260,1,60,2|0,1:2|1:0,0:0:0:0:
493,129,22913,6,0,L|507:248,2,120,4|0|10,1:2|1:0|0:0,0:0:0:0:
493,129,24031,1,0,0:0:0:0:
413,154,24217,1,10,0:0:0:0:
426,71,24403,2,0,P|415:39|394:16,1,60,0|0,1:2|0:0,0:0:0:0:
313,17,24776,2,0,P|294:40|285:68,1,60,2|2,1:2|0:2,0:0:0:0:
296,151,25149,1,8,0:0:0:0:
218,117,25335,2,0,L|89:104,1,120,2|0,0:0|1:0,0:0:0:0:
26,223,25894,6,0,L|155:210,2,120,4|0|8,1:2|1:0|0:0,0:0:0:0:
26,223,27012,2,0,P|59:246|77:276,1,60,2|8,0:0|0:0,0:0:0:0:
87,344,27385,2,0,P|54:367|36:397,2,60,2|0|0,1:2|0:0|1:0,0:0:0:0:
154,293,27945,2,0,L|215:317,1,60,2|8,0:0|0:0,0:0:0:0:
274,369,28320,2,0,L|335:345,1,60,2|0,0:0|0:0,0:0:0:0:
410,322,28695,1,0,0:0:0:0:
291,265,28883,6,0,L|304:140,1,120,4|0,1:2|1:0,0:0:0:0:
468,174,29633,2,0,L|455:49,1,120,8|0,0:0|1:0,0:0:0:0:
380,18,30195,1,0,0:0:0:0:
309,63,30383,2,0,L|296:126,1,60,0|8,1:0|0:3,0:0:0:0:
211,121,30758,2,0,L|199:63,1,60,8|8,0:3|0:3,0:0:0:0:
120,30,31133,2,0,P|79:31|54:46,1,60,8|8,0:3|0:0,0:0:0:0:
32,117,31508,2,0,P|46:143|70:160,1,60,8|0,0:3|0:0,0:0:0:0:
211,121,31883,6,0,L|198:237,1,96,6|0,1:2|1:0,0:0:0:0:
72,257,32662,2,0,L|85:373,1,96,8|0,0:0|0:0,0:0:0:0:
162,369,33244,1,2,1:2:0:0:
208,296,33438,2,0,P|247:284|305:303,1,96,0|0,1:2|1:0,0:0:0:0:
448,365,34174,1,8,0:0:0:0:
483,291,34358,2,0,L|497:192,1,96,2|2,0:0|0:0,0:0:0:0:
360,189,34910,6,0,L|374:288,2,96,2|0|8,1:2|1:0|0:0,0:0:0:0:
360,189,36049,2,0,P|386:173|403:144,1,48,2|2,0:0|1:2,0:0:0:0:
405,75,36428,2,0,P|368:48|312:52,1,96,0|0,1:0|1:0,0:0:0:0:
251,197,37164,2,0,P|203:198|165:170,1,96,8|2,0:0|0:0,0:0:0:0:
156,89,37716,1,0,1:0:0:0:
91,135,37900,6,0,L|34:128,2,48,2|0|2,1:2|0:0|1:2,0:0:0:0:
108,297,38659,2,0,L|216:311,1,96,10|2,0:2|0:2,0:0:0:0:
270,356,39229,1,10,0:2:0:0:
338,307,39418,2,0,P|386:311|423:345,1,96,0|0,1:0|1:0,0:0:0:0:
431,178,40154,2,0,L|458:70,1,96,10|2,0:0|0:0,0:0:0:0:
403,20,40706,1,0,1:0:0:0:
341,70,40890,6,0,L|338:184,1,96,2|0,1:2|1:0,0:0:0:0:
338,165,41654,2,0,P|314:172|286:192,2,48,8|0|0,0:0|0:0|0:0,0:0:0:0:
347,246,42227,1,8,0:0:0:0:
362,325,42418,2,0,P|386:318|414:298,2,48,2|0|0,1:2|0:0|1:0,0:0:0:0:
212,259,43132,2,0,B|231:304|231:304|224:357,1,96,8|0,0:0|0:0,0:0:0:0:
154,378,43707,1,8,0:0:0:0:
97,324,43868,6,0,L|0:340,2,96,2|0|10,1:2|1:0|0:0,0:0:0:0:
97,324,45007,2,0,P|86:298|85:277,1,48,0|2,0:0|1:2,0:0:0:0:
57,201,45386,2,0,P|99:199|142:151,1,96,0|0,1:0|1:0,0:0:0:0:
56,19,46146,1,8,0:0:0:0:
136,29,46333,2,0,L|241:40,1,96,2|2,0:0|1:2,0:0:0:0:
354,105,46896,6,0,P|350:55|390:7,2,96,2|0|8,1:2|1:0|0:0,0:0:0:0:
354,105,48028,2,0,P|367:128|385:141,1,48,2|2,0:0|1:2,0:0:0:0:
459,173,48405,2,0,P|472:150|490:137,2,48,2|0|0,1:2|0:0|1:0,0:0:0:0:
441,252,48971,1,0,0:0:0:0:
491,315,49160,2,0,P|449:332|394:317,1,96,8|2,0:0|0:0,0:0:0:0:
250,260,49905,6,0,L|263:369,2,96,2|2|10,1:2|1:2|0:0,0:0:0:0:
250,260,51016,2,0,P|224:276|198:279,1,48,0|2,0:0|1:2,0:0:0:0:
140,236,51386,2,0,P|123:212|104:201,2,48,0|0|0,1:0|0:0|1:0,0:0:0:0:
138,317,51959,1,0,0:0:0:0:
69,364,52150,2,0,P|56:326|73:263,1,96,10|0,0:2|0:0,0:0:0:0:
209,179,52914,6,0,P|222:141|205:78,2,96,2|0|8,1:2|1:0|0:0,0:0:0:0:
209,179,54021,2,0,P|189:194|161:202,1,48,0|8,0:0|0:0,0:0:0:0:
101,158,54390,2,0,P|81:143|59:135,2,48,0|0|0,1:0|0:0|1:0,0:0:0:0:
97,239,54966,2,0,P|77:253|55:261,2,48,0|8|0,0:0|0:0|1:0,0:0:0:0:
167,201,55543,2,0,P|189:208|208:223,1,48,0|8,1:0|0:0,0:0:0:0:
210,308,55922,6,0,L|312:323,1,96,0|0,1:0|1:0,0:0:0:0:
371,282,56467,1,0,1:0:0:0:
425,342,56649,2,0,P|448:350|472:348,2,48,0|0|8,1:0|1:0|0:0,0:0:0:0:
371,282,57212,1,0,1:0:0:0:
436,225,57412,2,0,P|459:224|482:231,2,48,0|8|0,1:0|0:0|1:0,0:0:0:0:
357,200,57977,2,0,P|370:174|394:149,2,48,0|8|0,1:0|0:0|1:0,0:0:0:0:
371,282,58542,1,10,0:2:0:0:
371,282,58919,6,0,P|328:312|267:307,1,96,6|0,1:2|1:0,0:0:0:0:
159,209,59668,2,0,P|111:212|73:240,1,96,10|0,0:0|0:0,0:0:0:0:
46,318,60231,1,10,0:0:0:0:
114,362,60418,2,0,P|161:358|199:330,1,96,0|0,1:0|1:0,0:0:0:0:
231,170,61168,1,8,0:0:0:0:
160,128,61355,2,0,L|170:27,1,96,2|2,1:2|1:2,0:0:0:0:
29,25,61918,6,0,B|9:69|9:69|23:122,2,96,2|0|8,1:2|1:0|0:0,0:0:0:0:
29,25,63042,2,0,P|54:42|93:45,1,48,0|10,0:0|0:2,0:0:0:0:
143,84,63417,2,0,P|168:67|207:64,2,48,0|0|0,1:0|0:0|1:0,0:0:0:0:
270,186,64167,2,0,L|280:85,1,96,8|2,0:0|0:2,0:0:0:0:
288,9,64729,1,0,0:0:0:0:
355,55,64917,6,0,P|391:70|446:65,1,96,2|2,1:2|1:2,0:0:0:0:
496,220,65667,2,0,P|460:205|405:210,1,96,10|2,0:2|0:2,0:0:0:0:
358,277,66229,1,10,0:2:0:0:
412,338,66417,2,0,L|479:343,2,48,2|0|0,1:2|0:0|1:0,0:0:0:0:
250,362,67166,2,0,L|133:354,1,96,10|0,0:0|0:0,0:0:0:0:
105,289,67729,1,2,1:2:0:0:
23,284,67916,6,0,P|-1:325|9:384,1,96,2|0,1:2|1:0,0:0:0:0:
146,215,68666,2,0,P|149:167|125:127,1,96,8|0,0:0|0:0,0:0:0:0:
44,132,69228,1,8,0:0:0:0:
78,57,69416,2,0,L|70:9,2,48,2|0|0,1:2|0:0|1:0,0:0:0:0:
244,49,70166,1,8,0:0:0:0:
301,106,70353,2,0,P|352:113|391:92,1,96,0|0,1:0|1:0,0:0:0:0:
463,187,70915,6,0,P|412:180|373:201,2,96,2|0|10,1:2|1:0|0:2,0:0:0:0:
463,187,72040,2,0,P|484:200|499:219,1,48,0|2,0:0|1:2,0:0:0:0:
428,260,72415,2,0,L|423:358,1,96,0|0,1:0|1:0,0:0:0:0:
261,383,73165,1,8,0:0:0:0:
195,334,73352,2,0,P|185:287|217:229,1,96,2|2,1:2|1:2,0:0:0:0:
345,258,73915,6,0,B|356:303|356:303|337:348,2,96,2|0|8,1:2|1:0|0:0,0:0:0:0:
345,258,75039,2,0,L|372:195,1,48,2|10,0:2|0:2,0:0:0:0:
398,139,75414,2,0,L|425:76,2,48,2|0|0,1:2|0:0|1:0,0:0:0:0:
316,149,75976,1,0,0:0:0:0:
268,82,76164,2,0,P|207:79|172:117,1,96,8|2,0:0|0:2,0:0:0:0:
27,153,76909,6,0,P|73:145|113:170,2,96,2|2|10,1:2|1:2|0:2,0:0:0:0:
27,153,78020,2,0,P|9:171|-2:196,1,48,0|10,0:0|0:2,0:0:0:0:
42,260,78390,2,0,L|45:371,1,96,2|0,1:2|1:0,0:0:0:0:
220,380,79131,1,10,0:2:0:0:
295,348,79316,2,0,B|306:302|306:302|289:255,1,96,2|2,1:2|1:2,0:0:0:0:
415,345,79871,6,0,B|404:299|404:299|421:252,1,96,4|0,1:2|1:0,0:0:0:0:
420,253,80636,2,0,P|429:205|401:160,1,96,8|0,0:0|0:0,0:0:0:0:
332,131,81216,1,0,1:0:0:0:
397,82,81401,2,0,L|454:75,2,48,8|0|0,0:0|1:0|0:0,0:0:0:0:
322,50,81956,1,0,1:0:0:0:
257,99,82141,2,0,L|209:104,1,48,8|0,0:0|1:0,0:0:0:0:
167,175,82512,2,0,L|119:169,1,48,0|0,1:0|1:0,0:0:0:0:
32,83,82882,6,0,L|147:71,1,96,4|2,1:2|1:2,0:0:0:0:
47,215,83651,1,10,0:2:0:0:
107,269,83843,2,0,L|100:372,1,96,2|2,1:2|1:2,0:0:0:0:
236,371,84420,6,0,L|229:268,1,96,0|2,1:0|1:2,0:0:0:0:
360,178,85160,1,10,0:2:0:0:
411,241,85345,2,0,P|445:249|504:216,1,96,2|2,1:2|1:2,0:0:0:0:
476,85,85901,6,0,P|442:77|383:110,1,96,0|0,1:0|1:0,0:0:0:0:
360,178,86457,1,2,0:2:0:0:
310,112,86642,2,0,L|259:110,2,48,10|2|0,0:2|1:2|0:0,0:0:0:0:
153,64,87382,6,0,B|138:111|138:111|161:172,1,96,2|0,1:2|1:0,0:0:0:0:
189,228,87938,1,2,0:2:0:0:
133,287,88123,2,0,P|85:291|41:255,1,96,10|2,0:2|1:2,0:0:0:0:
214,368,88864,6,0,P|265:333|327:338,1,120,2|2,1:2|1:2,0:0:0:0:
395,375,89440,1,2,0:0:0:0:
471,339,89633,2,0,L|460:214,1,120,10|0,0:0|1:0,0:0:0:0:
399,162,90198,1,2,0:2:0:0:
442,90,90380,2,0,L|507:93,2,60,2|2|0,1:2|0:2|1:0,0:0:0:0:
378,34,90925,1,2,0:2:0:0:
330,103,91107,2,0,L|265:100,2,60,10|2|0,0:2|0:2|1:0,0:0:0:0:
190,8,91848,5,2,1:2:0:0:
110,34,92036,2,0,P|89:87|103:155,1,120,2|2,1:2|1:2,0:0:0:0:
166,197,92602,2,0,P|187:223|196:254,1,60,10|0,0:2|1:0,0:0:0:0:
112,260,92980,2,0,P|92:282|82:310,1,60,2|0,1:2|0:0,0:0:0:0:
148,363,93359,6,0,L|281:344,1,120,8|0,0:0|1:0,0:0:0:0:
347,369,93928,1,2,1:2:0:0:
354,285,94118,1,10,0:2:0:0:
435,308,94308,2,0,L|495:299,1,60,2|8,1:2|0:0,0:0:0:0:
276,259,94878,6,0,L|104:282,2,155.999992858887,6|0|12,1:2|1:0|0:0,0:0:0:0:
276,259,96039,5,2,1:2:0:0:
321,186,96232,2,0,L|390:175,1,66.0000020141602,2|0,1:2|0:2,0:0:0:0:
238,183,96607,5,2,1:2:0:0:
283,110,96789,2,0,L|349:99,1,66.0000020141602,2|0,1:2|0:0,0:0:0:0:
365,15,97153,6,0,L|213:38,1,132.00000402832,8|2,0:0|1:2,0:0:0:0:
135,164,97880,6,0,L|-16:141,2,132.00000402832,6|0|8,1:2|1:0|0:0,0:0:0:0:
135,164,99030,5,2,1:2:0:0:
92,237,99212,2,0,B|76:265|76:265|83:312,1,66.0000020141602,2|0,1:2|0:0,0:0:0:0:
165,280,99577,2,0,P|195:261|235:260,2,66.0000020141602,2|2|0,1:2|1:2|0:0,0:0:0:0:
218,348,100126,2,0,P|188:367|148:368,2,66.0000020141602,8|0|2,0:0|0:0|1:2,0:0:0:0:
300,372,100675,1,2,1:2:0:0:
340,298,100859,6,0,L|482:314,1,132.00000402832,4|0,1:2|1:0,0:0:0:0:
487,141,101609,2,0,L|345:125,1,132.00000402832,10|2,0:2|1:2,0:0:0:0:
297,189,102171,1,10,0:2:0:0:
275,105,102359,6,0,P|240:83|206:84,1,66.0000020141602,2|0,0:2|1:2,0:0:0:0:
153,22,102734,2,0,P|131:56|132:90,1,66.0000020141602,2|0,1:2|0:0,0:0:0:0:
72,143,103109,2,0,P|106:164|140:163,1,66.0000020141602,10|0,0:2|0:0,0:0:0:0:
194,226,103484,2,0,P|215:191|214:157,1,66.0000020141602,2|0,1:2|0:0,0:0:0:0:
215,82,103859,6,0,L|348:72,1,132.00000402832,6|0,1:2|1:0,0:0:0:0:
412,17,104421,1,2,0:2:0:0:
426,101,104609,1,10,0:2:0:0:
442,185,104796,2,0,L|309:195,1,132.00000402832,2|2,1:2|1:2,0:0:0:0:
390,347,105546,6,0,B|398:310|398:310|382:272,1,66.0000020141602,0|0,1:0|1:0,0:0:0:0:
307,315,105921,1,2,1:2:0:0:
231,274,106109,2,0,L|229:200,2,66.0000020141602,10|2|0,0:2|1:2|1:0,0:0:0:0:
232,360,106671,1,0,0:0:0:0:
158,317,106859,6,0,B|69:312|114:362|9:354,2,155.999992858887,6|0|8,1:2|1:0|0:0,0:0:0:0:
158,317,107998,5,2,1:2:0:0:
125,237,108188,2,0,L|137:167,1,66.0000020141602,8|2,0:2|0:2,0:0:0:0:
73,315,108567,5,2,1:2:0:0:
40,235,108757,2,0,L|52:165,1,66.0000020141602,2|0,1:2|0:0,0:0:0:0:
8,93,109137,6,0,L|142:74,1,132.00000402832,8|2,0:0|1:2,0:0:0:0:
223,61,109702,1,0,0:0:0:0:
276,127,109887,6,0,P|263:54|298:8,2,132.00000402832,6|0|10,1:2|1:0|0:0,0:0:0:0:
276,127,111012,5,2,0:2:0:0:
325,196,111204,2,0,P|360:200|394:188,1,66.0000020141602,0|0,1:0|0:0,0:0:0:0:
424,112,111589,1,10,0:2:0:0:
398,26,111781,2,0,B|364:34|345:64|345:64|318:39|266:38,1,132.00000402832,2|8,1:2|0:0,0:0:0:0:
224,197,112517,2,0,P|191:199|161:185,1,66.0000020141602,2|0,1:2|1:0,0:0:0:0:
146,99,112885,6,0,L|279:127,1,132.00000402832,6|0,1:2|1:0,0:0:0:0:
440,172,113642,2,0,L|307:200,1,132.00000402832,10|2,0:2|1:2,0:0:0:0:
280,279,114212,1,0,0:0:0:0:
313,358,114393,6,0,P|366:347|365:278,1,132.00000402832,2|2,1:2|1:2,0:0:0:0:
196,258,115116,2,0,P|178:310|240:344,1,132.00000402832,8|2,0:0|1:2,0:0:0:0:
280,279,115685,1,0,0:0:0:0:
253,197,115875,6,0,L|92:220,1,132.00000402832,6|0,1:2|1:0,0:0:0:0:
37,229,116444,1,2,0:2:0:0:
61,151,116634,1,10,0:2:0:0:
84,68,116824,2,0,P|49:66|15:79,2,66.0000020141602,2|0|2,1:2|0:0|1:2,0:0:0:0:
159,111,117394,6,0,P|203:122|285:70,1,132.00000402832,0|0,1:0|1:0,0:0:0:0:
313,6,117942,1,0,0:0:0:0:
361,76,118125,2,0,L|428:88,2,66.0000020141602,10|2|0,0:2|1:2|1:0,0:0:0:0:
312,233,118857,6,0,P|264:268|183:256,1,132.00000402832,6|2,1:2|1:2,0:0:0:0:
148,190,119430,1,2,1:2:0:0:
169,106,119621,2,0,P|217:71|298:83,1,132.00000402832,10|2,0:2|1:2,0:0:0:0:
333,149,120194,1,0,1:0:0:0:
387,78,120385,6,0,L|382:10,2,66.0000020141602,2|10|2,1:2|0:2|1:2,0:0:0:0:
451,139,120937,1,0,1:0:0:0:
397,208,121121,2,0,B|399:268|399:268|408:276|408:276|411:347,1,132.00000402832,8|0,0:0|1:0,0:0:0:0:
328,358,121677,1,0,1:0:0:0:
283,286,121866,6,0,L|210:302,1,66.0000020141602,14|0,0:2|1:0,0:0:0:0:
147,355,122243,2,0,L|74:371,1,66.0000020141602,10|0,0:2|1:0,0:0:0:0:
212,218,122620,6,0,L|139:234,1,66.0000020141602,10|0,0:2|1:0,0:0:0:0:
80,286,122998,2,0,L|0:303,1,66.0000020141602,10|8,0:2|0:3,0:0:0:0:
6,125,123359,6,0,B|4:161|4:161|21:186,2,66.0000020141602,6|0|2,0:2|1:0|1:2,0:0:0:0:
90,137,123924,1,0,0:0:0:0:
175,143,124113,2,0,B|176:114|176:114|156:84,2,66.0000020141602,2|0|0,1:2|1:0|1:0,0:0:0:0:
175,143,124868,6,0,B|185:92|185:92|181:82|181:82|197:20,2,120,4|0|8,1:2|1:0|0:0,0:0:0:0:
175,143,126029,1,2,1:2:0:0:
250,179,126222,1,8,0:2:0:0:
180,229,126416,2,0,P|156:282|175:353,1,120,2|2,0:2|1:2,0:0:0:0:
242,379,126982,2,0,P|274:378|303:361,1,60,0|8,0:2|0:2,0:0:0:0:
326,286,127359,1,2,0:2:0:0:
383,347,127548,2,0,P|411:354|440:348,1,60,2|0,1:2|1:0,0:0:0:0:
473,210,127925,6,0,B|418:232|418:232|350:201,1,120,4|0,1:2|1:0,0:0:0:0:
322,133,128470,1,0,0:0:0:0:
349,58,128652,2,0,B|294:36|294:36|226:67,1,120,10|0,0:2|0:0,0:0:0:0:
212,133,129228,2,0,P|182:117|165:85,1,60,10|0,0:2|0:0,0:0:0:0:
137,22,129613,1,0,0:0:0:0:
52,40,129805,2,0,P|27:57|14:83,1,60,0|0,1:0|1:0,0:0:0:0:
50,159,130177,2,0,P|74:176|87:202,2,60,10|0|0,0:2|0:0|1:0,0:0:0:0:
7,230,130730,1,8,0:0:0:0:
55,361,130911,6,0,B|139:341|139:341|175:308,1,120,4|0,1:2|1:0,0:0:0:0:
353,336,131666,2,0,B|329:314|329:314|244:293,1,120,8|2,0:0|1:2,0:0:0:0:
203,215,132244,1,8,0:0:0:0:
245,143,132427,2,0,P|217:131|183:131,2,60,2|0|2,1:2|0:0|1:2,0:0:0:0:
293,212,132977,2,0,P|315:192|329:156,1,60,0|8,0:2|0:2,0:0:0:0:
411,170,133344,2,0,P|409:140|391:106,1,60,0|0,0:2|0:2,0:0:0:0:
339,51,133711,1,0,1:0:0:0:
255,48,133894,6,0,P|218:48|178:64,2,60,4|0|0,1:2|0:0|1:0,0:0:0:0:
339,51,134455,1,0,1:0:0:0:
396,113,134649,2,0,L|510:78,1,120,10|0,0:2|1:2,0:0:0:0:
486,243,135401,5,0,0:0:0:0:
429,308,135583,2,0,L|487:334,2,60,8|0|0,0:0|1:0|0:0,0:0:0:0:
360,255,136132,2,0,P|344:281|342:317,1,60,8|8,0:0|0:0,0:0:0:0:
276,363,136498,2,0,P|260:337|258:301,1,60,8|8,0:0|0:0,0:0:0:0:
111,299,136864,6,0,P|142:231|112:172,1,120,4|0,1:2|1:0,0:0:0:0:
62,35,137623,2,0,P|31:103|61:162,1,120,8|2,0:0|1:2,0:0:0:0:
115,98,138206,1,8,0:0:0:0:
166,34,138397,2,0,P|195:84|184:141,1,120,2|0,0:2|1:0,0:0:0:0:
139,219,138957,2,0,P|179:223|208:245,1,60,2|8,0:2|0:0,0:0:0:0:
236,305,139314,1,2,0:2:0:0:
169,357,139493,2,0,P|129:353|100:331,1,60,2|0,1:2|1:0,0:0:0:0:
318,286,139877,6,0,P|378:286|423:325,2,120,4|0|10,1:2|1:0|0:2,0:0:0:0:
318,286,141030,1,0,1:0:0:0:
283,202,141223,2,0,B|283:173|283:173|311:152,1,60,10|0,0:2|0:2,0:0:0:0:
393,133,141598,1,0,1:0:0:0:
427,216,141781,2,0,B|427:245|427:245|399:266,1,60,0|0,1:0|0:0,0:0:0:0:
318,286,142147,2,0,L|324:350,1,60,10|0,0:2|1:0,0:0:0:0:
240,362,142513,2,0,L|233:289,1,60,0|0,1:0|1:0,0:0:0:0:
89,262,142879,6,0,L|68:380,2,120,4|0|8,1:2|1:0|0:0,0:0:0:0:
89,262,144040,2,0,P|61:246|47:220,1,60,2|8,1:2|0:0,0:0:0:0:
113,170,144409,2,0,P|140:185|154:211,2,60,2|0|0,0:2|1:0|1:0,0:0:0:0:
34,141,144962,2,0,B|25:110|25:110|41:70,1,60,2|8,0:2|0:0,0:0:0:0:
91,21,145332,2,0,B|122:12|122:12|162:28,1,60,2|2,1:2|0:2,0:0:0:0:
205,83,145701,1,0,1:0:0:0:
277,40,145885,6,0,L|338:45,2,60,4|0|0,1:2|0:0|1:0,0:0:0:0:
205,83,146449,1,0,1:0:0:0:
278,123,146644,2,0,L|359:132,1,60,10|0,0:2|0:0,0:0:0:0:
390,190,147024,2,0,L|471:199,1,60,0|0,1:0|1:0,0:0:0:0:
437,275,147394,6,0,P|417:299|408:332,1,60,2|8,1:2|0:0,0:0:0:0:
330,345,147757,2,0,P|311:319|281:301,1,60,0|0,1:0|1:0,0:0:0:0:
212,269,148128,2,0,L|141:291,1,60,8|8,1:2|0:0,0:0:0:0:
122,368,148491,2,0,L|53:346,1,60,8|8,0:0|0:0,0:0:0:0:
8,219,148855,6,0,L|106:213,1,96,4|0,1:2|1:2,0:0:0:0:
82,51,149624,2,0,L|180:57,1,96,10|2,0:2|0:2,0:0:0:0:
259,63,150201,1,10,0:2:0:0:
211,132,150393,2,0,B|187:173|187:173|209:234,1,96,2|2,1:2|1:2,0:0:0:0:
294,354,151138,1,8,0:0:0:0:
359,304,151324,2,0,B|375:258|375:258|351:217,1,96,2|2,1:2|1:2,0:0:0:0:
422,122,151883,6,0,P|410:79|436:21,2,96,2|0|8,1:2|1:0|0:0,0:0:0:0:
422,122,153014,2,0,P|439:134|460:162,1,48,0|8,0:0|0:0,0:0:0:0:
488,233,153391,2,0,P|463:272|462:340,1,96,2|2,1:2|1:2,0:0:0:0:
306,382,154145,2,0,P|301:334|275:294,1,96,8|2,0:0|0:2,0:0:0:0:
201,259,154711,1,0,1:0:0:0:
146,319,154899,6,0,P|121:335|99:338,2,48,2|0|2,1:2|0:0|1:2,0:0:0:0:
122,157,155654,2,0,P|161:129|212:129,1,96,10|2,0:2|0:2,0:0:0:0:
274,170,156219,1,10,0:2:0:0:
280,87,156408,2,0,L|286:32,2,48,0|0|0,1:0|0:0|1:0,0:0:0:0:
442,99,157148,2,0,L|428:195,1,96,10|0,0:2|0:0,0:0:0:0:
357,223,157704,1,0,1:0:0:0:
433,368,157889,6,0,L|419:273,1,96,2|0,1:2|1:0,0:0:0:0:
357,223,158458,1,0,1:0:0:0:
279,213,158648,2,0,P|256:221|231:240,2,48,10|0|0,0:2|0:0|0:0,0:0:0:0:
293,295,159218,1,8,0:0:0:0:
314,375,159407,2,0,P|337:367|362:348,2,48,2|0|2,1:2|1:0|1:2,0:0:0:0:
115,329,160167,2,0,P|92:337|67:356,2,48,8|2|0,0:0|0:2|0:0,0:0:0:0:
196,339,160714,1,8,0:0:0:0:
165,263,160896,6,0,P|118:248|59:267,2,96,2|0|10,1:2|1:0|0:2,0:0:0:0:
165,263,161990,2,0,P|156:234|157:207,1,48,0|10,0:0|0:2,0:0:0:0:
92,165,162372,2,0,P|90:120|117:70,1,96,2|0,1:2|1:0,0:0:0:0:
255,148,163136,1,8,0:0:0:0:
326,105,163323,2,0,P|328:60|301:10,1,96,2|2,1:2|1:2,0:0:0:0:
426,110,163886,6,0,P|424:65|451:15,2,96,2|0|8,1:2|1:0|0:0,0:0:0:0:
426,110,165010,2,0,P|437:133|454:152,1,48,2|10,1:2|0:2,0:0:0:0:
468,228,165385,2,0,P|457:249|442:267,2,48,0|0|0,1:0|0:0|1:0,0:0:0:0:
390,201,165947,1,0,0:0:0:0:
363,278,166134,2,0,L|328:387,1,96,8|2,0:0|0:2,0:0:0:0:
149,278,166884,6,0,L|184:387,2,96,2|2|10,1:2|1:2|0:2,0:0:0:0:
149,278,168008,2,0,P|119:289|95:287,1,48,0|10,0:0|0:2,0:0:0:0:
27,256,168383,2,0,P|13:225|16:159,1,96,0|0,1:0|1:0,0:0:0:0:
174,195,169132,1,10,0:2:0:0:
243,152,169320,2,0,P|259:107|255:59,1,96,0|2,0:0|1:2,0:0:0:0:
207,0,169882,5,2,1:2:0:0:
152,60,170069,2,0,L|51:40,1,96,2|2,1:2|1:2,0:0:0:0:
18,111,170631,2,0,L|119:131,1,96,10|2,0:2|1:2,0:0:0:0:
172,184,171200,1,2,0:2:0:0:
106,232,171390,2,0,B|95:251|95:251|99:299,2,48,10|0|10,0:2|1:0|0:2,0:0:0:0:
179,266,171959,1,8,0:3:0:0:
254,299,172149,2,0,B|265:280|265:280|261:232,2,48,8|8|8,0:3|0:3|0:3,0:0:0:0:
186,344,172711,1,0,1:0:0:0:
257,380,172899,6,0,L|370:371,1,96,4|2,1:2|1:2,0:0:0:0:
476,258,173668,1,10,0:2:0:0:
400,228,173855,2,0,P|387:182|404:131,1,96,2|10,1:2|0:2,0:0:0:0:
299,28,174416,6,0,P|312:74|295:125,1,96,0|2,1:0|1:2,0:0:0:0:
139,152,175164,1,10,0:2:0:0:
97,222,175351,2,0,L|-10:207,1,96,2|2,1:2|1:2,0:0:0:0:
0,350,175912,6,0,L|107:335,1,96,2|0,1:2|1:0,0:0:0:0:
155,282,176473,1,2,0:2:0:0:
219,331,176660,2,0,B|214:358|214:358|225:388,2,48,10|2|0,0:2|1:2|0:0,0:0:0:0:
298,348,177221,1,2,1:2:0:0:
374,377,177408,6,0,P|423:361|461:316,1,96,6|2,1:2|1:2,0:0:0:0:
458,249,177969,1,0,0:0:0:0:
380,275,178156,2,0,P|330:259|292:214,1,96,10|0,0:2|0:0,0:0:0:0:
296,147,178717,1,2,1:2:0:0:
375,173,178904,6,0,P|410:164|431:144,1,60,4|0,1:2|0:0,0:0:0:0:
444,66,179278,2,0,P|428:40|403:24,2,60,2|2|8,1:2|0:2|0:0,0:0:0:0:
296,147,180026,1,0,0:0:0:0:
266,67,180214,2,0,P|281:41|306:25,2,60,10|2|2,0:2|0:2|1:2,0:0:0:0:
296,147,180775,1,0,1:0:0:0:
212,136,180962,2,0,P|181:136|155:122,2,60,2|10|2,0:2|0:2|0:2,0:0:0:0:
296,147,181523,2,0,P|311:172|312:202,1,60,0|2,1:0|1:2,0:0:0:0:
185,253,181897,6,0,P|169:278|168:308,1,60,4|0,1:2|1:0,0:0:0:0:
106,364,182267,2,0,P|80:348|50:347,1,60,2|2,1:2|1:2,0:0:0:0:
0,280,182637,2,0,P|15:254|16:224,1,60,8|2,1:2|1:2,0:0:0:0:
79,169,183007,2,0,P|104:184|134:185,1,60,2|0,1:2|0:0,0:0:0:0:
128,100,183378,6,0,P|151:64|238:53,1,120,12|0,1:2|1:0,0:0:0:0:
286,103,183934,1,2,1:2:0:0:
328,30,184119,1,10,0:2:0:0:
391,84,184304,2,0,P|422:89|448:83,1,60,2|8,1:2|0:0,0:0:0:0:
509,226,184859,6,0,P|432:224|373:281,2,155.999992858887,4|0|12,1:2|1:0|0:0,0:0:0:0:
509,226,186005,5,2,1:2:0:0:
498,144,186196,2,0,L|515:65,1,66.0000020141602,10|0,0:2|0:0,0:0:0:0:
426,224,186574,5,2,1:2:0:0:
415,142,186762,2,0,L|432:63,1,66.0000020141602,2|0,1:2|0:2,0:0:0:0:
360,15,187137,6,0,L|327:156,1,132.00000402832,8|2,0:0|1:2,0:0:0:0:
162,207,187887,6,0,L|131:78,2,132.00000402832,6|0|8,1:2|1:0|0:0,0:0:0:0:
162,207,188991,5,2,1:2:0:0:
80,184,189175,2,0,P|38:192|12:219,1,66.0000020141602,10|0,0:2|0:2,0:0:0:0:
76,264,189548,2,0,L|87:329,2,66.0000020141602,0|0|0,1:0|1:0|0:0,0:0:0:0:
158,288,190118,2,0,L|169:353,2,66.0000020141602,10|0|2,0:2|1:0|1:2,0:0:0:0:
162,207,190678,1,0,1:0:0:0:
234,253,190859,6,0,P|289:284|357:266,1,132.00000402832,4|0,1:2|1:0,0:0:0:0:
493,170,191602,2,0,P|430:154|373:185,1,132.00000402832,10|2,0:2|1:2,0:0:0:0:
353,268,192175,1,8,0:0:0:0:
431,302,192366,6,0,P|407:336|380:351,1,66.0000020141602,2|0,0:2|1:0,0:0:0:0:
303,339,192748,2,0,P|279:316|266:286,1,66.0000020141602,2|2,1:2|0:2,0:0:0:0:
296,208,193109,2,0,L|170:291,1,132.00000402832,8|2,0:0|1:2,0:0:0:0:
101,130,193854,6,0,B|132:138|132:138|158:169,2,66.0000020141602,6|8|0,1:2|0:0|0:0,0:0:0:0:
85,214,194413,1,2,1:2:0:0:
17,161,194599,1,10,0:2:0:0:
31,76,194785,2,0,B|88:46|88:46|159:59,2,132.00000402832,2|10|0,1:2|0:2|1:0,0:0:0:0:
17,161,195717,5,0,1:0:0:0:
85,214,195903,1,0,0:0:0:0:
9,243,196090,2,0,B|-6:273|-6:273|0:309,2,66.0000020141602,10|2|0,0:2|1:2|0:0,0:0:0:0:
222,218,196879,6,0,B|209:292|209:292|215:301|215:301|203:381,2,155.999992858887,4|0|8,1:2|1:0|0:0,0:0:0:0:
222,218,197997,1,2,1:2:0:0:
297,257,198190,2,0,P|332:249|374:161,1,132.00000402832,10|2,0:2|1:2,0:0:0:0:
437,110,198771,2,0,P|403:98|381:60,1,66.0000020141602,2|0,1:2|0:0,0:0:0:0:
320,8,199158,2,0,B|299:108|299:108|274:128,1,132.00000402832,8|2,0:0|1:2,0:0:0:0:
189,123,199717,1,0,0:0:0:0:
106,100,199903,6,0,P|132:58|216:42,2,132.00000402832,6|0|10,1:2|1:0|0:2,0:0:0:0:
106,100,201030,5,2,1:2:0:0:
124,183,201221,2,0,P|117:217|91:253,1,66.0000020141602,10|0,0:2|0:0,0:0:0:0:
21,266,201603,1,2,1:2:0:0:
85,327,201794,2,0,L|239:312,1,132.00000402832,2|8,1:2|0:0,0:0:0:0:
301,305,202342,1,0,1:0:0:0:
374,348,202525,2,0,P|408:343|434:321,1,66.0000020141602,0|0,1:0|1:0,0:0:0:0:
431,237,202891,6,0,P|397:242|371:264,2,66.0000020141602,4|8|0,1:2|1:2|1:2,0:0:0:0:
505,280,203439,1,0,1:0:0:0:
501,194,203622,2,0,L|492:53,1,132.00000402832,10|2,0:2|1:2,0:0:0:0:
411,33,204171,1,0,1:0:0:0:
357,97,204354,6,0,P|303:110|227:68,1,132.00000402832,2|2,1:2|1:2,0:0:0:0:
113,199,205104,2,0,P|170:168|234:180,1,132.00000402832,10|2,1:2|1:2,0:0:0:0:
290,245,205667,1,8,0:0:0:0:
236,312,205855,6,0,L|90:293,1,132.00000402832,6|0,1:2|1:0,0:0:0:0:
18,289,206419,1,0,0:0:0:0:
58,364,206606,6,0,L|130:375,1,66.0000020141602,10|0,0:2|0:2,0:0:0:0:
140,225,206981,2,0,L|212:236,1,66.0000020141602,2|8,1:2|0:0,0:0:0:0:
290,245,207356,5,8,0:0:0:0:
341,313,207544,2,0,P|371:328|406:324,1,66.0000020141602,0|0,1:0|1:0,0:0:0:0:
464,265,207919,1,10,0:2:0:0:
381,239,208107,6,0,L|389:173,2,66.0000020141602,2|10|0,1:2|0:2|1:0,0:0:0:0:
381,239,208858,6,0,B|389:169|389:169|384:159|384:159|396:68,2,155.999992858887,6|0|12,1:2|1:0|0:0,0:0:0:0:
381,239,209984,5,2,1:2:0:0:
324,302,210171,2,0,B|314:380,1,66.0000020141602,10|0,0:2|0:0,0:0:0:0:
294,217,210547,5,2,1:2:0:0:
237,280,210734,2,0,B|227:358,1,66.0000020141602,2|0,1:2|0:0,0:0:0:0:
144,363,211110,6,0,L|118:208,1,132.00000402832,8|2,0:0|1:2,0:0:0:0:
152,63,211861,6,0,B|99:97|99:97|21:75,2,132.00000402832,6|0|8,1:2|1:0|0:0,0:0:0:0:
152,63,212987,5,2,1:2:0:0:
235,82,213174,2,0,L|307:69,1,66.0000020141602,10|0,0:2|0:0,0:0:0:0:
174,147,213550,5,0,1:0:0:0:
257,166,213737,2,0,L|329:153,1,66.0000020141602,0|0,1:0|1:0,0:0:0:0:
385,96,214113,6,0,B|388:62|388:62|412:38,1,66.0000020141602,10|0,0:2|1:0,0:0:0:0:
490,72,214488,2,0,B|487:106|487:106|463:130,1,66.0000020141602,2|0,1:2|1:0,0:0:0:0:
399,185,214863,6,0,P|431:244|428:319,1,132.00000402832,4|0,1:2|1:0,0:0:0:0:
369,367,215422,1,0,1:0:0:0:
285,349,215608,2,0,P|253:290|256:215,1,132.00000402832,10|2,0:2|1:2,0:0:0:0:
318,168,216167,1,0,1:0:0:0:
254,110,216353,6,0,P|221:112|192:133,1,66.0000020141602,2|8,1:2|0:0,0:0:0:0:
142,199,216726,1,2,0:2:0:0:
63,233,216912,2,0,P|30:230|3:212,2,66.0000020141602,2|8|0,1:2|0:0|0:0,0:0:0:0:
63,146,217471,2,0,P|41:121|35:89,1,66.0000020141602,2|8,1:2|0:0,0:0:0:0:
86,22,217844,6,0,L|236:32,1,132.00000402832,6|0,1:2|0:0,0:0:0:0:
301,13,218417,1,2,1:2:0:0:
271,93,218608,1,10,0:2:0:0:
356,76,218799,2,0,L|506:86,1,132.00000402832,2|2,1:2|1:2,0:0:0:0:
506,172,219372,1,0,0:0:0:0:
445,232,219554,6,0,B|422:207|422:207|419:161,2,66.0000020141602,8|0|2,0:0|1:0|1:2,0:0:0:0:
506,292,220103,1,10,0:2:0:0:
423,316,220286,2,0,B|400:341|400:341|397:386,2,66.0000020141602,2|8|8,1:2|0:3|0:3,0:0:0:0:
346,259,220835,6,0,B|215:246|274:343|125:330,1,233.999989288331,6|0,1:2|1:0,0:0:0:0:
56,367,221619,2,0,P|48:331|63:283,1,66.0000020141602,8|0,0:0|0:0,0:0:0:0:
116,254,222011,5,2,1:2:0:0:
158,182,222207,2,0,L|150:109,1,66.0000020141602,10|0,0:2|0:0,0:0:0:0:
199,259,222589,5,0,1:0:0:0:
241,187,222775,2,0,L|233:114,1,66.0000020141602,0|0,1:0|0:0,0:0:0:0:
200,53,223148,6,0,P|243:100|307:101,1,132.00000402832,8|2,0:0|1:2,0:0:0:0:
364,32,223707,1,0,0:0:0:0:
387,116,223893,6,0,P|435:154|510:137,2,132.00000402832,6|0|10,1:2|1:0|0:2,0:0:0:0:
387,116,225011,5,2,1:2:0:0:
345,193,225197,2,0,L|308:257,1,66.0000020141602,10|0,0:2|0:0,0:0:0:0:
228,252,225570,1,0,1:0:0:0:
268,327,225756,2,0,B|264:356|264:356|237:379,1,66.0000020141602,0|0,1:0|0:0,0:0:0:0:
158,342,226129,2,0,L|13:370,1,132.00000402832,10|0,0:2|1:0,0:0:0:0:
0,284,226688,1,0,1:0:0:0:
26,205,226874,5,4,1:2:0:0:
106,232,227067,2,0,L|179:257,2,66.0000020141602,2|2|2,0:2|1:2|1:2,0:0:0:0:
89,144,227648,2,0,L|221:117,1,132.00000402832,10|2,0:2|1:2,0:0:0:0:
258,39,228207,1,0,0:0:0:0:
338,52,228393,6,0,P|378:105|371:171,1,132.00000402832,2|2,1:2|0:2,0:0:0:0:
317,233,228966,1,2,1:2:0:0:
228,220,229157,2,0,P|188:273|195:339,1,132.00000402832,8|2,0:0|1:2,0:0:0:0:
268,376,229709,1,0,0:0:0:0:
326,316,229893,6,0,B|421:333|421:333|461:316,1,132.00000402832,6|0,1:2|1:0,0:0:0:0:
488,240,230459,1,2,0:2:0:0:
409,205,230647,1,10,0:2:0:0:
478,154,230836,2,0,B|495:125|495:125|484:66,2,66.0000020141602,2|0|2,1:2|0:0|1:2,0:0:0:0:
403,111,231402,6,0,L|270:89,1,132.00000402832,0|0,1:0|1:0,0:0:0:0:
188,73,231968,1,0,1:0:0:0:
100,86,232157,2,0,B|92:56|92:56|114:14,2,66.0000020141602,10|2|8,0:2|1:2|0:3,0:0:0:0:
78,250,232893,6,0,P|132:199|192:204,1,132.00000402832,6|2,1:2|1:2,0:0:0:0:
182,287,233462,1,0,1:0:0:0:
238,355,233652,2,0,P|302:353|346:306,1,132.00000402832,10|0,0:2|0:0,0:0:0:0:
327,222,234200,1,0,0:0:0:0:
409,246,234383,6,0,B|441:259|441:259|481:248,1,66.0000020141602,2|10,1:2|0:2,0:0:0:0:
481,165,234748,2,0,B|449:152|449:152|409:163,1,66.0000020141602,2|0,0:2|1:0,0:0:0:0:
372,87,235114,2,0,L|445:63,2,66.0000020141602,10|2|10,0:2|1:2|0:0,0:0:0:0:
291,118,235663,1,2,1:2:0:0:
241,49,235847,6,0,L|179:69,1,66.0000020141602,12|0,1:2|1:0,0:0:0:0:
101,32,236219,2,0,L|39:52,1,66.0000020141602,8|0,0:0|1:0,0:0:0:0:
202,152,236592,6,0,L|140:172,1,66.0000020141602,8|0,0:0|1:0,0:0:0:0:
62,135,236964,2,0,L|0:155,1,66.0000020141602,8|8,0:0|0:0,0:0:0:0:
27,299,237337,6,0,B|23:263|23:263|42:238,2,66.0000020141602,2|0|2,1:2|1:0|1:2,0:0:0:0:
112,288,237885,1,0,1:0:0:0:
197,280,238068,2,0,B|201:316|201:316|182:341,2,66.0000020141602,8|0|10,0:0|1:0|0:2,0:0:0:0:
197,280,238800,5,6,1:2:0:0:
256,192,238900,12,0,241890,0:0:0:0:
