osu file format v14

[General]
AudioFilename: audio.mp3
AudioLeadIn: 0
PreviewTime: 16993
Countdown: 0
SampleSet: Soft
StackLeniency: 0.7
Mode: 0
LetterboxInBreaks: 0
WidescreenStoryboard: 0

[Editor]
DistanceSpacing: 1.2
BeatDivisor: 4
GridSize: 32
TimelineZoom: 1

[Metadata]
Title:Gott nytt jul
TitleUnicode:Gott nytt jul
Artist:Sean Banan
ArtistUnicode:Sean Banan
Creator:bite you death
Version:Firetruck's Hard Banana
Source:
Tags:firetruck byd god jul julafton christmas xmas x-mas new year ny år nyår svenska
BeatmapID:1482667
BeatmapSetID:700345

[Difficulty]
HPDrainRate:5
CircleSize:4
OverallDifficulty:6
ApproachRate:7
SliderMultiplier:1.6
SliderTickRate:2

[Events]
//Background and Video events
0,0,"hot.jpg",0,0
//Break Periods
//Storyboard Layer 0 (Background)
//Storyboard Layer 1 (Fail)
//Storyboard Layer 2 (Pass)
//Storyboard Layer 3 (Foreground)
//Storyboard Sound Samples

[TimingPoints]
3660,416.666666666667,4,2,1,50,1,0
16993,-100,4,2,1,50,0,1
22826,-100,4,2,1,50,0,0
23660,-100,4,2,1,50,0,1
30326,-100,4,2,1,50,0,0
50326,-100,4,2,1,20,0,0

[Colours]
Combo1 : 192,192,192
Combo2 : 255,0,0
Combo3 : 255,128,128
Combo4 : 255,128,0
Combo5 : 149,0,0

[HitObjects]
128,303,16993,6,0,P|155:243|113:155,1,160,6|10,3:2|0:0,0:0:0:0:
34,117,17618,2,0,L|205:115,1,160,4|0,3:2|0:0,1:0:0:0:
266,40,18243,2,0,P|332:33|377:44,1,80,10|0,0:0|0:0,0:0:0:0:
420,106,18660,6,0,L|411:219,1,80,2|0,3:2|0:0,0:0:0:0:
328,246,19076,2,0,L|337:133,1,80,10|0,0:0|3:0,0:0:0:0:
260,287,19493,2,0,P|319:324|408:263,1,160,2|10,0:0|0:0,0:0:0:0:
466,213,20118,1,0,0:0:0:0:
417,120,20326,6,0,L|235:118,1,160,6|10,3:2|0:0,0:0:0:0:
202,29,20951,2,0,B|210:90|210:90|202:137|202:137|214:200,1,160,4|0,3:0|0:0,1:0:0:0:
160,277,21576,1,10,0:0:0:0:
263,276,21785,1,0,0:0:0:0:
211,186,21993,6,0,L|108:184,1,80,2|0,3:2|0:0,0:0:0:0:
80,92,22410,2,0,L|183:94,1,80,10|0,0:0|3:0,0:0:0:0:
238,25,22826,1,6,0:0:0:0:
237,217,23243,1,14,0:0:0:0:
325,180,23451,1,0,0:0:0:0:
325,180,23660,6,0,P|379:200|466:137,1,160,6|10,3:2|0:0,0:0:0:0:
374,91,24285,2,0,L|210:91,1,160,4|0,3:2|0:0,1:0:0:0:
123,39,24910,2,0,B|128:83|128:83|118:142,1,80,10|0,0:0|0:0,0:0:0:0:
71,209,25326,6,0,L|164:206,1,80,2|0,3:2|0:0,0:0:0:0:
248,241,25743,2,0,L|341:238,1,80,10|0,0:0|3:0,0:0:0:0:
394,319,26160,2,0,P|366:257|423:182,1,160,2|10,0:0|0:0,0:0:0:0:
480,265,26785,1,0,0:0:0:0:
485,168,26993,6,0,L|471:-3,1,160,6|10,3:2|0:0,0:0:0:0:
382,43,27618,2,0,B|325:37|325:37|284:47|284:47|193:37,1,160,4|0,3:2|0:0,1:0:0:0:
128,30,28243,1,10,0:0:0:0:
170,117,28451,1,0,0:0:0:0:
112,203,28660,5,6,3:3:0:0:
130,222,29076,1,6,3:3:0:0:
148,241,29493,1,6,3:3:0:0:
166,261,29910,5,6,3:3:0:0:
230,332,30118,1,0,0:0:0:0:
295,262,30326,6,0,P|336:251|389:258,1,80,6|0,3:2|0:0,0:0:0:0:
446,315,30743,1,8,0:0:0:0:
472,222,30951,2,0,L|469:48,1,160,0|0,3:0|0:0,0:0:0:0:
383,18,31576,1,8,0:0:0:0:
300,66,31785,1,0,0:0:0:0:
211,28,31993,6,0,L|106:27,1,80,2|0,3:2|0:0,0:0:0:0:
52,83,32410,1,8,0:0:0:0:
113,156,32618,2,0,P|138:216|93:307,1,160,0|0,3:0|0:0,0:0:0:0:
37,227,33243,1,8,0:0:0:0:
9,318,33451,1,0,0:0:0:0:
102,299,33660,6,0,B|143:292|143:292|200:298,1,80,2|0,3:2|0:0,0:0:0:0:
272,327,34076,2,0,B|313:334|313:334|370:328,1,80,8|0,0:0|3:0,0:0:0:0:
441,362,34493,2,0,L|435:200,1,160,0|8,0:0|0:0,0:0:0:0:
471,113,35118,1,0,0:0:0:0:
471,113,35222,1,0,0:0:0:0:
471,113,35326,6,0,P|427:119|384:110,1,80,2|0,3:2|0:0,0:0:0:0:
309,63,35743,1,8,0:0:0:0:
266,149,35951,2,0,B|271:201|271:201|261:247|261:247|271:316,1,160,2|0,3:2|0:0,0:0:0:0:
191,363,36576,1,10,0:0:0:0:
110,310,36785,1,0,0:0:0:0:
172,237,36993,6,0,L|177:126,1,80,6|0,3:2|0:0,0:0:0:0:
261,114,37410,2,0,L|256:225,1,80,8|0,0:0|3:0,0:0:0:0:
276,287,37826,1,0,0:0:0:0:
457,353,38243,1,8,0:0:0:0:
433,260,38451,1,0,0:0:0:0:
485,179,38660,6,0,P|440:166|387:169,1,80,2|0,3:2|0:0,0:0:0:0:
324,214,39076,2,0,P|279:227|226:224,1,80,8|0,0:0|3:0,0:0:0:0:
155,195,39493,1,0,0:0:0:0:
24,335,39910,1,8,0:0:0:0:
48,241,40118,1,0,0:0:0:0:
118,306,40326,6,0,L|212:299,1,80,2|0,3:2|0:0,0:0:0:0:
288,331,40743,2,0,L|382:324,1,80,8|0,0:0|3:0,0:0:0:0:
460,349,41160,1,0,0:0:0:0:
471,157,41576,1,8,0:0:0:0:
383,196,41785,1,0,0:0:0:0:
301,144,41993,6,0,P|254:136|209:146,1,80,2|0,3:2|0:0,0:0:0:0:
138,187,42410,2,0,P|91:195|46:185,1,80,8|2,0:0|3:0,0:0:0:0:
93,99,42826,1,0,0:0:0:0:
221,241,43243,2,0,L|315:237,1,80,10|0,0:0|0:0,0:0:0:0:
388,275,43660,6,0,P|378:224|391:177,1,80,6|0,3:2|0:0,0:0:0:0:
424,110,44076,2,0,P|434:59|421:12,1,80,8|0,0:0|3:0,0:0:0:0:
340,69,44493,2,0,B|283:64|283:64|241:74|241:74|163:66,1,160,0|8,0:0|0:0,0:0:0:0:
89,40,45118,1,0,0:0:0:0:
85,135,45326,6,0,L|80:236,1,80,2|0,3:2|0:0,0:0:0:0:
159,270,45743,2,0,L|162:190,1,80,8|0,0:0|3:0,0:0:0:0:
85,135,46160,2,0,P|155:149|235:98,1,160,0|8,0:0|0:0,0:0:0:0:
367,240,46993,6,0,L|371:140,1,80,2|0,3:2|0:0,0:0:0:0:
447,217,47410,2,0,L|443:317,1,80,8|0,0:0|3:0,0:0:0:0:
370,359,47826,2,0,B|328:366|328:366|272:357,1,80,0|0,0:0|0:0,0:0:0:0:
201,325,48243,2,0,B|159:318|159:318|103:327,1,80,8|0,0:0|0:0,0:0:0:0:
31,354,48660,5,2,3:2:0:0:
51,259,48868,1,0,0:0:0:0:
122,323,49076,1,8,0:0:0:0:
152,232,49285,1,2,3:2:0:0:
82,165,49493,2,0,P|76:129|88:73,1,80,0|0,0:0|0:0,0:0:0:0:
169,126,49910,1,10,0:0:0:0:
216,303,50326,5,2,0:0:0:0:
