osu file format v14

[General]
AudioFilename: audio.ogg
AudioLeadIn: 0
PreviewTime: 964
Countdown: 0
SampleSet: Soft
StackLeniency: 0.3
Mode: 0
LetterboxInBreaks: 0
WidescreenStoryboard: 1

[Editor]
Bookmarks: 6700,20817,32111,54700,63170,71641,82935,95641,109052
DistanceSpacing: 1
BeatDivisor: 4
GridSize: 4
TimelineZoom: 0.9

[Metadata]
Title:Sweet Sweet True Love
TitleUnicode:Sweet Sweet True Love
Artist:Se-fukubu
ArtistUnicode:せーふく部
Creator:tomatas95
Version:First Love Syndrome
Source:アイキス3
Tags:eroge Ai Kiss 3 giga アイキス3 sexy visual novel vn galgame アイキス3cute Seifukubu 戏画社 三枝アヤメ Saegusa Ayame 木暮郁枝 Kogure Ikue Alice Nene 葛城七瀬 Katsuragi Nanase Hanazawa Sakura 花澤さくら 有栖ねね Yumiya Yumi 湯宮由海 Ikenaga Avrola 池永アヴローラ 真庭 花梨 Maniwa Karin Yuuki Honoka 結城ほのか Yuzuki Yukina 柚木雪那 Urushibara Riko 漆原莉子 vtuber virtual youtuber ed ending video game sefukubu sei-fukubu j-pop pop jpop japanese
BeatmapID:4438356
BeatmapSetID:2113813

[Difficulty]
HPDrainRate:5.5
CircleSize:3.8
OverallDifficulty:8.5
ApproachRate:9
SliderMultiplier:1.8
SliderTickRate:1

[Events]
//Background and Video events
0,0,"AnMyBeloved.jpg",0,0
Video,-90,"erogedaisukidesu.avi"
//Break Periods
//Storyboard Layer 0 (Background)
//Storyboard Layer 1 (Fail)
//Storyboard Layer 2 (Pass)
//Storyboard Layer 3 (Foreground)
//Storyboard Layer 4 (Overlay)
//Storyboard Sound Samples

[TimingPoints]
1053,352.941176470588,4,2,1,45,1,0
1053,-166.666666666667,4,2,1,45,0,0
1229,-166.666666666667,4,2,1,40,0,0
1582,-166.666666666667,4,2,1,45,0,0
1935,-166.666666666667,4,2,1,40,0,0
2464,-166.666666666667,4,2,1,45,0,0
2640,-166.666666666667,4,2,1,40,0,0
2994,-166.666666666667,4,2,1,45,0,0
3170,-166.666666666667,4,2,1,40,0,0
3523,-166.666666666667,4,2,1,45,0,0
3699,-166.666666666667,4,2,1,40,0,0
3876,-166.666666666667,4,2,1,45,0,0
4052,-166.666666666667,4,2,1,40,0,0
4405,-166.666666666667,4,2,1,45,0,0
4581,-166.666666666667,4,2,1,40,0,0
4935,-166.666666666667,4,2,1,45,0,0
5111,-166.666666666667,4,2,1,40,0,0
5288,-166.666666666667,4,2,1,35,0,0
5641,-166.666666666667,4,2,1,40,0,0
5994,-166.666666666667,4,2,1,45,0,0
6347,-166.666666666667,4,2,1,50,0,0
6700,-142.857142857143,4,2,2,65,0,0
7052,-142.857142857143,4,2,1,60,0,0
7405,-142.857142857143,4,2,1,55,0,0
7758,-142.857142857143,4,2,1,50,0,0
7935,-142.857142857143,4,2,1,45,0,0
8111,-142.857142857143,4,2,2,65,0,0
8463,-142.857142857143,4,2,1,60,0,0
8816,-142.857142857143,4,2,1,55,0,0
9169,-142.857142857143,4,2,1,50,0,0
9346,-142.857142857143,4,2,1,45,0,0
9523,-142.857142857143,4,2,2,65,0,0
9875,-142.857142857143,4,2,1,60,0,0
10228,-142.857142857143,4,2,1,55,0,0
10581,-142.857142857143,4,2,1,50,0,0
10758,-142.857142857143,4,2,1,45,0,0
10935,-142.857142857143,4,2,2,65,0,0
11287,-142.857142857143,4,2,1,60,0,0
11640,-142.857142857143,4,2,1,55,0,0
11993,-142.857142857143,4,2,1,50,0,0
12170,-142.857142857143,4,2,1,45,0,0
12347,-142.857142857143,4,2,2,65,0,0
12699,-142.857142857143,4,2,1,60,0,0
12876,-142.857142857143,4,2,2,65,0,0
13052,-142.857142857143,4,2,1,60,0,0
13582,-142.857142857143,4,2,2,65,0,0
13758,-142.857142857143,4,2,2,65,0,0
14110,-142.857142857143,4,2,1,60,0,0
14288,-142.857142857143,4,2,2,65,0,0
14464,-142.857142857143,4,2,1,60,0,0
14994,-142.857142857143,4,2,2,65,0,0
15170,-125,4,2,1,65,0,0
17994,-111.111111111111,4,2,1,70,0,0
18170,-111.111111111111,4,2,1,35,0,0
18347,-111.111111111111,4,2,1,70,0,0
18523,-111.111111111111,4,2,1,35,0,0
18700,-111.111111111111,4,2,1,70,0,0
19405,-111.111111111111,4,2,1,45,0,0
20817,-100,4,2,1,75,0,0
21170,-100,4,2,1,70,0,0
22229,-100,4,2,1,75,0,0
22582,-100,4,2,1,70,0,0
23641,-100,4,2,1,75,0,0
23994,-100,4,2,1,70,0,0
25052,-100,4,2,1,75,0,0
25229,-100,4,2,1,70,0,0
26464,-100,4,2,1,75,0,0
26817,-100,4,2,1,70,0,0
27876,-100,4,2,1,75,0,0
28229,-100,4,2,1,70,0,0
29023,-100,4,2,2,70,0,0
29288,-100,4,2,1,75,0,0
29641,-100,4,2,1,35,0,0
29817,-100,4,2,1,75,0,0
30170,-100,4,2,1,35,0,0
30347,-100,4,2,1,75,0,0
30700,-100,4,2,1,35,0,0
30876,-100,4,2,1,75,0,0
31582,-100,4,2,1,45,0,0
32111,-111.111111111111,4,2,1,65,0,0
32464,-111.111111111111,4,2,1,60,0,0
33523,-111.111111111111,4,2,1,65,0,0
33876,-111.111111111111,4,2,1,60,0,0
34935,-111.111111111111,4,2,1,65,0,0
35288,-111.111111111111,4,2,1,60,0,0
36347,-111.111111111111,4,2,1,65,0,0
36700,-111.111111111111,4,2,1,60,0,0
37758,-111.111111111111,4,2,1,65,0,0
38111,-111.111111111111,4,2,1,60,0,0
39170,-111.111111111111,4,2,1,65,0,0
39523,-111.111111111111,4,2,1,60,0,0
40582,-111.111111111111,4,2,1,65,0,0
40935,-111.111111111111,4,2,1,60,0,0
41994,-111.111111111111,4,2,1,65,0,0
42347,-111.111111111111,4,2,1,60,0,0
42876,-111.111111111111,4,2,3,60,0,0
43052,-111.111111111111,4,2,1,60,0,0
43405,-111.111111111111,4,2,1,65,0,0
43758,-111.111111111111,4,2,1,60,0,0
44817,-111.111111111111,4,2,1,65,0,0
45170,-111.111111111111,4,2,1,60,0,0
46229,-111.111111111111,4,2,1,65,0,0
46582,-111.111111111111,4,2,1,60,0,0
47641,-111.111111111111,4,2,1,65,0,0
47994,-111.111111111111,4,2,1,60,0,0
49052,-111.111111111111,4,2,1,65,0,0
49405,-111.111111111111,4,2,1,60,0,0
50464,-111.111111111111,4,2,1,65,0,0
50817,-111.111111111111,4,2,1,60,0,0
51876,-100,4,2,2,65,0,0
52229,-100,4,2,1,60,0,0
52582,-100,4,2,2,65,0,0
52758,-100,4,2,2,60,0,0
53288,-100,4,2,2,70,0,0
53464,-100,4,2,2,75,0,0
53641,-100,4,2,1,60,0,0
53994,-100,4,2,1,65,0,0
54170,-100,4,2,1,60,0,0
54347,-100,4,2,1,55,0,0
54523,-100,4,2,1,50,0,0
54700,-125,4,2,2,60,0,0
55052,-125,4,2,1,60,0,0
56817,-125,4,2,1,70,0,0
56994,-125,4,2,1,65,0,0
57170,-125,4,2,1,60,0,0
57523,-125,4,2,1,65,0,0
57700,-125,4,2,1,60,0,0
59641,-125,4,2,1,70,0,0
59817,-125,4,2,1,65,0,0
59994,-125,4,2,1,60,0,0
60347,-125,4,2,2,65,0,0
60524,-125,4,2,1,60,0,0
62817,-125,4,2,1,65,0,0
63170,-100,4,2,1,70,0,0
64582,-100,4,2,1,65,0,0
64935,-100,4,2,1,70,0,0
65994,-100,4,2,2,70,0,0
66347,-100,4,2,1,70,0,0
67582,-100,4,2,1,60,0,0
68111,-100,4,2,1,65,0,0
68817,-100,4,2,1,70,0,0
69170,-100,4,2,1,60,0,0
69347,-100,4,2,1,70,0,0
69700,-100,4,2,1,60,0,0
69876,-100,4,2,1,70,0,0
70229,-100,4,2,1,60,0,0
70405,-100,4,2,1,70,0,0
70935,-100,4,2,1,70,0,0
71111,-100,4,2,1,60,0,0
71288,-100,4,2,1,70,0,0
71464,-100,4,2,1,60,0,0
71552,-100,4,2,1,5,0,0
71641,-90.9090909090909,4,2,1,80,0,1
71994,-90.9090909090909,4,2,1,75,0,1
73052,-90.9090909090909,4,2,1,80,0,1
73405,-90.9090909090909,4,2,1,75,0,1
74464,-90.9090909090909,4,2,1,80,0,1
74817,-90.9090909090909,4,2,1,75,0,1
75876,-90.9090909090909,4,2,1,80,0,1
76229,-90.9090909090909,4,2,1,75,0,1
77288,-90.9090909090909,4,2,1,80,0,1
77464,-90.9090909090909,4,2,1,75,0,1
78700,-90.9090909090909,4,2,1,80,0,1
78876,-90.9090909090909,4,2,1,75,0,1
79405,-90.9090909090909,4,2,1,70,0,1
79758,-90.9090909090909,4,2,1,75,0,1
80111,-90.9090909090909,4,2,1,80,0,1
80287,-90.9090909090909,4,2,1,75,0,1
81523,-90.9090909090909,4,2,1,80,0,1
81699,-90.9090909090909,4,2,1,75,0,1
82229,-90.9090909090909,4,2,1,70,0,1
82582,-90.9090909090909,4,2,1,70,0,0
82935,-90.9090909090909,4,2,1,80,0,1
83288,-90.9090909090909,4,2,1,75,0,1
84346,-90.9090909090909,4,2,1,80,0,1
84699,-90.9090909090909,4,2,1,75,0,1
85758,-90.9090909090909,4,2,1,80,0,1
86111,-90.9090909090909,4,2,1,75,0,1
87170,-90.9090909090909,4,2,1,80,0,1
87523,-90.9090909090909,4,2,1,75,0,1
88582,-90.9090909090909,4,2,2,80,0,1
88758,-90.9090909090909,4,2,1,75,0,1
89994,-90.9090909090909,4,2,2,80,0,1
90170,-90.9090909090909,4,2,1,75,0,1
90699,-90.9090909090909,4,2,1,70,0,1
91052,-90.9090909090909,4,2,1,75,0,1
91405,-90.9090909090909,4,2,1,80,0,1
91581,-90.9090909090909,4,2,1,75,0,1
92817,-90.9090909090909,4,2,2,80,0,1
92993,-90.9090909090909,4,2,1,75,0,1
93523,-90.9090909090909,4,2,1,70,0,1
94229,-90.9090909090909,4,2,1,80,0,1
95111,-90.9090909090909,4,2,1,60,0,1
95288,-90.9090909090909,4,2,1,80,0,1
95464,-90.9090909090909,4,2,1,60,0,1
95641,-76.9230769230769,4,2,1,75,0,0
95994,-100,4,2,1,70,0,0
98464,-100,4,2,1,75,0,0
98817,-100,4,2,1,70,0,0
101288,-100,4,2,2,75,0,0
101464,-100,4,2,1,70,0,0
104111,-100,4,2,1,60,0,0
104464,-100,4,2,1,65,0,0
104817,-100,4,2,1,70,0,0
105170,-100,4,2,1,75,0,0
105523,-100,4,2,1,70,0,0
106229,-100,4,2,1,75,0,0
106935,-100,4,2,1,70,0,0
107111,-100,4,2,1,35,0,0
107288,-100,4,2,1,70,0,0
107464,-100,4,2,1,35,0,0
107641,-100,4,2,1,70,0,0
107817,-100,4,2,1,70,0,0
107993,-100,4,2,1,35,0,0
108170,-100,4,2,1,70,0,0
108346,-100,4,2,1,35,0,0
108523,-100,4,2,1,70,0,0
109052,-100,4,2,1,70,0,0

[Colours]
Combo1 : 255,223,128
Combo2 : 255,157,255
Combo3 : 255,183,219
Combo4 : 255,172,132

[HitObjects]
59,147,1053,6,0,L|112:136,2,53.9999983520508,2|0|0,0:0|0:0|0:0,0:0:0:0:
19,74,1582,2,0,L|125:52,1,107.999996704102,2|0,0:0|0:0,0:0:0:0:
199,13,2111,2,0,P|208:38|206:64,1,53.9999983520508,2|0,0:0|0:0,0:0:0:0:
235,139,2464,2,0,P|259:127|277:107,2,53.9999983520508,2|0|0,0:0|0:0|0:0,0:0:0:0:
186,200,2994,2,0,P|241:221|291:197,1,107.999996704102,2|0,0:0|0:0,0:0:0:0:
361,150,3523,2,0,L|370:203,1,53.9999983520508,2|0,0:0|0:0,0:0:0:0:
455,189,3876,2,0,L|445:135,2,53.9999983520508,2|0|0,0:0|0:0|0:0,0:0:0:0:
496,263,4405,6,0,P|529:301|488:352,1,107.999996704102,2|0,0:0|0:0,0:0:0:0:
427,313,4935,2,0,L|373:303,1,53.9999983520508,2|0,0:0|0:0,0:0:0:0:
279,271,5288,6,0,P|288:295|287:322,1,53.9999983520508,2|0,0:0|0:0,0:0:0:0:
203,312,5641,2,0,P|182:329|156:336,1,53.9999983520508,2|0,0:0|0:0,0:0:0:0:
142,254,5994,2,0,P|119:239|104:217,1,53.9999983520508,2|0,0:0|0:0,0:0:0:0:
178,177,6347,2,0,P|184:151|201:129,1,53.9999983520508,2|0,0:0|0:0,0:0:0:0:
262,188,6700,6,0,B|260:167|258:242|277:300|380:347|477:260|459:190|414:118|351:135|351:135|335:166|354:202,1,440.999986541748,6|0,3:2|0:0,0:0:0:0:
251,322,8111,2,0,B|208:276|109:324|153:378|62:414|-19:332|-19:332|-7:243|80:253,1,440.999986541748,6|0,3:2|0:0,0:0:0:0:
43,145,9523,70,0,B|61:185|-5:215|-54:162|-51:109|-19:14|134:39|119:168|119:168|143:125|177:115,1,440.999986541748,6|0,3:2|0:0,0:0:0:0:
293,55,10935,2,0,B|328:16|251:-72|144:-32|137:70|184:122|184:122|260:201|200:262,1,440.999986541748,6|0,3:2|0:0,0:0:0:0:
253,330,12347,6,0,B|283:365|339:340|339:340|344:280|297:264,1,188.999994232178,6|0,3:2|0:0,0:0:0:0:
212,246,13052,2,0,B|181:281|125:256|125:256|120:196|167:180,1,188.999994232178,2|0,3:2|0:0,0:0:0:0:
253,162,13758,2,0,B|283:197|339:172|339:172|344:112|297:96,1,188.999994232178,6|0,3:2|0:0,0:0:0:0:
212,78,14464,2,0,B|181:113|125:88|125:88|120:28|167:12,1,188.999994232178,2|0,3:2|0:0,0:0:0:0:
310,25,15170,6,0,L|296:95,1,72,6|0,3:2|0:0,0:0:0:0:
327,210,15523,2,0,L|315:282,1,72,0|0,3:0|0:0,0:0:0:0:
441,150,15876,6,0,L|370:137,1,72,2|0,3:2|0:0,0:0:0:0:
254,169,16229,2,0,L|183:155,1,72,0|0,3:0|0:0,0:0:0:0:
79,97,16582,6,0,P|72:64|84:23,1,72,2|0,3:2|0:0,0:0:0:0:
188,85,16935,2,0,P|194:116|181:157,1,72,0|0,3:0|0:0,0:0:0:0:
40,256,17288,6,0,P|25:223|26:188,1,72,2|0,3:2|0:0,0:0:0:0:
182,154,17641,2,0,P|194:187|192:223,1,72,0|0,3:0|0:0,0:0:0:0:
121,272,17994,6,0,L|103:192,1,80.9999975280763,8|0,0:2|0:0,0:0:0:0:
284,202,18347,2,0,L|266:281,1,80.9999975280763,8|0,0:2|0:0,0:0:0:0:
251,106,18700,5,8,0:0:0:0:
194,317,18876,1,8,0:0:0:0:
74,71,19229,1,8,0:0:0:0:
74,71,20817,6,0,P|160:88|250:106,1,180,6|8,3:2|0:0,0:0:0:0:
418,83,21347,1,2,0:0:0:0:
346,121,21523,2,0,P|334:82|364:25,1,90,2|0,3:2|0:0,0:0:0:0:
489,46,21876,2,0,P|501:85|470:141,1,90,8|0,0:0|0:0,0:0:0:0:
399,263,22229,6,0,P|407:218|416:174,1,90,2|0,3:2|0:0,0:0:0:0:
249,109,22582,2,0,P|257:153|266:197,1,90,8|0,0:0|0:0,0:0:0:0:
346,121,22935,5,0,3:0:0:0:
180,159,23111,1,2,0:0:0:0:
285,273,23288,1,8,0:0:0:0:
346,121,23464,1,2,0:0:0:0:
171,259,23641,6,0,P|122:251|72:242,1,90,0|0,3:0|0:0,0:0:0:0:
294,288,23994,2,0,P|384:273|477:256,1,180,10|0,0:0|3:0,0:0:0:0:
390,34,24523,5,2,0:0:0:0:
326,187,24700,1,8,0:0:0:0:
299,87,24876,1,2,0:0:0:0:
294,288,25052,5,0,3:0:0:0:
407,128,25229,1,2,0:0:0:0:
395,262,25405,1,8,0:0:0:0:
390,34,25582,5,2,0:0:0:0:
240,196,25758,1,0,3:0:0:0:
470,221,25935,5,2,0:0:0:0:
306,68,26111,1,8,0:0:0:0:
291,291,26288,5,2,0:0:0:0:
291,291,26376,1,2,0:0:0:0:
291,291,26464,2,0,P|201:276|108:259,1,180,0|8,3:0|0:0,0:0:0:0:
0,156,26994,1,2,0:0:0:0:
49,70,27170,2,0,P|90:64|136:90,1,90,0|0,3:2|0:0,0:0:0:0:
113,260,27523,2,0,P|71:265|25:239,1,90,8|0,0:0|0:0,0:0:0:0:
0,156,27876,6,0,P|90:167|187:181,1,180,2|8,3:2|0:0,0:0:0:0:
307,183,28405,5,2,0:0:0:0:
132,86,28582,1,0,3:2:0:0:
243,234,28758,5,0,0:0:0:0:
206,35,28935,1,8,0:0:0:0:
206,35,29023,1,0,3:0:0:0:
206,35,29111,1,0,3:0:0:0:
396,76,29288,5,8,0:0:0:0:
178,179,29464,2,0,P|133:172|88:167,1,90,8|0,0:0|0:0,0:0:0:0:
414,102,29817,5,8,0:0:0:0:
181,165,29993,2,0,P|138:151|95:138,1,90,8|0,0:0|0:0,0:0:0:0:
427,131,30347,5,8,0:0:0:0:
187,153,30523,2,0,P|147:132|107:111,1,90,8|0,0:0|0:0,0:0:0:0:
238,53,30876,5,8,0:0:0:0:
348,267,31052,1,8,0:0:0:0:
322,46,31229,5,8,0:0:0:0:
264,274,31405,1,8,0:0:0:0:
264,274,32111,6,0,L|101:249,1,161.999995056153,2|8,3:2|0:0,0:0:0:0:
6,164,32641,1,0,0:0:0:0:
102,82,32817,2,0,P|77:14|7:38,1,161.999995056153,2|8,3:2|0:0,0:0:0:0:
98,164,33347,6,0,L|261:139,1,161.999995056153,2|0,0:0|0:0,0:0:0:0:
182,70,33876,2,0,L|101:82,1,80.9999975280763,8|0,0:0|0:0,0:0:0:0:
6,164,34229,1,0,3:0:0:0:
103,249,34405,2,0,L|183:236,1,80.9999975280763,2|8,0:0|0:0,0:0:0:0:
330,175,34758,1,0,0:0:0:0:
322,259,34935,6,0,P|258:219|267:126,1,161.999995056153,2|8,3:2|0:0,0:0:0:0:
373,76,35464,1,2,0:0:0:0:
490,199,35641,2,0,L|327:174,1,161.999995056153,0|8,3:0|0:0,0:0:0:0:
176,132,36170,6,0,P|215:67|309:77,1,161.999995056153,2|0,0:0|0:0,0:0:0:0:
444,111,36700,2,0,P|482:114|515:80,1,80.9999975280763,8|0,0:0|0:0,0:0:0:0:
373,76,37052,5,0,3:0:0:0:
409,211,37229,2,0,L|501:196,1,80.9999975280763,2|8,0:0|0:0,0:0:0:0:
452,30,37582,1,0,0:0:0:0:
329,174,37758,6,0,P|261:157|171:133,1,161.999995056153,2|8,3:2|0:0,0:0:0:0:
10,110,38288,2,0,L|26:28,1,80.9999975280763,2|0,0:0|3:0,0:0:0:0:
112,13,38641,2,0,L|79:171,1,161.999995056153,2|0,0:0|0:0,0:0:0:0:
60,332,39170,6,0,P|1:311|23:219,1,161.999995056153,2|8,3:2|0:0,0:0:0:0:
163,183,39700,2,0,L|242:199,1,80.9999975280763,2|0,0:0|3:0,0:0:0:0:
250,288,40052,2,0,L|92:256,1,161.999995056153,2|0,0:0|0:0,0:0:0:0:
61,92,40582,6,0,P|73:142|83:190,1,80.9999975280763,2|0,3:2|0:0,0:0:0:0:
152,100,40935,2,0,P|140:50|130:2,1,80.9999975280763,8|0,0:0|0:0,0:0:0:0:
331,98,41288,6,0,P|319:148|309:196,1,80.9999975280763,2|0,3:2|0:0,0:0:0:0:
240,106,41641,2,0,P|252:56|262:8,1,80.9999975280763,10|0,0:0|0:0,0:0:0:0:
244,234,41994,6,0,P|314:220|405:204,1,161.999995056153,2|8,3:2|0:0,0:0:0:0:
477,45,42523,5,2,0:0:0:0:
331,98,42700,1,0,3:0:0:0:
479,140,42876,1,2,3:0:0:0:
386,16,43052,1,8,0:0:0:0:
403,204,43229,5,8,0:0:0:0:
403,204,43317,1,8,0:0:0:0:
403,204,43405,2,0,P|323:218|244:234,1,161.999995056153,6|8,3:2|0:0,0:0:0:0:
81,216,43935,1,0,0:0:0:0:
172,143,44111,2,0,L|149:312,1,161.999995056153,2|8,3:2|0:0,0:0:0:0:
12,108,44641,6,0,P|20:52|112:53,1,161.999995056153,2|0,0:0|0:0,0:0:0:0:
172,143,45170,2,0,L|91:131,1,80.9999975280763,8|0,0:0|0:0,0:0:0:0:
206,52,45523,1,0,3:0:0:0:
268,127,45700,2,0,L|348:115,1,80.9999975280763,2|8,0:0|0:0,0:0:0:0:
507,89,46052,1,0,0:0:0:0:
411,32,46229,6,0,P|428:107|449:207,1,161.999995056153,2|8,3:2|0:0,0:0:0:0:
432,290,46758,1,2,0:0:0:0:
267,252,46935,2,0,P|301:186|368:216,1,161.999995056153,0|8,3:0|0:0,0:0:0:0:
341,306,47464,6,0,L|180:282,1,161.999995056153,2|0,0:0|0:0,0:0:0:0:
85,204,47994,2,0,L|165:192,1,80.9999975280763,8|0,0:0|0:0,0:0:0:0:
83,118,48347,1,0,3:0:0:0:
80,288,48523,2,0,P|34:272|26:145,1,161.999995056153,2|0,0:0|0:0,0:0:0:0:
0,57,49052,6,0,P|66:42|77:124,1,161.999995056153,2|8,3:2|0:0,0:0:0:0:
80,288,49582,2,0,L|-1:276,1,80.9999975280763,2|0,0:0|3:0,0:0:0:0:
85,204,49935,2,0,L|259:178,1,161.999995056153,2|0,0:0|0:0,0:0:0:0:
374,79,50464,5,0,3:2:0:0:
259,100,50641,1,2,0:0:0:0:
303,22,50817,1,8,0:0:0:0:
332,153,50994,2,0,P|426:147|458:70,1,161.999995056153,2|0,0:0|0:0,0:0:0:0:
259,100,51523,2,0,L|241:199,1,80.9999975280763,10|0,0:0|0:0,0:0:0:0:
325,305,51876,6,0,P|237:285|146:265,1,180,6|8,3:2|0:0,0:0:0:0:
0,217,52405,1,2,0:0:0:0:
54,284,52582,2,0,P|82:231|15:132,1,180,6|10,3:2|0:0,0:0:0:0:
76,54,53111,1,2,0:0:0:0:
163,244,53288,5,6,3:2:0:0:
284,211,53464,1,2,0:0:0:0:
251,90,53641,1,8,0:0:0:0:
130,122,53817,1,0,3:0:0:0:
206,177,53994,5,8,0:0:0:0:
196,167,54170,1,0,3:0:0:0:
206,157,54347,1,0,3:0:0:0:
215,167,54523,1,0,3:0:0:0:
242,326,54700,6,0,P|309:314|396:298,1,144,6|0,3:2|0:0,0:0:0:0:
462,261,55229,2,0,P|473:294|467:329,1,72,2|8,3:2|0:0,0:0:0:0:
383,300,55582,2,0,P|371:266|377:231,1,72,2|0,3:2|0:0,0:0:0:0:
350,140,55935,6,0,P|417:152|504:168,1,144,2|0,3:2|3:0,0:0:0:0:
470,79,56464,2,0,P|434:72|399:66,1,72,2|0,0:0|3:0,0:0:0:0:
238,103,56817,5,10,0:0:0:0:
155,68,56994,1,0,3:0:0:0:
227,14,57170,1,2,0:0:0:0:
310,49,57347,1,8,0:0:0:0:
301,174,57523,6,0,P|234:186|147:202,1,144,2|0,3:2|0:0,0:0:0:0:
76,230,58052,2,0,P|67:195|77:161,1,72,2|8,3:2|0:0,0:0:0:0:
159,199,58405,2,0,P|167:233|157:267,1,72,2|0,3:2|0:0,0:0:0:0:
0,130,58758,6,0,P|48:87|125:96,1,144,2|8,3:2|0:0,0:0:0:0:
199,43,59288,1,0,3:0:0:0:
115,2,59464,1,2,0:0:0:0:
204,134,59641,2,0,L|286:116,1,72,8|0,0:0|3:0,0:0:0:0:
429,73,59994,2,0,L|511:55,1,72,0|0,3:0|3:0,0:0:0:0:
372,12,60347,6,0,P|344:76|376:138,1,144,6|0,3:2|0:0,0:0:0:0:
386,286,60876,2,0,P|421:297|453:285,1,72,2|8,3:2|0:0,0:0:0:0:
424,209,61229,2,0,P|451:184|457:150,1,72,2|0,3:2|0:0,0:0:0:0:
338,215,61582,6,0,P|267:228|196:240,1,144,2|0,3:2|3:0,0:0:0:0:
104,214,62111,1,2,0:0:0:0:
172,147,62288,1,0,3:0:0:0:
128,306,62464,2,0,P|92:299|57:293,1,72,8|0,0:0|3:0,0:0:0:0:
24,208,62817,5,8,0:0:0:0:
24,208,62905,1,8,0:0:0:0:
24,208,62994,2,0,P|26:190|30:172,1,36,8|8,0:0|0:0,0:0:0:0:
0,98,63170,6,0,P|43:88|83:106,1,90,6|0,3:2|0:0,0:0:0:0:
247,162,63523,2,0,P|203:171|163:153,1,90,8|0,0:0|0:0,0:0:0:0:
49,30,63876,6,0,P|78:62|83:106,1,90,2|0,3:2|0:0,0:0:0:0:
198,230,64229,2,0,P|168:197|163:153,1,90,8|0,0:0|0:0,0:0:0:0:
285,242,64582,6,0,P|321:255|370:243,1,90,2|0,3:2|0:0,0:0:0:0:
331,166,64935,2,0,P|293:151|244:163,1,90,8|0,0:0|0:0,0:0:0:0:
142,302,65288,6,0,P|105:315|56:303,1,90,2|0,3:2|0:0,0:0:0:0:
96,226,65641,2,0,P|133:211|182:223,1,90,8|0,0:0|0:0,0:0:0:0:
188,28,65994,6,0,L|92:39,1,90,6|0,3:2|0:0,0:0:0:0:
258,79,66347,2,0,L|353:90,1,90,10|0,0:0|0:0,0:0:0:0:
188,130,66700,2,0,L|92:141,1,90,2|0,3:2|0:0,0:0:0:0:
258,181,67052,2,0,L|353:192,1,90,10|0,0:0|0:0,0:0:0:0:
88,229,67405,6,0,P|27:188|46:74,1,180,2|8,3:2|0:0,0:0:0:0:
188,28,67935,1,0,3:0:0:0:
188,228,68111,5,0,3:0:0:0:
111,56,68288,1,2,0:0:0:0:
179,223,68464,5,8,0:0:0:0:
102,51,68641,1,0,3:0:0:0:
308,95,68817,5,8,0:0:0:0:
98,224,68994,2,0,L|3:207,1,90,8|0,0:0|0:0,0:0:0:0:
316,99,69347,5,8,0:0:0:0:
95,209,69524,2,0,L|1:183,1,90,8|0,0:0|0:0,0:0:0:0:
324,105,69876,5,8,0:0:0:0:
93,194,70053,2,0,L|2:160,1,90,8|0,0:0|0:0,0:0:0:0:
178,65,70405,5,8,0:0:0:0:
249,265,70582,1,8,0:0:0:0:
93,178,70758,5,8,0:0:0:0:
332,111,70935,1,8,0:0:0:0:
145,292,71288,1,8,0:0:0:0:
145,292,71641,6,0,P|79:284|116:172,1,198.000006042481,6|8,3:2|0:0,0:0:0:0:
172,46,72170,1,2,0:0:0:0:
320,111,72347,2,0,L|420:93,1,99.0000030212403,0|0,3:0|0:0,0:0:0:0:
211,150,72700,5,8,0:0:0:0:
281,7,72876,1,0,0:0:0:0:
287,208,73052,6,0,L|91:177,1,198.000006042481,2|8,3:2|0:0,0:0:0:0:
5,88,73582,2,0,P|-11:133|1:180,1,99.0000030212403,2|0,0:0|3:0,0:0:0:0:
88,270,73935,2,0,P|104:224|91:177,1,99.0000030212403,2|8,0:0|0:0,0:0:0:0:
97,74,74288,1,2,0:0:0:0:
206,256,74464,6,0,L|402:225,1,198.000006042481,2|8,3:2|0:0,0:0:0:0:
507,197,74994,1,2,0:0:0:0:
338,149,75170,2,0,L|240:164,1,99.0000030212403,0|0,3:0|0:0,0:0:0:0:
90,176,75523,5,8,0:0:0:0:
221,54,75700,1,2,0:0:0:0:
125,252,75876,6,0,P|50:249|17:133,1,198.000006042481,2|8,3:2|0:0,0:0:0:0:
134,27,76405,2,0,L|155:132,1,99.0000030212403,2|0,0:0|3:0,0:0:0:0:
220,261,76758,2,0,L|239:163,1,99.0000030212403,2|8,0:0|0:0,0:0:0:0:
300,69,77111,5,2,0:0:0:0:
153,124,77288,1,0,3:0:0:0:
331,195,77464,2,0,L|442:173,1,99.0000030212403,2|8,0:0|0:0,0:0:0:0:
239,163,77817,5,2,0:0:0:0:
379,95,77994,1,0,3:0:0:0:
317,280,78170,2,0,L|206:258,1,99.0000030212403,2|8,0:0|0:0,0:0:0:0:
153,124,78523,5,2,0:0:0:0:
331,195,78700,1,0,3:0:0:0:
161,320,78876,2,0,P|137:270|150:217,1,99.0000030212403,2|8,0:0|0:0,0:0:0:0:
239,163,79229,5,2,0:0:0:0:
51,156,79405,1,0,3:0:0:0:
207,51,79582,1,2,0:0:0:0:
143,228,79758,1,8,0:0:0:0:
90,46,79935,1,2,0:0:0:0:
231,262,80111,6,0,L|342:240,1,99.0000030212403,2|0,3:2|0:0,0:0:0:0:
508,132,80464,2,0,L|411:152,1,99.0000030212403,10|0,0:0|0:0,0:0:0:0:
305,59,80817,6,0,L|324:156,1,99.0000030212403,2|0,3:2|0:0,0:0:0:0:
433,335,81170,2,0,L|414:238,1,99.0000030212403,10|0,0:0|0:0,0:0:0:0:
422,65,81523,5,0,3:0:0:0:
238,174,81700,1,2,0:0:0:0:
414,238,81876,5,8,0:0:0:0:
304,58,82052,1,2,0:0:0:0:
313,301,82229,5,0,3:0:0:0:
290,296,82317,1,0,3:0:0:0:
269,292,82405,1,0,3:0:0:0:
248,287,82493,1,0,3:0:0:0:
226,283,82581,1,0,3:0:0:0:
205,278,82670,1,0,3:0:0:0:
183,273,82758,2,0,L|119:259,1,49.5000015106202,0|0,3:0|3:0,0:0:0:0:
53,228,82935,6,0,B|37:147|37:147|58:85|136:113,1,198.000006042481,6|8,3:2|0:0,0:0:0:0:
294,136,83464,1,2,0:0:0:0:
206,168,83641,2,0,L|222:59,1,99.0000030212403,0|0,3:0|0:0,0:0:0:0:
299,19,83994,5,8,0:0:0:0:
131,111,84170,1,2,0:0:0:0:
278,229,84347,6,0,P|365:215|482:194,1,198.000006042481,2|8,3:2|0:0,0:0:0:0:
433,293,84876,2,0,P|384:301|335:309,1,99.0000030212403,2|0,0:0|3:0,0:0:0:0:
294,136,85229,2,0,P|342:127|391:119,1,99.0000030212403,2|8,0:0|0:0,0:0:0:0:
308,35,85582,1,2,0:0:0:0:
118,203,85758,6,0,P|51:160|91:33,1,198.000006042481,2|8,3:2|0:0,0:0:0:0:
212,3,86288,1,2,0:0:0:0:
294,136,86464,2,0,P|342:127|391:119,1,99.0000030212403,0|0,3:0|0:0,0:0:0:0:
137,111,86817,5,8,0:0:0:0:
308,35,86994,1,2,0:0:0:0:
197,263,87170,6,0,P|93:243|-11:226,1,198.000006042481,2|8,3:2|0:0,0:0:0:0:
44,147,87700,2,0,P|52:98|61:49,1,99.0000030212403,2|0,0:0|3:0,0:0:0:0:
232,68,88052,2,0,P|213:165|197:263,1,198.000006042481,2|2,0:0|0:0,0:0:0:0:
448,186,88582,6,0,P|420:115|294:135,1,198.000006042481,4|8,3:2|0:0,0:0:0:0:
175,137,89111,5,2,0:0:0:0:
366,173,89288,1,0,3:0:0:0:
197,263,89464,2,0,P|148:254|99:245,1,99.0000030212403,2|8,0:0|0:0,0:0:0:0:
238,72,89817,1,2,0:0:0:0:
293,291,89994,6,0,P|396:273|499:253,1,198.000006042481,4|8,3:2|0:0,0:0:0:0:
434,110,90523,5,2,0:0:0:0:
254,190,90700,1,0,3:0:0:0:
434,128,90876,5,2,0:0:0:0:
238,72,91053,1,8,0:0:0:0:
407,17,91229,1,2,0:0:0:0:
365,245,91405,6,0,P|356:197|343:139,1,99.0000030212403,6|0,3:2|0:0,0:0:0:0:
156,102,91758,2,0,P|165:150|175:198,1,99.0000030212403,10|0,0:2|0:0,0:0:0:0:
349,330,92111,6,0,P|398:327|436:288,1,99.0000030212403,2|0,3:2|0:0,0:0:0:0:
259,163,92464,2,0,P|210:166|172:205,1,99.0000030212403,10|0,0:2|0:0,0:0:0:0:
0,105,92817,6,0,P|63:53|157:104,1,198.000006042481,4|8,3:2|0:0,0:0:0:0:
249,243,93347,1,0,0:0:0:0:
53,277,93523,5,0,3:0:0:0:
57,252,93611,1,0,3:0:0:0:
62,228,93699,1,0,3:0:0:0:
67,204,93787,1,0,3:0:0:0:
71,180,93876,6,0,L|81:105,1,49.5000015106202,0|0,3:0|3:0,0:0:0:0:
149,52,94052,2,0,L|159:127,1,49.5000015106202,0|0,3:0|3:0,0:0:0:0:
177,232,94229,5,8,0:0:0:0:
314,45,94405,1,8,0:0:0:0:
266,270,94582,5,8,0:0:0:0:
232,39,94758,1,8,0:0:0:0:
348,257,94935,6,0,L|458:236,1,99.0000030212403,10|0,0:0|0:0,0:0:0:0:
177,232,95288,2,0,L|67:211,1,99.0000030212403,10|0,0:0|0:0,0:0:0:0:
231,38,95641,6,0,L|266:270,1,233.999989288331,6|8,3:2|0:0,0:0:0:0:
334,149,96170,5,0,0:0:0:0:
177,232,96347,2,0,L|163:142,1,90,0|0,3:0|0:0,0:0:0:0:
321,60,96700,2,0,L|334:149,1,90,8|0,0:0|0:0,0:0:0:0:
431,197,97052,5,0,3:2:0:0:
429,105,97229,1,2,0:0:0:0:
354,245,97405,1,8,0:0:0:0:
512,240,97582,1,2,0:0:0:0:
334,149,97758,2,0,P|290:141|239:131,1,90,2|0,3:2|0:0,0:0:0:0:
84,81,98111,2,0,P|127:73|179:63,1,90,8|0,0:0|0:0,0:0:0:0:
76,167,98464,6,0,P|29:145|30:15,1,180,2|8,3:2|0:0,0:0:0:0:
172,64,98994,5,2,0:0:0:0:
138,233,99170,1,0,3:0:0:0:
245,132,99347,5,2,0:0:0:0:
211,301,99523,1,8,0:0:0:0:
74,162,99700,5,2,0:0:0:0:
74,162,99788,1,2,0:0:0:0:
74,162,99876,2,0,L|166:145,1,90,0|0,3:0|0:0,0:0:0:0:
268,35,100229,5,8,0:0:0:0:
216,220,100405,1,2,0:0:0:0:
170,38,100582,5,0,3:0:0:0:
332,129,100758,1,2,0:0:0:0:
202,222,100935,5,8,0:0:0:0:
269,21,101111,1,2,0:0:0:0:
312,273,101288,6,0,P|396:255|488:238,1,180,6|8,3:2|0:0,0:0:0:0:
420,111,101817,1,2,0:0:0:0:
420,111,101905,1,2,0:0:0:0:
420,111,101994,2,0,P|377:119|332:128,1,90,2|0,3:2|0:0,0:0:0:0:
164,148,102347,1,8,0:0:0:0:
225,218,102523,5,2,0:0:0:0:
225,218,102611,1,2,0:0:0:0:
225,218,102700,2,0,P|253:153|193:61,1,180,0|8,3:2|0:0,0:0:0:0:
133,235,103229,5,2,0:0:0:0:
133,235,103317,1,2,0:0:0:0:
133,235,103405,2,0,P|77:223|-8:208,2,135,0|2|0,3:2|0:0|0:0,0:0:0:0:
236,223,104111,5,6,3:2:0:0:
69,126,104288,1,2,0:0:0:0:
242,59,104464,5,8,0:0:0:0:
132,235,104641,1,2,0:0:0:0:
137,38,104817,5,0,3:0:0:0:
242,234,104994,1,2,0:0:0:0:
57,118,105170,5,8,0:0:0:0:
252,50,105347,1,2,0:0:0:0:
123,253,105523,5,2,3:2:0:0:
100,249,105611,1,0,3:0:0:0:
78,246,105699,1,0,3:0:0:0:
56,243,105787,1,0,3:0:0:0:
33,240,105876,6,0,L|23:188,1,45,2|0,3:2|3:0,0:0:0:0:
48,73,106052,2,0,L|58:125,1,45,0|0,3:0|3:0,0:0:0:0:
123,253,106229,5,10,0:0:0:0:
148,270,106317,1,8,0:0:0:0:
179,271,106405,1,8,0:0:0:0:
207,256,106493,1,8,0:0:0:0:
223,229,106581,1,10,0:0:0:0:
248,211,106670,1,8,0:0:0:0:
279,210,106758,1,8,0:0:0:0:
307,225,106846,1,8,0:0:0:0:
323,252,106935,6,0,L|428:230,1,90,8|0,0:0|0:0,0:0:0:0:
279,84,107288,2,0,L|174:106,1,90,8|0,0:0|0:0,0:0:0:0:
228,0,107641,5,10,0:0:0:0:
385,116,107817,2,0,L|490:94,1,90,8|0,0:0|0:0,0:0:0:0:
323,252,108170,2,0,P|314:209|305:160,1,90,8|0,0:0|0:0,0:0:0:0:
389,33,108523,5,8,0:0:0:0:
190,102,108700,1,8,0:0:0:0:
395,194,108876,1,8,0:0:0:0:
213,304,109052,1,8,0:0:0:0:
