osu file format v14

[General]
AudioFilename: audio.mp3
AudioLeadIn: 0
PreviewTime: 88924
Countdown: 0
SampleSet: Normal
StackLeniency: 0.7
Mode: 1
LetterboxInBreaks: 0
WidescreenStoryboard: 1

[Editor]
Bookmarks: 14055,18229,22403,29707,35967,40141,63098,71446,79793,89185,114228,119184
DistanceSpacing: 0.6
BeatDivisor: 4
GridSize: 32
TimelineZoom: 2.4

[Metadata]
Title:Igallta
TitleUnicode:Igallta
Artist:Se-U-Ra
ArtistUnicode:Se-U-Ra
Creator:Hivie
Version:Ryxliee's Futsuu
Source:Phigros
Tags:seura electronic instrumental Expert Global Taiko Showdown 2022 egts qf hr2 quarterfinals quarter finals hardrock hard rock 2 custom map fa featured artist pigeongames chapter vi ark mirage hardcore drumstep rhythm video game cynplytholowazy walozy gaston_2199 ryxliee mtntwarz taikoseania arcpotato intpotato
BeatmapID:3802649
BeatmapSetID:1846767

[Difficulty]
HPDrainRate:7
CircleSize:2
OverallDifficulty:4
ApproachRate:9
SliderMultiplier:1.4
SliderTickRate:1

[Events]
//Background and Video events
0,0,"bg.jpg",0,20
//Break Periods
//Storyboard Layer 0 (Background)
//Storyboard Layer 1 (Fail)
//Storyboard Layer 2 (Pass)
//Storyboard Layer 3 (Foreground)
//Storyboard Layer 4 (Overlay)
//Storyboard Sound Samples

[TimingPoints]
232,260.869565217391,8,1,0,5,1,8
232,-100,8,1,0,5,0,0
492,-100,8,1,0,10,0,0
753,-100,8,1,0,20,0,0
1014,-100,8,1,0,30,0,0
1275,-100,8,1,0,40,0,0
1536,-100,8,1,0,50,0,0
1797,-100,8,1,0,60,0,0
2058,-100,8,1,0,70,0,0
2253,-100,8,1,0,100,0,0
2318,260.869565217391,4,1,0,100,1,0
5448,260.869565217391,4,1,0,60,1,8
5708,260.869565217391,4,1,0,60,1,0
5838,-100,4,1,0,80,0,0
7729,-100,4,1,0,100,0,0
7860,-100,4,1,0,80,0,0
9816,-100,4,1,0,100,0,0
9947,-100,4,1,0,80,0,0
11903,-100,4,1,0,100,0,0
12164,-100,4,1,0,80,0,0
12947,-100,4,1,0,100,0,0
13468,-100,4,1,0,90,0,0
13990,-100,4,1,0,100,0,0
20577,-100,4,1,0,70,0,0
21226,-100,4,1,0,50,0,0
21878,-100,4,1,0,70,0,0
22403,260.869565217391,7,1,0,100,1,0
22403,-100,7,1,0,100,0,0
28989,-100,7,1,0,60,0,0
29641,-100,7,1,0,100,0,0
29707,260.869565217391,4,1,0,100,1,0
29707,-100,4,1,0,60,0,0
33877,-100,4,1,0,100,0,0
34269,-100,4,1,0,80,0,0
35641,-100,4,1,0,100,0,0
46790,-100,4,1,0,90,0,0
48162,-100,4,1,0,100,0,0
53967,-100,4,1,0,80,0,0
63033,-100,4,1,0,100,0,0
63164,-100,4,1,0,80,0,0
67206,-100,4,1,0,100,0,0
67337,-100,4,1,0,80,0,0
71380,-100,4,1,0,100,0,0
71511,-100,4,1,0,90,0,0
75617,-100,4,1,0,100,0,0
91272,-100,4,1,0,100,0,1
93359,-100,4,1,0,100,0,0
94402,-100,4,1,0,100,0,1
98576,-100,4,1,0,100,0,0
100663,-100,4,1,0,100,0,1
102228,-100,4,1,0,100,0,0
102750,-100,4,1,0,100,0,1
106924,260.869565217391,7,1,0,100,1,0
106924,-100,4,1,0,100,0,0
116054,260.869565217391,4,1,0,100,1,0

[HitObjects]
256,192,232,8,0,2188,0:0:0:0:
256,192,2318,5,12,0:0:0:0:
256,192,2579,1,4,0:0:0:0:
256,192,2970,1,4,0:0:0:0:
256,192,3361,1,12,0:0:0:0:
256,192,3622,1,0,0:0:0:0:
256,192,3883,1,0,0:0:0:0:
256,192,4144,1,0,0:0:0:0:
256,192,4404,1,0,0:0:0:0:
256,192,4665,1,0,0:0:0:0:
256,192,4926,1,0,0:0:0:0:
256,192,5057,1,0,0:0:0:0:
256,192,5187,1,8,0:0:0:0:
256,192,5708,1,12,0:0:0:0:
256,192,5968,1,0,0:0:0:0:
256,192,6490,1,0,0:0:0:0:
256,192,6751,1,8,0:0:0:0:
256,192,7142,1,0,0:0:0:0:
256,192,7534,1,8,0:0:0:0:
256,192,7794,1,0,0:0:0:0:
256,192,8186,1,0,0:0:0:0:
256,192,8577,1,0,0:0:0:0:
256,192,8838,1,8,0:0:0:0:
256,192,9229,1,0,0:0:0:0:
256,192,9881,1,12,0:0:0:0:
256,192,10142,1,0,0:0:0:0:
256,192,10664,1,0,0:0:0:0:
256,192,10925,1,8,0:0:0:0:
256,192,11316,1,0,0:0:0:0:
256,192,11707,1,0,0:0:0:0:
256,192,11968,1,8,0:0:0:0:
256,192,12099,1,8,0:0:0:0:
256,192,12490,1,0,0:0:0:0:
256,192,12751,1,8,0:0:0:0:
256,192,12881,1,0,0:0:0:0:
256,192,13012,1,8,0:0:0:0:
256,192,13534,1,0,0:0:0:0:
256,192,14055,1,12,0:0:0:0:
256,192,14316,1,0,0:0:0:0:
256,192,14577,1,0,0:0:0:0:
256,192,14707,1,8,0:0:0:0:
256,192,14838,1,0,0:0:0:0:
256,192,15099,1,8,0:0:0:0:
256,192,15360,1,0,0:0:0:0:
256,192,15621,1,0,0:0:0:0:
256,192,15881,1,8,0:0:0:0:
256,192,16142,1,0,0:0:0:0:
256,192,16273,1,0,0:0:0:0:
256,192,16664,1,8,0:0:0:0:
256,192,16794,1,0,0:0:0:0:
256,192,16925,1,8,0:0:0:0:
256,192,17186,1,8,0:0:0:0:
256,192,17447,1,8,0:0:0:0:
256,192,17577,1,0,0:0:0:0:
256,192,18229,1,0,0:0:0:0:
256,192,18490,1,0,0:0:0:0:
256,192,18751,1,8,0:0:0:0:
256,192,19012,1,8,0:0:0:0:
256,192,19273,1,0,0:0:0:0:
256,192,19403,1,0,0:0:0:0:
256,192,19534,1,8,0:0:0:0:
256,192,19664,1,0,0:0:0:0:
256,192,19794,1,8,0:0:0:0:
256,192,20055,1,8,0:0:0:0:
256,192,20316,1,0,0:0:0:0:
256,192,21881,1,0,0:0:0:0:
256,192,22012,1,0,0:0:0:0:
256,192,22403,1,12,0:0:0:0:
256,192,22794,1,0,0:0:0:0:
256,192,22924,1,8,0:0:0:0:
256,192,23185,1,0,0:0:0:0:
256,192,23316,1,8,0:0:0:0:
256,192,23446,1,8,0:0:0:0:
256,192,23576,1,0,0:0:0:0:
256,192,23968,1,8,0:0:0:0:
256,192,24229,1,4,0:0:0:0:
256,192,24620,1,0,0:0:0:0:
256,192,24751,1,8,0:0:0:0:
256,192,25011,1,8,0:0:0:0:
256,192,25142,1,0,0:0:0:0:
256,192,25402,1,0,0:0:0:0:
256,192,25794,1,8,0:0:0:0:
256,192,26055,1,12,0:0:0:0:
256,192,26446,1,0,0:0:0:0:
256,192,26576,1,8,0:0:0:0:
256,192,26837,1,0,0:0:0:0:
256,192,26968,1,8,0:0:0:0:
256,192,27098,1,0,0:0:0:0:
256,192,27229,1,8,0:0:0:0:
256,192,27620,1,8,0:0:0:0:
256,192,27881,1,4,0:0:0:0:
256,192,28272,1,0,0:0:0:0:
256,192,28403,1,8,0:0:0:0:
256,192,28663,1,0,0:0:0:0:
256,192,28794,1,8,0:0:0:0:
256,192,28924,1,0,0:0:0:0:
256,192,29707,1,4,0:0:0:0:
256,192,31793,8,0,33359,0:0:0:0:
256,192,33880,5,4,0:0:0:0:
256,192,35706,1,0,0:0:0:0:
256,192,35967,1,12,0:0:0:0:
256,192,36228,1,8,0:0:0:0:
256,192,36359,1,0,0:0:0:0:
256,192,36489,1,8,0:0:0:0:
256,192,36750,1,8,0:0:0:0:
256,192,37011,1,0,0:0:0:0:
256,192,37141,1,0,0:0:0:0:
256,192,37272,1,8,0:0:0:0:
256,192,37533,1,0,0:0:0:0:
256,192,38054,1,12,0:0:0:0:
256,192,38315,1,0,0:0:0:0:
256,192,38446,1,8,0:0:0:0:
256,192,38576,1,0,0:0:0:0:
256,192,38837,1,8,0:0:0:0:
256,192,39098,1,8,0:0:0:0:
256,192,39228,1,0,0:0:0:0:
256,192,39359,1,8,0:0:0:0:
256,192,39620,1,0,0:0:0:0:
256,192,39880,1,8,0:0:0:0:
256,192,40141,1,4,0:0:0:0:
256,192,40533,1,0,0:0:0:0:
256,192,40663,1,8,0:0:0:0:
256,192,41054,1,0,0:0:0:0:
256,192,41185,1,0,0:0:0:0:
256,192,41446,1,0,0:0:0:0:
256,192,41706,1,8,0:0:0:0:
256,192,41837,1,0,0:0:0:0:
256,192,41967,1,8,0:0:0:0:
256,192,42228,1,4,0:0:0:0:
256,192,43272,1,0,0:0:0:0:
256,192,44315,1,0,0:0:0:0:
256,192,45359,1,0,0:0:0:0:
256,192,45880,1,0,0:0:0:0:
256,192,46141,1,0,0:0:0:0:
256,192,46402,1,12,0:0:0:0:
256,192,47185,1,0,0:0:0:0:
256,192,47967,1,8,0:0:0:0:
256,192,48228,1,0,0:0:0:0:
256,192,48489,1,12,0:0:0:0:
256,192,48750,1,8,0:0:0:0:
256,192,48881,1,0,0:0:0:0:
256,192,49011,1,8,0:0:0:0:
256,192,49272,1,8,0:0:0:0:
256,192,49533,1,0,0:0:0:0:
256,192,49663,1,0,0:0:0:0:
256,192,49794,1,8,0:0:0:0:
256,192,50055,1,0,0:0:0:0:
256,192,50576,1,12,0:0:0:0:
256,192,50837,1,0,0:0:0:0:
256,192,50968,1,8,0:0:0:0:
256,192,51098,1,0,0:0:0:0:
256,192,51359,1,8,0:0:0:0:
256,192,51620,1,8,0:0:0:0:
256,192,51750,1,0,0:0:0:0:
256,192,51881,1,8,0:0:0:0:
256,192,52142,1,0,0:0:0:0:
256,192,52402,1,8,0:0:0:0:
256,192,52663,1,4,0:0:0:0:
256,192,53054,1,0,0:0:0:0:
256,192,53185,1,8,0:0:0:0:
256,192,53315,1,0,0:0:0:0:
256,192,53576,1,0,0:0:0:0:
256,192,53706,1,8,0:0:0:0:
256,192,54228,1,0,0:0:0:0:
256,192,54750,1,8,0:0:0:0:
256,192,55141,1,0,0:0:0:0:
256,192,55533,1,8,0:0:0:0:
256,192,55793,1,0,0:0:0:0:
256,192,56315,1,0,0:0:0:0:
256,192,56576,1,0,0:0:0:0:
256,192,56837,1,8,0:0:0:0:
256,192,57228,1,0,0:0:0:0:
256,192,57620,1,8,0:0:0:0:
256,192,57880,1,0,0:0:0:0:
256,192,58402,1,0,0:0:0:0:
256,192,58924,1,12,0:0:0:0:
256,192,59967,1,0,0:0:0:0:
256,192,60228,1,0,0:0:0:0:
256,192,60359,1,8,0:0:0:0:
256,192,60489,1,0,0:0:0:0:
256,192,60750,1,0,0:0:0:0:
256,192,61011,1,8,0:0:0:0:
256,192,61272,1,0,0:0:0:0:
256,192,61402,1,0,0:0:0:0:
256,192,61533,1,8,0:0:0:0:
256,192,61793,1,8,0:0:0:0:
256,192,61924,1,8,0:0:0:0:
256,192,62054,1,0,0:0:0:0:
256,192,63098,1,12,0:0:0:0:
256,192,63359,1,0,0:0:0:0:
256,192,63620,1,0,0:0:0:0:
256,192,64141,1,8,0:0:0:0:
256,192,64532,1,8,0:0:0:0:
256,192,64924,1,0,0:0:0:0:
256,192,65184,1,8,0:0:0:0:
256,192,65446,1,0,0:0:0:0:
256,192,65706,1,0,0:0:0:0:
256,192,66228,1,8,0:0:0:0:
256,192,66619,1,0,0:0:0:0:
256,192,67271,1,12,0:0:0:0:
256,192,67532,1,0,0:0:0:0:
256,192,67793,1,0,0:0:0:0:
256,192,68315,1,8,0:0:0:0:
256,192,68706,1,8,0:0:0:0:
256,192,69097,1,8,0:0:0:0:
256,192,69358,1,0,0:0:0:0:
256,192,69489,1,0,0:0:0:0:
256,192,69880,1,0,0:0:0:0:
256,192,70141,1,0,0:0:0:0:
256,192,70402,1,8,0:0:0:0:
256,192,70924,1,0,0:0:0:0:
256,192,71446,1,12,0:0:0:0:
256,192,71706,1,0,0:0:0:0:
256,192,71967,1,8,0:0:0:0:
256,192,72098,1,0,0:0:0:0:
256,192,72359,1,0,0:0:0:0:
256,192,72750,1,0,0:0:0:0:
256,192,73011,1,8,0:0:0:0:
256,192,73272,1,0,0:0:0:0:
256,192,73533,1,0,0:0:0:0:
256,192,73793,1,8,0:0:0:0:
256,192,74054,1,0,0:0:0:0:
256,192,74185,1,8,0:0:0:0:
256,192,74315,1,0,0:0:0:0:
256,192,74576,1,0,0:0:0:0:
256,192,74837,1,8,0:0:0:0:
256,192,74967,1,0,0:0:0:0:
256,192,75620,1,12,0:0:0:0:
256,192,75880,1,0,0:0:0:0:
256,192,76141,1,8,0:0:0:0:
256,192,76402,1,0,0:0:0:0:
256,192,76663,1,8,0:0:0:0:
256,192,76924,1,0,0:0:0:0:
256,192,77054,1,0,0:0:0:0:
256,192,77185,1,8,0:0:0:0:
256,192,77446,1,8,0:0:0:0:
256,192,77576,1,8,0:0:0:0:
256,192,77706,1,0,0:0:0:0:
256,192,78750,1,12,0:0:0:0:
256,192,79011,1,8,0:0:0:0:
256,192,79272,1,0,0:0:0:0:
256,192,79793,1,8,0:0:0:0:
256,192,80054,1,0,0:0:0:0:
256,192,80315,1,8,0:0:0:0:
256,192,80576,1,0,0:0:0:0:
256,192,80706,1,0,0:0:0:0:
256,192,80967,1,8,0:0:0:0:
256,192,81098,1,8,0:0:0:0:
256,192,81359,1,0,0:0:0:0:
256,192,81880,1,8,0:0:0:0:
256,192,82141,1,0,0:0:0:0:
256,192,82402,1,8,0:0:0:0:
256,192,83054,1,8,0:0:0:0:
256,192,83185,1,8,0:0:0:0:
256,192,83446,1,0,0:0:0:0:
256,192,83967,1,0,0:0:0:0:
256,192,84228,1,8,0:0:0:0:
256,192,84489,1,0,0:0:0:0:
256,192,84685,1,0,0:0:0:0:
256,192,84880,1,0,0:0:0:0:
256,192,85141,1,8,0:0:0:0:
256,192,85272,1,8,0:0:0:0:
256,192,85533,1,0,0:0:0:0:
256,192,85793,1,0,0:0:0:0:
256,192,85924,1,0,0:0:0:0:
256,192,86054,1,8,0:0:0:0:
256,192,86315,1,8,0:0:0:0:
256,192,86576,1,8,0:0:0:0:
256,192,86706,1,0,0:0:0:0:
256,192,86837,1,8,0:0:0:0:
256,192,86967,1,0,0:0:0:0:
256,192,87098,1,8,0:0:0:0:
256,192,87359,1,8,0:0:0:0:
256,192,87620,1,8,0:0:0:0:
256,192,87880,1,8,0:0:0:0:
256,192,88141,1,0,0:0:0:0:
256,192,89185,1,4,0:0:0:0:
256,192,89576,1,4,0:0:0:0:
256,192,89967,1,12,0:0:0:0:
256,192,90880,1,0,0:0:0:0:
256,192,91011,1,8,0:0:0:0:
256,192,91272,1,0,0:0:0:0:
256,192,91533,1,0,0:0:0:0:
256,192,91793,1,8,0:0:0:0:
256,192,92054,1,8,0:0:0:0:
256,192,92185,1,0,0:0:0:0:
256,192,92315,1,8,0:0:0:0:
256,192,92576,1,8,0:0:0:0:
256,192,92837,1,0,0:0:0:0:
256,192,93098,1,8,0:0:0:0:
256,192,93228,1,8,0:0:0:0:
256,192,93359,1,0,0:0:0:0:
256,192,93880,1,0,0:0:0:0:
256,192,94141,1,0,0:0:0:0:
256,192,94402,1,12,0:0:0:0:
256,192,94663,1,0,0:0:0:0:
256,192,94924,1,0,0:0:0:0:
256,192,95185,1,8,0:0:0:0:
256,192,95315,1,0,0:0:0:0:
256,192,95446,1,8,0:0:0:0:
256,192,95706,1,8,0:0:0:0:
256,192,95967,1,0,0:0:0:0:
256,192,96098,1,8,0:0:0:0:
256,192,96228,1,0,0:0:0:0:
256,192,96489,1,0,0:0:0:0:
256,192,96750,1,8,0:0:0:0:
256,192,97011,1,0,0:0:0:0:
256,192,97272,1,8,0:0:0:0:
256,192,97402,1,8,0:0:0:0:
256,192,97533,1,0,0:0:0:0:
256,192,97663,1,8,0:0:0:0:
256,192,97793,1,0,0:0:0:0:
256,192,98054,1,0,0:0:0:0:
256,192,98315,1,8,0:0:0:0:
256,192,98576,1,4,0:0:0:0:
256,192,99098,1,8,0:0:0:0:
256,192,99228,1,0,0:0:0:0:
256,192,99489,1,0,0:0:0:0:
256,192,100141,1,0,0:0:0:0:
256,192,100272,1,0,0:0:0:0:
256,192,100663,1,12,0:0:0:0:
256,192,100924,1,0,0:0:0:0:
256,192,101185,1,0,0:0:0:0:
256,192,101446,1,8,0:0:0:0:
256,192,101706,1,0,0:0:0:0:
256,192,101967,1,8,0:0:0:0:
256,192,102098,1,8,0:0:0:0:
256,192,102228,1,0,0:0:0:0:
256,192,102489,1,0,0:0:0:0:
256,192,102750,1,0,0:0:0:0:
256,192,102880,1,0,0:0:0:0:
256,192,103011,1,8,0:0:0:0:
256,192,103272,1,0,0:0:0:0:
256,192,103533,1,8,0:0:0:0:
256,192,103663,1,8,0:0:0:0:
256,192,103793,1,0,0:0:0:0:
256,192,104054,1,0,0:0:0:0:
256,192,104185,1,8,0:0:0:0:
256,192,104315,1,8,0:0:0:0:
256,192,104446,1,0,0:0:0:0:
256,192,104576,1,8,0:0:0:0:
256,192,104837,1,0,0:0:0:0:
256,192,105098,1,0,0:0:0:0:
256,192,105359,1,0,0:0:0:0:
256,192,105620,1,0,0:0:0:0:
256,192,105750,1,8,0:0:0:0:
256,192,105880,1,0,0:0:0:0:
256,192,106402,1,8,0:0:0:0:
256,192,106924,1,4,0:0:0:0:
256,192,107315,1,0,0:0:0:0:
256,192,107445,1,8,0:0:0:0:
256,192,107706,1,0,0:0:0:0:
256,192,107837,1,8,0:0:0:0:
256,192,107967,1,8,0:0:0:0:
256,192,108097,1,0,0:0:0:0:
256,192,108489,1,8,0:0:0:0:
256,192,108750,1,4,0:0:0:0:
256,192,109141,1,0,0:0:0:0:
256,192,109271,1,8,0:0:0:0:
256,192,109532,1,8,0:0:0:0:
256,192,109663,1,0,0:0:0:0:
256,192,109924,1,0,0:0:0:0:
256,192,110315,1,8,0:0:0:0:
256,192,110576,1,12,0:0:0:0:
256,192,110967,1,0,0:0:0:0:
256,192,111097,1,8,0:0:0:0:
256,192,111358,1,0,0:0:0:0:
256,192,111489,1,8,0:0:0:0:
256,192,111619,1,0,0:0:0:0:
256,192,111750,1,8,0:0:0:0:
256,192,112141,1,8,0:0:0:0:
256,192,112402,1,12,0:0:0:0:
256,192,112793,1,0,0:0:0:0:
256,192,112923,1,8,0:0:0:0:
256,192,113184,1,8,0:0:0:0:
256,192,113315,1,0,0:0:0:0:
256,192,113576,1,0,0:0:0:0:
256,192,113967,1,8,0:0:0:0:
256,192,114097,1,0,0:0:0:0:
256,192,114228,1,12,0:0:0:0:
256,192,114619,1,0,0:0:0:0:
256,192,114750,1,8,0:0:0:0:
256,192,115010,1,8,0:0:0:0:
256,192,115141,1,8,0:0:0:0:
256,192,115402,1,8,0:0:0:0:
256,192,115793,1,4,0:0:0:0:
256,192,116575,1,0,0:0:0:0:
256,192,116836,1,0,0:0:0:0:
256,192,116967,1,0,0:0:0:0:
256,192,117227,1,0,0:0:0:0:
256,192,117358,1,8,0:0:0:0:
256,192,117619,1,0,0:0:0:0:
256,192,117880,1,0,0:0:0:0:
256,192,118140,1,0,0:0:0:0:
256,192,118401,1,0,0:0:0:0:
256,192,118532,1,0,0:0:0:0:
256,192,118662,1,8,0:0:0:0:
256,192,118923,1,8,0:0:0:0:
256,192,119054,1,8,0:0:0:0:
256,192,119184,1,0,0:0:0:0:
