osu file format v14

[General]
AudioFilename: audio.mp3
AudioLeadIn: 0
PreviewTime: 75942
Countdown: 0
SampleSet: Normal
StackLeniency: 0.7
Mode: 1
LetterboxInBreaks: 0
WidescreenStoryboard: 1

[Editor]
Bookmarks: 1212,22135,41827,56596,76288,86135,105827
DistanceSpacing: 0.8
BeatDivisor: 4
GridSize: 32
TimelineZoom: 1.8

[Metadata]
Title:Melusia
TitleUnicode:Melusia
Artist:Se-U-Ra x seatrus
ArtistUnicode:Se-U-Ra × seatrus
Creator:Hivie
Version:Futsuu
Source:OverRapid
Tags:seura fa featured artist mg mpg mappers' guild electronic instrumental mbc monthly beatmapping contest march 2021
BeatmapID:4286822
BeatmapSetID:1441157

[Difficulty]
HPDrainRate:7
CircleSize:2
OverallDifficulty:4
ApproachRate:10
SliderMultiplier:1.4
SliderTickRate:1

[Events]
//Background and Video events
0,0,"bg.jpg",0,-120
//Break Periods
2,42027,45685
//Storyboard Layer 0 (Background)
//Storyboard Layer 1 (Fail)
//Storyboard Layer 2 (Pass)
//Storyboard Layer 3 (Foreground)
//Storyboard Layer 4 (Overlay)
//Storyboard Sound Samples

[TimingPoints]
1212,307.692307692308,4,1,0,100,1,0
1212,-100,4,1,0,100,0,0
11053,-100,4,1,0,100,0,0
14591,-100,4,1,0,100,0,0
19981,-100,4,1,0,100,0,0
22053,-100,4,1,0,100,0,0
31976,-100,4,1,0,100,0,0
39519,-100,4,1,0,100,0,0
40591,-100,4,1,0,100,0,0
41822,-100,4,1,0,100,0,0
43058,-100,4,1,0,100,0,0
44288,-100,4,1,0,100,0,0
45519,-100,4,1,0,100,0,0
49207,-100,4,1,0,100,0,0
51668,-100,4,1,0,100,0,0
56519,-100,4,1,0,100,0,0
61519,-100,4,1,0,100,0,0
66514,-100,4,1,0,100,0,0
75668,-100,4,1,0,100,0,0
76288,-100,4,1,0,100,0,1
83673,-100,4,1,0,100,0,0
86135,-100,4,1,0,100,0,0
104514,-100,4,1,0,100,0,0
110745,-100,4,1,0,100,0,0
115673,-100,4,1,0,100,0,1
122904,-100,4,1,0,100,0,0
122976,-100,4,1,0,100,0,0
123365,-100,4,1,0,100,0,0

[HitObjects]
256,192,1212,5,8,0:0:0:0:
256,192,1519,1,0,0:0:0:0:
256,192,1827,1,8,0:0:0:0:
256,192,2058,1,0,0:0:0:0:
256,192,2288,1,8,0:0:0:0:
256,192,2750,1,0,0:0:0:0:
256,192,3058,1,8,0:0:0:0:
256,192,3288,1,8,0:0:0:0:
256,192,3519,1,0,0:0:0:0:
256,192,4135,1,8,0:0:0:0:
256,192,4288,1,8,0:0:0:0:
256,192,4519,1,8,0:0:0:0:
256,192,4750,1,0,0:0:0:0:
256,192,5212,1,0,0:0:0:0:
256,192,5519,1,8,0:0:0:0:
256,192,6135,1,8,0:0:0:0:
256,192,6442,1,0,0:0:0:0:
256,192,6750,1,8,0:0:0:0:
256,192,7058,1,0,0:0:0:0:
256,192,7212,1,8,0:0:0:0:
256,192,7519,1,0,0:0:0:0:
256,192,7673,1,0,0:0:0:0:
256,192,7981,1,8,0:0:0:0:
256,192,8212,1,8,0:0:0:0:
256,192,8442,1,0,0:0:0:0:
256,192,8904,1,8,0:0:0:0:
256,192,9212,1,0,0:0:0:0:
256,192,9442,1,8,0:0:0:0:
256,192,9827,1,8,0:0:0:0:
256,192,10058,1,8,0:0:0:0:
256,192,10288,1,0,0:0:0:0:
256,96,11058,1,4,0:0:0:0:
256,192,11673,1,8,0:0:0:0:
256,192,11904,1,8,0:0:0:0:
256,192,12135,1,8,0:0:0:0:
256,192,12442,1,0,0:0:0:0:
256,192,12596,1,8,0:0:0:0:
256,192,12904,1,0,0:0:0:0:
256,192,13135,1,8,0:0:0:0:
256,192,13365,1,0,0:0:0:0:
256,192,13673,1,0,0:0:0:0:
256,192,13827,1,0,0:0:0:0:
256,192,14135,1,8,0:0:0:0:
256,192,14365,1,8,0:0:0:0:
256,96,14596,1,4,0:0:0:0:
256,96,15058,1,12,0:0:0:0:
256,96,15365,1,4,0:0:0:0:
256,96,15827,1,12,0:0:0:0:
256,96,16288,1,12,0:0:0:0:
256,192,16596,1,0,0:0:0:0:
256,192,16750,1,0,0:0:0:0:
256,96,17058,1,12,0:0:0:0:
256,192,17673,1,0,0:0:0:0:
256,192,17827,1,8,0:0:0:0:
256,192,18058,1,0,0:0:0:0:
256,192,18288,1,12,0:0:0:0:
256,192,18596,1,0,0:0:0:0:
256,192,18750,1,8,0:0:0:0:
256,192,19058,1,0,0:0:0:0:
256,192,19288,1,8,0:0:0:0:
256,96,19673,1,4,0:0:0:0:
256,192,20904,1,0,0:0:0:0:
256,192,21212,1,8,0:0:0:0:
256,192,21365,1,0,0:0:0:0:
256,192,21519,1,0,0:0:0:0:
256,192,21827,1,8,0:0:0:0:
256,96,22135,1,4,0:0:0:0:
256,192,22442,1,8,0:0:0:0:
256,192,22596,1,0,0:0:0:0:
256,192,22904,1,0,0:0:0:0:
256,192,23058,1,8,0:0:0:0:
256,192,23365,1,0,0:0:0:0:
256,192,23519,1,0,0:0:0:0:
256,192,23673,1,8,0:0:0:0:
256,192,23827,1,0,0:0:0:0:
256,192,24135,1,8,0:0:0:0:
256,192,24288,1,8,0:0:0:0:
256,96,24596,1,4,0:0:0:0:
256,192,24904,1,8,0:0:0:0:
256,192,25058,1,0,0:0:0:0:
256,192,25365,1,0,0:0:0:0:
256,192,25519,1,8,0:0:0:0:
256,192,26135,1,8,0:0:0:0:
256,192,26288,1,0,0:0:0:0:
256,192,26442,1,8,0:0:0:0:
256,192,26750,1,8,0:0:0:0:
256,96,27058,1,4,0:0:0:0:
256,192,27365,1,8,0:0:0:0:
256,192,27519,1,0,0:0:0:0:
256,192,27827,1,0,0:0:0:0:
256,192,27981,1,8,0:0:0:0:
256,192,28288,1,0,0:0:0:0:
256,192,28442,1,0,0:0:0:0:
256,192,28596,1,8,0:0:0:0:
256,192,28750,1,0,0:0:0:0:
256,192,29058,1,8,0:0:0:0:
256,192,29211,1,8,0:0:0:0:
256,192,29519,1,0,0:0:0:0:
256,192,29827,1,8,0:0:0:0:
256,192,30135,1,0,0:0:0:0:
256,192,30288,1,0,0:0:0:0:
256,192,30442,1,8,0:0:0:0:
256,192,30596,1,8,0:0:0:0:
256,96,30750,1,4,0:0:0:0:
256,192,31365,1,8,0:0:0:0:
256,96,31981,1,12,0:0:0:0:
256,192,32288,1,8,0:0:0:0:
256,192,32442,1,0,0:0:0:0:
256,192,32750,1,0,0:0:0:0:
256,192,32904,1,8,0:0:0:0:
256,192,33058,1,0,0:0:0:0:
256,192,33212,1,8,0:0:0:0:
256,192,33519,1,0,0:0:0:0:
256,192,33673,1,0,0:0:0:0:
256,192,33981,1,8,0:0:0:0:
256,192,34135,1,8,0:0:0:0:
256,192,34442,1,0,0:0:0:0:
256,192,34750,1,0,0:0:0:0:
256,192,34904,1,8,0:0:0:0:
256,192,35212,1,8,0:0:0:0:
256,192,35365,1,0,0:0:0:0:
256,192,35519,1,0,0:0:0:0:
256,192,35673,1,8,0:0:0:0:
256,192,35981,1,8,0:0:0:0:
256,192,36135,1,0,0:0:0:0:
256,192,36442,1,8,0:0:0:0:
256,192,36596,1,0,0:0:0:0:
256,96,36904,1,12,0:0:0:0:
256,192,37212,1,0,0:0:0:0:
256,192,37519,1,0,0:0:0:0:
256,192,37827,1,0,0:0:0:0:
256,192,38135,1,8,0:0:0:0:
256,192,38442,1,0,0:0:0:0:
256,192,38596,1,8,0:0:0:0:
256,192,38750,1,0,0:0:0:0:
256,96,39058,1,12,0:0:0:0:
256,96,39365,1,4,0:0:0:0:
256,192,40596,1,0,0:0:0:0:
256,192,40904,1,8,0:0:0:0:
256,192,41058,1,0,0:0:0:0:
256,192,41212,1,0,0:0:0:0:
256,192,41519,1,8,0:0:0:0:
256,96,41827,1,4,0:0:0:0:
256,192,46135,5,8,0:0:0:0:
256,192,46288,1,8,0:0:0:0:
256,192,46442,1,8,0:0:0:0:
256,192,46750,1,0,0:0:0:0:
256,192,47058,1,8,0:0:0:0:
256,192,47365,1,0,0:0:0:0:
256,192,47519,1,8,0:0:0:0:
256,192,47673,1,0,0:0:0:0:
256,192,47827,1,8,0:0:0:0:
256,192,48135,1,8,0:0:0:0:
256,192,48288,1,0,0:0:0:0:
256,192,48596,1,8,0:0:0:0:
256,96,49212,1,4,0:0:0:0:
256,192,49519,1,0,0:0:0:0:
256,192,49673,1,8,0:0:0:0:
256,192,49827,1,8,0:0:0:0:
256,192,49981,1,8,0:0:0:0:
256,192,50135,1,0,0:0:0:0:
256,96,50442,1,12,0:0:0:0:
256,192,50904,1,0,0:0:0:0:
256,192,51058,1,8,0:0:0:0:
256,192,51673,1,4,0:0:0:0:
256,192,51981,1,8,0:0:0:0:
256,192,52135,1,0,0:0:0:0:
256,192,52288,1,8,0:0:0:0:
256,96,52596,1,4,0:0:0:0:
256,192,52904,1,12,0:0:0:0:
256,192,53212,1,0,0:0:0:0:
256,192,53365,1,8,0:0:0:0:
256,192,53519,1,0,0:0:0:0:
256,96,53827,1,12,0:0:0:0:
256,192,54135,1,4,0:0:0:0:
256,192,54442,1,8,0:0:0:0:
256,192,54750,1,4,0:0:0:0:
256,192,54981,1,4,0:0:0:0:
256,96,55212,1,12,0:0:0:0:
256,192,55519,1,0,0:0:0:0:
256,192,55673,1,0,0:0:0:0:
256,96,55981,1,12,0:0:0:0:
256,96,56135,1,12,0:0:0:0:
256,96,56596,1,4,0:0:0:0:
256,192,57212,1,0,0:0:0:0:
256,192,57519,1,8,0:0:0:0:
256,192,57673,1,0,0:0:0:0:
256,192,57827,1,8,0:0:0:0:
256,192,58135,1,0,0:0:0:0:
256,192,58288,1,0,0:0:0:0:
256,192,58442,1,8,0:0:0:0:
256,192,58750,1,0,0:0:0:0:
256,192,59058,1,8,0:0:0:0:
256,192,59519,1,8,0:0:0:0:
256,192,59827,1,0,0:0:0:0:
256,192,59981,1,8,0:0:0:0:
256,192,60135,1,0,0:0:0:0:
256,192,60288,1,8,0:0:0:0:
256,192,60596,1,8,0:0:0:0:
256,192,60750,1,8,0:0:0:0:
256,192,60904,1,0,0:0:0:0:
256,192,61212,1,8,0:0:0:0:
256,192,61519,1,8,0:0:0:0:
256,192,61673,1,8,0:0:0:0:
256,192,61981,1,8,0:0:0:0:
256,192,62288,1,0,0:0:0:0:
256,192,62442,1,8,0:0:0:0:
256,192,62750,1,0,0:0:0:0:
256,192,62904,1,0,0:0:0:0:
256,192,63212,1,8,0:0:0:0:
256,192,63519,1,0,0:0:0:0:
256,192,63673,1,8,0:0:0:0:
256,96,63981,1,12,0:0:0:0:
256,96,64442,1,12,0:0:0:0:
256,96,64596,1,12,0:0:0:0:
256,96,65058,1,12,0:0:0:0:
256,96,65212,1,4,0:0:0:0:
256,192,65519,1,0,0:0:0:0:
256,192,65827,1,8,0:0:0:0:
256,192,65981,1,0,0:0:0:0:
256,192,66135,1,8,0:0:0:0:
256,96,66442,1,4,0:0:0:0:
256,192,67058,1,8,0:0:0:0:
256,192,67289,1,0,0:0:0:0:
256,192,67519,1,8,0:0:0:0:
256,192,67981,1,0,0:0:0:0:
256,192,68289,1,8,0:0:0:0:
256,192,68519,1,8,0:0:0:0:
256,192,68750,1,0,0:0:0:0:
256,192,69366,1,8,0:0:0:0:
256,192,69519,1,8,0:0:0:0:
256,192,69750,1,8,0:0:0:0:
256,192,69981,1,0,0:0:0:0:
256,192,70443,1,0,0:0:0:0:
256,192,70750,1,8,0:0:0:0:
256,192,71366,1,8,0:0:0:0:
256,192,71673,1,0,0:0:0:0:
256,192,71981,1,8,0:0:0:0:
256,192,72289,1,0,0:0:0:0:
256,192,72443,1,8,0:0:0:0:
256,192,72750,1,0,0:0:0:0:
256,192,72904,1,0,0:0:0:0:
256,192,73212,1,8,0:0:0:0:
256,192,73443,1,8,0:0:0:0:
256,192,73673,1,0,0:0:0:0:
256,192,74135,1,8,0:0:0:0:
256,192,74443,1,0,0:0:0:0:
256,192,74673,1,8,0:0:0:0:
256,192,75058,1,8,0:0:0:0:
256,192,75288,1,0,0:0:0:0:
256,192,75673,1,8,0:0:0:0:
256,96,76288,1,12,0:0:0:0:
256,192,76596,1,0,0:0:0:0:
256,192,76904,1,8,0:0:0:0:
256,192,77135,1,0,0:0:0:0:
256,192,77365,1,8,0:0:0:0:
256,192,77673,1,0,0:0:0:0:
256,192,77827,1,8,0:0:0:0:
256,192,78135,1,0,0:0:0:0:
256,192,78365,1,8,0:0:0:0:
256,192,78596,1,0,0:0:0:0:
256,192,78904,1,8,0:0:0:0:
256,192,79058,1,0,0:0:0:0:
256,192,79365,1,8,0:0:0:0:
256,192,79596,1,8,0:0:0:0:
256,192,79827,1,0,0:0:0:0:
256,192,80135,1,8,0:0:0:0:
256,192,80288,1,8,0:0:0:0:
256,192,80442,1,0,0:0:0:0:
256,192,80596,1,8,0:0:0:0:
256,192,80750,1,0,0:0:0:0:
256,192,80904,1,8,0:0:0:0:
256,96,81212,1,4,0:0:0:0:
256,192,81827,1,0,0:0:0:0:
256,192,82135,1,0,0:0:0:0:
256,192,82288,1,0,0:0:0:0:
256,96,82442,1,12,0:0:0:0:
256,192,82750,1,0,0:0:0:0:
256,192,83058,1,8,0:0:0:0:
256,192,83365,1,0,0:0:0:0:
256,96,83673,1,8,0:0:0:0:
256,96,83904,1,8,0:0:0:0:
256,96,84135,1,8,0:0:0:0:
256,96,84288,1,8,0:0:0:0:
256,96,84519,1,8,0:0:0:0:
256,192,84904,1,0,0:0:0:0:
256,192,85212,1,0,0:0:0:0:
256,192,85519,1,8,0:0:0:0:
256,96,86135,1,4,0:0:0:0:
256,192,86442,1,8,0:0:0:0:
256,192,86750,1,0,0:0:0:0:
256,192,86904,1,8,0:0:0:0:
256,192,87058,1,0,0:0:0:0:
256,192,87212,1,0,0:0:0:0:
256,192,87519,1,8,0:0:0:0:
256,192,87673,1,0,0:0:0:0:
256,192,87827,1,8,0:0:0:0:
256,192,88135,1,0,0:0:0:0:
256,192,88288,1,8,0:0:0:0:
256,192,88442,1,0,0:0:0:0:
256,192,88750,1,8,0:0:0:0:
256,192,88904,1,0,0:0:0:0:
256,192,89058,1,8,0:0:0:0:
256,192,89212,1,8,0:0:0:0:
256,192,89519,1,0,0:0:0:0:
256,192,89673,1,0,0:0:0:0:
256,192,89981,1,0,0:0:0:0:
256,192,90135,1,8,0:0:0:0:
256,192,90442,1,0,0:0:0:0:
256,192,90596,1,0,0:0:0:0:
256,192,90750,1,8,0:0:0:0:
256,192,91058,1,0,0:0:0:0:
256,192,91673,1,8,0:0:0:0:
256,192,91827,1,0,0:0:0:0:
256,192,91981,1,8,0:0:0:0:
256,192,92135,1,8,0:0:0:0:
256,192,92442,1,0,0:0:0:0:
256,192,92596,1,8,0:0:0:0:
256,192,92750,1,0,0:0:0:0:
256,192,93212,1,8,0:0:0:0:
256,96,93519,1,4,0:0:0:0:
256,96,93981,1,4,0:0:0:0:
256,96,94442,1,4,0:0:0:0:
256,96,94904,1,4,0:0:0:0:
256,96,95365,1,4,0:0:0:0:
256,96,95673,1,4,0:0:0:0:
256,96,95981,1,8,0:0:0:0:
256,192,96596,1,0,0:0:0:0:
256,192,96904,1,8,0:0:0:0:
256,192,97058,1,0,0:0:0:0:
256,192,97365,1,0,0:0:0:0:
256,192,97519,1,8,0:0:0:0:
256,192,97673,1,8,0:0:0:0:
256,192,97827,1,0,0:0:0:0:
256,192,98135,1,8,0:0:0:0:
256,192,98442,1,0,0:0:0:0:
256,192,98673,1,8,0:0:0:0:
256,192,98904,1,0,0:0:0:0:
256,192,99058,1,8,0:0:0:0:
256,192,99365,1,0,0:0:0:0:
256,192,99519,1,0,0:0:0:0:
256,192,99827,1,8,0:0:0:0:
256,192,99981,1,8,0:0:0:0:
256,192,100288,1,0,0:0:0:0:
256,192,100442,1,0,0:0:0:0:
256,192,100596,1,8,0:0:0:0:
256,192,100904,1,0,0:0:0:0:
256,192,101212,1,8,0:0:0:0:
256,192,101365,1,0,0:0:0:0:
256,192,101519,1,8,0:0:0:0:
256,192,101673,1,8,0:0:0:0:
256,192,101827,1,0,0:0:0:0:
256,192,102135,1,8,0:0:0:0:
256,192,102442,1,0,0:0:0:0:
256,192,102596,1,0,0:0:0:0:
256,192,102750,1,8,0:0:0:0:
256,192,102904,1,8,0:0:0:0:
256,192,103058,1,0,0:0:0:0:
256,96,103365,1,12,0:0:0:0:
256,192,105827,1,8,0:0:0:0:
256,192,106442,1,0,0:0:0:0:
256,192,107058,1,8,0:0:0:0:
256,192,108288,1,0,0:0:0:0:
256,192,108904,1,0,0:0:0:0:
256,192,109519,1,8,0:0:0:0:
256,192,110135,1,0,0:0:0:0:
256,96,110750,1,12,0:0:0:0:
256,192,111058,1,0,0:0:0:0:
256,192,111365,1,8,0:0:0:0:
256,192,111519,1,0,0:0:0:0:
256,192,111673,1,0,0:0:0:0:
256,96,111827,1,12,0:0:0:0:
256,192,112135,1,0,0:0:0:0:
256,192,112288,1,8,0:0:0:0:
256,192,112596,1,0,0:0:0:0:
256,192,112827,1,8,0:0:0:0:
256,96,113058,1,4,0:0:0:0:
256,192,113365,1,0,0:0:0:0:
256,192,113519,1,8,0:0:0:0:
256,192,113827,1,0,0:0:0:0:
256,192,114058,1,8,0:0:0:0:
256,192,114288,1,0,0:0:0:0:
256,96,114442,1,8,0:0:0:0:
256,192,114673,1,8,0:0:0:0:
256,96,115058,1,4,0:0:0:0:
256,192,115673,1,0,0:0:0:0:
256,192,115981,1,8,0:0:0:0:
256,192,116135,1,0,0:0:0:0:
256,192,116288,1,8,0:0:0:0:
256,192,116442,1,8,0:0:0:0:
256,192,116596,1,0,0:0:0:0:
256,192,116904,1,8,0:0:0:0:
256,192,117212,1,0,0:0:0:0:
256,192,117519,1,8,0:0:0:0:
256,192,117673,1,0,0:0:0:0:
256,192,117827,1,8,0:0:0:0:
256,192,117981,1,8,0:0:0:0:
256,192,118288,1,0,0:0:0:0:
256,192,118442,1,0,0:0:0:0:
256,192,118750,1,8,0:0:0:0:
256,192,118981,1,8,0:0:0:0:
256,192,119212,1,0,0:0:0:0:
256,192,119519,1,8,0:0:0:0:
256,192,119673,1,0,0:0:0:0:
256,192,119827,1,8,0:0:0:0:
256,192,120135,1,0,0:0:0:0:
256,192,120288,1,8,0:0:0:0:
256,192,120596,1,0,0:0:0:0:
256,192,120904,1,8,0:0:0:0:
256,192,121058,1,0,0:0:0:0:
256,192,121212,1,8,0:0:0:0:
256,192,121365,1,8,0:0:0:0:
256,192,121519,1,0,0:0:0:0:
256,192,121827,1,0,0:0:0:0:
256,192,122135,1,8,0:0:0:0:
256,192,122288,1,8,0:0:0:0:
256,192,122596,1,8,0:0:0:0:
256,192,122750,1,8,0:0:0:0:
256,96,122904,1,4,0:0:0:0:
256,192,123058,8,0,125519,0:0:0:0:
